<?xml version="1.0" standalone="no"?>
<!DOCTYPE svg PUBLIC "-//W3C//DTD SVG 1.1//EN" "http://www.w3.org/Graphics/SVG/1.1/DTD/svg11.dtd" >
<svg xmlns="http://www.w3.org/2000/svg">
<metadata></metadata>
<defs>
<font id="capriolaregular" horiz-adv-x="683" >
<font-face units-per-em="2048" ascent="1638" descent="-410" />
<missing-glyph horiz-adv-x="513" />
<glyph horiz-adv-x="0" />
<glyph horiz-adv-x="0" />
<glyph horiz-adv-x="0" />
<glyph horiz-adv-x="0" />
<glyph horiz-adv-x="0" />
<glyph horiz-adv-x="0" />
<glyph horiz-adv-x="0" />
<glyph horiz-adv-x="0" />
<glyph unicode="&#x9;" horiz-adv-x="0" />
<glyph horiz-adv-x="0" />
<glyph horiz-adv-x="0" />
<glyph horiz-adv-x="0" />
<glyph horiz-adv-x="0" />
<glyph horiz-adv-x="0" />
<glyph horiz-adv-x="0" />
<glyph horiz-adv-x="0" />
<glyph horiz-adv-x="0" />
<glyph horiz-adv-x="0" />
<glyph horiz-adv-x="0" />
<glyph unicode=" "  horiz-adv-x="513" />
<glyph unicode="&#x09;" horiz-adv-x="513" />
<glyph unicode="&#xa0;" horiz-adv-x="513" />
<glyph unicode="!" horiz-adv-x="684" d="M307 512q-23 0 -39 18.5t-16 44.5l-51 952q0 26 16.5 44.5t39.5 18.5h170q25 0 40.5 -18.5t14.5 -44.5l-39 -952q0 -26 -16.5 -44.5t-39.5 -18.5h-80zM175 151q0 71 51 123q49 51 121 51q71 0 120 -51q50 -52 50 -123q0 -72 -50 -124t-120 -52q-71 0 -121 52 q-51 52 -51 124z" />
<glyph unicode="&#x22;" horiz-adv-x="851" d="M164.5 1106q-12.5 16 -14.5 39l-47 516q-2 23 11 39t34 16h158q23 0 36.5 -16t11.5 -39l-43 -516q-2 -23 -15.5 -39t-34.5 -16h-64q-20 0 -32.5 16zM563.5 1106q-12.5 16 -14.5 39l-47 516q-2 23 11 39t34 16h158q23 0 36.5 -16t11.5 -39l-43 -516q-2 -23 -15.5 -39 t-34.5 -16h-64q-20 0 -32.5 16z" />
<glyph unicode="#" horiz-adv-x="1362" d="M261 372h-151q-23 0 -38.5 12.5t-15.5 32.5v86q0 20 13.5 34t36.5 14h185l57 343h-181q-23 0 -38.5 12.5t-15.5 32.5v86q0 20 14 34t37 14h214l50 297q8 49 59 49h95q28 0 41.5 -18t9.5 -41l-48 -287h288l50 297q8 49 59 49h95q28 0 41.5 -18t9.5 -41l-48 -287h143 q23 0 39.5 -12.5t16.5 -35.5v-76q0 -25 -14 -40t-37 -15h-178l-57 -343h172q23 0 40 -12.5t17 -35.5v-76q0 -25 -14 -40t-37 -15h-208l-46 -277q-8 -49 -60 -49h-95q-28 0 -41 18t-9 41l44 267h-288l-46 -277q-8 -49 -60 -49h-95q-28 0 -41 18t-9 41zM786 551l57 343h-288 l-57 -343h288z" />
<glyph unicode="$" horiz-adv-x="1024" d="M399 -19q-218 28 -328 135q-16 15 -16 32t14 46l35 71q16 35 52 35q34 0 77 -25.5t73 -38.5q92 -43 166.5 -43t115.5 11.5t70 33.5q61 48 61 137q0 110 -167 185q-48 21 -109 43.5t-129 62.5t-121 94q-119 121 -119 280q0 143 100 243q91 91 236 119v237q0 26 16.5 45 t40.5 19h101q23 0 39 -19t16 -45v-235q124 -20 230 -88q21 -14 39.5 -31t18.5 -33q0 -33 -27 -84q-43 -82 -72 -82q-13 0 -35 14q-125 94 -271 94q-138 0 -182 -87q-15 -30 -15 -72t23 -75t58.5 -58.5t79.5 -45.5l84 -36q173 -71 266 -156q131 -118 131 -278 q0 -155 -101 -266q-93 -102 -237 -134v-237q0 -26 -16.5 -44.5t-40.5 -18.5h-101q-23 0 -39.5 19t-16.5 45v231z" />
<glyph unicode="%" horiz-adv-x="2043" d="M480 802q-85 0 -157 30t-123 84q-106 112 -106 293q0 179 112 293q110 111 278 111q186 0 289 -111q99 -107 99 -293q0 -181 -112 -295q-111 -112 -280 -112zM400 994q36 -18 86.5 -18t86 18t57.5 49q42 59 42 163q0 156 -98 213q-37 21 -90 21t-88.5 -20.5t-57.5 -53.5 q-42 -64 -42 -166q0 -151 104 -206zM1187 388q0 90 30 164.5t83 127.5q109 111 277 111q186 0 289 -111q99 -107 99 -293q0 -181 -113 -295q-110 -112 -275 -112q-176 0 -284 114q-106 112 -106 294zM1399 466.5q-10 -43.5 -10 -88t11 -85t34 -71.5q52 -68 145 -68 q186 0 186 230q0 156 -99 213q-36 21 -89 21t-88.5 -20.5t-57.5 -54t-32 -77zM444 28q-29 19 -29 41.5t11 37.5l1037 1475q21 31 49 31q15 0 28 -8l73 -47q23 -14 23 -37.5t-13 -40.5l-1033 -1475q-26 -34 -41 -34q-25 0 -46 15z" />
<glyph unicode="&#x26;" horiz-adv-x="1361" d="M1124 625q50 -95 50 -198.5t-43.5 -188t-117.5 -144.5q-153 -124 -376 -124q-187 0 -327 86q-161 101 -161 279q0 188 170 302q49 33 103 54q-188 48 -251 211q-22 58 -22 146t43.5 167t113.5 133q143 110 330 110q266 0 423 -122q44 -35 46 -64q0 -20 -10 -33l-61 -87 q-24 -37 -55 -37q-19 0 -40 15.5t-53 36t-68 36.5q-80 35 -146 35t-110.5 -10.5t-79.5 -34.5q-79 -53 -79 -155q0 -108 121 -170q103 -51 230 -51h467q56 0 56 -48v-101q0 -20 -16.5 -31.5t-39.5 -11.5h-97zM432 468q-28 -52 -28 -104.5t20 -84.5t53 -53q68 -45 146 -45 t133.5 19t97.5 56q91 79 91 214q0 94 -45 143q-10 11 -14 17q-11 1 -21 1h-21q-321 0 -412 -163z" />
<glyph unicode="'" horiz-adv-x="511" d="M193.5 1106q-12.5 16 -14.5 39l-47 516q-2 23 11 39t34 16h158q23 0 36.5 -16t11.5 -39l-43 -516q-2 -23 -15.5 -39t-34.5 -16h-64q-20 0 -32.5 16z" />
<glyph unicode="(" horiz-adv-x="854" d="M625 -328q-15 -7 -39 -7t-55 34q-177 204 -275 507q-92 286 -92 587q0 461 214 853q74 135 175 244q22 22 45 22q43 0 73 -28q49 -47 49 -79t-28 -63q-230 -244 -282 -702q-15 -132 -15 -261t19 -260.5t54 -252.5q75 -252 204 -413q40 -48 40 -69t-8 -36.5t-36 -42 t-43 -33.5z" />
<glyph unicode=")" horiz-adv-x="854" d="M228 -328q15 -7 39 -7t55 34q177 204 275 507q92 286 92 587q0 461 -214 853q-74 135 -175 244q-22 22 -45 22q-43 0 -73 -28q-49 -47 -49 -79t28 -63q230 -244 282 -702q15 -132 15 -261t-19 -260.5t-54 -252.5q-75 -252 -204 -413q-40 -48 -40 -69t8 -36.5t36 -42 t43 -33.5z" />
<glyph unicode="*" horiz-adv-x="1363" d="M1193 1470q69 0 69 -67v-72q0 -54 -54 -69q-14 -4 -24.5 -4t-14.5 1l-384 43l243 -311q15 -21 15 -42q0 -40 -37 -64l-67 -41q-12 -8 -31 -8q-47 0 -68 49l-157 359l-154 -363q-21 -49 -68 -49q-21 0 -43 12l-61 34q-33 19 -33 51.5t14 51.5l243 326l-393 -47 q-4 -1 -15 -1t-24 3t-23 10q-25 18 -25 50v89q0 29 21 44.5t43 15.5h8l406 -47l-255 319q-12 15 -12 35q0 45 35 66l63 38q25 14 46 14q44 0 66 -49l157 -364l161 373q16 38 67 38q22 0 67 -24.5t56.5 -41t11.5 -37.5t-16 -43l-242 -330l389 51q5 1 10 1h10z" />
<glyph unicode="+" horiz-adv-x="1363" d="M148 522.5q-16 14.5 -16 34.5v95q0 20 16 34t39 14h394v385q0 23 14.5 39t34.5 16h104q20 0 34 -16t14 -39v-385h393q23 0 39.5 -15t16.5 -38v-84q0 -25 -16.5 -40t-39.5 -15h-393v-391q0 -23 -15 -39.5t-38 -16.5h-93q-25 0 -40 16.5t-15 39.5v391h-394q-23 0 -39 14.5z " />
<glyph unicode="," horiz-adv-x="513" d="M96 100q-11 27 -11 59.5t12.5 63t34.5 53.5q47 49 103 49t89 -17.5t56 -47.5q45 -61 45 -139t-14 -139t-37 -117q-44 -105 -117 -197l-21 -24q-44 -50 -71 -50t-47 17l-36 31q-18 14 -18 32q0 28 27.5 57.5t50.5 67.5t38 73q26 66 31 123q-83 23 -115 105z" />
<glyph unicode="-" horiz-adv-x="1193" d="M253 522.5q-16 14.5 -16 34.5v95q0 20 16 34t39 14h608q23 0 39.5 -14.5t16.5 -34.5v-95q0 -20 -16.5 -34t-39.5 -14h-608q-23 0 -39 14.5z" />
<glyph unicode="." horiz-adv-x="513" d="M86 151q0 71 50 123q50 51 122 51q71 0 120 -51q50 -52 50 -123q0 -72 -50 -124t-120 -52q-71 0 -122 52q-50 52 -50 124z" />
<glyph unicode="/" horiz-adv-x="853" d="M569 1586q10 42 61 42q10 0 15 -1l85 -18q48 -10 48 -57q0 -6 -2 -16l-425 -1624q-10 -42 -58 -42h-9q-3 0 -8 2l-80 22q-46 12 -46 60q0 13 3 24z" />
<glyph unicode="0" horiz-adv-x="1363" d="M121 601q0 138 37 253.5t108 197.5q150 173 415 173q266 0 415 -173q146 -167 146 -453q0 -280 -155 -452t-412 -172q-252 0 -405 176q-149 172 -149 450zM536 218q58 -39 144.5 -39t144.5 35t94 93q68 110 68 290q0 291 -165 391q-59 35 -143.5 35t-142 -35.5 t-92.5 -93.5q-67 -110 -67 -295q0 -277 159 -381z" />
<glyph unicode="1" horiz-adv-x="849" d="M361 940q-63 -38 -128.5 -51t-87.5 -13t-33.5 5t-19.5 13q-10 13 -19.5 47.5t-9.5 60t16.5 41t60.5 24.5q130 27 178 53.5t70.5 42.5t41.5 28q41 25 83 25t67.5 -26t25.5 -74v-1053q0 -26 -16 -44.5t-38 -18.5h-139q-23 0 -37.5 18.5t-14.5 44.5v877z" />
<glyph unicode="2" horiz-adv-x="1194" d="M143 130q0 50 7 63q9 21 48 40.5t100.5 56t126.5 82t128 99.5t113 113q111 129 111 244q0 98 -71 148q-57 39 -113.5 39t-92.5 -9t-68 -27q-72 -40 -99 -110q-23 -63 -75 -63q-11 0 -23 2l-42 7q-65 11 -65 72t19.5 106.5t53.5 82t79 64.5t95 47q100 38 176.5 38 t127.5 -7.5t100 -25t94 -46t79 -70.5q74 -91 74 -227q0 -209 -188 -385q-98 -94 -188 -150l-179 -110l535 12q39 1 49.5 -18.5t10.5 -50.5v-89q0 -34 -17.5 -45.5t-51.5 -11.5h-785q-32 0 -50.5 13t-18.5 48v68z" />
<glyph unicode="3" horiz-adv-x="1194" d="M149 27q33 51 72 31q12 -6 39 -23.5t62.5 -34t71.5 -26.5q65 -17 128 -17t110 12t85 38q86 59 86 165q0 98 -89 152q-84 50 -219 50q-61 0 -89 -5q-35 -6 -46 -6t-22 14t-17 33q-11 35 -11 62.5t8.5 45t36.5 23.5q291 65 367 191q29 47 29 98t-17.5 82.5t-47.5 52.5 q-60 43 -147 43q-69 0 -116 -26q-87 -48 -102 -115q-12 -47 -61.5 -47t-76.5 8.5t-42 21.5q-24 22 -24 68.5t19.5 90t53 78t77.5 60.5t93 43q97 35 189.5 35t171 -22t139.5 -67q136 -100 136 -277q0 -147 -114 -251q-79 -71 -198 -111q159 0 262 -96q99 -93 99 -211.5 t-42.5 -200t-110.5 -137.5q-141 -115 -324 -115q-276 0 -425 123q-48 38 -48 61.5t11 40.5z" />
<glyph unicode="4" horiz-adv-x="1185" d="M1114 295q59 0 59 -53v-54q0 -29 -14 -42.5t-49 -20.5l-145 -29v-271q0 -29 -16.5 -46t-42.5 -17h-119q-28 0 -43 19t-15 49v264h-496q-66 0 -106 36t-40 94q0 40 27 111l66 181q136 382 195 663q16 72 80 72q39 0 116 -24q62 -20 48 -92q-20 -120 -80 -293 q-140 -397 -206 -547h396v375q0 35 24 53t56 18h83q40 0 56.5 -22t16.5 -47v-377h149z" />
<glyph unicode="5" horiz-adv-x="1193" d="M468 596q99 68 251 68q179 0 299 -114q130 -123 130 -331q0 -219 -150 -351q-148 -131 -393 -131q-188 0 -332 78q-60 32 -120 95q-30 31 5 81l41 59q24 37 48.5 37t35 -9.5t25.5 -20.5q122 -103 314 -103q114 0 191 66q83 70 83 197q0 114 -77 187q-70 67 -161 67 q-126 0 -208 -69q-38 -32 -84 -32q-12 0 -23.5 2.5t-30.5 5t-34 6t-24 10.5q-15 13 -15 50v645q0 60 15 78q23 31 79 31h657q34 0 51.5 -9t17.5 -43v-97q0 -37 -7 -47q-13 -19 -56 -19h-528v-387z" />
<glyph unicode="6" horiz-adv-x="1193" d="M616 -25q-124 0 -222.5 46.5t-165.5 134.5q-133 175 -133 500q0 213 31 331.5t72.5 197.5t108.5 138q145 128 392 128q121 0 243 -49q75 -29 100 -58t25 -51.5t-20 -52.5l-23 -34q-36 -54 -64 -55t-64 27q-76 59 -230 59q-175 0 -262 -151q-72 -125 -77 -336 q88 115 268 144q47 7 112.5 7t146 -28t138.5 -83q125 -115 125 -314q0 -206 -128 -348q-138 -153 -373 -153zM882 452q0 237 -266 237q-81 0 -146 -33q-109 -54 -135 -100v-2q0 -184 85 -280q77 -88 207 -88q108 0 179 69q76 74 76 197z" />
<glyph unicode="7" horiz-adv-x="1021" d="M148 974q-98 0 -98 85v74q0 32 11 49.5t50 17.5h755q37 0 59 -27.5t22 -64t-25 -115.5q-124 -368 -145 -425l-32 -90q-149 -399 -273 -569q-124 -172 -211 -172q-39 0 -66 33l-45 52q-19 21 -19 44q0 38 42.5 69t87 81.5t88.5 121.5q89 142 170 371l79 221q44 123 72 244 h-522z" />
<glyph unicode="8" horiz-adv-x="1193" d="M136 201.5q-43 74.5 -43 159.5t21 144t56 106q61 84 172 144q5 3 8.5 4.5t3.5 5.5t-20.5 14.5t-59 36t-70.5 61.5q-72 83 -72 198q0 194 158 293q130 83 310 83q196 0 323 -91q140 -99 140 -270q0 -192 -142 -304q-40 -31 -65.5 -43t-25.5 -15.5t33 -15t79 -42t81 -72.5 q78 -92 78 -196t-43 -181.5t-114 -132.5q-146 -113 -342 -113q-209 0 -352 101q-71 51 -114 125.5zM640 817q188 80 188 238q0 88 -68 141q-62 48 -158 48q-153 0 -212 -108q-20 -35 -20 -78.5t20.5 -78t57.5 -64.5q69 -57 192 -98zM327 399q0 -54 23 -95.5t62 -67.5 q75 -51 195 -51q173 0 235 119q21 39 21 91.5t-29.5 94.5t-77.5 73q-78 51 -225 91q-74 -16 -134 -82q-70 -77 -70 -173z" />
<glyph unicode="9" horiz-adv-x="1193" d="M147 8q24 36 46 36t51.5 -19.5t60.5 -33t63 -22.5q68 -19 140.5 -19t137.5 33.5t107 90.5q78 106 89 296q-89 -65 -246 -88q-46 -6 -113.5 -6t-149.5 33t-143 95q-132 133 -132 351q0 206 150 339q145 130 359 130q400 0 485 -424q27 -132 27 -254.5t-11 -212t-37.5 -175 t-70.5 -162.5t-110 -135q-143 -126 -365 -126q-142 0 -277 67q-119 58 -119 107q0 16 11 31zM835 564q0 449 -282 449q-113 0 -185 -71q-74 -75 -74 -190q0 -191 152 -251q51 -20 118 -20q169 0 271 83z" />
<glyph unicode=":" horiz-adv-x="511" d="M79 151q0 71 50 123q50 51 122 51q71 0 120 -51q50 -52 50 -123q0 -72 -50 -124t-120 -52q-71 0 -122 52q-50 52 -50 124zM79 936q0 71 50 123q50 51 122 51q71 0 120 -51q50 -52 50 -123q0 -72 -50 -124t-120 -52q-71 0 -122 52q-50 52 -50 124z" />
<glyph unicode=";" horiz-adv-x="513" d="M78 936q0 71 50 123q50 51 122 51q71 0 120 -51q50 -52 50 -123q0 -72 -50 -124t-120 -52q-71 0 -122 52q-50 52 -50 124zM99 100q-11 27 -11 59.5t12.5 63t34.5 53.5q47 49 103 49t89 -17.5t56 -47.5q45 -61 45 -139t-14 -139t-37 -117q-44 -105 -117 -197l-21 -24 q-44 -50 -71 -50t-47 17l-36 31q-18 14 -18 32q0 28 27.5 57.5t50.5 67.5t38 73q26 66 31 123q-83 23 -115 105z" />
<glyph unicode="&#x3c;" horiz-adv-x="1364" d="M219 475q-70 30 -70 109q0 78 74 112l822 371q24 11 43 11q40 0 54 -38l24 -61q8 -21 8 -39q0 -43 -47 -63l-698 -289l681 -281q48 -21 50 -64q0 -13 -7 -30l-26 -62q-19 -43 -56 -43q-19 0 -43 11z" />
<glyph unicode="=" horiz-adv-x="1363" d="M212 726q-23 0 -39 14.5t-16 34.5v100q0 20 16 34t39 14h938q23 0 39.5 -15t16.5 -38v-89q0 -25 -16.5 -40t-39.5 -15h-938zM212 276q-23 0 -39 14.5t-16 34.5v100q0 20 16 34t39 14h938q23 0 39.5 -15t16.5 -38v-89q0 -25 -16.5 -40t-39.5 -15h-938z" />
<glyph unicode="&#x3e;" horiz-adv-x="1364" d="M1144 475q70 30 70 109q0 78 -74 112l-822 371q-24 11 -43 11q-40 0 -54 -38l-24 -61q-8 -21 -8 -39q0 -43 47 -63l698 -289l-681 -281q-48 -21 -50 -64q0 -13 7 -30l26 -62q19 -43 56 -43q19 0 43 11z" />
<glyph unicode="?" horiz-adv-x="1199" d="M242 1103q-108 0 -108 121q0 179 127 285q125 104 322 104q238 0 365 -131q117 -121 117 -330q0 -214 -161 -396q-140 -156 -355 -246q-16 -7 -26.5 -7t-19 3t-18.5 13q-24 24 -40 61t-16 57.5t23 40t60 42.5q114 71 162.5 122.5t73 91t38.5 76.5q26 66 26 124.5t-13 105 t-41 83.5q-64 84 -170 84q-221 0 -221 -217q0 -46 -7 -60q-14 -27 -55 -27h-63zM383 151q0 71 51 123q49 51 121 51q71 0 120 -51q50 -52 50 -123q0 -72 -50 -124t-120 -52q-71 0 -121 52q-51 52 -51 124z" />
<glyph unicode="@" horiz-adv-x="1701" d="M1339 737q4 28 4 79.5t-30.5 111t-86.5 99.5q-113 82 -304 82q-227 0 -396 -149q-196 -173 -196 -485q0 -324 211 -507q126 -111 307 -142q56 -10 120.5 -10t120 7.5t96 18t68.5 23.5t48 23l35 18q16 8 30 8q26 0 45 -38l33 -67q9 -20 9 -34q0 -22 -30 -41t-68 -37 t-94 -35q-138 -42 -255 -42t-198 14t-157 41q-332 118 -463 433q-68 162 -68 332t32 284.5t87.5 207t131.5 163t163 117.5q176 96 376 96q294 0 464 -128q175 -132 175 -363q0 -108 -40 -232l29 -81q66 -184 66 -311q0 -53 -52 -53h-97q-39 0 -47 15.5t-9 28t-3 30.5 q-7 49 -18 106q-78 -143 -246 -189q-58 -16 -129 -16t-142 23.5t-127 69.5q-123 104 -123 273q0 187 133 283q110 79 289.5 79t305.5 -106zM875.5 557q-17.5 -30 -17.5 -70.5t14.5 -72t41.5 -52.5q54 -43 122.5 -43t112.5 16t76 41q69 54 69 114q-6 75 -82 118 q-70 40 -164 40q-73 0 -114 -30.5t-58.5 -60.5z" />
<glyph unicode="A" horiz-adv-x="1536" d="M83 18.5q-15 18.5 -15 32t3 21.5l505 1358q34 89 109 100q26 3 62 3h17q68 0 94 -17q42 -26 65 -83l543 -1362q3 -8 3 -22.5t-12 -31.5t-40 -17h-140q-46 0 -64 43l-124 325h-657l-115 -325q-14 -43 -61 -43h-129q-29 0 -44 18.5zM1005 584l-239 650q-3 10 -12 10 t-12 -10l-232 -650h495z" />
<glyph unicode="B" horiz-adv-x="1521" d="M238 1447q0 59 42 79q14 7 35 7h465q196 0 334 -83q168 -99 168 -303q0 -139 -80 -232q-72 -82 -184 -104v-4q153 -7 254 -89q115 -96 115 -258q0 -236 -173 -355q-151 -105 -410 -105h-489q-41 0 -59 25.5t-18 60.5v1361zM486 881q152 0 243 6q154 9 226 68.5t72 166.5 t-76.5 153.5t-228.5 46.5h-236v-441zM802 213q220 0 292 125q27 46 27 108t-17 99t-46 63t-68 41.5t-82 24.5q-75 14 -150 14q-94 0 -199 -5l-73 -3l1 -467h315z" />
<glyph unicode="C" horiz-adv-x="1362" d="M1314 1208q0 -124 -110 -124h-69q-32 0 -49.5 23.5t-20 65t-25.5 76t-59 55.5q-67 39 -178 39t-193 -46.5t-132 -124.5q-96 -146 -96 -390q0 -439 286 -552q88 -34 172 -34q152 0 268 55l56 26q27 12 48 12t34 -10t32.5 -47.5t19.5 -65t-19 -54t-47 -46.5 q-49 -32 -118 -53q-126 -38 -294.5 -38t-301 61t-222.5 169q-185 220 -185 577q0 352 187 562q191 216 526 216q184 0 326 -82q164 -94 164 -270z" />
<glyph unicode="D" horiz-adv-x="1533" d="M238 1446q0 35 23.5 61t65.5 26h317q396 0 596 -196q190 -188 190 -537q0 -373 -213.5 -586.5t-590.5 -213.5h-299q-42 0 -65.5 26.5t-23.5 61.5v1358zM674 1313h-50q-33 0 -135 -3v-1089l163 -3h6q387 0 476 334q29 108 29 239.5t-31.5 227t-93.5 161.5 q-125 133 -364 133z" />
<glyph unicode="E" horiz-adv-x="1362" d="M234 1469q0 26 16.5 45t39.5 19h879q26 0 39.5 -16.5t13.5 -40.5v-108q0 -23 -13.5 -39.5t-39.5 -16.5h-684v-438h544q26 0 39.5 -16.5t13.5 -40.5v-108q0 -23 -13.5 -39.5t-39.5 -16.5h-544v-432h689q26 0 39.5 -16.5t13.5 -40.5v-108q0 -23 -13.5 -39.5t-39.5 -16.5 h-885q-23 0 -39 19t-16 45v1405z" />
<glyph unicode="F" horiz-adv-x="1190" d="M236 1469q0 26 16.5 45t39.5 19h812q26 0 39.5 -16.5t13.5 -40.5v-109q0 -23 -13.5 -39.5t-39.5 -16.5h-617v-497h497q26 0 39.5 -17t13.5 -40v-108q0 -23 -13.5 -39.5t-39.5 -16.5h-498v-529q0 -26 -16.5 -45t-39.5 -19h-139q-23 0 -39 19t-16 45v1405z" />
<glyph unicode="G" horiz-adv-x="1533" d="M189.5 443q-50.5 150 -50.5 335t52.5 329t146.5 244q196 207 520 207q263 0 418 -124q66 -54 97.5 -116t31.5 -95.5t-1.5 -53.5t-11.5 -39q-25 -45 -94 -45h-86q-30 0 -39 17q-11 20 -15 53.5t-19.5 64.5t-50.5 58q-82 63 -216.5 63t-217.5 -42.5t-138 -117.5 q-108 -149 -108 -398t98 -405q114 -179 335 -179q239 0 295 129q17 37 17 72.5t-10 70.5t-35 67q-56 76 -167 103q-32 8 -57.5 30.5t-25.5 63.5v35q0 20 16 34.5t39 14.5h468q56 0 56 -49v-109q0 -20 -16.5 -32t-39.5 -12h-146q111 -50 149 -167q14 -43 14 -87.5t-12 -85.5 t-39 -83t-70.5 -81.5t-106.5 -70.5q-139 -67 -317 -67t-305 55t-217.5 159t-141 254z" />
<glyph unicode="H" horiz-adv-x="1699" d="M226 1469q0 26 16.5 45t39.5 19h140q23 0 39 -19t16 -45v-598h745v598q0 26 16.5 45t39.5 19h140q23 0 39 -19t16 -45v-1404q0 -26 -16.5 -45t-39.5 -19h-140q-23 0 -39 19t-16 45v585h-745v-586q0 -26 -16.5 -45t-39.5 -19h-140q-23 0 -39 19t-16 45v1405z" />
<glyph unicode="I" d="M216 1469q0 26 16.5 45t39.5 19h140q23 0 39 -19t16 -45v-1405q0 -26 -16.5 -45t-39.5 -19h-140q-23 0 -39 19t-16 45v1405z" />
<glyph unicode="J" horiz-adv-x="850" d="M242 181q176 0 176 287v1001q0 26 15 45t38 19h144q22 0 37 -19t15 -45v-1056q0 -222 -109 -336q-98 -103 -269 -103q-107 0 -162 22.5t-75.5 43t-20.5 42t5 37.5l9 30q20 65 52 65q9 0 22 -5l31 -11q46 -17 92 -17z" />
<glyph unicode="K" horiz-adv-x="1364" d="M1269 212l40 2q44 0 55 -39q6 -23 12 -43.5t6 -46t-15 -43.5t-39 -31q-159 -86 -346 71q-153 127 -331 421l-140 240q25 49 57 105q136 227 218 336q167 222 275 315q46 40 72 40q47 0 86 -31l33 -25q71 -53 36 -98q-18 -24 -45 -46t-51 -46q-92 -94 -142 -150 q-120 -140 -167 -199l-79 -104q-33 -46 -55 -82l93 -138l65 -92q208 -288 323 -312q19 -4 39 -4zM216 1469q0 26 16.5 45t39.5 19h140q23 0 39 -19t16 -45v-1405q0 -26 -16.5 -45t-39.5 -19h-140q-23 0 -39 19t-16 45v1405z" />
<glyph unicode="L" horiz-adv-x="1195" d="M239 1469q0 26 16.5 45t39.5 19h140q23 0 39 -19t16 -45v-1246h542q26 0 39.5 -16.5t13.5 -40.5v-110q0 -23 -13.5 -39.5t-39.5 -16.5h-738q-23 0 -39 19t-16 45v1405z" />
<glyph unicode="M" horiz-adv-x="2039" d="M1912 50q0 -50 -35 -50h-166q-19 0 -33 12t-16 30l-69 598q-13 113 -19.5 223t-14.5 230l-10 142q0 4 -2.5 4t-3.5 -3l-45 -164q-14 -50 -31 -100l-312 -849q-5 -15 -20 -28t-30 -13h-157q-31 0 -50 40q-347 813 -369.5 869.5t-39.5 107.5l-45 138q-1 3 -3.5 3t-3.5 -4 v-162q0 -212 -17 -433l-45 -599q-2 -16 -18.5 -29t-34.5 -13h-138q-24 0 -39.5 21t-12.5 51l120 1316q7 83 20 105q23 40 84 40h108q49 0 68 -13q35 -23 61 -87l431 -1050l377 1051q33 99 112 99h113q88 0 103 -81q4 -26 8 -56l173 -1325q2 -10 2 -21z" />
<glyph unicode="N" horiz-adv-x="1701" d="M241 1409q0 124 108 124h41q41 0 57 -10q30 -18 56 -57l644 -948q37 -54 58 -99l41 -86q1 -2 3.5 -2t0.5 26t-10 75.5t-8 98.5v941q0 26 15.5 43.5t37.5 17.5h132q21 0 36.5 -17.5t15.5 -43.5v-1372q0 -40 -25 -62q-42 -38 -76 -38h-61q-50 0 -73 16q-34 26 -84 98 q-571 835 -612 902l-83 139q-2 3 -5.5 3t-0.5 -15t8.5 -50.5t10.5 -78.5q10 -100 10 -186v-767q0 -25 -15.5 -43t-37.5 -18h-132q-21 0 -36.5 18t-15.5 43v1348z" />
<glyph unicode="O" horiz-adv-x="1709" d="M137.5 569.5q-22.5 101.5 -22.5 240t53.5 281.5t151.5 247q207 220 536 220q350 0 549 -225q189 -213 189 -556q0 -340 -208 -569q-98 -108 -235 -170.5t-277.5 -62.5t-239.5 29.5t-180.5 83t-144.5 127.5t-106 163.5t-65.5 191zM386 784q0 -115 27.5 -218t84.5 -184 q126 -177 355 -177q230 0 355 169q115 156 115 404q0 234 -117 386q-129 165 -352 165q-215 0 -342 -154q-126 -151 -126 -391z" />
<glyph unicode="P" horiz-adv-x="1360" d="M480 62q0 -62 -68 -62h-118q-35 0 -50 19t-15 43v1383q0 35 18.5 61.5t60.5 26.5h396q280 0 434 -134q161 -139 161 -397q0 -260 -181 -416q-172 -149 -435 -149q-83 0 -203 15v-390zM480 662l80 -9q36 -4 98 -4t134 19t126 61q119 91 119 272q0 229 -203 295 q-63 20 -141 20h-213v-654z" />
<glyph unicode="Q" horiz-adv-x="1703" d="M1502.5 -78q52.5 9 111 9t58.5 -67q0 -18 -9 -62t-20 -63.5t-29 -30.5q-31 -21 -90 -21t-118 5t-125 18t-135 34.5t-137 53.5q-149 72 -248 182q-296 31 -476 264q-170 221 -170 535q0 341 205 559q207 220 536 220q350 0 549 -225q189 -213 189 -556q0 -296 -149 -504 q-157 -219 -424 -262q189 -98 371 -98q58 0 110.5 9zM386 782q0 -117 27.5 -222t84.5 -186q126 -179 355 -179q230 0 356 171q114 155 114 412q0 234 -117 386q-129 165 -352 165q-215 0 -342 -154q-126 -151 -126 -393z" />
<glyph unicode="R" horiz-adv-x="1533" d="M1259 215l103 14q28 0 39.5 -19t17 -40.5t10.5 -38.5t5 -37t-19.5 -40.5t-49.5 -36.5q-64 -34 -133.5 -34t-125.5 16t-106 44q-78 44 -159.5 124t-129.5 137l-165 204q-35 42 -63 68v-513q0 -40 -27 -57q-10 -6 -23 -6h-143q-27 0 -38 16q-18 26 -18 47v1382 q0 35 18.5 61.5t60.5 26.5h446q595 0 595 -470q0 -216 -160 -363q-151 -139 -356 -139q-36 0 -69 5l123 -130q106 -111 165 -150q106 -71 202 -71zM483 767q113 -26 204.5 -26t163.5 17t128 54q124 80 124 237q0 141 -107 209q-90 57 -244 57h-269v-548z" />
<glyph unicode="S" horiz-adv-x="1194" d="M139 242q29 49 39 60q20 24 40.5 24t43.5 -13t61.5 -32.5t82.5 -36.5q98 -37 171.5 -37t119.5 13t79 39q68 55 68 154q0 125 -189 213q-54 25 -121.5 50.5t-142 68.5t-133.5 101q-131 130 -131 306q0 187 153 300q143 106 337 106q216 0 355 -94q76 -50 76 -93 q0 -23 -27 -74t-43.5 -69t-30.5 -18q-25 0 -65.5 27t-115.5 59t-142 32t-107.5 -11t-70.5 -33q-62 -47 -62 -137q0 -130 178 -206l97 -40q195 -75 296 -166q139 -126 139 -309q0 -204 -154 -332q-142 -119 -333 -119q-245 0 -417 101q-80 46 -80 81.5t29 84.5z" />
<glyph unicode="T" horiz-adv-x="1192" d="M468 1315h-361q-26 0 -44.5 16.5t-18.5 40.5v105q0 23 18.5 39.5t44.5 16.5h988q26 0 39.5 -16.5t13.5 -40.5v-105q0 -23 -14 -39.5t-40 -16.5h-374v-1251q0 -26 -16.5 -45t-39.5 -19h-141q-23 0 -39 19t-16 45v1251z" />
<glyph unicode="U" horiz-adv-x="1529" d="M762 198q363 0 363 413v858q0 26 16.5 45t39.5 19h137q23 0 39 -19t16 -45v-856q0 -308 -180 -481q-165 -158 -430 -158q-266 0 -433 164q-175 171 -175 475v856q0 26 16.5 45t39.5 19h137q23 0 39 -19t16 -45v-858q0 -207 101 -313q93 -100 258 -100z" />
<glyph unicode="V" horiz-adv-x="1364" d="M29 1456q-4 10 -4 26.5t11.5 33.5t34.5 17h171q20 0 34.5 -13.5t19.5 -31.5l381 -1252q2 -5 12.5 -5t13.5 6l109 291q185 518 258 939q10 66 75 66h111q37 0 55.5 -17.5t18.5 -33.5v-22q0 -127 -128 -523q-32 -99 -68 -197q-97 -265 -137 -360l-69 -164 q-49 -110 -67.5 -143t-36.5 -46q-36 -27 -113 -27h-53q-76 0 -103 17q-46 29 -69 94z" />
<glyph unicode="W" horiz-adv-x="2213" d="M102 1429q-4 16 -4 41t15.5 44t43.5 19h143q48 0 61 -61l164 -730q3 -16 11 -54q80 -392 85 -421l7 -39q1 -9 9 -9q16 0 25 23q52 133 88 279l72 291q34 144 62 287.5t62 291.5q22 97 123 97h100q93 0 124 -97q65 -217 87 -303l216 -864q3 -16 16 -16q12 0 21.5 26.5 t26 79.5t34.5 118l35 136q57 232 76 376.5t25.5 201.5t9.5 102q6 71 6 128t2 79t10 39q19 39 74 39h91q73 0 83 -66q4 -21 4 -47t-2 -71.5t-8 -104.5q-35 -387 -199 -895q-79 -245 -135 -304q-42 -45 -116 -45h-79q-147 0 -191 175l-256 1021q-1 5 -6 5t-5 -5l-55 -298 q-72 -413 -187 -728q-37 -104 -61 -128q-42 -42 -125 -42h-80q-75 0 -116 38.5t-63 127.5z" />
<glyph unicode="X" horiz-adv-x="1363" d="M95 14q-12 14 -12 35t13 41l431 691l-449 662q-14 20 -14 40.5t12.5 35t34.5 14.5h153q36 0 51.5 -16t25.5 -32l327 -522l309 522q24 48 75 48h149q22 0 34.5 -14t12.5 -34.5t-12 -39.5l-421 -658l476 -697q13 -20 13 -40.5t-12 -35t-34 -14.5h-155q-34 0 -49.5 16 t-25.5 32l-354 546l-330 -546q-10 -16 -25.5 -32t-51.5 -16h-138q-22 0 -34 14z" />
<glyph unicode="Y" horiz-adv-x="1355" d="M569 515l-544 937q-9 15 -9 33t13 33t33 15h161q41 0 57 -27q4 -8 9 -16l399 -731q4 -9 7.5 -9t59.5 90.5t147 267.5t167 365q12 30 28 45t48 15h155q24 0 36 -16.5t12 -37t-8 -38.5q-259 -535 -522 -911v-466q0 -27 -16.5 -45.5t-39.5 -18.5h-138q-23 0 -39 19t-16 45 v451z" />
<glyph unicode="Z" horiz-adv-x="1193" d="M992 1533q102 0 102 -87v-47q0 -45 -15 -76.5t-35 -62.5l-605 -933l-73 -93q-13 -18 -13 -24t11.5 -6t27.5 3l36 7q52 9 80 9h536q38 0 59 -12.5t21 -53.5v-104q0 -39 -41 -50q-11 -3 -20 -3h-881q-57 0 -88 48q-11 16 -15.5 44t-4.5 64q0 47 34 103l606 940l80 106 q6 7 6 12t-13 5l-146 -10h-465q-44 0 -57 12q-24 20 -24 64v95q0 29 15.5 39.5t50.5 10.5h831z" />
<glyph unicode="[" horiz-adv-x="854" d="M207 1833q0 26 16.5 45t39.5 19h390q26 0 45 -16.5t19 -39.5v-67q0 -23 -19 -39t-45 -16h-236v-1863h236q26 0 45 -16.5t19 -39.5v-66q0 -23 -19 -39t-45 -16h-391q-23 0 -39 19t-16 45v2090z" />
<glyph unicode="\" horiz-adv-x="853" d="M274 1586q-10 42 -61 42q-10 0 -15 -1l-85 -18q-48 -10 -48 -57q0 -6 2 -16l425 -1624q10 -42 58 -42h9q3 0 8 2l80 22q46 12 46 60q0 13 -3 24z" />
<glyph unicode="]" horiz-adv-x="854" d="M646 1833q0 26 -16.5 45t-39.5 19h-390q-26 0 -45 -16.5t-19 -39.5v-67q0 -23 19 -39t45 -16h236v-1863h-236q-26 0 -45 -16.5t-19 -39.5v-66q0 -23 19 -39t45 -16h391q23 0 39 19t16 45v2090z" />
<glyph unicode="^" horiz-adv-x="1022" d="M79 535q-38 14 -38 41.5t9 50.5l335 852q20 50 67 54q13 1 24 1h52q53 0 72.5 -18t28.5 -40l342 -849q10 -25 10 -41q0 -36 -35 -48l-78 -29q-17 -7 -34 -7q-39 0 -55 44l-270 731l-270 -729q-16 -46 -56 -46q-16 0 -27 5z" />
<glyph unicode="_" horiz-adv-x="1533" d="M1536 -170q23 0 39.5 -14.5t16.5 -34.5v-95q0 -20 -16.5 -34t-39.5 -14h-1539q-23 0 -39 14.5t-16 34.5v95q0 20 16 34t39 14h1539z" />
<glyph unicode="`" horiz-adv-x="687" d="M54 1510q-37 23 -38.5 51.5t10.5 43.5l75 95q17 22 37 22q37 0 62 -23l309 -281q20 -18 20 -31.5t-7 -23.5l-49 -68q-9 -14 -26 -14t-30 8z" />
<glyph unicode="a" horiz-adv-x="1195" d="M1091 53q0 -53 -52 -53h-97q-39 0 -47 15.5t-9 28t-4 30.5q-6 49 -17 106q-78 -143 -245 -189q-59 -16 -130 -16t-142 23.5t-126 69.5q-124 104 -124 273q0 185 136 283q112 79 288 79t298 -103q3 34 3 85t-20 102t-57 85q-76 67 -212 67q-122 0 -248 -67 q-24 -13 -42 -13q-27 0 -52 53q-27 54 -27 78q0 44 66 85q126 78 337 78q192 0 318 -105q149 -126 149 -356q0 -102 -33 -257q85 -242 89 -382zM362.5 417q-17.5 -30 -17.5 -70.5t14.5 -72t40.5 -52.5q55 -43 123.5 -43t112.5 16t76 41q69 54 69 114q-6 75 -83 118 q-69 40 -163 40q-73 0 -114 -30.5t-58.5 -60.5z" />
<glyph unicode="b" horiz-adv-x="1365" d="M263 0q-60 0 -60 77v1631q0 27 15 46t38 19h136q23 0 38.5 -19t15.5 -46v-731q128 176 366 176q218 0 334 -161q105 -146 105 -389q0 -284 -137 -457q-135 -170 -342 -170q-112 0 -207.5 50.5t-154.5 154.5q-2 -31 -5.5 -61t-4.5 -58q-4 -62 -81 -62h-56zM453 713.5 q-22 -68.5 -22 -143t22 -144t61 -124.5q86 -120 213 -120q142 0 213 124q58 103 58 266q0 269 -138 346q-48 27 -117 27t-127 -30t-99.5 -81.5t-63.5 -120z" />
<glyph unicode="c" horiz-adv-x="1193" d="M935 683q-82 0 -82 81q0 93 -57 142q-49 43 -131.5 43t-136.5 -34t-88 -87q-66 -104 -66 -250q0 -273 166 -358q60 -31 133 -31t120 16t84 35t64.5 35t45.5 16q36 0 57 -33l22 -37q15 -26 15 -50.5t-20 -51t-53.5 -48.5t-76.5 -40t-89 -31q-220 -59 -402 18 q-204 86 -281 308q-38 110 -38 246t40.5 244t112.5 183q149 154 389 154q212 0 325 -111q95 -95 95 -238q0 -121 -124 -121h-24z" />
<glyph unicode="d" horiz-adv-x="1364" d="M931 987v723q0 26 15.5 44.5t38.5 18.5h139q23 0 38 -18.5t15 -44.5v-1282q0 -202 32 -335q3 -14 3 -35.5t-18.5 -39.5t-47.5 -18h-49q-59 0 -79 48q-26 61 -43 161q-77 -163 -259 -217q-60 -17 -149.5 -17t-178 46t-150.5 125q-127 164 -127 408q0 252 123 418 q133 181 355 181t342 -166zM367 547q0 -68 16.5 -133t50.5 -116q76 -116 210 -116q122 0 214 106q98 110 98 260q0 182 -95 292q-91 105 -224 105q-139 0 -211 -131q-59 -110 -59 -267z" />
<glyph unicode="e" horiz-adv-x="1195" d="M352 509l-1 -19q0 -137 87 -220q91 -88 247 -88q142 0 264 85q23 16 41 16q37 0 56 -37l27 -56q9 -20 9 -43t-20.5 -47.5t-53.5 -44.5t-76.5 -35t-89.5 -25q-92 -20 -192 -20t-201.5 38t-175.5 111q-159 155 -159 419q0 463 326 576q102 35 209.5 35t183 -23t130.5 -68 q116 -95 116 -265q0 -167 -136 -255q-119 -77 -314 -77q-120 0 -277 43zM844 801q0 143 -192 143q-183 0 -256 -134q-26 -47 -34 -116q86 -43 219 -43q263 0 263 150z" />
<glyph unicode="f" horiz-adv-x="851" d="M826 976q0 -56 -63 -56h-244v-849q0 -32 -18 -51.5t-50 -19.5h-98q-35 0 -54 19.5t-19 51.5v849h-141q-63 0 -63 57v56q0 23 12.5 34.5t46.5 21.5l149 24q-51 134 -59.5 198.5t-8.5 123t26 122.5t76 113q112 110 298 110q147 0 253 -63q59 -36 59 -64.5t-18 -53.5 l-48 -68q-20 -27 -37.5 -27t-33.5 10t-38 22q-59 32 -136 32q-169 0 -169 -213q0 -103 46 -227h269q63 0 63 -55v-97z" />
<glyph unicode="g" horiz-adv-x="1193" d="M459 107q94 46 199.5 46t188 -19.5t148.5 -61.5q148 -94 148 -263q0 -176 -168 -283q-149 -94 -358 -94q-213 0 -355 92q-153 100 -153 272q0 209 221 404q86 75 190 135q-163 15 -278 115q-129 113 -129 281q0 193 145 313q133 109 317 109q198 0 311 -107 q35 -33 56 -75q0 92 -23.5 190.5t-23.5 117.5t7.5 30.5t17.5 17.5q15 9 34 9h86q83 0 83 -231q0 -185 -74 -341q2 -22 2 -58t-16 -84t-42.5 -89.5t-61 -76.5t-73 -65t-77.5 -55q-219 -139 -262 -173.5t-60 -55.5zM492.5 526.5q45.5 -15.5 97 -15.5t94.5 15.5t76 45.5 q70 63 70 162q0 101 -78 159q-69 51 -170 51q-160 0 -221 -119q-20 -39 -20 -90.5t19 -92.5t53 -70.5t79.5 -45zM365 -78q-37 -42 -37 -93t25 -87t66 -60q79 -45 198 -45q188 0 262 93q24 31 24 78t-29.5 80t-73.5 51q-73 30 -190 30q-180 0 -245 -47z" />
<glyph unicode="h" horiz-adv-x="1364" d="M214 1710q0 27 15.5 45t37.5 18h137q23 0 38 -18t15 -45v-757q86 146 253 187q53 13 134.5 13t152.5 -35.5t113 -97.5q75 -113 75 -333v-621q0 -30 -18 -48t-53 -18h-98q-38 0 -56 19t-18 47v622q0 256 -188 256q-105 0 -198 -92q-99 -100 -99 -230v-556q0 -28 -17 -47 t-55 -19h-109q-29 0 -45.5 19t-16.5 47v1644z" />
<glyph unicode="i" d="M306 1321q-68 0 -116 47q-48 46 -48 116q0 68 48 116q46 46 116 46q107 0 150 -98q13 -29 13 -64q0 -70 -48 -116q-48 -47 -115 -47zM423 275q0 -71 47 -71q16 0 36 9q39 17 53 17q21 0 34 -29l31 -70q8 -17 8 -32q0 -43 -74 -80q-70 -36 -138.5 -36t-109.5 15t-70 50 q-58 72 -58 234v780q0 28 16 47t38 19h134q23 0 38 -19t15 -47v-787z" />
<glyph unicode="j" d="M349 1321q-68 0 -116 47q-48 46 -48 116q0 68 48 116q46 46 116 46q107 0 150 -98q13 -29 13 -64q0 -70 -48 -116q-48 -47 -115 -47zM127 -360q103 0 103 189v1233q0 29 15 47.5t38 18.5h137q22 0 38 -18.5t16 -47.5v-1193q0 -212 -86 -327q-82 -110 -223 -110 q-117 0 -186 52q-37 31 -37 64q0 16 12.5 58.5t24 60.5t30 18t31.5 -7t26 -16q36 -22 61 -22z" />
<glyph unicode="k" horiz-adv-x="1196" d="M1025 204l84 16q35 0 44 -47l14 -72q1 -5 1 -21.5t-12.5 -35.5t-33.5 -32q-46 -29 -117 -29q-141 0 -235 137q-17 23 -38 60l-138 244l-60 -82q-123 -173 -148 -277q-7 -27 -19.5 -46t-43.5 -19h-80q-22 0 -37.5 18.5t-15.5 46.5v1645q0 27 15.5 45t37.5 18h138 q23 0 38 -18t15 -45l3 -843q0 -110 -17.5 -255t-22.5 -190v-4q0 -8 4 -8q9 0 24 26q199 361 499 689q29 31 54 31q38 0 68 -32l45 -50q33 -40 33 -59q2 -34 -26 -60l-180 -177q-92 -94 -175 -197l75 -129q142 -248 207 -248z" />
<glyph unicode="l" d="M428 275q0 -71 50 -71q16 0 41 9q46 17 56 17q23 0 36 -29l31 -71q6 -15 6 -28q0 -23 -38 -56q-76 -63 -199 -63q-224 0 -224 299v1426q0 27 16 46t38 19h134q23 0 38 -19t15 -46v-1433z" />
<glyph unicode="m" horiz-adv-x="2043" d="M800 1153q252 0 319 -225q100 161 265 210q56 16 141 16t164.5 -42t118 -109.5t49 -148.5t10.5 -174v-614q0 -28 -18 -47t-53 -19h-98q-38 0 -56 19t-18 47v623q0 129 -44.5 192t-140.5 63q-109 0 -191 -96q-88 -100 -88 -248v-534q0 -28 -18 -47t-53 -19h-98 q-38 0 -56 19t-18 47v623q0 129 -44.5 192t-140.5 63q-109 0 -192 -96q-87 -100 -87 -248v-534q0 -28 -17 -47t-52 -19h-103q-35 0 -53 19t-18 47v614q0 201 -13 280.5t-13 95.5q0 72 69 72h55q56 0 76 -42q24 -51 46 -158q87 157 252 208q56 17 118 17z" />
<glyph unicode="n" horiz-adv-x="1364" d="M184 1056q0 72 69 72h55q56 0 76 -42q28 -60 48 -158q90 164 268 210q56 15 139.5 15t154.5 -35.5t112 -97.5q76 -113 76 -333v-621q0 -28 -18 -47t-53 -19h-98q-38 0 -56 19t-18 47v622q0 256 -188 256q-110 0 -201 -92q-97 -99 -97 -230v-556q0 -28 -17 -47t-52 -19 h-103q-35 0 -53 19t-18 47v614q0 201 -13 280.5t-13 95.5z" />
<glyph unicode="o" horiz-adv-x="1366" d="M120 568q0 130 43.5 238.5t119.5 185.5q159 161 401 161q271 0 420 -161q144 -155 144 -426q0 -262 -163 -428q-159 -163 -401 -163q-255 0 -410 167q-154 163 -154 426zM387 696.5q-17 -70.5 -17 -143t19.5 -139t58.5 -118.5q86 -114 240 -114q157 0 238 112 q72 98 72 267q0 253 -166 349q-61 35 -147.5 35t-146 -33.5t-97 -89t-54.5 -126z" />
<glyph unicode="p" horiz-adv-x="1365" d="M434 173q10 -100 10 -250v-413q0 -74 -59 -74h-124q-63 0 -63 78v1107q0 281 -30 410q-3 13 -3 36t18.5 42t47.5 19h61q55 0 78 -48q27 -56 41 -145q70 122 191 178q86 40 195.5 40t195.5 -42.5t143 -116.5q113 -147 113 -394q0 -258 -127 -436q-134 -189 -351 -189 q-226 0 -337 198zM421 528q0 -144 96 -248q91 -98 206 -98q145 0 215 141q56 112 56 283q0 138 -66 234q-71 104 -189 104q-133 0 -227 -110q-91 -108 -91 -251v-55z" />
<glyph unicode="q" horiz-adv-x="1365" d="M1104 1128q63 0 63 -78v-1548q0 -26 -15 -46t-38 -20h-139q-23 0 -38.5 20t-15.5 46v420q0 81 11 257q-80 -144 -241 -189q-54 -15 -139 -15t-170.5 48.5t-143.5 130.5q-119 166 -119 422q0 242 141 410q140 167 330 167q124 0 209.5 -49t148.5 -146l24 96l9 33 q8 28 24.5 34.5t36.5 6.5h62zM642 182q66 0 121 32t95 86q84 116 84 270q0 166 -94 272q-90 102 -215 102q-124 0 -194 -114q-63 -102 -63 -260q0 -162 65 -268q73 -120 201 -120z" />
<glyph unicode="r" horiz-adv-x="853" d="M159 1056q0 72 63 72h54q55 0 78 -48q33 -70 48 -193q0 -2 1.5 -2t6.5 34t29 83.5t59 83.5q71 67 174 67q115 0 160 -38q21 -17 17 -47l-16 -126q-6 -51 -52 -51q-22 0 -54 9q-62 16 -98 16t-76 -31.5t-69 -78.5q-59 -98 -59 -209v-531q0 -28 -16 -47t-46 -19h-116 q-32 0 -48.5 19t-16.5 47v689q0 176 -11.5 232.5t-11.5 68.5z" />
<glyph unicode="s" horiz-adv-x="1024" d="M497 180q192 0 192 129q0 71 -109 120q-46 21 -100.5 39t-104.5 43t-93.5 54.5t-75.5 67.5q-66 80 -66 203q0 150 125 238q111 79 273 79q174 0 291 -68q40 -24 40 -55q0 -44 -23.5 -96.5t-55 -52.5t-57 13t-46 22.5t-43.5 15.5q-50 15 -92.5 15t-68.5 -6t-47 -19 q-51 -31 -51 -76t20.5 -69t56.5 -44t86 -40l108 -45q131 -57 177 -103q90 -92 90 -213q0 -152 -104 -250q-115 -107 -327 -107q-215 0 -323 83q-53 40 -53 72t11.5 57.5t30 60t50 34.5t67 -28.5t97.5 -51t125 -22.5z" />
<glyph unicode="t" horiz-adv-x="851" d="M795 976q0 -56 -63 -56h-282v-628q0 -102 101 -102q64 0 167 64q20 13 43.5 13t37.5 -33l23 -52q13 -30 13 -51t-31.5 -48.5t-80.5 -49.5q-111 -50 -201 -50t-142.5 18.5t-89.5 55.5q-80 78 -80 225v638h-84q-63 0 -63 57v57q0 23 12 36t47 20l100 29l38 235q11 66 54 66 h83q23 0 38 -18.5t15 -47.5v-226h282q63 0 63 -55v-97z" />
<glyph unicode="u" horiz-adv-x="1364" d="M1195 68q0 -68 -62 -68h-45q-60 0 -79 48q-21 55 -45 153q-42 -105 -142.5 -165.5t-250.5 -60.5q-196 0 -289 122.5t-93 361.5v603q0 28 17.5 47t49.5 19h110q66 0 66 -66v-592q0 -239 111 -276q36 -12 85.5 -12t102 23t94.5 61q94 87 94 199v597q0 28 17 47t54 19h105 q35 0 51 -19t16 -47v-625q0 -211 30 -340q3 -11 3 -29z" />
<glyph unicode="v" horiz-adv-x="1196" d="M1106 1060q-12 -170 -90 -440q-110 -385 -246 -549q-47 -55 -95 -69t-97 -14t-85 11t-60 34q-40 39 -72 146q-66 220 -137 430l-145 418q-8 24 -8 41q0 60 78 60h91q35 0 56.5 -15.5t36.5 -59.5q130 -386 221 -781q11 -51 44 -51q26 0 48 42q108 201 174 601 q18 105 26.5 161t17 69t19.5 20q20 14 44 14h115q64 0 64 -68z" />
<glyph unicode="w" horiz-adv-x="1871" d="M1696 1128q65 0 65 -60q-2 -241 -98 -569q-75 -257 -193 -409q-79 -102 -172.5 -102t-143.5 45t-70 131q-54 225 -76 307l-38 139q-16 57 -25 86q-2 -9 -5.5 -27t-8.5 -39l-21 -87q-59 -212 -91.5 -285t-55.5 -113.5t-54 -75.5q-72 -81 -158 -81q-180 0 -224 191 q-51 215 -115 426l-133 422q-7 20 -7 40q0 61 68 61h118q60 0 82 -75q59 -205 102 -403l86 -394q9 -37 28 -37q21 0 40.5 39t42 95.5t43.5 121t41 134t37 139.5q34 139 55 260l7 42q12 60 105 60q61 0 81 -8q38 -17 63 -83.5t54 -163.5t56 -200q67 -265 99 -408 q7 -29 21 -29q19 0 48 52.5t60 145.5t54 200q47 216 53 446q0 51 44 63q11 3 21 3h115z" />
<glyph unicode="x" horiz-adv-x="1023" d="M42.5 24q-17.5 24 -17.5 45q0 40 29.5 68t70.5 77.5t81 105.5l79 114l75 115l-323 476q-11 17 -11 31.5t6.5 27.5t16.5 22q23 22 50 22h90q75 0 116 -79q173 -308 200 -351l109 213q62 118 92.5 157.5t54 49.5t50.5 10h90q33 0 53.5 -22t20.5 -49q0 -53 -42 -94t-80 -87 l-75 -96q-38 -50 -74 -103l-68 -103l340 -471q12 -18 12 -41t-18.5 -42.5t-44.5 -19.5h-111q-59 0 -90 38q-13 16 -30 47l-146 259l-44 74l-112 -216l-48 -86q-68 -116 -160 -116h-90q-34 0 -51.5 24z" />
<glyph unicode="y" horiz-adv-x="1193" d="M1046 1128q64 0 64 -63q0 -73 -76 -323l-62 -191q-219 -628 -543 -1034l-20 -25q-46 -59 -94 -59q-51 0 -118 71q-19 20 -19 46q0 42 45 88.5t83 93t72 93.5q62 85 112 179q-156 421 -189 504l-109 271l-77 175q-43 100 -43 121.5t18.5 37t52.5 15.5h126q44 0 68 -50 q18 -37 49 -122q63 -184 92 -273l81 -265q12 -40 18 -64l9 -36q3 -12 7 -30l9 -38q5 -20 11 -20t13.5 12t15.5 31l17 42q104 267 197 748q12 65 75 65h115z" />
<glyph unicode="z" horiz-adv-x="1023" d="M395 196l121 10h368q23 0 39.5 -14.5t16.5 -35.5v-72q0 -52 -17 -64q-26 -20 -83 -20h-655q-64 0 -89 62q-9 21 -9 50q0 44 57 127l394 566l82 110q6 7 6 12t-13 5l-146 -10h-285q-48 0 -62 14q-24 24 -24 78v65q0 20 16 34.5t39 14.5h680q41 0 59 -24q30 -37 30 -71.5 t-7 -55.5t-17 -39t-22 -34t-21 -30l-367 -554l-94 -110q-4 -5 -4 -9.5t7 -4.5z" />
<glyph unicode="{" horiz-adv-x="1024" d="M311 630q-71 0 -71 104v78q0 48 14.5 78t48.5 30t57 8.5t39 22.5q36 32 36 80t-6.5 97.5t-14.5 100.5q-21 136 -21 230.5t24 181t76 148.5q109 128 326 128q49 0 63 -54l14 -54q2 -10 2 -23t-10.5 -24.5t-24.5 -16.5t-28.5 -6.5t-53 -5.5t-77.5 -24t-59 -54 q-29 -53 -29 -155t5.5 -161.5t11.5 -117.5l12 -112q5 -55 5 -101.5t-23.5 -83t-57.5 -63.5q-72 -57 -142 -57q-20 0 -20 -31t20 -31q71 0 142 -53q81 -61 81 -141q0 -49 -5 -105l-12 -114q-17 -166 -17 -231.5t5 -117.5t26 -89q43 -79 170 -79q81 0 81 -57q0 -6 -2 -16 l-14 -63q-11 -54 -71 -54q-418 23 -418 468q0 84 14 179q28 180 28 225t-9 65.5t-25 36.5q-36 34 -90 34z" />
<glyph unicode="|" d="M235 1813q0 26 16.5 45t39.5 19h102q23 0 39 -19t16 -45v-2073q0 -26 -16.5 -45t-39.5 -19h-102q-23 0 -39 19t-16 45v2073z" />
<glyph unicode="}" horiz-adv-x="1024" d="M712 909q71 0 71 -104v-78q0 -48 -14.5 -78t-48.5 -30t-57 -8.5t-39 -22.5q-36 -32 -36 -80t6.5 -97.5t14.5 -100.5q21 -136 21 -230.5t-24 -181t-76 -148.5q-109 -128 -326 -128q-49 0 -63 54l-14 54q-2 10 -2 23t10.5 24.5t24.5 16.5t28.5 6.5t53 5.5t77.5 24t59 54 q29 53 29 155t-5.5 161.5t-11.5 117.5l-12 112q-5 55 -5 101.5t23.5 83t57.5 63.5q72 57 142 57q20 0 20 31t-20 31q-71 0 -142 53q-81 61 -81 141q0 49 5 105l12 114q17 166 17 231.5t-5 117.5t-26 89q-43 79 -170 79q-81 0 -81 57q0 6 2 16l14 63q11 54 71 54 q418 -23 418 -468q0 -84 -14 -179q-28 -180 -28 -225t9 -65.5t25 -36.5q36 -34 90 -34z" />
<glyph unicode="~" horiz-adv-x="1707" d="M266 473q-20 17 -20 33q0 28 11 48q74 148 197 212q85 45 162.5 45t121.5 -12.5t83 -31.5t73 -41l68 -40q76 -44 136 -44q108 0 238 165q24 32 46 32t39 -14l46 -37q19 -15 19 -38.5t-7.5 -39.5t-10.5 -23q-74 -146 -196 -211q-88 -47 -163 -47t-118.5 12.5t-81.5 31.5 t-72.5 41t-67.5 41q-76 44 -136 44q-121 0 -239 -153q-22 -28 -37 -28q-30 0 -52 19z" />
<glyph unicode="&#xa1;" horiz-adv-x="684" d="M384 573q23 0 39 -18.5t16 -44.5l51 -952q0 -26 -16.5 -44.5t-39.5 -18.5h-170q-25 0 -40.5 18.5t-14.5 44.5l39 952q0 26 16.5 44.5t39.5 18.5h80zM516 934q0 -71 -51 -123q-49 -51 -121 -51q-71 0 -120 51q-50 52 -50 123q0 72 50 124t120 52q71 0 121 -52 q51 -52 51 -124z" />
<glyph unicode="&#xa2;" horiz-adv-x="1193" d="M945 683q-92 0 -92 81q0 93 -57 142q-49 43 -128 43t-132 -32t-88 -84q-72 -105 -72 -255q0 -167 79 -272q84 -112 231 -112q112 0 245 82q25 16 43 16q39 0 60 -39l25 -46q9 -16 9 -44.5t-29 -60t-75 -55.5q-88 -47 -211 -65v-233q0 -26 -16.5 -44.5t-40.5 -18.5h-101 q-23 0 -39.5 19t-16.5 45v240q-188 42 -303 202q-115 159 -115 388q0 220 117 372q114 147 302 188v262q0 26 16.5 45t40.5 19h101q23 0 39 -19t16 -45v-255q166 -22 255 -127q75 -90 75 -216q0 -70 -15 -90q-23 -31 -76 -31h-47z" />
<glyph unicode="&#xa3;" horiz-adv-x="1019" d="M511 555q-7 -167 -85 -339h495q31 0 47 -13.5t16 -56.5v-79q0 -32 -12.5 -49.5t-50.5 -17.5h-685q-36 0 -56 21q-35 37 -35 65q0 46 21 78q126 196 128 391h-128q-23 0 -39 14.5t-16 34.5v94q0 20 16 34t39 14h93q-14 39 -29.5 77.5t-29.5 78.5q-31 93 -31 166t24.5 140 t78.5 121q122 122 352 122q132 0 244 -63q94 -51 94 -99q0 -36 -26 -73q-49 -66 -86 -66q-20 0 -37 13t-37 27t-44.5 24t-46.5 15q-35 8 -82 8t-85.5 -15.5t-63.5 -42.5q-48 -52 -48 -140t61 -236q14 -34 21 -57h286q23 0 39.5 -14.5t16.5 -34.5v-94q0 -20 -16.5 -34 t-39.5 -14h-263z" />
<glyph unicode="&#xa4;" horiz-adv-x="1193" d="M790 259q-89 -49 -194 -49t-200 55l-162 -160q-19 -19 -38.5 -19t-35.5 16l-76 78q-14 16 -14 34.5t18 36.5l167 166q-41 85 -41 183.5t49 186.5l-176 177q-18 18 -18 37t15 36l78 79q14 14 28 14q22 0 44 -20l177 -177q86 47 185.5 47t179.5 -41l172 174q19 19 39 19 t32 -13l82 -84q12 -14 12 -32.5t-18 -36.5l-166 -168q55 -93 55 -200.5t-46 -190.5l158 -158q15 -17 15 -36t-16 -35l-79 -79q-12 -12 -31 -12t-38 19zM399 596q0 -45 15.5 -82t42.5 -64q58 -56 143 -56q83 0 141 56q58 57 58 146q0 88 -58 144q-57 56 -141 56 q-86 0 -143 -56q-58 -56 -58 -144z" />
<glyph unicode="&#xa5;" horiz-adv-x="1363" d="M164 322.5q-11 9.5 -11 23.5v106q0 14 11 23t26 9h373l-106 182h-297q-15 0 -26 9.5t-11 23.5v106q0 14 11 23t26 9h196l-298 508q-9 15 -9 32.5t13 33.5t30 16h153q41 0 57 -27q4 -8 9 -16l377 -705q4 -9 7 -9t33 48t76.5 133.5t89 172t82.5 176.5l78 184q18 43 69 43 h139q22 0 35.5 -15.5t13.5 -27.5q0 -19 -8 -37l-129 -265q-63 -124 -134 -245h158q15 0 26 -9t11 -23v-107q0 -13 -11 -22.5t-26 -9.5h-262l-122 -182h354q15 0 26 -9t11 -23v-107q0 -13 -11 -22.5t-26 -9.5h-350v-249q0 -27 -16.5 -45.5t-39.5 -18.5h-138q-23 0 -39 19 t-16 45v249h-379q-15 0 -26 9.5z" />
<glyph unicode="&#xa6;" d="M290 928q-23 0 -39 19t-16 45v821q0 26 16.5 45t39.5 19h102q23 0 39 -19t16 -45v-821q0 -26 -16.5 -45t-39.5 -19h-102zM235 579q0 26 16.5 45t39.5 19h102q23 0 39 -19t16 -45v-829q0 -26 -16.5 -45t-39.5 -19h-102q-23 0 -39 19t-16 45v829z" />
<glyph unicode="&#xa7;" horiz-adv-x="1363" d="M391 1060q-169 159 -169 336q0 182 148 298q136 108 331 108q142 0 289 -61q90 -37 118.5 -68.5t28.5 -43.5t-1.5 -18.5t-6.5 -19t-15 -31.5l-25 -51q-23 -47 -53 -47q-16 0 -42 16t-61.5 35t-74.5 33q-86 33 -149 33t-105 -11.5t-73 -34.5q-66 -49 -66 -142 q0 -135 195 -224q53 -24 116.5 -49t142 -64.5t141.5 -95.5q140 -124 140 -307q0 -190 -133 -315q-41 -38 -90 -66q72 -69 98 -113q51 -84 51 -180.5t-42.5 -180t-111.5 -140.5q-141 -119 -331 -119q-211 0 -383 81q-109 51 -109 109q0 12 6 26l43 91q16 34 54 34 q16 0 39 -13t61.5 -32.5t82.5 -36.5q101 -39 176.5 -39t122.5 14t80 42q70 59 70 161q0 121 -202 206l-115 46q-284 112 -381 310q-36 75 -36 153t17.5 132t49.5 99q62 87 174 140zM793 378q65 14 115 90q53 80 53 152.5t-30 114.5t-79 75q-75 51 -235 109l-52 19 q-118 -33 -161 -146q-16 -41 -16 -92t23 -88.5t59.5 -67t82.5 -52.5z" />
<glyph unicode="&#xa8;" horiz-adv-x="1040" d="M769 1317q-61 0 -105 45q-44 43 -44 108q0 99 91 139q27 12 58 12q61 0 105 -44t44 -91.5t-12 -75.5t-32 -48q-43 -45 -105 -45zM273 1317q-61 0 -105 45q-44 43 -44 108q0 99 91 139q27 12 58 12q61 0 105 -44t44 -91.5t-12 -75.5t-32 -48q-43 -45 -105 -45z" />
<glyph unicode="&#xa9;" horiz-adv-x="1704" d="M145.5 459.5q-60.5 140.5 -60.5 307t60.5 307t165 243t244.5 160t272 57.5t230 -26t183 -74.5t155 -117t120 -154.5q105 -179 105 -395q0 -217 -105 -397q-100 -171 -275 -270q-176 -101 -360.5 -101t-324.5 57.5t-244.5 160t-165 243zM268 766q0 -129 45.5 -237 t124.5 -186q169 -165 416 -165q246 0 413 165q170 168 170 424q0 255 -170 423q-167 165 -413 165q-247 0 -416 -165q-170 -167 -170 -424zM1038 834q-66 0 -66 64q0 59 -30.5 83.5t-74 24.5t-75 -19.5t-52.5 -50.5q-44 -64 -44 -134.5t12 -113t36 -74.5q52 -69 139 -69 q54 0 95 21.5t58.5 31.5t32.5 10q31 0 49 -30q24 -48 24 -70.5t-28 -48t-69 -43.5q-84 -37 -169 -37t-152 29.5t-115 82.5q-102 113 -102 290q0 170 103 277q101 104 258 104q144 0 218 -76q65 -65 65 -158.5t-92 -93.5h-21z" />
<glyph unicode="&#xaa;" horiz-adv-x="1195" d="M735 744q-98 -144 -293 -144q-130 0 -222 76q-101 83 -101 223q0 155 109 234q91 65 232 65t235 -75q1 8 1 21v17q0 104 -58.5 154.5t-143 50.5t-129.5 -16.5t-66 -27.5q-39 -19 -55 -19t-30.5 17.5t-23.5 39.5q-18 42 -18 67.5t35 51t86 43.5q103 35 197 35t164 -25 t122 -73q109 -102 109 -280q0 -75 -26 -203q67 -168 67 -307q0 -52 -52 -52h-73q-48 0 -53 33q-1 10 -2 27q-3 31 -11 67zM375.5 811q41.5 -32 92.5 -32t84.5 12t59.5 31q52 37 56 83q-12 51 -70 85q-56 33 -101 33t-70 -7.5t-46 -22.5q-47 -34 -47 -92t41.5 -90z" />
<glyph unicode="&#xab;" horiz-adv-x="1534" d="M193 482q-36 36 -36 78.5t38 80.5l392 393q30 30 55.5 30t45.5 -18l71 -68q19 -19 19 -39q0 -38 -26 -62l-327 -315l319 -312q21 -21 21 -38q0 -34 -24 -58l-63 -69q-17 -19 -45 -19t-44 18zM791 482q-36 36 -36 78.5t38 80.5l392 393q30 30 55.5 30t45.5 -18l71 -68 q19 -19 19 -39q0 -38 -26 -62l-327 -315l319 -312q21 -21 21 -38q0 -34 -24 -58l-63 -69q-17 -19 -45 -19t-44 18z" />
<glyph unicode="&#xac;" horiz-adv-x="1533" d="M148 687.5q-16 14.5 -16 34.5v90q0 20 16 34t39 14h1085q23 0 39.5 -15t16.5 -38v-517q0 -23 -15 -39.5t-38 -16.5h-83q-25 0 -40 16.5t-15 39.5v383h-950q-23 0 -39 14.5z" />
<glyph unicode="&#xad;" horiz-adv-x="1707" />
<glyph unicode="&#xae;" horiz-adv-x="1704" d="M145.5 459.5q-60.5 140.5 -60.5 307t60.5 307t165 243t244.5 160t272 57.5t230 -26t183 -74.5t155 -117t120 -154.5q105 -179 105 -395q0 -217 -105 -397q-100 -171 -275 -270q-176 -101 -360.5 -101t-324.5 57.5t-244.5 160t-165 243zM268 766q0 -129 45.5 -237 t124.5 -186q169 -165 416 -165q246 0 413 165q170 168 170 424q0 255 -170 423q-167 165 -413 165q-247 0 -416 -165q-170 -167 -170 -424zM1076 379q-186 0 -342 289v-230q0 -16 -12.5 -33t-43.5 -17h-47q-43 0 -55 34q-3 9 -3 16v653q0 64 58 64h229q220 0 288 -135 q24 -47 24 -107t-21.5 -105t-57.5 -78q-77 -71 -183 -71h-11q-5 0 -11 1q94 -117 194 -117l59 7q33 0 45 -73q2 -16 2 -22q0 -31 -31.5 -53.5t-80.5 -22.5zM992 902q0 106 -152 106h-106v-221q16 -2 38 -7.5t57.5 -5.5t64.5 6.5t50 21.5q48 33 48 100z" />
<glyph unicode="&#xaf;" d="M52 1381.5q-13 10.5 -13 27.5v130q0 16 13 26.5t30 10.5h518q18 0 31 -10.5t13 -27.5v-130q0 -16 -13 -26.5t-31 -10.5h-518q-17 0 -30 10.5z" />
<glyph unicode="&#xb0;" horiz-adv-x="853" d="M426 911q-77 0 -145.5 29.5t-119.5 80.5q-110 110 -110 269q0 158 110 268q109 109 265 109q154 0 263 -109q110 -110 110 -268q0 -159 -110 -269t-263 -110zM426 1103q36 0 68.5 14t57.5 39q52 54 52 134q0 78 -52 132q-52 53 -126 53q-76 0 -128 -53q-52 -54 -52 -132 q0 -80 52 -134q52 -53 128 -53z" />
<glyph unicode="&#xb1;" horiz-adv-x="1363" d="M581 684h-394q-23 0 -39 14.5t-16 34.5v95q0 20 16 34t39 14h394v290q0 23 14.5 39t34.5 16h104q20 0 34 -16t14 -39v-290h393q23 0 39.5 -15t16.5 -38v-84q0 -25 -16.5 -40t-39.5 -15h-393v-303q0 -23 -15 -39.5t-38 -16.5h-93q-25 0 -40 16.5t-15 39.5v303zM148 19.5 q-16 14.5 -16 34.5v95q0 20 16 34t39 14h988q23 0 39.5 -15t16.5 -38v-84q0 -25 -16.5 -40t-39.5 -15h-988q-23 0 -39 14.5z" />
<glyph unicode="&#xb2;" horiz-adv-x="1019" d="M176 854q-57 0 -57 50v76q0 55 13 65.5t39 23.5t75.5 43.5t102 68.5t103 81.5t90.5 89.5q88 105 88 185q0 82 -56 121q-45 31 -91.5 31t-75 -7t-53.5 -22q-53 -30 -70.5 -76t-33.5 -56t-34 -10q-116 0 -116 74q0 124 124 202q112 71 250 71q234 0 331 -161 q36 -60 36 -137t-21 -133.5t-55.5 -105.5t-78.5 -91t-91 -77.5t-93 -63.5l-84 -52l-30 -16l436 16q32 2 41 -14.5t9 -42.5v-86q0 -28 -14.5 -37.5t-42.5 -9.5h-641z" />
<glyph unicode="&#xb3;" horiz-adv-x="1020" d="M822 1603q0 -155 -180 -226q99 -13 163 -83q60 -65 60 -151.5t-35.5 -146t-91.5 -96.5q-107 -70 -270 -70q-143 0 -252 46q-61 25 -94 71q-11 16 -11 32t9 30l29 43q22 38 46.5 38t46.5 -17t49.5 -28.5t58.5 -19.5q62 -16 111 -16t82.5 8t58.5 25q54 37 54 104 q0 61 -65 96q-57 30 -134 30h-42q-23 0 -31 12.5t-10 37.5l-1 68q-3 36 32 40q203 30 203 150q0 53 -50 83q-42 26 -97 26q-126 0 -202 -91q-32 -44 -97 28q-10 11 -22 22t-12 36q0 39 41 75.5t76 53.5t73 28q79 23 144 23t128 -12.5t114 -43.5q118 -69 118 -205z" />
<glyph unicode="&#xb4;" horiz-adv-x="687" d="M286 1289q-13 -8 -30 -8t-26 14l-49 68q-7 10 -7 23.5t20 31.5l309 281q25 23 47 23q35 0 52 -22l75 -95q12 -15 11 -31q-1 -41 -39 -64z" />
<glyph unicode="&#xb5;" horiz-adv-x="1364" d="M414 41l21 -513q4 -70 -59 -70h-124q-63 0 -63 74v1530q0 28 17.5 47t49.5 19h110q66 0 66 -66v-592q0 -238 118 -276q37 -12 84.5 -12t98.5 23t93 61q93 87 93 199v597q0 28 17 47t54 19h105q35 0 51 -19t16 -47v-625q0 -211 30 -340q3 -11 3 -29q0 -68 -62 -68h-45 q-60 0 -79 48q-21 55 -45 153q-39 -98 -138 -162q-98 -63 -206 -63t-206 65z" />
<glyph unicode="&#xb6;" horiz-adv-x="1536" d="M1096 1479q0 23 14 38.5t34 15.5h115q19 0 32.5 -15.5t13.5 -38.5v-1425q0 -22 -13.5 -38t-33.5 -16h-115q-20 0 -33.5 16t-13.5 38v1425zM832 1533q79 0 79 -71v-1412q0 -20 -12 -35t-40 -15h-103q-31 0 -42.5 16t-11.5 34v607q-217 0 -354 117q-139 119 -139 312 q0 197 142 324q138 123 352 123h129z" />
<glyph unicode="&#xb7;" horiz-adv-x="513" d="M86 597q0 71 50 123q50 51 122 51q71 0 120 -51q50 -52 50 -123q0 -72 -50 -124t-120 -52q-71 0 -122 52q-50 52 -50 124z" />
<glyph unicode="&#xb8;" horiz-adv-x="507" d="M11 46h92l65 -48q146 -109 146 -249q0 -98 -70 -161q-75 -65 -200 -65q-82 0 -134 22q-93 39 -93 87q0 11 4 20t11 28q19 49 47 49q12 0 27 -5l33 -10q51 -16 87.5 -16t65.5 27t29 67.5t-17 72.5t-40 59t-47 49t-39 37z" />
<glyph unicode="&#xb9;" horiz-adv-x="679" d="M305 872.5q-14 17.5 -14 43.5v634l5 73q-64 -32 -120.5 -43.5t-74.5 -11.5t-29 4.5t-18 13.5q-11 14 -18 44t-7 47q0 38 61 52q136 31 233 97q25 17 45 27.5t54 10.5t56.5 -23.5t22.5 -65.5v-859q0 -26 -15.5 -43.5t-37.5 -17.5h-106q-23 0 -37 17.5z" />
<glyph unicode="&#xba;" horiz-adv-x="1023" d="M509 600q-194 0 -310 134q-114 132 -114 344q0 219 111 347q114 132 317 132q204 0 319 -132q111 -129 111 -347q0 -214 -119 -346t-315 -132zM411 809q41 -27 101.5 -27t101.5 24.5t66 65.5q48 79 48 204q0 205 -116 275q-41 25 -100.5 25t-100 -25t-65.5 -66 q-46 -75 -46 -207q0 -196 111 -269z" />
<glyph unicode="&#xbb;" horiz-adv-x="1534" d="M734 666q36 -36 36 -78.5t-38 -80.5l-392 -393q-30 -30 -55.5 -30t-45.5 18l-71 68q-19 19 -19 39q0 38 26 62l327 315l-319 312q-21 21 -21 38q0 34 24 58l63 69q17 19 45 19t44 -18zM1348 666q36 -36 36 -78.5t-38 -80.5l-392 -393q-30 -30 -55.5 -30t-45.5 18l-71 68 q-19 19 -19 39q0 38 26 62l327 315l-319 312q-21 21 -21 38q0 34 24 58l63 69q17 19 45 19t44 -18z" />
<glyph unicode="&#xbc;" horiz-adv-x="2213" d="M1214 381l470 565q51 58 94 64q13 1 26 1h33q50 0 68 -13q35 -25 35 -98v-534l86 -16q30 -5 41 -17t11 -35v-45q0 -21 -12.5 -37.5t-45.5 -16.5h-81v-140q0 -25 -16 -42t-36 -17h-92q-21 0 -35 17t-14 43v138h-476q-31 0 -53 20q-38 37 -38 80.5t35 82.5zM1748 376v316 l1 82l-55 -76l-274 -322h328zM425 641.5q-14 17.5 -14 43.5v634l5 73q-64 -32 -120.5 -43.5t-74.5 -11.5t-29 4.5t-18 13.5q-11 14 -18 44t-7 47q0 38 61 52q136 31 233 97q25 17 45 27.5t54 10.5t56.5 -23.5t22.5 -65.5v-859q0 -26 -15.5 -43.5t-37.5 -17.5h-106 q-23 0 -37 17.5zM453 28q-29 19 -29 41.5t11 37.5l1037 1475q21 31 49 31q15 0 28 -8l73 -47q23 -14 23 -37.5t-13 -40.5l-1033 -1475q-25 -34 -41 -34q-25 0 -46 15z" />
<glyph unicode="&#xbd;" horiz-adv-x="2381" d="M425 642.5q-14 17.5 -14 43.5v634l5 73q-64 -32 -120.5 -43.5t-74.5 -11.5t-29 4.5t-18 13.5q-11 14 -18 44t-7 47q0 38 61 52q136 31 233 97q25 17 45 27.5t54 10.5t56.5 -23.5t22.5 -65.5v-859q0 -26 -15.5 -43.5t-37.5 -17.5h-106q-23 0 -37 17.5zM1383 0 q-57 0 -57 50v76q0 55 13 65.5t39 23.5t75.5 43.5t102 68.5t103 81.5t90.5 89.5q88 105 88 185q0 82 -56 121q-45 31 -91.5 31t-75 -7t-53.5 -22q-53 -30 -70.5 -76t-33.5 -56t-34 -10q-116 0 -116 74q0 124 124 202q112 71 250 71q234 0 331 -161q36 -60 36 -137 t-21 -133.5t-55.5 -105.5t-78.5 -91t-91 -77.5t-93 -63.5l-84 -52l-30 -16l436 16q32 2 41 -14.5t9 -42.5v-86q0 -28 -14.5 -37.5t-42.5 -9.5h-641zM433 28q-29 19 -29 41.5t11 37.5l1037 1475q21 31 49 31q15 0 28 -8l73 -47q23 -14 23 -37.5t-13 -40.5l-1033 -1475 q-25 -34 -41 -34q-25 0 -46 15z" />
<glyph unicode="&#xbe;" horiz-adv-x="2383" d="M1374 381l470 565q51 58 94 64q13 1 26 1h33q50 0 68 -13q35 -25 35 -98v-534l86 -16q30 -5 41 -17t11 -35v-45q0 -21 -12.5 -37.5t-45.5 -16.5h-81v-140q0 -25 -16 -42t-36 -17h-92q-21 0 -35 17t-14 43v138h-476q-31 0 -53 20q-38 37 -38 80.5t35 82.5zM1908 376v316 l1 82l-55 -76l-274 -322h328zM822 1372q0 -155 -180 -226q99 -13 163 -82q60 -66 60 -152.5t-35.5 -146t-91.5 -96.5q-107 -70 -270 -70q-143 0 -252 46q-61 25 -94 71q-11 16 -11 32t9 30l29 43q22 38 46.5 38t46.5 -17t49.5 -28.5t58.5 -19.5q62 -16 111 -16t82.5 8 t58.5 25q54 37 54 104q0 61 -65 95q-57 31 -134 31h-42q-23 0 -31 12.5t-10 37.5l-1 68q-3 36 32 40q203 30 203 150q0 53 -50 83q-42 26 -97 26q-126 0 -202 -91q-32 -44 -97 29q-10 10 -22 21t-12 37q0 38 41 74.5t76 53.5t73 28q79 23 144 23t128 -12.5t114 -42.5 q118 -70 118 -206zM611 28q-29 19 -29 41.5t11 37.5l1037 1475q21 31 49 31q15 0 28 -8l73 -47q23 -14 23 -37.5t-13 -40.5l-1033 -1475q-25 -34 -41 -34q-25 0 -46 15z" />
<glyph unicode="&#xbf;" horiz-adv-x="1199" d="M956 -18q108 0 108 -121q0 -179 -127 -285q-125 -104 -322 -104q-238 0 -365 131q-117 121 -117 330q0 214 161 396q140 156 355 246q16 7 26.5 7t19 -3t18.5 -13q24 -24 40 -61t16 -57.5t-23 -40t-60 -42.5q-114 -71 -162.5 -122.5t-73 -91t-38.5 -76.5 q-26 -66 -26 -124.5t13 -105t41 -83.5q64 -84 170 -84q221 0 221 217q0 46 7 60q14 27 55 27h63zM815 934q0 -71 -51 -123q-49 -51 -121 -51q-71 0 -120 51q-50 52 -50 123q0 72 50 124t120 52q71 0 121 -52q51 -52 51 -124z" />
<glyph unicode="&#xc0;" horiz-adv-x="1536" d="M83 18.5q-15 18.5 -15 32t3 21.5l505 1358q34 89 109 100q26 3 62 3h17q68 0 94 -17q42 -26 65 -83l543 -1362q3 -8 3 -22.5t-12 -31.5t-40 -17h-140q-46 0 -64 43l-124 325h-657l-115 -325q-14 -43 -61 -43h-129q-29 0 -44 18.5zM1005 584l-239 650q-3 10 -12 10 t-12 -10l-232 -650h495zM415 1769q-43 15 -43 52q0 14 8 30l54 115q11 26 41.5 26t54.5 -16l367 -211q30 -17 15 -47l-31 -67q-17 -34 -57 -20z" />
<glyph unicode="&#xc1;" horiz-adv-x="1536" d="M83 18.5q-15 18.5 -15 32t3 21.5l505 1358q34 89 109 100q26 3 62 3h17q68 0 94 -17q42 -26 65 -83l543 -1362q3 -8 3 -22.5t-12 -31.5t-40 -17h-140q-46 0 -64 43l-124 325h-657l-115 -325q-14 -43 -61 -43h-129q-29 0 -44 18.5zM1005 584l-239 650q-3 10 -12 10 t-12 -10l-232 -650h495zM650 1631q-40 -14 -57 20l-31 67q-15 30 15 47l367 211q24 16 45 16q40 0 51 -26l54 -115q8 -16 8 -30q0 -37 -43 -52z" />
<glyph unicode="&#xc2;" horiz-adv-x="1536" d="M83 18.5q-15 18.5 -15 32t3 21.5l505 1358q34 89 109 100q26 3 62 3h17q68 0 94 -17q42 -26 65 -83l543 -1362q3 -8 3 -22.5t-12 -31.5t-40 -17h-140q-46 0 -64 43l-124 325h-657l-115 -325q-14 -43 -61 -43h-129q-29 0 -44 18.5zM1005 584l-239 650q-3 10 -12 10 t-12 -10l-232 -650h495zM492 1663q-11 -8 -26 -8t-27 13l-53 57q-9 10 -9 26.5t13 27.5l200 180q25 23 53 23h183q30 0 55 -23l198 -178q17 -13 17 -31.5t-14 -33.5l-40 -44q-15 -16 -30.5 -16t-25.5 7l-253 166z" />
<glyph unicode="&#xc3;" horiz-adv-x="1536" d="M83 18.5q-15 18.5 -15 32t3 21.5l505 1358q34 89 109 100q26 3 62 3h17q68 0 94 -17q42 -26 65 -83l543 -1362q3 -8 3 -22.5t-12 -31.5t-40 -17h-140q-46 0 -64 43l-124 325h-657l-115 -325q-14 -43 -61 -43h-129q-29 0 -44 18.5zM1005 584l-239 650q-3 10 -12 10 t-12 -10l-232 -650h495zM388 1691q-43 11 -32.5 53.5t30.5 81t50 70.5q66 74 149 74q69 0 153 -60l60 -42q27 -19 47 -19t32 7.5t21 18.5q20 22 27 47.5t18 47t28 21.5t28 -3l75 -19q34 -11 38.5 -25t-1 -54t-27 -84.5t-52.5 -77.5q-69 -73 -154 -73q-77 0 -162 57l-58 41 q-69 47 -116 -23q-9 -13 -14.5 -30.5t-24 -29t-47.5 -4.5z" />
<glyph unicode="&#xc4;" horiz-adv-x="1536" d="M83 18.5q-15 18.5 -15 32t3 21.5l505 1358q34 89 109 100q26 3 62 3h17q68 0 94 -17q42 -26 65 -83l543 -1362q3 -8 3 -22.5t-12 -31.5t-40 -17h-140q-46 0 -64 43l-124 325h-657l-115 -325q-14 -43 -61 -43h-129q-29 0 -44 18.5zM1005 584l-239 650q-3 10 -12 10 t-12 -10l-232 -650h495zM983 1668q-61 0 -106 44q-43 44 -43 109q0 99 91 139q27 12 58 12q61 0 105 -44t44 -91.5t-12 -75.5t-32 -49q-43 -44 -105 -44zM535.5 1680q-26.5 -12 -57.5 -12t-58.5 12t-47.5 32q-44 46 -44 93t12 75t32 48q44 44 107 44q58 0 104 -44 q43 -42 43 -90.5t-11.5 -76.5t-32 -48.5t-47 -32.5z" />
<glyph unicode="&#xc5;" horiz-adv-x="1536" d="M83 18.5q-15 18.5 -15 32t3 21.5l505 1358q34 89 109 100q26 3 62 3h17q68 0 94 -17q42 -26 65 -83l543 -1362q3 -8 3 -22.5t-12 -31.5t-40 -17h-140q-46 0 -64 43l-124 325h-657l-115 -325q-14 -43 -61 -43h-129q-29 0 -44 18.5zM1005 584l-239 650q-3 10 -12 10 t-12 -10l-232 -650h495zM738 1426q-56 0 -107.5 20.5t-91.5 57.5q-85 80 -85 200t85 200q83 76 200 76q115 0 197 -76q86 -81 86 -200q0 -118 -86 -200q-82 -78 -198 -78zM694.5 1594.5q21.5 -7.5 44 -7.5t44 7.5t38.5 22.5q38 34 38 74t-10.5 61.5t-27.5 36.5 q-34 30 -69.5 30t-57 -7.5t-39.5 -22.5q-38 -33 -38 -73t10.5 -62t28 -37t39 -22.5z" />
<glyph unicode="&#xc6;" horiz-adv-x="1873" d="M81 18.5q-15 18.5 -15 32t3 21.5l500 1358q23 64 59 85q31 18 106 18h946q26 0 39.5 -16.5t13.5 -40.5v-108q0 -23 -13.5 -39.5t-39.5 -16.5h-710l114 -413h530q26 0 39.5 -16.5t13.5 -40.5v-108q0 -23 -13.5 -39.5t-39.5 -16.5h-469l125 -457h415q26 0 39.5 -16.5 t13.5 -40.5v-108q0 -23 -13.5 -39.5t-39.5 -16.5h-537q-49 0 -64 43l-89 325h-565l-112 -325q-14 -43 -61 -43h-132q-29 0 -44 18.5zM926 584l-170 670q-3 10 -12.5 10t-12.5 -10l-227 -670h422z" />
<glyph unicode="&#xc7;" horiz-adv-x="1531" d="M885 -24q119 -103 119 -227q0 -98 -70 -161q-75 -65 -200 -65q-82 0 -134 22q-93 39 -93 87q0 11 4 20t11 28q19 49 47 49q12 0 27 -5l33 -10q51 -16 87.5 -16t65.5 27t29 64t-12 64t-29.5 51t-37.5 44l-38 37q-277 43 -433 263q-150 212 -150 534q0 352 187 562 q191 216 526 216q184 0 326 -82q164 -94 164 -270q0 -124 -110 -124h-69q-32 0 -49.5 23.5t-20 65t-25.5 76t-59 55.5q-67 39 -178 39t-193 -46.5t-132 -124.5q-96 -146 -96 -390q0 -439 286 -552q88 -34 172 -34q152 0 268 55l56 26q27 12 48 12t34 -10t32.5 -47.5 t19.5 -65t-19 -54t-47 -46.5q-49 -32 -112 -51q-110 -33 -235 -39z" />
<glyph unicode="&#xc8;" horiz-adv-x="1362" d="M234 1469q0 26 16.5 45t39.5 19h879q26 0 39.5 -16.5t13.5 -40.5v-108q0 -23 -13.5 -39.5t-39.5 -16.5h-684v-438h544q26 0 39.5 -16.5t13.5 -40.5v-108q0 -23 -13.5 -39.5t-39.5 -16.5h-544v-432h689q26 0 39.5 -16.5t13.5 -40.5v-108q0 -23 -13.5 -39.5t-39.5 -16.5 h-885q-23 0 -39 19t-16 45v1405zM390 1769q-43 15 -43 52q0 14 8 30l54 115q11 26 41.5 26t54.5 -16l367 -211q30 -17 15 -47l-31 -67q-17 -34 -57 -20z" />
<glyph unicode="&#xc9;" horiz-adv-x="1362" d="M234 1469q0 26 16.5 45t39.5 19h879q26 0 39.5 -16.5t13.5 -40.5v-108q0 -23 -13.5 -39.5t-39.5 -16.5h-684v-438h544q26 0 39.5 -16.5t13.5 -40.5v-108q0 -23 -13.5 -39.5t-39.5 -16.5h-544v-432h689q26 0 39.5 -16.5t13.5 -40.5v-108q0 -23 -13.5 -39.5t-39.5 -16.5 h-885q-23 0 -39 19t-16 45v1405zM650 1631q-40 -14 -57 20l-31 67q-15 30 15 47l367 211q24 16 45 16q40 0 51 -26l54 -115q8 -16 8 -30q0 -37 -43 -52z" />
<glyph unicode="&#xca;" horiz-adv-x="1362" d="M234 1469q0 26 16.5 45t39.5 19h879q26 0 39.5 -16.5t13.5 -40.5v-108q0 -23 -13.5 -39.5t-39.5 -16.5h-684v-438h544q26 0 39.5 -16.5t13.5 -40.5v-108q0 -23 -13.5 -39.5t-39.5 -16.5h-544v-432h689q26 0 39.5 -16.5t13.5 -40.5v-108q0 -23 -13.5 -39.5t-39.5 -16.5 h-885q-23 0 -39 19t-16 45v1405zM481 1663q-11 -8 -26 -8t-27 13l-53 57q-9 10 -9 26.5t13 27.5l200 180q25 23 53 23h183q30 0 55 -23l198 -178q17 -13 17 -31.5t-14 -33.5l-40 -44q-15 -16 -30.5 -16t-25.5 7l-253 166z" />
<glyph unicode="&#xcb;" horiz-adv-x="1362" d="M234 1469q0 26 16.5 45t39.5 19h879q26 0 39.5 -16.5t13.5 -40.5v-108q0 -23 -13.5 -39.5t-39.5 -16.5h-684v-438h544q26 0 39.5 -16.5t13.5 -40.5v-108q0 -23 -13.5 -39.5t-39.5 -16.5h-544v-432h689q26 0 39.5 -16.5t13.5 -40.5v-108q0 -23 -13.5 -39.5t-39.5 -16.5 h-885q-23 0 -39 19t-16 45v1405zM985 1668q-61 0 -106 44q-43 44 -43 109q0 99 91 139q27 12 58 12q61 0 105 -44t44 -91.5t-12 -75.5t-32 -49q-43 -44 -105 -44zM537.5 1680q-26.5 -12 -57.5 -12t-58.5 12t-47.5 32q-44 46 -44 93t12 75t32 48q44 44 107 44q58 0 104 -44 q43 -42 43 -90.5t-11.5 -76.5t-32 -48.5t-47 -32.5z" />
<glyph unicode="&#xcc;" d="M216 1469q0 26 16.5 45t39.5 19h140q23 0 39 -19t16 -45v-1405q0 -26 -16.5 -45t-39.5 -19h-140q-23 0 -39 19t-16 45v1405zM31 1769q-43 15 -43 52q0 14 8 30l54 115q11 26 41.5 26t54.5 -16l367 -211q30 -17 15 -47l-31 -67q-17 -34 -57 -20z" />
<glyph unicode="&#xcd;" d="M231 1469q0 26 16.5 45t39.5 19h140q23 0 39 -19t16 -45v-1405q0 -26 -16.5 -45t-39.5 -19h-140q-23 0 -39 19t-16 45v1405zM277 1631q-40 -14 -57 20l-31 67q-15 30 15 47l367 211q24 16 45 16q40 0 51 -26l54 -115q8 -16 8 -30q0 -37 -43 -52z" />
<glyph unicode="&#xce;" d="M216 1469q0 26 16.5 45t39.5 19h140q23 0 39 -19t16 -45v-1405q0 -26 -16.5 -45t-39.5 -19h-140q-23 0 -39 19t-16 45v1405zM100 1663q-11 -8 -26 -8t-27 13l-53 57q-9 10 -9 26.5t13 27.5l200 180q25 23 53 23h183q30 0 55 -23l198 -178q17 -13 17 -31.5t-14 -33.5 l-40 -44q-15 -16 -30.5 -16t-25.5 7l-253 166z" />
<glyph unicode="&#xcf;" d="M216 1469q0 26 16.5 45t39.5 19h140q23 0 39 -19t16 -45v-1405q0 -26 -16.5 -45t-39.5 -19h-140q-23 0 -39 19t-16 45v1405zM595 1668q-61 0 -106 44q-43 44 -43 109q0 99 91 139q27 12 58 12q61 0 105 -44t44 -91.5t-12 -75.5t-32 -49q-43 -44 -105 -44zM147.5 1680 q-26.5 -12 -57.5 -12t-58.5 12t-47.5 32q-44 46 -44 93t12 75t32 48q44 44 107 44q58 0 104 -44q43 -42 43 -90.5t-11.5 -76.5t-32 -48.5t-47 -32.5z" />
<glyph unicode="&#xd0;" horiz-adv-x="1533" d="M238 656h-146q-17 0 -30 10.5t-13 27.5v134q0 16 13 26.5t30 10.5h146v581q0 35 23.5 61t65.5 26h317q396 0 596 -196q190 -188 190 -537q0 -373 -213.5 -586.5t-590.5 -213.5h-299q-42 0 -65.5 26.5t-23.5 61.5v568zM674 1313h-50q-33 0 -135 -3v-445h294q18 0 31 -10.5 t13 -27.5v-123q0 -24 -13 -36t-31 -12h-294v-435l163 -3h6q387 0 476 334q29 108 29 239.5t-31.5 227t-93.5 161.5q-125 133 -364 133z" />
<glyph unicode="&#xd1;" horiz-adv-x="1701" d="M241 1409q0 124 108 124h41q41 0 57 -10q30 -18 56 -57l644 -948q37 -54 58 -99l41 -86q1 -2 3.5 -2t0.5 26t-10 75.5t-8 98.5v941q0 26 15.5 43.5t37.5 17.5h132q21 0 36.5 -17.5t15.5 -43.5v-1372q0 -40 -25 -62q-42 -38 -76 -38h-61q-50 0 -73 16q-34 26 -84 98 q-571 835 -612 902l-83 139q-2 3 -5.5 3t-0.5 -15t8.5 -50.5t10.5 -78.5q10 -100 10 -186v-767q0 -25 -15.5 -43t-37.5 -18h-132q-21 0 -36.5 18t-15.5 43v1348zM543 1691q-43 11 -32.5 53.5t30.5 81t50 70.5q66 74 149 74q69 0 153 -60l60 -42q27 -19 47 -19t32 7.5 t21 18.5q20 22 27 47.5t18 47t28 21.5t28 -3l75 -19q34 -11 38.5 -25t-1 -54t-27 -84.5t-52.5 -77.5q-69 -73 -154 -73q-77 0 -162 57l-58 41q-69 47 -116 -23q-9 -13 -14.5 -30.5t-24 -29t-47.5 -4.5z" />
<glyph unicode="&#xd2;" horiz-adv-x="1709" d="M137.5 569.5q-22.5 101.5 -22.5 240t53.5 281.5t151.5 247q207 220 536 220q350 0 549 -225q189 -213 189 -556q0 -340 -208 -569q-98 -108 -235 -170.5t-277.5 -62.5t-239.5 29.5t-180.5 83t-144.5 127.5t-106 163.5t-65.5 191zM386 784q0 -115 27.5 -218t84.5 -184 q126 -177 355 -177q230 0 355 169q115 156 115 404q0 234 -117 386q-129 165 -352 165q-215 0 -342 -154q-126 -151 -126 -391zM546 1769q-43 15 -43 52q0 14 8 30l54 115q11 26 41.5 26t54.5 -16l367 -211q30 -17 15 -47l-31 -67q-17 -34 -57 -20z" />
<glyph unicode="&#xd3;" horiz-adv-x="1709" d="M137.5 569.5q-22.5 101.5 -22.5 240t53.5 281.5t151.5 247q207 220 536 220q350 0 549 -225q189 -213 189 -556q0 -340 -208 -569q-98 -108 -235 -170.5t-277.5 -62.5t-239.5 29.5t-180.5 83t-144.5 127.5t-106 163.5t-65.5 191zM386 784q0 -115 27.5 -218t84.5 -184 q126 -177 355 -177q230 0 355 169q115 156 115 404q0 234 -117 386q-129 165 -352 165q-215 0 -342 -154q-126 -151 -126 -391zM771 1631q-40 -14 -57 20l-31 67q-15 30 15 47l367 211q24 16 45 16q40 0 51 -26l54 -115q8 -16 8 -30q0 -37 -43 -52z" />
<glyph unicode="&#xd4;" horiz-adv-x="1709" d="M137.5 569.5q-22.5 101.5 -22.5 240t53.5 281.5t151.5 247q207 220 536 220q350 0 549 -225q189 -213 189 -556q0 -340 -208 -569q-98 -108 -235 -170.5t-277.5 -62.5t-239.5 29.5t-180.5 83t-144.5 127.5t-106 163.5t-65.5 191zM386 784q0 -115 27.5 -218t84.5 -184 q126 -177 355 -177q230 0 355 169q115 156 115 404q0 234 -117 386q-129 165 -352 165q-215 0 -342 -154q-126 -151 -126 -391zM608 1663q-11 -8 -26 -8t-27 13l-53 57q-9 10 -9 26.5t13 27.5l200 180q25 23 53 23h183q30 0 55 -23l198 -178q17 -13 17 -31.5t-14 -33.5 l-40 -44q-15 -16 -30.5 -16t-25.5 7l-253 166z" />
<glyph unicode="&#xd5;" horiz-adv-x="1709" d="M137.5 569.5q-22.5 101.5 -22.5 240t53.5 281.5t151.5 247q207 220 536 220q350 0 549 -225q189 -213 189 -556q0 -340 -208 -569q-98 -108 -235 -170.5t-277.5 -62.5t-239.5 29.5t-180.5 83t-144.5 127.5t-106 163.5t-65.5 191zM386 784q0 -115 27.5 -218t84.5 -184 q126 -177 355 -177q230 0 355 169q115 156 115 404q0 234 -117 386q-129 165 -352 165q-215 0 -342 -154q-126 -151 -126 -391zM505 1691q-43 11 -32.5 53.5t30.5 81t50 70.5q66 74 149 74q69 0 153 -60l60 -42q27 -19 47 -19t32 7.5t21 18.5q20 22 27 47.5t18 47t28 21.5 t28 -3l75 -19q34 -11 38.5 -25t-1 -54t-27 -84.5t-52.5 -77.5q-69 -73 -154 -73q-77 0 -162 57l-58 41q-69 47 -116 -23q-9 -13 -14.5 -30.5t-24 -29t-47.5 -4.5z" />
<glyph unicode="&#xd6;" horiz-adv-x="1709" d="M137.5 569.5q-22.5 101.5 -22.5 240t53.5 281.5t151.5 247q207 220 536 220q350 0 549 -225q189 -213 189 -556q0 -340 -208 -569q-98 -108 -235 -170.5t-277.5 -62.5t-239.5 29.5t-180.5 83t-144.5 127.5t-106 163.5t-65.5 191zM386 784q0 -115 27.5 -218t84.5 -184 q126 -177 355 -177q230 0 355 169q115 156 115 404q0 234 -117 386q-129 165 -352 165q-215 0 -342 -154q-126 -151 -126 -391zM1104 1668q-61 0 -106 44q-43 44 -43 109q0 99 91 139q27 12 58 12q61 0 105 -44t44 -91.5t-12 -75.5t-32 -49q-43 -44 -105 -44zM656.5 1680 q-26.5 -12 -57.5 -12t-58.5 12t-47.5 32q-44 46 -44 93t12 75t32 48q44 44 107 44q58 0 104 -44q43 -42 43 -90.5t-11.5 -76.5t-32 -48.5t-47 -32.5z" />
<glyph unicode="&#xd7;" horiz-adv-x="1193" d="M189 251q-16 16 -16 38.5t17 39.5l276 276l-278 279q-18 16 -18 38.5t13 35.5l68 67q12 12 27 12q28 0 45 -17l279 -279l272 273q17 17 39 17t35 -13l73 -74q13 -12 13 -28q0 -28 -18 -44l-273 -273l279 -278q18 -18 18 -39.5t-16 -37.5l-59 -59q-17 -16 -39.5 -16 t-39.5 17l-278 278l-276 -277q-18 -18 -39.5 -18t-37.5 16z" />
<glyph unicode="&#xd8;" horiz-adv-x="1709" d="M837 -25q-177 0 -331 81l-63 -102q-17 -30 -36.5 -30t-29.5 7l-84 54q-20 14 -20 32t8 32l73 117q-175 169 -224 437q-15 86 -15 176q0 340 205 559q206 222 536 222q184 0 328 -65l70 111q18 29 38.5 29t31.5 -7l71 -39q32 -19 32 -38t-8 -33l-77 -123 q252 -215 252 -618q0 -340 -208 -569q-211 -233 -549 -233zM1064 1302q-94 46 -208 46t-203.5 -42t-151.5 -118q-129 -157 -129 -410q0 -243 113 -403zM625 245q100 -56 225.5 -56t216.5 47t151 127q119 159 119 415q0 247 -127 406z" />
<glyph unicode="&#xd9;" horiz-adv-x="1698" d="M847 198q363 0 363 413v858q0 26 16.5 45t39.5 19h137q23 0 39 -19t16 -45v-856q0 -308 -180 -481q-165 -158 -430 -158q-266 0 -433 164q-175 171 -175 475v856q0 26 16.5 45t39.5 19h137q23 0 39 -19t16 -45v-858q0 -207 101 -313q93 -100 258 -100zM519 1769 q-43 15 -43 52q0 14 8 30l54 115q11 26 41.5 26t54.5 -16l367 -211q30 -17 15 -47l-31 -67q-17 -34 -57 -20z" />
<glyph unicode="&#xda;" horiz-adv-x="1698" d="M847 198q363 0 363 413v858q0 26 16.5 45t39.5 19h137q23 0 39 -19t16 -45v-856q0 -308 -180 -481q-165 -158 -430 -158q-266 0 -433 164q-175 171 -175 475v856q0 26 16.5 45t39.5 19h137q23 0 39 -19t16 -45v-858q0 -207 101 -313q93 -100 258 -100zM771 1631 q-40 -14 -57 20l-31 67q-15 30 15 47l367 211q24 16 45 16q40 0 51 -26l54 -115q8 -16 8 -30q0 -37 -43 -52z" />
<glyph unicode="&#xdb;" horiz-adv-x="1698" d="M847 198q363 0 363 413v858q0 26 16.5 45t39.5 19h137q23 0 39 -19t16 -45v-856q0 -308 -180 -481q-165 -158 -430 -158q-266 0 -433 164q-175 171 -175 475v856q0 26 16.5 45t39.5 19h137q23 0 39 -19t16 -45v-858q0 -207 101 -313q93 -100 258 -100zM609 1663 q-11 -8 -26 -8t-27 13l-53 57q-9 10 -9 26.5t13 27.5l200 180q25 23 53 23h183q30 0 55 -23l198 -178q17 -13 17 -31.5t-14 -33.5l-40 -44q-15 -16 -30.5 -16t-25.5 7l-253 166z" />
<glyph unicode="&#xdc;" horiz-adv-x="1698" d="M847 198q363 0 363 413v858q0 26 16.5 45t39.5 19h137q23 0 39 -19t16 -45v-856q0 -308 -180 -481q-165 -158 -430 -158q-266 0 -433 164q-175 171 -175 475v856q0 26 16.5 45t39.5 19h137q23 0 39 -19t16 -45v-858q0 -207 101 -313q93 -100 258 -100zM1104 1668 q-61 0 -106 44q-43 44 -43 109q0 99 91 139q27 12 58 12q61 0 105 -44t44 -91.5t-12 -75.5t-32 -49q-43 -44 -105 -44zM656.5 1680q-26.5 -12 -57.5 -12t-58.5 12t-47.5 32q-44 46 -44 93t12 75t32 48q44 44 107 44q58 0 104 -44q43 -42 43 -90.5t-11.5 -76.5t-32 -48.5 t-47 -32.5z" />
<glyph unicode="&#xdd;" horiz-adv-x="1355" d="M569 515l-544 937q-9 15 -9 33t13 33t33 15h161q41 0 57 -27q4 -8 9 -16l399 -731q4 -9 7.5 -9t59.5 90.5t147 267.5t167 365q12 30 28 45t48 15h155q24 0 36 -16.5t12 -37t-8 -38.5q-259 -535 -522 -911v-466q0 -27 -16.5 -45.5t-39.5 -18.5h-138q-23 0 -39 19t-16 45 v451zM616 1631q-40 -14 -57 20l-31 67q-15 30 15 47l367 211q24 16 45 16q40 0 51 -26l54 -115q8 -16 8 -30q0 -37 -43 -52z" />
<glyph unicode="&#xde;" horiz-adv-x="1360" d="M933 285.5q-111 -34.5 -217 -34.5t-226 15v-202q0 -23 -14.5 -43.5t-41.5 -20.5h-140q-26 0 -40.5 19t-14.5 43v1407q0 26 16.5 45t39.5 19h140q23 0 39 -19t16 -45v-172h224q424 0 544 -285q41 -97 41 -229t-46.5 -231t-127.5 -165.5t-192 -101zM490 476q78 -13 158 -13 t150.5 12.5t123.5 47.5q115 76 115 263q0 212 -177 273q-61 21 -140 21h-230v-604z" />
<glyph unicode="&#xdf;" horiz-adv-x="1533" d="M235 1116q0 210 33 314t72 163t98 101q121 86 326 86q208 0 320 -102q103 -95 103 -241q0 -117 -48 -201q-23 -41 -56 -81l-73 -91q-59 -76 -59 -121t15.5 -69.5t41.5 -43.5q40 -30 112.5 -59t131 -62.5t102.5 -82.5q96 -107 96 -274q0 -169 -128 -278q-117 -99 -276 -99 q-162 0 -288 51q-130 52 -130 120q0 19 10 40l29 61q22 47 61 47q19 0 41 -11l51 -26q117 -59 203 -59t135 36.5t49 108.5q0 107 -109 170q-34 20 -87.5 41t-107.5 55t-93 77q-83 93 -83 220q0 121 104 258q64 83 84 136.5t20 93.5t-8.5 68.5t-28.5 49.5q-44 48 -131.5 48 t-142 -31t-86.5 -87q-59 -101 -59 -310v-1067q0 -27 -16 -46t-38 -19h-137q-23 0 -38 19t-15 46v1051z" />
<glyph unicode="&#xe0;" horiz-adv-x="1195" d="M1091 53q0 -53 -52 -53h-97q-39 0 -47 15.5t-9 28t-4 30.5q-6 49 -17 106q-78 -143 -245 -189q-59 -16 -130 -16t-142 23.5t-126 69.5q-124 104 -124 273q0 185 136 283q112 79 288 79t298 -103q3 34 3 85t-20 102t-57 85q-76 67 -212 67q-122 0 -248 -67 q-24 -13 -42 -13q-27 0 -52 53q-27 54 -27 78q0 44 66 85q126 78 337 78q192 0 318 -105q149 -126 149 -356q0 -102 -33 -257q85 -242 89 -382zM362.5 417q-17.5 -30 -17.5 -70.5t14.5 -72t40.5 -52.5q55 -43 123.5 -43t112.5 16t76 41q69 54 69 114q-6 75 -83 118 q-69 40 -163 40q-73 0 -114 -30.5t-58.5 -60.5zM338 1510q-37 23 -38.5 51.5t10.5 43.5l75 95q17 22 37 22q37 0 62 -23l309 -281q20 -18 20 -31.5t-7 -23.5l-49 -68q-9 -14 -26 -14t-30 8z" />
<glyph unicode="&#xe1;" horiz-adv-x="1195" d="M1091 53q0 -53 -52 -53h-97q-39 0 -47 15.5t-9 28t-4 30.5q-6 49 -17 106q-78 -143 -245 -189q-59 -16 -130 -16t-142 23.5t-126 69.5q-124 104 -124 273q0 185 136 283q112 79 288 79t298 -103q3 34 3 85t-20 102t-57 85q-76 67 -212 67q-122 0 -248 -67 q-24 -13 -42 -13q-27 0 -52 53q-27 54 -27 78q0 44 66 85q126 78 337 78q192 0 318 -105q149 -126 149 -356q0 -102 -33 -257q85 -242 89 -382zM362.5 417q-17.5 -30 -17.5 -70.5t14.5 -72t40.5 -52.5q55 -43 123.5 -43t112.5 16t76 41q69 54 69 114q-6 75 -83 118 q-69 40 -163 40q-73 0 -114 -30.5t-58.5 -60.5zM559 1289q-13 -8 -30 -8t-26 14l-49 68q-7 10 -7 23.5t20 31.5l309 281q25 23 47 23q35 0 52 -22l75 -95q12 -15 11 -31q-1 -41 -39 -64z" />
<glyph unicode="&#xe2;" horiz-adv-x="1195" d="M1091 53q0 -53 -52 -53h-97q-39 0 -47 15.5t-9 28t-4 30.5q-6 49 -17 106q-78 -143 -245 -189q-59 -16 -130 -16t-142 23.5t-126 69.5q-124 104 -124 273q0 185 136 283q112 79 288 79t298 -103q3 34 3 85t-20 102t-57 85q-76 67 -212 67q-122 0 -248 -67 q-24 -13 -42 -13q-27 0 -52 53q-27 54 -27 78q0 44 66 85q126 78 337 78q192 0 318 -105q149 -126 149 -356q0 -102 -33 -257q85 -242 89 -382zM362.5 417q-17.5 -30 -17.5 -70.5t14.5 -72t40.5 -52.5q55 -43 123.5 -43t112.5 16t76 41q69 54 69 114q-6 75 -83 118 q-69 40 -163 40q-73 0 -114 -30.5t-58.5 -60.5zM347 1287q-15 0 -30 13l-56 48q-18 15 -18 29q0 16 13 32l198 243q36 45 86 45h102q48 0 87 -47l190 -240q13 -18 13 -34t-17 -30l-53 -43q-21 -17 -34 -17t-25 11l-214 204l-210 -199q-17 -15 -32 -15z" />
<glyph unicode="&#xe3;" horiz-adv-x="1195" d="M1091 53q0 -53 -52 -53h-97q-39 0 -47 15.5t-9 28t-4 30.5q-6 49 -17 106q-78 -143 -245 -189q-59 -16 -130 -16t-142 23.5t-126 69.5q-124 104 -124 273q0 185 136 283q112 79 288 79t298 -103q3 34 3 85t-20 102t-57 85q-76 67 -212 67q-122 0 -248 -67 q-24 -13 -42 -13q-27 0 -52 53q-27 54 -27 78q0 44 66 85q126 78 337 78q192 0 318 -105q149 -126 149 -356q0 -102 -33 -257q85 -242 89 -382zM362.5 417q-17.5 -30 -17.5 -70.5t14.5 -72t40.5 -52.5q55 -43 123.5 -43t112.5 16t76 41q69 54 69 114q-6 75 -83 118 q-69 40 -163 40q-73 0 -114 -30.5t-58.5 -60.5zM364 1336.5q-13 -12.5 -24.5 -12.5t-15 0.5t-12.5 3.5t-26 9l-44 16q-33 11 -33 42.5t18 71.5t49 77q75 88 163 88q69 0 153 -60l60 -42q27 -19 47 -19t32 7.5t21 18.5q20 22 27 48t18.5 46.5t38.5 20.5q3 0 15 -2l29 -7 q72 -16 81.5 -29t9.5 -40.5t-17.5 -75t-49.5 -88.5q-72 -93 -172 -93q-77 0 -162 59l-58 41q-28 19 -52 19q-54 0 -77 -70q-6 -17 -19 -29.5z" />
<glyph unicode="&#xe4;" horiz-adv-x="1195" d="M1091 53q0 -53 -52 -53h-97q-39 0 -47 15.5t-9 28t-4 30.5q-6 49 -17 106q-78 -143 -245 -189q-59 -16 -130 -16t-142 23.5t-126 69.5q-124 104 -124 273q0 185 136 283q112 79 288 79t298 -103q3 34 3 85t-20 102t-57 85q-76 67 -212 67q-122 0 -248 -67 q-24 -13 -42 -13q-27 0 -52 53q-27 54 -27 78q0 44 66 85q126 78 337 78q192 0 318 -105q149 -126 149 -356q0 -102 -33 -257q85 -242 89 -382zM362.5 417q-17.5 -30 -17.5 -70.5t14.5 -72t40.5 -52.5q55 -43 123.5 -43t112.5 16t76 41q69 54 69 114q-6 75 -83 118 q-69 40 -163 40q-73 0 -114 -30.5t-58.5 -60.5zM838 1317q-61 0 -105 45q-44 43 -44 108q0 99 91 139q27 12 58 12q61 0 105 -44t44 -91.5t-12 -75.5t-32 -48q-43 -45 -105 -45zM342 1317q-61 0 -105 45q-44 43 -44 108q0 99 91 139q27 12 58 12q61 0 105 -44t44 -91.5 t-12 -75.5t-32 -48q-43 -45 -105 -45z" />
<glyph unicode="&#xe5;" horiz-adv-x="1195" d="M1091 53q0 -53 -52 -53h-97q-39 0 -47 15.5t-9 28t-4 30.5q-6 49 -17 106q-78 -143 -245 -189q-59 -16 -130 -16t-142 23.5t-126 69.5q-124 104 -124 273q0 185 136 283q112 79 288 79t298 -103q3 34 3 85t-20 102t-57 85q-76 67 -212 67q-122 0 -248 -67 q-24 -13 -42 -13q-27 0 -52 53q-27 54 -27 78q0 44 66 85q126 78 337 78q192 0 318 -105q149 -126 149 -356q0 -102 -33 -257q85 -242 89 -382zM362.5 417q-17.5 -30 -17.5 -70.5t14.5 -72t40.5 -52.5q55 -43 123.5 -43t112.5 16t76 41q69 54 69 114q-6 75 -83 118 q-69 40 -163 40q-73 0 -114 -30.5t-58.5 -60.5zM597 1245q-56 0 -107.5 20.5t-91.5 57.5q-85 80 -85 200t85 199q83 77 200 77q115 0 197 -77q86 -80 86 -199q0 -118 -86 -200q-82 -78 -198 -78zM553.5 1413.5q21.5 -7.5 44 -7.5t44 7.5t38.5 22.5q38 34 38 74t-10.5 61.5 t-27.5 36.5q-34 30 -69.5 30t-57 -7.5t-39.5 -22.5q-38 -33 -38 -73t10.5 -62t28 -37t39 -22.5z" />
<glyph unicode="&#xe6;" horiz-adv-x="1874" d="M1287 467q-109 0 -263 43q-8 -147 88 -238q96 -90 255 -90q127 0 261 87q24 16 40 16q35 0 51 -30l29 -58q9 -16 9 -41t-20 -50t-53 -46t-75.5 -36.5t-88.5 -26.5q-92 -22 -169 -22t-143.5 14.5t-123.5 42.5q-120 59 -180 166q-45 -92 -156 -156q-115 -67 -256 -67 q-159 0 -270 93q-124 104 -124 273q0 185 136 283q112 79 288 79t298 -103q3 34 3 85t-20 102t-57 85q-76 67 -212 67q-122 0 -248 -67q-24 -13 -42 -13q-27 0 -52 53q-27 54 -27 78q0 44 66 85q126 78 337 78q253 0 379 -189q132 190 399 190q185 0 296 -91 q116 -95 116 -265q0 -167 -136 -255q-118 -76 -335 -76zM1265 646q261 0 261 154q0 99 -102 134q-35 13 -88.5 13t-104.5 -17.5t-91 -51.5q-89 -72 -106 -192q44 -22 118.5 -31t112.5 -9zM352 421q-18 -32 -18 -74.5t15.5 -75.5t42.5 -55q57 -45 129 -45t118.5 17t80.5 43 q72 55 72 119q-8 79 -87 124q-73 42 -171 42q-127 0 -182 -95z" />
<glyph unicode="&#xe7;" horiz-adv-x="1193" d="M737 -20q124 -108 124 -231q0 -98 -71 -161q-74 -65 -199 -65q-82 0 -134 22q-93 39 -93 87q0 11 4 20t12 28q18 49 46 49q12 0 27 -5l33 -10q51 -16 87.5 -16t65.5 27t29 64.5t-12 64.5t-29.5 51t-38.5 44l-38 37q-201 36 -316 193q-113 155 -113 391q0 270 153 429 q149 154 389 154q212 0 325 -111q95 -95 95 -238q0 -121 -124 -121h-24q-82 0 -82 81q0 93 -57 142q-49 43 -131.5 43t-136.5 -34t-88 -87q-66 -104 -66 -250q0 -273 166 -358q60 -31 133 -31t120 16t84 35t64.5 35t45.5 16q36 0 57 -33l22 -37q15 -26 15 -54.5t-32.5 -61.5 t-82.5 -59q-100 -50 -229 -66z" />
<glyph unicode="&#xe8;" horiz-adv-x="1195" d="M352 509l-1 -19q0 -137 87 -220q91 -88 247 -88q142 0 264 85q23 16 41 16q37 0 56 -37l27 -56q9 -20 9 -43t-20.5 -47.5t-53.5 -44.5t-76.5 -35t-89.5 -25q-92 -20 -192 -20t-201.5 38t-175.5 111q-159 155 -159 419q0 463 326 576q102 35 209.5 35t183 -23t130.5 -68 q116 -95 116 -265q0 -167 -136 -255q-119 -77 -314 -77q-120 0 -277 43zM844 801q0 143 -192 143q-183 0 -256 -134q-26 -47 -34 -116q86 -43 219 -43q263 0 263 150zM323 1510q-37 23 -38.5 51.5t10.5 43.5l75 95q17 22 37 22q37 0 62 -23l309 -281q20 -18 20 -31.5 t-7 -23.5l-49 -68q-9 -14 -26 -14t-30 8z" />
<glyph unicode="&#xe9;" horiz-adv-x="1195" d="M352 509l-1 -19q0 -137 87 -220q91 -88 247 -88q142 0 264 85q23 16 41 16q37 0 56 -37l27 -56q9 -20 9 -43t-20.5 -47.5t-53.5 -44.5t-76.5 -35t-89.5 -25q-92 -20 -192 -20t-201.5 38t-175.5 111q-159 155 -159 419q0 463 326 576q102 35 209.5 35t183 -23t130.5 -68 q116 -95 116 -265q0 -167 -136 -255q-119 -77 -314 -77q-120 0 -277 43zM844 801q0 143 -192 143q-183 0 -256 -134q-26 -47 -34 -116q86 -43 219 -43q263 0 263 150zM569 1289q-13 -8 -30 -8t-26 14l-49 68q-7 10 -7 23.5t20 31.5l309 281q25 23 47 23q35 0 52 -22l75 -95 q12 -15 11 -31q-1 -41 -39 -64z" />
<glyph unicode="&#xea;" horiz-adv-x="1195" d="M352 509l-1 -19q0 -137 87 -220q91 -88 247 -88q142 0 264 85q23 16 41 16q37 0 56 -37l27 -56q9 -20 9 -43t-20.5 -47.5t-53.5 -44.5t-76.5 -35t-89.5 -25q-92 -20 -192 -20t-201.5 38t-175.5 111q-159 155 -159 419q0 463 326 576q102 35 209.5 35t183 -23t130.5 -68 q116 -95 116 -265q0 -167 -136 -255q-119 -77 -314 -77q-120 0 -277 43zM844 801q0 143 -192 143q-183 0 -256 -134q-26 -47 -34 -116q86 -43 219 -43q263 0 263 150zM392 1289q-15 0 -30 13l-56 48q-18 15 -18 29q0 16 13 32l198 243q36 45 86 45h102q48 0 87 -47l190 -240 q13 -18 13 -34t-17 -30l-53 -43q-21 -17 -34 -17t-25 11l-214 204l-210 -199q-17 -15 -32 -15z" />
<glyph unicode="&#xeb;" horiz-adv-x="1195" d="M352 509l-1 -19q0 -137 87 -220q91 -88 247 -88q142 0 264 85q23 16 41 16q37 0 56 -37l27 -56q9 -20 9 -43t-20.5 -47.5t-53.5 -44.5t-76.5 -35t-89.5 -25q-92 -20 -192 -20t-201.5 38t-175.5 111q-159 155 -159 419q0 463 326 576q102 35 209.5 35t183 -23t130.5 -68 q116 -95 116 -265q0 -167 -136 -255q-119 -77 -314 -77q-120 0 -277 43zM844 801q0 143 -192 143q-183 0 -256 -134q-26 -47 -34 -116q86 -43 219 -43q263 0 263 150zM874 1317q-61 0 -105 45q-44 43 -44 108q0 99 91 139q27 12 58 12q61 0 105 -44t44 -91.5t-12 -75.5 t-32 -48q-43 -45 -105 -45zM378 1317q-61 0 -105 45q-44 43 -44 108q0 99 91 139q27 12 58 12q61 0 105 -44t44 -91.5t-12 -75.5t-32 -48q-43 -45 -105 -45z" />
<glyph unicode="&#xec;" d="M425 275q0 -71 47 -71q16 0 36 9q39 17 53 17q21 0 34 -29l31 -70q8 -17 8 -32q0 -43 -74 -80q-70 -36 -138.5 -36t-109.5 15t-70 50q-58 72 -58 234v780q0 28 16 47t38 19h134q23 0 38 -19t15 -47v-787zM11 1510q-37 23 -38.5 51.5t10.5 43.5l75 95q17 22 37 22 q37 0 62 -23l309 -281q20 -18 20 -31.5t-7 -23.5l-49 -68q-9 -14 -26 -14t-30 8z" />
<glyph unicode="&#xed;" d="M423 275q0 -71 47 -71q16 0 36 9q39 17 53 17q21 0 34 -29l31 -70q8 -17 8 -32q0 -43 -74 -80q-70 -36 -138.5 -36t-109.5 15t-70 50q-58 72 -58 234v780q0 28 16 47t38 19h134q23 0 38 -19t15 -47v-787zM263 1289q-13 -8 -30 -8t-26 14l-49 68q-7 10 -7 23.5t20 31.5 l309 281q25 23 47 23q35 0 52 -22l75 -95q12 -15 11 -31q-1 -41 -39 -64z" />
<glyph unicode="&#xee;" d="M423 275q0 -71 47 -71q16 0 36 9q39 17 53 17q21 0 34 -29l31 -70q8 -17 8 -32q0 -43 -74 -80q-70 -36 -138.5 -36t-109.5 15t-70 50q-58 72 -58 234v780q0 28 16 47t38 19h134q23 0 38 -19t15 -47v-787zM72 1287q-15 0 -30 13l-56 48q-18 15 -18 29q0 16 13 32l198 243 q36 45 86 45h102q48 0 87 -47l190 -240q13 -18 13 -34t-17 -30l-53 -43q-21 -17 -34 -17t-25 11l-214 204l-210 -199q-17 -15 -32 -15z" />
<glyph unicode="&#xef;" d="M423 275q0 -71 47 -71q16 0 36 9q39 17 53 17q21 0 34 -29l31 -70q8 -17 8 -32q0 -43 -74 -80q-70 -36 -138.5 -36t-109.5 15t-70 50q-58 72 -58 234v780q0 28 16 47t38 19h134q23 0 38 -19t15 -47v-787zM556 1317q-61 0 -105 45q-44 43 -44 108q0 99 91 139q27 12 58 12 q61 0 105 -44t44 -91.5t-12 -75.5t-32 -48q-43 -45 -105 -45zM60 1317q-61 0 -105 45q-44 43 -44 108q0 99 91 139q27 12 58 12q61 0 105 -44t44 -91.5t-12 -75.5t-32 -48q-43 -45 -105 -45z" />
<glyph unicode="&#xf0;" horiz-adv-x="1363" d="M168 329q-37 108 -37 214t19.5 178t54.5 131t82.5 105t104.5 77q116 64 247 64q120 0 225 -51q94 -45 142 -119l4 1q-21 237 -183 415q-52 57 -116 103l-129 -164q-15 -15 -31.5 -17t-34.5 13l-57 48q-14 11 -19.5 33.5t18.5 49.5l96 124q-93 39 -156.5 49.5t-81 15 t-28.5 11.5q-20 14 -20 63q0 100 79 100q57 0 158.5 -30.5t165.5 -56.5l117 152q34 45 84 9l53 -44q15 -11 19 -35t-18 -48l-94 -119q222 -143 332 -387q96 -214 96 -489q0 -532 -310 -693q-109 -57 -253 -57t-247 44t-174 123t-108 187zM387 550q0 -86 23.5 -155.5 t63.5 -116.5q82 -96 213 -96q167 0 253 133q72 113 72 298v43q0 27 -2 45q-129 180 -345 180q-123 0 -197 -81q-81 -86 -81 -250z" />
<glyph unicode="&#xf1;" horiz-adv-x="1364" d="M184 1056q0 72 69 72h55q56 0 76 -42q28 -60 48 -158q90 164 268 210q56 15 139.5 15t154.5 -35.5t112 -97.5q76 -113 76 -333v-621q0 -28 -18 -47t-53 -19h-98q-38 0 -56 19t-18 47v622q0 256 -188 256q-110 0 -201 -92q-97 -99 -97 -230v-556q0 -28 -17 -47t-52 -19 h-103q-35 0 -53 19t-18 47v614q0 201 -13 280.5t-13 95.5zM471 1336.5q-13 -12.5 -24.5 -12.5t-15 0.5t-12.5 3.5t-26 9l-44 16q-33 11 -33 42.5t18 71.5t49 77q75 88 163 88q69 0 153 -60l60 -42q27 -19 47 -19t32 7.5t21 18.5q20 22 27 48t18.5 46.5t38.5 20.5q3 0 15 -2 l29 -7q72 -16 81.5 -29t9.5 -40.5t-17.5 -75t-49.5 -88.5q-72 -93 -172 -93q-77 0 -162 59l-58 41q-28 19 -52 19q-54 0 -77 -70q-6 -17 -19 -29.5z" />
<glyph unicode="&#xf2;" horiz-adv-x="1366" d="M120 568q0 130 43.5 238.5t119.5 185.5q159 161 401 161q271 0 420 -161q144 -155 144 -426q0 -262 -163 -428q-159 -163 -401 -163q-255 0 -410 167q-154 163 -154 426zM387 696.5q-17 -70.5 -17 -143t19.5 -139t58.5 -118.5q86 -114 240 -114q157 0 238 112 q72 98 72 267q0 253 -166 349q-61 35 -147.5 35t-146 -33.5t-97 -89t-54.5 -126zM392 1510q-37 23 -38.5 51.5t10.5 43.5l75 95q17 22 37 22q37 0 62 -23l309 -281q20 -18 20 -31.5t-7 -23.5l-49 -68q-9 -14 -26 -14t-30 8z" />
<glyph unicode="&#xf3;" horiz-adv-x="1366" d="M120 568q0 130 43.5 238.5t119.5 185.5q159 161 401 161q271 0 420 -161q144 -155 144 -426q0 -262 -163 -428q-159 -163 -401 -163q-255 0 -410 167q-154 163 -154 426zM387 696.5q-17 -70.5 -17 -143t19.5 -139t58.5 -118.5q86 -114 240 -114q157 0 238 112 q72 98 72 267q0 253 -166 349q-61 35 -147.5 35t-146 -33.5t-97 -89t-54.5 -126zM664 1289q-13 -8 -30 -8t-26 14l-49 68q-7 10 -7 23.5t20 31.5l309 281q25 23 47 23q35 0 52 -22l75 -95q12 -15 11 -31q-1 -41 -39 -64z" />
<glyph unicode="&#xf4;" horiz-adv-x="1366" d="M120 568q0 130 43.5 238.5t119.5 185.5q159 161 401 161q271 0 420 -161q144 -155 144 -426q0 -262 -163 -428q-159 -163 -401 -163q-255 0 -410 167q-154 163 -154 426zM387 696.5q-17 -70.5 -17 -143t19.5 -139t58.5 -118.5q86 -114 240 -114q157 0 238 112 q72 98 72 267q0 253 -166 349q-61 35 -147.5 35t-146 -33.5t-97 -89t-54.5 -126zM445 1287q-15 0 -30 13l-56 48q-18 15 -18 29q0 16 13 32l198 243q36 45 86 45h102q48 0 87 -47l190 -240q13 -18 13 -34t-17 -30l-53 -43q-21 -17 -34 -17t-25 11l-214 204l-210 -199 q-17 -15 -32 -15z" />
<glyph unicode="&#xf5;" horiz-adv-x="1366" d="M120 568q0 130 43.5 238.5t119.5 185.5q159 161 401 161q271 0 420 -161q144 -155 144 -426q0 -262 -163 -428q-159 -163 -401 -163q-255 0 -410 167q-154 163 -154 426zM387 696.5q-17 -70.5 -17 -143t19.5 -139t58.5 -118.5q86 -114 240 -114q157 0 238 112 q72 98 72 267q0 253 -166 349q-61 35 -147.5 35t-146 -33.5t-97 -89t-54.5 -126zM464 1336.5q-13 -12.5 -24.5 -12.5t-15 0.5t-12.5 3.5t-26 9l-44 16q-33 11 -33 42.5t18 71.5t49 77q75 88 163 88q69 0 153 -60l60 -42q27 -19 47 -19t32 7.5t21 18.5q20 22 27 48t18.5 46.5 t38.5 20.5q3 0 15 -2l29 -7q72 -16 81.5 -29t9.5 -40.5t-17.5 -75t-49.5 -88.5q-72 -93 -172 -93q-77 0 -162 59l-58 41q-28 19 -52 19q-54 0 -77 -70q-6 -17 -19 -29.5z" />
<glyph unicode="&#xf6;" horiz-adv-x="1366" d="M120 568q0 130 43.5 238.5t119.5 185.5q159 161 401 161q271 0 420 -161q144 -155 144 -426q0 -262 -163 -428q-159 -163 -401 -163q-255 0 -410 167q-154 163 -154 426zM387 696.5q-17 -70.5 -17 -143t19.5 -139t58.5 -118.5q86 -114 240 -114q157 0 238 112 q72 98 72 267q0 253 -166 349q-61 35 -147.5 35t-146 -33.5t-97 -89t-54.5 -126zM927 1317q-61 0 -105 45q-44 43 -44 108q0 99 91 139q27 12 58 12q61 0 105 -44t44 -91.5t-12 -75.5t-32 -48q-43 -45 -105 -45zM431 1317q-61 0 -105 45q-44 43 -44 108q0 99 91 139 q27 12 58 12q61 0 105 -44t44 -91.5t-12 -75.5t-32 -48q-43 -45 -105 -45z" />
<glyph unicode="&#xf7;" horiz-adv-x="1363" d="M530 1007q0 61 42.5 103.5t87 42.5t70.5 -11.5t46 -31.5q42 -42 42 -103q0 -60 -42 -105q-42 -43 -86 -43q-76 0 -118 44t-42 104zM541.5 107q-11.5 27 -11.5 57.5t11.5 57t30.5 46.5q42 43 87 43t71 -11.5t46 -31.5q42 -44 42 -89t-11.5 -72t-30.5 -47 q-42 -43 -86.5 -43t-71 11.5t-46 31.5t-31 47zM147 505.5q-16 14.5 -16 34.5v95q0 20 16 34t39 14h988q23 0 39.5 -15t16.5 -38v-84q0 -25 -16.5 -40t-39.5 -15h-988q-23 0 -39 14.5z" />
<glyph unicode="&#xf8;" horiz-adv-x="1366" d="M682 -25q-121 0 -228 42l-61 -100q-18 -29 -37 -29t-28 5l-74 40q-21 10 -21 30.5t8 33.5l67 111q-188 163 -188 458q0 261 163 426q159 161 401 161q134 0 235 -39l55 90q18 29 37.5 29t31.5 -6l65 -36q26 -15 26 -34t-8 -33l-59 -97q181 -155 181 -461 q0 -262 -163 -428q-159 -163 -403 -163zM818 947q-65 20 -143.5 20t-140.5 -34.5t-102 -92.5q-75 -112 -75 -299q0 -156 61 -253zM556 185q65 -21 141.5 -21t138 34t100.5 90q75 109 75 284q0 160 -59 266z" />
<glyph unicode="&#xf9;" horiz-adv-x="1364" d="M1195 68q0 -68 -62 -68h-45q-60 0 -79 48q-21 55 -45 153q-42 -105 -142.5 -165.5t-250.5 -60.5q-196 0 -289 122.5t-93 361.5v603q0 28 17.5 47t49.5 19h110q66 0 66 -66v-592q0 -239 111 -276q36 -12 85.5 -12t102 23t94.5 61q94 87 94 199v597q0 28 17 47t54 19h105 q35 0 51 -19t16 -47v-625q0 -211 30 -340q3 -11 3 -29zM374 1510q-37 23 -38.5 51.5t10.5 43.5l75 95q17 22 37 22q37 0 62 -23l309 -281q20 -18 20 -31.5t-7 -23.5l-49 -68q-9 -14 -26 -14t-30 8z" />
<glyph unicode="&#xfa;" horiz-adv-x="1364" d="M1195 68q0 -68 -62 -68h-45q-60 0 -79 48q-21 55 -45 153q-42 -105 -142.5 -165.5t-250.5 -60.5q-196 0 -289 122.5t-93 361.5v603q0 28 17.5 47t49.5 19h110q66 0 66 -66v-592q0 -239 111 -276q36 -12 85.5 -12t102 23t94.5 61q94 87 94 199v597q0 28 17 47t54 19h105 q35 0 51 -19t16 -47v-625q0 -211 30 -340q3 -11 3 -29zM618 1289q-13 -8 -30 -8t-26 14l-49 68q-7 10 -7 23.5t20 31.5l309 281q25 23 47 23q35 0 52 -22l75 -95q12 -15 11 -31q-1 -41 -39 -64z" />
<glyph unicode="&#xfb;" horiz-adv-x="1364" d="M1195 68q0 -68 -62 -68h-45q-60 0 -79 48q-21 55 -45 153q-42 -105 -142.5 -165.5t-250.5 -60.5q-196 0 -289 122.5t-93 361.5v603q0 28 17.5 47t49.5 19h110q66 0 66 -66v-592q0 -239 111 -276q36 -12 85.5 -12t102 23t94.5 61q94 87 94 199v597q0 28 17 47t54 19h105 q35 0 51 -19t16 -47v-625q0 -211 30 -340q3 -11 3 -29zM427 1287q-15 0 -30 13l-56 48q-18 15 -18 29q0 16 13 32l198 243q36 45 86 45h102q48 0 87 -47l190 -240q13 -18 13 -34t-17 -30l-53 -43q-21 -17 -34 -17t-25 11l-214 204l-210 -199q-17 -15 -32 -15z" />
<glyph unicode="&#xfc;" horiz-adv-x="1364" d="M1195 68q0 -68 -62 -68h-45q-60 0 -79 48q-21 55 -45 153q-42 -105 -142.5 -165.5t-250.5 -60.5q-196 0 -289 122.5t-93 361.5v603q0 28 17.5 47t49.5 19h110q66 0 66 -66v-592q0 -239 111 -276q36 -12 85.5 -12t102 23t94.5 61q94 87 94 199v597q0 28 17 47t54 19h105 q35 0 51 -19t16 -47v-625q0 -211 30 -340q3 -11 3 -29zM921 1317q-61 0 -105 45q-44 43 -44 108q0 99 91 139q27 12 58 12q61 0 105 -44t44 -91.5t-12 -75.5t-32 -48q-43 -45 -105 -45zM425 1317q-61 0 -105 45q-44 43 -44 108q0 99 91 139q27 12 58 12q61 0 105 -44 t44 -91.5t-12 -75.5t-32 -48q-43 -45 -105 -45z" />
<glyph unicode="&#xfd;" horiz-adv-x="1193" d="M1046 1128q64 0 64 -63q0 -73 -76 -323l-62 -191q-219 -628 -543 -1034l-20 -25q-46 -59 -94 -59q-51 0 -118 71q-19 20 -19 46q0 42 45 88.5t83 93t72 93.5q62 85 112 179q-156 421 -189 504l-109 271l-77 175q-43 100 -43 121.5t18.5 37t52.5 15.5h126q44 0 68 -50 q18 -37 49 -122q63 -184 92 -273l81 -265q12 -40 18 -64l9 -36q3 -12 7 -30l9 -38q5 -20 11 -20t13.5 12t15.5 31l17 42q104 267 197 748q12 65 75 65h115zM518 1291q-13 -8 -30 -8t-26 14l-49 68q-7 10 -7 23.5t20 31.5l309 281q25 23 47 23q35 0 52 -22l75 -95 q12 -15 11 -31q-1 -41 -39 -64z" />
<glyph unicode="&#xfe;" horiz-adv-x="1368" d="M266 -564q-63 0 -63 78v2194q0 27 15 46t38 19h136q23 0 38.5 -19t15.5 -46v-741q135 186 366 186q218 0 334 -161q105 -146 105 -389q0 -284 -137 -457q-135 -170 -342 -170q-106 0 -193 52.5t-140 148.5q10 -100 10 -254v-413q0 -74 -59 -74h-124zM453 713.5 q-22 -68.5 -22 -143t22 -144t61 -124.5q86 -120 213 -120q142 0 213 124q58 103 58 266q0 269 -138 346q-48 27 -117 27t-127 -30t-99.5 -81.5t-63.5 -120z" />
<glyph unicode="&#xff;" horiz-adv-x="1193" d="M1049 1128q64 0 64 -63q0 -73 -76 -323l-62 -191q-219 -628 -543 -1034l-20 -25q-46 -59 -94 -59q-51 0 -118 71q-19 20 -19 46q0 42 45 88.5t83 93t72 93.5q62 85 112 179q-156 421 -189 504l-109 271l-77 175q-43 100 -43 121.5t18.5 37t52.5 15.5h126q44 0 68 -50 q18 -37 49 -122q63 -184 92 -273l81 -265q12 -40 18 -64l9 -36q3 -12 7 -30l9 -38q5 -20 11 -20t13.5 12t15.5 31l17 42q104 267 197 748q12 65 75 65h115zM848 1319q-61 0 -105 45q-44 43 -44 108q0 99 91 139q27 12 58 12q61 0 105 -44t44 -91.5t-12 -75.5t-32 -48 q-43 -45 -105 -45zM352 1319q-61 0 -105 45q-44 43 -44 108q0 99 91 139q27 12 58 12q61 0 105 -44t44 -91.5t-12 -75.5t-32 -48q-43 -45 -105 -45z" />
<glyph unicode="&#x100;" horiz-adv-x="1536" d="M83 18.5q-15 18.5 -15 32t3 21.5l505 1358q34 89 109 100q26 3 62 3h17q68 0 94 -17q42 -26 65 -83l543 -1362q3 -8 3 -22.5t-12 -31.5t-40 -17h-140q-46 0 -64 43l-124 325h-657l-115 -325q-14 -43 -61 -43h-129q-29 0 -44 18.5zM1005 584l-239 650q-3 10 -12 10 t-12 -10l-232 -650h495zM442 1724.5q-13 10.5 -13 27.5v142q0 16 13 26.5t30 10.5h518q18 0 31 -10.5t13 -27.5v-142q0 -16 -13 -26.5t-31 -10.5h-518q-17 0 -30 10.5z" />
<glyph unicode="&#x101;" horiz-adv-x="1195" d="M1091 53q0 -53 -52 -53h-97q-39 0 -47 15.5t-9 28t-4 30.5q-6 49 -17 106q-78 -143 -245 -189q-59 -16 -130 -16t-142 23.5t-126 69.5q-124 104 -124 273q0 185 136 283q112 79 288 79t298 -103q3 34 3 85t-20 102t-57 85q-76 67 -212 67q-122 0 -248 -67 q-24 -13 -42 -13q-27 0 -52 53q-27 54 -27 78q0 44 66 85q126 78 337 78q192 0 318 -105q149 -126 149 -356q0 -102 -33 -257q85 -242 89 -382zM362.5 417q-17.5 -30 -17.5 -70.5t14.5 -72t40.5 -52.5q55 -43 123.5 -43t112.5 16t76 41q69 54 69 114q-6 75 -83 118 q-69 40 -163 40q-73 0 -114 -30.5t-58.5 -60.5zM305 1381.5q-13 10.5 -13 27.5v130q0 16 13 26.5t30 10.5h518q18 0 31 -10.5t13 -27.5v-130q0 -16 -13 -26.5t-31 -10.5h-518q-17 0 -30 10.5z" />
<glyph unicode="&#x102;" horiz-adv-x="1536" d="M83 18.5q-15 18.5 -15 32t3 21.5l505 1358q34 89 109 100q26 3 62 3h17q68 0 94 -17q42 -26 65 -83l543 -1362q3 -8 3 -22.5t-12 -31.5t-40 -17h-140q-46 0 -64 43l-124 325h-657l-115 -325q-14 -43 -61 -43h-129q-29 0 -44 18.5zM1005 584l-239 650q-3 10 -12 10 t-12 -10l-232 -650h495zM728 1662q-73 0 -135.5 21.5t-109.5 59.5q-102 82 -102 206q0 34 53 37l108 5q37 3 40 -31q5 -74 57 -106q35 -22 86 -22q89 0 126 54q16 24 20 57q5 51 54 48l94 -5q49 -4 49 -42q0 -117 -95 -198q-98 -84 -245 -84z" />
<glyph unicode="&#x103;" horiz-adv-x="1195" d="M1091 53q0 -53 -52 -53h-97q-39 0 -47 15.5t-9 28t-4 30.5q-6 49 -17 106q-78 -143 -245 -189q-59 -16 -130 -16t-142 23.5t-126 69.5q-124 104 -124 273q0 185 136 283q112 79 288 79t298 -103q3 34 3 85t-20 102t-57 85q-76 67 -212 67q-122 0 -248 -67 q-24 -13 -42 -13q-27 0 -52 53q-27 54 -27 78q0 44 66 85q126 78 337 78q192 0 318 -105q149 -126 149 -356q0 -102 -33 -257q85 -242 89 -382zM362.5 417q-17.5 -30 -17.5 -70.5t14.5 -72t40.5 -52.5q55 -43 123.5 -43t112.5 16t76 41q69 54 69 114q-6 75 -83 118 q-69 40 -163 40q-73 0 -114 -30.5t-58.5 -60.5zM375 1652l23 1q37 0 40 -31q14 -163 152 -163q133 0 150 158q3 36 47 36l93 -5q49 -4 49 -42q0 -127 -93 -218q-99 -98 -247 -98q-234 0 -322 195q-25 56 -25 96.5t9 52.5t44 14z" />
<glyph unicode="&#x104;" horiz-adv-x="1536" d="M1465 -279q49 0 49 -90q0 -88 -148 -107q-31 -4 -65 -4t-76 11t-78 35q-84 58 -84 161q0 161 187 276q-25 8 -37 40l-124 325h-657l-115 -325q-14 -43 -61 -43h-129q-29 0 -44 18.5t-15 32t3 21.5l505 1358q34 89 109 100q26 3 62 3h17q68 0 94 -17q42 -26 65 -83 l543 -1362q3 -8 3 -19q0 -27 -23 -44l-58 -43q-134 -99 -134 -195q0 -74 97 -74q32 0 69.5 12.5t44.5 12.5zM1005 584l-239 650q-3 10 -12 10t-12 -10l-232 -650h495z" />
<glyph unicode="&#x105;" horiz-adv-x="1195" d="M1069 -284q48 0 48 -71q0 -47 -14 -66.5t-34 -30t-43 -16.5q-41 -9 -88.5 -9t-89.5 14t-75 40q-74 58 -74 152q0 150 198 306q-10 76 -32 145q-78 -143 -245 -189q-59 -16 -130 -16t-142 23.5t-126 69.5q-124 104 -124 273q0 185 136 283q112 79 288 79t298 -103 q3 34 3 85t-20 102t-57 85q-76 67 -212 67q-122 0 -248 -67q-24 -13 -42 -13q-27 0 -52 53q-27 54 -27 78q0 44 66 85q126 78 337 78q192 0 318 -105q149 -126 149 -356q0 -102 -33 -257q85 -242 89 -382q0 -31 -19.5 -44t-48.5 -36.5t-58 -54.5q-73 -80 -73 -140 q0 -80 85 -80q28 0 53 9t39 9zM362.5 417q-17.5 -30 -17.5 -70.5t14.5 -72t40.5 -52.5q55 -43 123.5 -43t112.5 16t76 41q69 54 69 114q-6 75 -83 118q-69 40 -163 40q-73 0 -114 -30.5t-58.5 -60.5z" />
<glyph unicode="&#x106;" horiz-adv-x="1362" d="M1314 1208q0 -124 -110 -124h-69q-32 0 -49.5 23.5t-20 65t-25.5 76t-59 55.5q-67 39 -178 39t-193 -46.5t-132 -124.5q-96 -146 -96 -390q0 -439 286 -552q88 -34 172 -34q152 0 268 55l56 26q27 12 48 12t34 -10t32.5 -47.5t19.5 -65t-19 -54t-47 -46.5 q-49 -32 -118 -53q-126 -38 -294.5 -38t-301 61t-222.5 169q-185 220 -185 577q0 352 187 562q191 216 526 216q184 0 326 -82q164 -94 164 -270zM738 1631q-40 -14 -57 20l-31 67q-15 30 15 47l367 211q24 16 45 16q40 0 51 -26l54 -115q8 -16 8 -30q0 -37 -43 -52z" />
<glyph unicode="&#x107;" horiz-adv-x="1193" d="M935 683q-82 0 -82 81q0 93 -57 142q-49 43 -131.5 43t-136.5 -34t-88 -87q-66 -104 -66 -250q0 -273 166 -358q60 -31 133 -31t120 16t84 35t64.5 35t45.5 16q36 0 57 -33l22 -37q15 -26 15 -50.5t-20 -51t-53.5 -48.5t-76.5 -40t-89 -31q-220 -59 -402 18 q-204 86 -281 308q-38 110 -38 246t40.5 244t112.5 183q149 154 389 154q212 0 325 -111q95 -95 95 -238q0 -121 -124 -121h-24zM593 1289q-13 -8 -30 -8t-26 14l-49 68q-7 10 -7 23.5t20 31.5l309 281q25 23 47 23q35 0 52 -22l75 -95q12 -15 11 -31q-1 -41 -39 -64z" />
<glyph unicode="&#x108;" horiz-adv-x="1362" d="M1314 1208q0 -124 -110 -124h-69q-32 0 -49.5 23.5t-20 65t-25.5 76t-59 55.5q-67 39 -178 39t-193 -46.5t-132 -124.5q-96 -146 -96 -390q0 -439 286 -552q88 -34 172 -34q152 0 268 55l56 26q27 12 48 12t34 -10t32.5 -47.5t19.5 -65t-19 -54t-47 -46.5 q-49 -32 -118 -53q-126 -38 -294.5 -38t-301 61t-222.5 169q-185 220 -185 577q0 352 187 562q191 216 526 216q184 0 326 -82q164 -94 164 -270zM546 1663q-11 -8 -26 -8t-27 13l-53 57q-9 10 -9 26.5t13 27.5l200 180q25 23 53 23h183q30 0 55 -23l198 -178 q17 -13 17 -31.5t-14 -33.5l-40 -44q-15 -16 -30.5 -16t-25.5 7l-253 166z" />
<glyph unicode="&#x109;" horiz-adv-x="1193" d="M935 683q-82 0 -82 81q0 93 -57 142q-49 43 -131.5 43t-136.5 -34t-88 -87q-66 -104 -66 -250q0 -273 166 -358q60 -31 133 -31t120 16t84 35t64.5 35t45.5 16q36 0 57 -33l22 -37q15 -26 15 -50.5t-20 -51t-53.5 -48.5t-76.5 -40t-89 -31q-220 -59 -402 18 q-204 86 -281 308q-38 110 -38 246t40.5 244t112.5 183q149 154 389 154q212 0 325 -111q95 -95 95 -238q0 -121 -124 -121h-24zM399 1287q-15 0 -30 13l-56 48q-18 15 -18 29q0 16 13 32l198 243q36 45 86 45h102q48 0 87 -47l190 -240q13 -18 13 -34t-17 -30l-53 -43 q-21 -17 -34 -17t-25 11l-214 204l-210 -199q-17 -15 -32 -15z" />
<glyph unicode="&#x10a;" horiz-adv-x="1362" d="M1314 1208q0 -124 -110 -124h-69q-32 0 -49.5 23.5t-20 65t-25.5 76t-59 55.5q-67 39 -178 39t-193 -46.5t-132 -124.5q-96 -146 -96 -390q0 -439 286 -552q88 -34 172 -34q152 0 268 55l56 26q27 12 48 12t34 -10t32.5 -47.5t19.5 -65t-19 -54t-47 -46.5 q-49 -32 -118 -53q-126 -38 -294.5 -38t-301 61t-222.5 169q-185 220 -185 577q0 352 187 562q191 216 526 216q184 0 326 -82q164 -94 164 -270zM789 1667q-68 0 -116 47q-48 46 -48 116q0 68 48 116q46 46 116 46q107 0 150 -98q13 -29 13 -64q0 -70 -48 -116 q-48 -47 -115 -47z" />
<glyph unicode="&#x10b;" horiz-adv-x="1193" d="M935 683q-82 0 -82 81q0 93 -57 142q-49 43 -131.5 43t-136.5 -34t-88 -87q-66 -104 -66 -250q0 -273 166 -358q60 -31 133 -31t120 16t84 35t64.5 35t45.5 16q36 0 57 -33l22 -37q15 -26 15 -50.5t-20 -51t-53.5 -48.5t-76.5 -40t-89 -31q-220 -59 -402 18 q-204 86 -281 308q-38 110 -38 246t40.5 244t112.5 183q149 154 389 154q212 0 325 -111q95 -95 95 -238q0 -121 -124 -121h-24zM635 1306q-68 0 -116 46q-48 47 -48 117q0 68 48 116q46 46 116 46q107 0 150 -97q13 -30 13 -65q0 -70 -48 -117q-48 -46 -115 -46z" />
<glyph unicode="&#x10c;" horiz-adv-x="1362" d="M1314 1208q0 -124 -110 -124h-69q-32 0 -49.5 23.5t-20 65t-25.5 76t-59 55.5q-67 39 -178 39t-193 -46.5t-132 -124.5q-96 -146 -96 -390q0 -439 286 -552q88 -34 172 -34q152 0 268 55l56 26q27 12 48 12t34 -10t32.5 -47.5t19.5 -65t-19 -54t-47 -46.5 q-49 -32 -118 -53q-126 -38 -294.5 -38t-301 61t-222.5 169q-185 220 -185 577q0 352 187 562q191 216 526 216q184 0 326 -82q164 -94 164 -270zM681 1658q-30 0 -55 23l-198 178q-17 14 -17 32t14 33l40 44q15 16 30.5 16t25.5 -7l255 -166l248 173q11 8 26 8t27 -13 l53 -57q9 -11 9 -27t-13 -27l-209 -187q-25 -23 -53 -23h-183z" />
<glyph unicode="&#x10d;" horiz-adv-x="1193" d="M935 683q-82 0 -82 81q0 93 -57 142q-49 43 -131.5 43t-136.5 -34t-88 -87q-66 -104 -66 -250q0 -273 166 -358q60 -31 133 -31t120 16t84 35t64.5 35t45.5 16q36 0 57 -33l22 -37q15 -26 15 -50.5t-20 -51t-53.5 -48.5t-76.5 -40t-89 -31q-220 -59 -402 18 q-204 86 -281 308q-38 110 -38 246t40.5 244t112.5 183q149 154 389 154q212 0 325 -111q95 -95 95 -238q0 -121 -124 -121h-24zM590 1280q-46 0 -87 47l-189 228q-14 16 -14 30.5t16 31.5l55 56q32 32 59 6l213 -203l214 206q16 15 32.5 15t29.5 -13l63 -65q24 -24 -2 -55 l-202 -239q-38 -45 -86 -45h-102z" />
<glyph unicode="&#x10e;" horiz-adv-x="1533" d="M238 1446q0 35 23.5 61t65.5 26h317q396 0 596 -196q190 -188 190 -537q0 -373 -213.5 -586.5t-590.5 -213.5h-299q-42 0 -65.5 26.5t-23.5 61.5v1358zM674 1313h-50q-33 0 -135 -3v-1089l163 -3h6q387 0 476 334q29 108 29 239.5t-31.5 227t-93.5 161.5 q-125 133 -364 133zM644 1658q-30 0 -55 23l-198 178q-17 14 -17 32t14 33l40 44q15 16 30.5 16t25.5 -7l255 -166l248 173q11 8 26 8t27 -13l53 -57q9 -11 9 -27t-13 -27l-209 -187q-25 -23 -53 -23h-183z" />
<glyph unicode="&#x10f;" horiz-adv-x="1533" d="M931 987v723q0 26 15.5 44.5t38.5 18.5h139q23 0 38 -18.5t15 -44.5v-1282q0 -202 32 -335q3 -14 3 -35.5t-18.5 -39.5t-47.5 -18h-49q-59 0 -79 48q-26 61 -43 161q-77 -163 -259 -217q-60 -17 -149.5 -17t-178 46t-150.5 125q-127 164 -127 408q0 252 123 418 q133 181 355 181t342 -166zM367 547q0 -68 16.5 -133t50.5 -116q76 -116 210 -116q122 0 214 106q98 110 98 260q0 182 -95 292q-91 105 -224 105q-139 0 -211 -131q-59 -110 -59 -267zM1406 1530q-77 24 -77 124q0 88 86 120q25 10 56 10t56 -13t43 -35q35 -45 35 -93.5 t-9.5 -88.5t-25.5 -80q-34 -88 -66.5 -137t-42.5 -59q-23 -25 -39 -25q-24 0 -50 13q-38 19 -38 40q0 13 11 39l18 43q30 71 43 142z" />
<glyph unicode="&#x110;" horiz-adv-x="1533" d="M238 656h-146q-17 0 -30 10.5t-13 27.5v134q0 16 13 26.5t30 10.5h146v581q0 35 23.5 61t65.5 26h317q396 0 596 -196q190 -188 190 -537q0 -373 -213.5 -586.5t-590.5 -213.5h-299q-42 0 -65.5 26.5t-23.5 61.5v568zM674 1313h-50q-33 0 -135 -3v-445h294q18 0 31 -10.5 t13 -27.5v-123q0 -24 -13 -36t-31 -12h-294v-435l163 -3h6q387 0 476 334q29 108 29 239.5t-31.5 227t-93.5 161.5q-125 133 -364 133z" />
<glyph unicode="&#x111;" horiz-adv-x="1364" d="M931 987v401h-331q-17 0 -30 10.5t-13 27.5v112q0 16 13 26.5t30 10.5h331v135q0 26 15.5 44.5t38.5 18.5h139q23 0 38 -18.5t15 -44.5v-135h110q18 0 31 -10.5t13 -27.5v-112q0 -16 -13 -26.5t-31 -10.5h-110v-960q0 -202 32 -335q3 -14 3 -35.5t-18.5 -39.5t-47.5 -18 h-49q-59 0 -79 48q-26 61 -43 161q-77 -163 -259 -217q-60 -17 -149.5 -17t-178 46t-150.5 125q-127 164 -127 408q0 252 123 418q133 181 355 181t342 -166zM367 547q0 -68 16.5 -133t50.5 -116q76 -116 210 -116q122 0 214 106q98 110 98 260q0 182 -95 292 q-91 105 -224 105q-139 0 -211 -131q-59 -110 -59 -267z" />
<glyph unicode="&#x112;" horiz-adv-x="1362" d="M234 1469q0 26 16.5 45t39.5 19h879q26 0 39.5 -16.5t13.5 -40.5v-108q0 -23 -13.5 -39.5t-39.5 -16.5h-684v-438h544q26 0 39.5 -16.5t13.5 -40.5v-108q0 -23 -13.5 -39.5t-39.5 -16.5h-544v-432h689q26 0 39.5 -16.5t13.5 -40.5v-108q0 -23 -13.5 -39.5t-39.5 -16.5 h-885q-23 0 -39 19t-16 45v1405zM443 1724.5q-13 10.5 -13 27.5v142q0 16 13 26.5t30 10.5h518q18 0 31 -10.5t13 -27.5v-142q0 -16 -13 -26.5t-31 -10.5h-518q-17 0 -30 10.5z" />
<glyph unicode="&#x113;" horiz-adv-x="1195" d="M352 509l-1 -19q0 -137 87 -220q91 -88 247 -88q142 0 264 85q23 16 41 16q37 0 56 -37l27 -56q9 -20 9 -43t-20.5 -47.5t-53.5 -44.5t-76.5 -35t-89.5 -25q-92 -20 -192 -20t-201.5 38t-175.5 111q-159 155 -159 419q0 463 326 576q102 35 209.5 35t183 -23t130.5 -68 q116 -95 116 -265q0 -167 -136 -255q-119 -77 -314 -77q-120 0 -277 43zM844 801q0 143 -192 143q-183 0 -256 -134q-26 -47 -34 -116q86 -43 219 -43q263 0 263 150zM345 1381.5q-13 10.5 -13 27.5v130q0 16 13 26.5t30 10.5h518q18 0 31 -10.5t13 -27.5v-130 q0 -16 -13 -26.5t-31 -10.5h-518q-17 0 -30 10.5z" />
<glyph unicode="&#x114;" horiz-adv-x="1362" d="M234 1469q0 26 16.5 45t39.5 19h879q26 0 39.5 -16.5t13.5 -40.5v-108q0 -23 -13.5 -39.5t-39.5 -16.5h-684v-438h544q26 0 39.5 -16.5t13.5 -40.5v-108q0 -23 -13.5 -39.5t-39.5 -16.5h-544v-432h689q26 0 39.5 -16.5t13.5 -40.5v-108q0 -23 -13.5 -39.5t-39.5 -16.5 h-885q-23 0 -39 19t-16 45v1405zM737 1662q-73 0 -135.5 21.5t-109.5 59.5q-102 82 -102 206q0 34 53 37l108 5q37 3 40 -31q5 -74 57 -106q35 -22 86 -22q89 0 126 54q16 24 20 57q5 51 54 48l94 -5q49 -4 49 -42q0 -117 -95 -198q-98 -84 -245 -84z" />
<glyph unicode="&#x115;" horiz-adv-x="1195" d="M352 509l-1 -19q0 -137 87 -220q91 -88 247 -88q142 0 264 85q23 16 41 16q37 0 56 -37l27 -56q9 -20 9 -43t-20.5 -47.5t-53.5 -44.5t-76.5 -35t-89.5 -25q-92 -20 -192 -20t-201.5 38t-175.5 111q-159 155 -159 419q0 463 326 576q102 35 209.5 35t183 -23t130.5 -68 q116 -95 116 -265q0 -167 -136 -255q-119 -77 -314 -77q-120 0 -277 43zM844 801q0 143 -192 143q-183 0 -256 -134q-26 -47 -34 -116q86 -43 219 -43q263 0 263 150zM409 1652l23 1q37 0 40 -31q14 -163 152 -163q133 0 150 158q3 36 47 36l93 -5q49 -4 49 -42 q0 -127 -93 -218q-99 -98 -247 -98q-234 0 -322 195q-25 56 -25 96.5t9 52.5t44 14z" />
<glyph unicode="&#x116;" horiz-adv-x="1362" d="M234 1469q0 26 16.5 45t39.5 19h879q26 0 39.5 -16.5t13.5 -40.5v-108q0 -23 -13.5 -39.5t-39.5 -16.5h-684v-438h544q26 0 39.5 -16.5t13.5 -40.5v-108q0 -23 -13.5 -39.5t-39.5 -16.5h-544v-432h689q26 0 39.5 -16.5t13.5 -40.5v-108q0 -23 -13.5 -39.5t-39.5 -16.5 h-885q-23 0 -39 19t-16 45v1405zM741 1667q-68 0 -116 47q-48 46 -48 116q0 68 48 116q46 46 116 46q107 0 150 -98q13 -29 13 -64q0 -70 -48 -116q-48 -47 -115 -47z" />
<glyph unicode="&#x117;" horiz-adv-x="1195" d="M352 509l-1 -19q0 -137 87 -220q91 -88 247 -88q142 0 264 85q23 16 41 16q37 0 56 -37l27 -56q9 -20 9 -43t-20.5 -47.5t-53.5 -44.5t-76.5 -35t-89.5 -25q-92 -20 -192 -20t-201.5 38t-175.5 111q-159 155 -159 419q0 463 326 576q102 35 209.5 35t183 -23t130.5 -68 q116 -95 116 -265q0 -167 -136 -255q-119 -77 -314 -77q-120 0 -277 43zM844 801q0 143 -192 143q-183 0 -256 -134q-26 -47 -34 -116q86 -43 219 -43q263 0 263 150zM626 1306q-68 0 -116 46q-48 47 -48 117q0 68 48 116q46 46 116 46q107 0 150 -97q13 -30 13 -65 q0 -70 -48 -117q-48 -46 -115 -46z" />
<glyph unicode="&#x118;" horiz-adv-x="1362" d="M1182 -279q49 0 49 -90q0 -30 -18 -54.5t-69 -40.5t-101.5 -16t-92.5 11t-78 35q-84 58 -84 161q0 124 122 223q35 29 72 50h-693q-23 0 -39 19t-16 45v1405q0 26 16.5 45t39.5 19h879q26 0 39.5 -16.5t13.5 -40.5v-108q0 -23 -13.5 -39.5t-39.5 -16.5h-684v-438h544 q26 0 39.5 -16.5t13.5 -40.5v-108q0 -23 -13.5 -39.5t-39.5 -16.5h-544v-432h689q26 0 39.5 -16.5t13.5 -40.5v-108q0 -40 -25 -50t-63 -34.5t-73 -57.5q-86 -81 -86 -149.5t86 -68.5q31 0 70 12.5t46 12.5z" />
<glyph unicode="&#x119;" horiz-adv-x="1195" d="M577 -271q0 137 147 249q-30 -3 -56 -3q-243 0 -395 149q-159 155 -159 419q0 463 326 576q102 35 209.5 35t183 -23t130.5 -68q116 -95 116 -265q0 -167 -136 -255q-119 -77 -314 -77q-120 0 -277 43l-1 -19q0 -137 87 -220q91 -88 247 -88q142 0 264 85q23 16 41 16 q37 0 56 -37l27 -56q9 -20 9 -36q0 -61 -89 -108h1q-80 -48 -134 -110.5t-72.5 -95.5t-18.5 -70q0 -74 86 -74q29 0 73 12.5t51 12.5q49 0 49 -88t-148 -107q-31 -4 -65 -4t-76 11t-78 35q-84 58 -84 161zM844 801q0 143 -192 143q-183 0 -256 -134q-26 -47 -34 -116 q86 -43 219 -43q263 0 263 150z" />
<glyph unicode="&#x11a;" horiz-adv-x="1362" d="M234 1469q0 26 16.5 45t39.5 19h879q26 0 39.5 -16.5t13.5 -40.5v-108q0 -23 -13.5 -39.5t-39.5 -16.5h-684v-438h544q26 0 39.5 -16.5t13.5 -40.5v-108q0 -23 -13.5 -39.5t-39.5 -16.5h-544v-432h689q26 0 39.5 -16.5t13.5 -40.5v-108q0 -23 -13.5 -39.5t-39.5 -16.5 h-885q-23 0 -39 19t-16 45v1405zM640 1658q-30 0 -55 23l-198 178q-17 14 -17 32t14 33l40 44q15 16 30.5 16t25.5 -7l255 -166l248 173q11 8 26 8t27 -13l53 -57q9 -11 9 -27t-13 -27l-209 -187q-25 -23 -53 -23h-183z" />
<glyph unicode="&#x11b;" horiz-adv-x="1195" d="M352 509l-1 -19q0 -137 87 -220q91 -88 247 -88q142 0 264 85q23 16 41 16q37 0 56 -37l27 -56q9 -20 9 -43t-20.5 -47.5t-53.5 -44.5t-76.5 -35t-89.5 -25q-92 -20 -192 -20t-201.5 38t-175.5 111q-159 155 -159 419q0 463 326 576q102 35 209.5 35t183 -23t130.5 -68 q116 -95 116 -265q0 -167 -136 -255q-119 -77 -314 -77q-120 0 -277 43zM844 801q0 143 -192 143q-183 0 -256 -134q-26 -47 -34 -116q86 -43 219 -43q263 0 263 150zM580 1280q-46 0 -87 47l-189 228q-14 16 -14 30.5t16 31.5l55 56q32 32 59 6l213 -203l214 206 q16 15 32.5 15t29.5 -13l63 -65q24 -24 -2 -55l-202 -239q-38 -45 -86 -45h-102z" />
<glyph unicode="&#x11c;" horiz-adv-x="1533" d="M189.5 443q-50.5 150 -50.5 335t52.5 329t146.5 244q196 207 520 207q263 0 418 -124q66 -54 97.5 -116t31.5 -95.5t-1.5 -53.5t-11.5 -39q-25 -45 -94 -45h-86q-30 0 -39 17q-11 20 -15 53.5t-19.5 64.5t-50.5 58q-82 63 -216.5 63t-217.5 -42.5t-138 -117.5 q-108 -149 -108 -398t98 -405q114 -179 335 -179q239 0 295 129q17 37 17 72.5t-10 70.5t-35 67q-56 76 -167 103q-32 8 -57.5 30.5t-25.5 63.5v35q0 20 16 34.5t39 14.5h468q56 0 56 -49v-109q0 -20 -16.5 -32t-39.5 -12h-146q111 -50 149 -167q14 -43 14 -87.5t-12 -85.5 t-39 -83t-70.5 -81.5t-106.5 -70.5q-139 -67 -317 -67t-305 55t-217.5 159t-141 254zM558 1663q-11 -8 -26 -8t-27 13l-53 57q-9 10 -9 26.5t13 27.5l200 180q25 23 53 23h183q30 0 55 -23l198 -178q17 -13 17 -31.5t-14 -33.5l-40 -44q-15 -16 -30.5 -16t-25.5 7l-253 166z " />
<glyph unicode="&#x11d;" horiz-adv-x="1193" d="M459 107q94 46 199.5 46t188 -19.5t148.5 -61.5q148 -94 148 -263q0 -176 -168 -283q-149 -94 -358 -94q-213 0 -355 92q-153 100 -153 272q0 209 221 404q86 75 190 135q-163 15 -278 115q-129 113 -129 281q0 193 145 313q133 109 317 109q198 0 311 -107 q35 -33 56 -75q0 92 -23.5 190.5t-23.5 117.5t7.5 30.5t17.5 17.5q15 9 34 9h86q83 0 83 -231q0 -185 -74 -341q2 -22 2 -58t-16 -84t-42.5 -89.5t-61 -76.5t-73 -65t-77.5 -55q-219 -139 -262 -173.5t-60 -55.5zM492.5 526.5q45.5 -15.5 97 -15.5t94.5 15.5t76 45.5 q70 63 70 162q0 101 -78 159q-69 51 -170 51q-160 0 -221 -119q-20 -39 -20 -90.5t19 -92.5t53 -70.5t79.5 -45zM365 -78q-37 -42 -37 -93t25 -87t66 -60q79 -45 198 -45q188 0 262 93q24 31 24 78t-29.5 80t-73.5 51q-73 30 -190 30q-180 0 -245 -47zM321 1287 q-15 0 -30 13l-56 48q-18 15 -18 29q0 16 13 32l198 243q36 45 86 45h102q48 0 87 -47l190 -240q13 -18 13 -34t-17 -30l-53 -43q-21 -17 -34 -17t-25 11l-214 204l-210 -199q-17 -15 -32 -15z" />
<glyph unicode="&#x11e;" horiz-adv-x="1533" d="M189.5 443q-50.5 150 -50.5 335t52.5 329t146.5 244q196 207 520 207q263 0 418 -124q66 -54 97.5 -116t31.5 -95.5t-1.5 -53.5t-11.5 -39q-25 -45 -94 -45h-86q-30 0 -39 17q-11 20 -15 53.5t-19.5 64.5t-50.5 58q-82 63 -216.5 63t-217.5 -42.5t-138 -117.5 q-108 -149 -108 -398t98 -405q114 -179 335 -179q239 0 295 129q17 37 17 72.5t-10 70.5t-35 67q-56 76 -167 103q-32 8 -57.5 30.5t-25.5 63.5v35q0 20 16 34.5t39 14.5h468q56 0 56 -49v-109q0 -20 -16.5 -32t-39.5 -12h-146q111 -50 149 -167q14 -43 14 -87.5t-12 -85.5 t-39 -83t-70.5 -81.5t-106.5 -70.5q-139 -67 -317 -67t-305 55t-217.5 159t-141 254zM793 1662q-73 0 -135.5 21.5t-109.5 59.5q-102 82 -102 206q0 34 53 37l108 5q37 3 40 -31q5 -74 57 -106q35 -22 86 -22q89 0 126 54q16 24 20 57q5 51 54 48l94 -5q49 -4 49 -42 q0 -117 -95 -198q-98 -84 -245 -84z" />
<glyph unicode="&#x11f;" horiz-adv-x="1193" d="M459 107q94 46 199.5 46t188 -19.5t148.5 -61.5q148 -94 148 -263q0 -176 -168 -283q-149 -94 -358 -94q-213 0 -355 92q-153 100 -153 272q0 209 221 404q86 75 190 135q-163 15 -278 115q-129 113 -129 281q0 193 145 313q133 109 317 109q198 0 311 -107 q35 -33 56 -75q0 92 -23.5 190.5t-23.5 117.5t7.5 30.5t17.5 17.5q15 9 34 9h86q83 0 83 -231q0 -185 -74 -341q2 -22 2 -58t-16 -84t-42.5 -89.5t-61 -76.5t-73 -65t-77.5 -55q-219 -139 -262 -173.5t-60 -55.5zM492.5 526.5q45.5 -15.5 97 -15.5t94.5 15.5t76 45.5 q70 63 70 162q0 101 -78 159q-69 51 -170 51q-160 0 -221 -119q-20 -39 -20 -90.5t19 -92.5t53 -70.5t79.5 -45zM365 -78q-37 -42 -37 -93t25 -87t66 -60q79 -45 198 -45q188 0 262 93q24 31 24 78t-29.5 80t-73.5 51q-73 30 -190 30q-180 0 -245 -47zM352 1652l23 1 q37 0 40 -31q14 -163 152 -163q133 0 150 158q3 36 47 36l93 -5q49 -4 49 -42q0 -127 -93 -218q-99 -98 -247 -98q-234 0 -322 195q-25 56 -25 96.5t9 52.5t44 14z" />
<glyph unicode="&#x120;" horiz-adv-x="1533" d="M189.5 443q-50.5 150 -50.5 335t52.5 329t146.5 244q196 207 520 207q263 0 418 -124q66 -54 97.5 -116t31.5 -95.5t-1.5 -53.5t-11.5 -39q-25 -45 -94 -45h-86q-30 0 -39 17q-11 20 -15 53.5t-19.5 64.5t-50.5 58q-82 63 -216.5 63t-217.5 -42.5t-138 -117.5 q-108 -149 -108 -398t98 -405q114 -179 335 -179q239 0 295 129q17 37 17 72.5t-10 70.5t-35 67q-56 76 -167 103q-32 8 -57.5 30.5t-25.5 63.5v35q0 20 16 34.5t39 14.5h468q56 0 56 -49v-109q0 -20 -16.5 -32t-39.5 -12h-146q111 -50 149 -167q14 -43 14 -87.5t-12 -85.5 t-39 -83t-70.5 -81.5t-106.5 -70.5q-139 -67 -317 -67t-305 55t-217.5 159t-141 254zM846 1667q-68 0 -116 47q-48 46 -48 116q0 68 48 116q46 46 116 46q107 0 150 -98q13 -29 13 -64q0 -70 -48 -116q-48 -47 -115 -47z" />
<glyph unicode="&#x121;" horiz-adv-x="1193" d="M459 107q94 46 199.5 46t188 -19.5t148.5 -61.5q148 -94 148 -263q0 -176 -168 -283q-149 -94 -358 -94q-213 0 -355 92q-153 100 -153 272q0 209 221 404q86 75 190 135q-163 15 -278 115q-129 113 -129 281q0 193 145 313q133 109 317 109q198 0 311 -107 q35 -33 56 -75q0 92 -23.5 190.5t-23.5 117.5t7.5 30.5t17.5 17.5q15 9 34 9h86q83 0 83 -231q0 -185 -74 -341q2 -22 2 -58t-16 -84t-42.5 -89.5t-61 -76.5t-73 -65t-77.5 -55q-219 -139 -262 -173.5t-60 -55.5zM492.5 526.5q45.5 -15.5 97 -15.5t94.5 15.5t76 45.5 q70 63 70 162q0 101 -78 159q-69 51 -170 51q-160 0 -221 -119q-20 -39 -20 -90.5t19 -92.5t53 -70.5t79.5 -45zM365 -78q-37 -42 -37 -93t25 -87t66 -60q79 -45 198 -45q188 0 262 93q24 31 24 78t-29.5 80t-73.5 51q-73 30 -190 30q-180 0 -245 -47zM599 1306 q-68 0 -116 46q-48 47 -48 117q0 68 48 116q46 46 116 46q107 0 150 -97q13 -30 13 -65q0 -70 -48 -117q-48 -46 -115 -46z" />
<glyph unicode="&#x122;" horiz-adv-x="1533" d="M189.5 443q-50.5 150 -50.5 335t52.5 329t146.5 244q196 207 520 207q263 0 418 -124q66 -54 97.5 -116t31.5 -95.5t-1.5 -53.5t-11.5 -39q-25 -45 -94 -45h-86q-30 0 -39 17q-11 20 -15 53.5t-19.5 64.5t-50.5 58q-82 63 -216.5 63t-217.5 -42.5t-138 -117.5 q-108 -149 -108 -398t98 -405q114 -179 335 -179q239 0 295 129q17 37 17 72.5t-10 70.5t-35 67q-56 76 -167 103q-32 8 -57.5 30.5t-25.5 63.5v35q0 20 16 34.5t39 14.5h468q56 0 56 -49v-109q0 -20 -16.5 -32t-39.5 -12h-146q111 -50 149 -167q14 -43 14 -87.5t-12 -85.5 t-39 -83t-70.5 -81.5t-106.5 -70.5q-139 -67 -317 -67t-305 55t-217.5 159t-141 254zM694 -262q-8 20 -8 46.5t13 49t34 36.5q42 28 85.5 28t71.5 -10.5t49 -29.5q47 -44 47 -112q0 -108 -104 -257q-38 -57 -85 -57q-14 0 -28 7l-33 16q-21 11 -21 27q0 22 9 36.5t17.5 32 t17.5 38.5q23 55 25 76q-65 10 -90 73z" />
<glyph unicode="&#x123;" horiz-adv-x="1193" d="M459 107q94 46 199.5 46t188 -19.5t148.5 -61.5q148 -94 148 -263q0 -176 -168 -283q-149 -94 -358 -94q-213 0 -355 92q-153 100 -153 272q0 209 221 404q86 75 190 135q-163 15 -278 115q-129 113 -129 281q0 193 145 313q133 109 317 109q198 0 311 -107 q35 -33 56 -75q0 92 -23.5 190.5t-23.5 117.5t7.5 30.5t17.5 17.5q15 9 34 9h86q83 0 83 -231q0 -185 -74 -341q2 -22 2 -58t-16 -84t-42.5 -89.5t-61 -76.5t-73 -65t-77.5 -55q-219 -139 -262 -173.5t-60 -55.5zM492.5 526.5q45.5 -15.5 97 -15.5t94.5 15.5t76 45.5 q70 63 70 162q0 101 -78 159q-69 51 -170 51q-160 0 -221 -119q-20 -39 -20 -90.5t19 -92.5t53 -70.5t79.5 -45zM365 -78q-37 -42 -37 -93t25 -87t66 -60q79 -45 198 -45q188 0 262 93q24 31 24 78t-29.5 80t-73.5 51q-73 30 -190 30q-180 0 -245 -47zM735 1454 q8 -20 8 -46.5t-13 -49t-34 -36.5q-42 -28 -85.5 -28t-71.5 10.5t-49 29.5q-47 44 -47 112q0 108 104 257q38 57 85 57q14 0 28 -7l33 -16q21 -11 21 -27q0 -22 -9 -36.5t-17.5 -32t-17.5 -38.5q-23 -55 -25 -76q65 -10 90 -73z" />
<glyph unicode="&#x124;" horiz-adv-x="1699" d="M226 1469q0 26 16.5 45t39.5 19h140q23 0 39 -19t16 -45v-598h745v598q0 26 16.5 45t39.5 19h140q23 0 39 -19t16 -45v-1404q0 -26 -16.5 -45t-39.5 -19h-140q-23 0 -39 19t-16 45v585h-745v-586q0 -26 -16.5 -45t-39.5 -19h-140q-23 0 -39 19t-16 45v1405zM615 1663 q-11 -8 -26 -8t-27 13l-53 57q-9 10 -9 26.5t13 27.5l200 180q25 23 53 23h183q30 0 55 -23l198 -178q17 -13 17 -31.5t-14 -33.5l-40 -44q-15 -16 -30.5 -16t-25.5 7l-253 166z" />
<glyph unicode="&#x125;" horiz-adv-x="1364" d="M613 1623q-15 0 -30 13l-56 48q-18 15 -18 29q0 16 13 32l156 194q36 45 86 45h102q48 0 87 -47l153 -190q13 -18 13 -34t-17 -30l-53 -43q-21 -17 -34 -17t-25 11l-177 159l-168 -155q-17 -15 -32 -15zM214 1710q0 27 15.5 45t37.5 18h137q23 0 38 -18t15 -45v-757 q86 146 253 187q53 13 134.5 13t152.5 -35.5t113 -97.5q75 -113 75 -333v-621q0 -30 -18 -48t-53 -18h-98q-38 0 -56 19t-18 47v622q0 256 -188 256q-105 0 -198 -92q-99 -100 -99 -230v-556q0 -28 -17 -47t-55 -19h-109q-29 0 -45.5 19t-16.5 47v1644z" />
<glyph unicode="&#x126;" horiz-adv-x="1699" d="M226 1099h-93q-17 0 -30 10.5t-13 27.5v118q0 16 13 26.5t30 10.5h93v177q0 26 16.5 45t39.5 19h140q23 0 39 -19t16 -45v-177h745v177q0 26 16.5 45t39.5 19h140q23 0 39 -19t16 -45v-177h75q18 0 31 -10.5t13 -27.5v-118q0 -16 -13 -26.5t-31 -10.5h-75v-1034 q0 -26 -16.5 -45t-39.5 -19h-140q-23 0 -39 19t-16 45v585h-745v-586q0 -26 -16.5 -45t-39.5 -19h-140q-23 0 -39 19t-16 45v1035zM1222 871v228h-745v-228h745z" />
<glyph unicode="&#x127;" horiz-adv-x="1364" d="M214 1387h-141q-17 0 -30 10.5t-13 27.5v113q0 16 13 26.5t30 10.5h141v135q0 27 15.5 45t37.5 18h137q23 0 38 -18t15 -45v-135h332q18 0 31 -10.5t13 -27.5v-113q0 -16 -13 -26.5t-31 -10.5h-332v-434q86 146 253 187q53 13 134.5 13t152.5 -35.5t113 -97.5 q75 -113 75 -333v-621q0 -30 -18 -48t-53 -18h-98q-38 0 -56 19t-18 47v622q0 256 -188 256q-105 0 -198 -92q-99 -100 -99 -230v-556q0 -28 -17 -47t-55 -19h-109q-29 0 -45.5 19t-16.5 47v1321z" />
<glyph unicode="&#x128;" d="M227 1469q0 26 16.5 45t39.5 19h140q23 0 39 -19t16 -45v-1405q0 -26 -16.5 -45t-39.5 -19h-140q-23 0 -39 19t-16 45v1405zM-3 1691q-43 11 -32.5 53.5t30.5 81t50 70.5q66 74 149 74q69 0 153 -60l60 -42q27 -19 47 -19t32 7.5t21 18.5q20 22 27 47.5t18 47t28 21.5 t28 -3l75 -19q34 -11 38.5 -25t-1 -54t-27 -84.5t-52.5 -77.5q-69 -73 -154 -73q-77 0 -162 57l-58 41q-69 47 -116 -23q-9 -13 -14.5 -30.5t-24 -29t-47.5 -4.5z" />
<glyph unicode="&#x129;" d="M423 275q0 -71 47 -71q16 0 36 9q39 17 53 17q21 0 34 -29l31 -70q8 -17 8 -32q0 -43 -74 -80q-70 -36 -138.5 -36t-109.5 15t-70 50q-58 72 -58 234v780q0 28 16 47t38 19h134q23 0 38 -19t15 -47v-787zM102 1336.5q-13 -12.5 -24.5 -12.5t-15 0.5t-12.5 3.5t-26 9 l-44 16q-33 11 -33 42.5t18 71.5t49 77q75 88 163 88q69 0 153 -60l60 -42q27 -19 47 -19t32 7.5t21 18.5q20 22 27 48t18.5 46.5t38.5 20.5q3 0 15 -2l29 -7q72 -16 81.5 -29t9.5 -40.5t-17.5 -75t-49.5 -88.5q-72 -93 -172 -93q-77 0 -162 59l-58 41q-28 19 -52 19 q-54 0 -77 -70q-6 -17 -19 -29.5z" />
<glyph unicode="&#x12a;" d="M216 1469q0 26 16.5 45t39.5 19h140q23 0 39 -19t16 -45v-1405q0 -26 -16.5 -45t-39.5 -19h-140q-23 0 -39 19t-16 45v1405zM51 1724.5q-13 10.5 -13 27.5v142q0 16 13 26.5t30 10.5h518q18 0 31 -10.5t13 -27.5v-142q0 -16 -13 -26.5t-31 -10.5h-518q-17 0 -30 10.5z " />
<glyph unicode="&#x12b;" d="M423 275q0 -71 47 -71q16 0 36 9q39 17 53 17q21 0 34 -29l31 -70q8 -17 8 -32q0 -43 -74 -80q-70 -36 -138.5 -36t-109.5 15t-70 50q-58 72 -58 234v780q0 28 16 47t38 19h134q23 0 38 -19t15 -47v-787zM16 1381.5q-13 10.5 -13 27.5v130q0 16 13 26.5t30 10.5h518 q18 0 31 -10.5t13 -27.5v-130q0 -16 -13 -26.5t-31 -10.5h-518q-17 0 -30 10.5z" />
<glyph unicode="&#x12c;" d="M216 1469q0 26 16.5 45t39.5 19h140q23 0 39 -19t16 -45v-1405q0 -26 -16.5 -45t-39.5 -19h-140q-23 0 -39 19t-16 45v1405zM347 1662q-73 0 -135.5 21.5t-109.5 59.5q-102 82 -102 206q0 34 53 37l108 5q37 3 40 -31q5 -74 57 -106q35 -22 86 -22q89 0 126 54 q16 24 20 57q5 51 54 48l94 -5q49 -4 49 -42q0 -117 -95 -198q-98 -84 -245 -84z" />
<glyph unicode="&#x12d;" d="M423 275q0 -71 47 -71q16 0 36 9q39 17 53 17q21 0 34 -29l31 -70q8 -17 8 -32q0 -43 -74 -80q-70 -36 -138.5 -36t-109.5 15t-70 50q-58 72 -58 234v780q0 28 16 47t38 19h134q23 0 38 -19t15 -47v-787zM105 1652l23 1q37 0 40 -31q14 -163 152 -163q133 0 150 158 q3 36 47 36l93 -5q49 -4 49 -42q0 -127 -93 -218q-99 -98 -247 -98q-234 0 -322 195q-25 56 -25 96.5t9 52.5t44 14z" />
<glyph unicode="&#x12e;" d="M526 -279q49 0 49 -90q0 -88 -148 -107q-31 -4 -70.5 -4t-82.5 14.5t-76 41.5q-73 61 -73 150q0 172 156 274q-51 0 -62 42q-3 11 -3 22v1405q0 26 16.5 45t39.5 19h140q23 0 39 -19t16 -45v-1405q0 -38 -27.5 -60t-51.5 -50t-40 -57q-35 -61 -35 -105q0 -96 89 -96 q30 0 73.5 12.5t50.5 12.5z" />
<glyph unicode="&#x12f;" d="M306 1321q-68 0 -116 47q-48 46 -48 116q0 68 48 116q46 46 116 46q107 0 150 -98q13 -29 13 -64q0 -70 -48 -116q-48 -47 -115 -47zM581 -279q49 0 49 -90q0 -88 -148 -107q-31 -4 -65 -4t-76 11t-78 35q-84 58 -84 161q0 149 164 262q-161 30 -161 293v780q0 28 16 47 t38 19h134q23 0 38 -19t15 -47v-787q0 -71 47 -71q16 0 36 9q39 17 53 17q21 0 34 -29l31 -70q8 -17 8 -32q0 -40 -70 -78q-118 -87 -172 -183q-19 -33 -19 -73q0 -69 86 -69q29 0 73 12.5t51 12.5z" />
<glyph unicode="&#x130;" d="M216 1469q0 26 16.5 45t39.5 19h140q23 0 39 -19t16 -45v-1405q0 -26 -16.5 -45t-39.5 -19h-140q-23 0 -39 19t-16 45v1405zM341 1667q-68 0 -116 47q-48 46 -48 116q0 68 48 116q46 46 116 46q107 0 150 -98q13 -29 13 -64q0 -70 -48 -116q-48 -47 -115 -47z" />
<glyph unicode="&#x131;" d="M423 275q0 -71 47 -71q16 0 36 9q39 17 53 17q21 0 34 -29l31 -70q8 -17 8 -32q0 -43 -74 -80q-70 -36 -138.5 -36t-109.5 15t-70 50q-58 72 -58 234v780q0 28 16 47t38 19h134q23 0 38 -19t15 -47v-787z" />
<glyph unicode="&#x132;" horiz-adv-x="1533" d="M216 1469q0 26 16.5 45t39.5 19h140q23 0 39 -19t16 -45v-1405q0 -26 -16.5 -45t-39.5 -19h-140q-23 0 -39 19t-16 45v1405zM925 181q176 0 176 287v1001q0 26 15 45t38 19h144q22 0 37 -19t15 -45v-1056q0 -222 -109 -336q-98 -103 -269 -103q-107 0 -162 22.5t-75.5 43 t-20.5 42t5 37.5l9 30q20 65 52 65q9 0 22 -5l31 -11q46 -17 92 -17z" />
<glyph unicode="&#x133;" horiz-adv-x="1366" d="M306 1321q-68 0 -116 47q-48 46 -48 116q0 68 48 116q46 46 116 46q107 0 150 -98q13 -29 13 -64q0 -70 -48 -116q-48 -47 -115 -47zM423 275q0 -71 47 -71q16 0 36 9q39 17 53 17q21 0 34 -29l31 -70q8 -17 8 -32q0 -43 -74 -80q-70 -36 -138.5 -36t-109.5 15t-70 50 q-58 72 -58 234v780q0 28 16 47t38 19h134q23 0 38 -19t15 -47v-787zM1032 1321q-68 0 -116 47q-48 46 -48 116q0 68 48 116q46 46 116 46q107 0 150 -98q13 -29 13 -64q0 -70 -48 -116q-48 -47 -115 -47zM810 -360q103 0 103 189v1233q0 29 15 47.5t38 18.5h137 q22 0 38 -18.5t16 -47.5v-1193q0 -212 -86 -327q-82 -110 -223 -110q-117 0 -186 52q-37 31 -37 64q0 16 12.5 58.5t24 60.5t30 18t31.5 -7t26 -16q36 -22 61 -22z" />
<glyph unicode="&#x134;" horiz-adv-x="850" d="M242 181q176 0 176 287v1001q0 26 15 45t38 19h144q22 0 37 -19t15 -45v-1056q0 -222 -109 -336q-98 -103 -269 -103q-107 0 -162 22.5t-75.5 43t-20.5 42t5 37.5l9 30q20 65 52 65q9 0 22 -5l31 -11q46 -17 92 -17zM290 1663q-11 -8 -26 -8t-27 13l-53 57q-9 10 -9 26.5 t13 27.5l200 180q25 23 53 23h183q30 0 55 -23l198 -178q17 -13 17 -31.5t-14 -33.5l-40 -44q-15 -16 -30.5 -16t-25.5 7l-253 166z" />
<glyph unicode="&#x135;" d="M127 -360q103 0 103 189v1233q0 29 15 47.5t38 18.5h137q22 0 38 -18.5t16 -47.5v-1193q0 -212 -86 -327q-82 -110 -223 -110q-117 0 -186 52q-37 31 -37 64q0 16 12.5 58.5t24 60.5t30 18t31.5 -7t26 -16q36 -22 61 -22zM100 1287q-15 0 -30 13l-56 48q-18 15 -18 29 q0 16 13 32l198 243q36 45 86 45h102q48 0 87 -47l190 -240q13 -18 13 -34t-17 -30l-53 -43q-21 -17 -34 -17t-25 11l-214 204l-210 -199q-17 -15 -32 -15z" />
<glyph unicode="&#x136;" horiz-adv-x="1364" d="M596 -262q-8 20 -8 46.5t13 49t34 36.5q42 28 85.5 28t71.5 -10.5t49 -29.5q47 -44 47 -112q0 -108 -104 -257q-38 -57 -85 -57q-14 0 -28 7l-33 16q-21 11 -21 27q0 22 9 36.5t17.5 32t17.5 38.5q23 55 25 76q-65 10 -90 73zM1269 212l40 2q44 0 55 -39q6 -23 12 -43.5 t6 -46t-15 -43.5t-39 -31q-159 -86 -346 71q-153 127 -331 421l-140 240q25 49 57 105q136 227 218 336q167 222 275 315q46 40 72 40q47 0 86 -31l33 -25q71 -53 36 -98q-18 -24 -45 -46t-51 -46q-92 -94 -142 -150q-120 -140 -167 -199l-79 -104q-33 -46 -55 -82l93 -138 l65 -92q208 -288 323 -312q19 -4 39 -4zM216 1469q0 26 16.5 45t39.5 19h140q23 0 39 -19t16 -45v-1405q0 -26 -16.5 -45t-39.5 -19h-140q-23 0 -39 19t-16 45v1405z" />
<glyph unicode="&#x137;" horiz-adv-x="1196" d="M1025 204l84 16q35 0 44 -47l14 -72q1 -5 1 -21.5t-12.5 -35.5t-33.5 -32q-46 -29 -117 -29q-141 0 -235 137q-17 23 -38 60l-138 244l-60 -82q-123 -173 -148 -277q-7 -27 -19.5 -46t-43.5 -19h-80q-22 0 -37.5 18.5t-15.5 46.5v1645q0 27 15.5 45t37.5 18h138 q23 0 38 -18t15 -45l3 -843q0 -110 -17.5 -255t-22.5 -190v-4q0 -8 4 -8q9 0 24 26q199 361 499 689q29 31 54 31q38 0 68 -32l45 -50q33 -40 33 -59q2 -34 -26 -60l-180 -177q-92 -94 -175 -197l75 -129q142 -248 207 -248zM456 -262q-8 20 -8 46.5t13 49t34 36.5 q42 28 85.5 28t71.5 -10.5t49 -29.5q47 -44 47 -112q0 -108 -104 -257q-38 -57 -85 -57q-14 0 -28 7l-33 16q-21 11 -21 27q0 22 9 36.5t17.5 32t17.5 38.5q23 55 25 76q-65 10 -90 73z" />
<glyph unicode="&#x138;" horiz-adv-x="1196" d="M1025 204l84 16q35 0 44 -47l14 -72q1 -5 1 -21.5t-12.5 -35.5t-33.5 -32q-46 -29 -117 -29q-141 0 -235 137q-17 23 -38 60l-138 244l-60 -82q-123 -173 -148 -277q-7 -27 -19.5 -46t-43.5 -19h-80q-22 0 -37.5 18.5t-15.5 46.5v1000q0 27 15.5 45t37.5 18h138 q23 0 38 -18t15 -45l3 -198q2 -111 -16.5 -255.5t-23.5 -189.5v-4q0 -8 4 -8q9 0 24 26q177 331 509 696q24 24 45 24q37 0 67 -32l45 -50q33 -40 33 -59q2 -34 -26 -60l-180 -177q-92 -94 -175 -197l75 -129q142 -248 207 -248z" />
<glyph unicode="&#x139;" horiz-adv-x="1195" d="M239 1469q0 26 16.5 45t39.5 19h140q23 0 39 -19t16 -45v-1246h542q26 0 39.5 -16.5t13.5 -40.5v-110q0 -23 -13.5 -39.5t-39.5 -16.5h-738q-23 0 -39 19t-16 45v1405zM367 1631q-40 -14 -57 20l-31 67q-15 30 15 47l367 211q24 16 45 16q40 0 51 -26l54 -115 q8 -16 8 -30q0 -37 -43 -52z" />
<glyph unicode="&#x13a;" d="M443 275q0 -71 50 -71q16 0 41 9q46 17 56 17q23 0 36 -29l31 -71q6 -15 6 -28q0 -23 -38 -56q-76 -63 -199 -63q-224 0 -224 299v1207q0 27 16 46t38 19h134q23 0 38 -19t15 -46v-1214zM275 1629q-40 -14 -57 20l-31 67q-15 30 15 47l367 211q24 16 45 16q40 0 51 -26 l54 -115q8 -16 8 -30q0 -37 -43 -52z" />
<glyph unicode="&#x13b;" horiz-adv-x="1195" d="M239 1469q0 26 16.5 45t39.5 19h140q23 0 39 -19t16 -45v-1246h542q26 0 39.5 -16.5t13.5 -40.5v-110q0 -23 -13.5 -39.5t-39.5 -16.5h-738q-23 0 -39 19t-16 45v1405zM529 -262q-8 20 -8 46.5t13 49t34 36.5q42 28 85.5 28t71.5 -10.5t49 -29.5q47 -44 47 -112 q0 -108 -104 -257q-38 -57 -85 -57q-14 0 -28 7l-33 16q-21 11 -21 27q0 22 9 36.5t17.5 32t17.5 38.5q23 55 25 76q-65 10 -90 73z" />
<glyph unicode="&#x13c;" d="M428 275q0 -71 50 -71q16 0 41 9q46 17 56 17q23 0 36 -29l31 -71q6 -15 6 -28q0 -23 -38 -56q-76 -63 -199 -63q-224 0 -224 299v1426q0 27 16 46t38 19h134q23 0 38 -19t15 -46v-1433zM278 -262q-8 20 -8 46.5t13 49t34 36.5q42 28 85.5 28t71.5 -10.5t49 -29.5 q47 -44 47 -112q0 -108 -104 -257q-38 -57 -85 -57q-14 0 -28 7l-33 16q-21 11 -21 27q0 22 9 36.5t17.5 32t17.5 38.5q23 55 25 76q-65 10 -90 73z" />
<glyph unicode="&#x13d;" horiz-adv-x="1195" d="M239 1469q0 26 16.5 45t39.5 19h140q23 0 39 -19t16 -45v-1246h542q26 0 39.5 -16.5t13.5 -40.5v-110q0 -23 -13.5 -39.5t-39.5 -16.5h-738q-23 0 -39 19t-16 45v1405zM855 1294q-77 24 -77 124q0 88 86 120q25 10 56 10t56 -13t43 -35q35 -45 35 -93.5t-9.5 -88.5 t-25.5 -80q-34 -88 -66.5 -137t-42.5 -59q-23 -25 -39 -25q-24 0 -50 13q-38 19 -38 40q0 13 11 39l18 43q30 71 43 142z" />
<glyph unicode="&#x13e;" horiz-adv-x="857" d="M428 275q0 -71 50 -71q16 0 41 9q46 17 56 17q23 0 36 -29l31 -71q6 -15 6 -28q0 -23 -38 -56q-76 -63 -199 -63q-224 0 -224 299v1426q0 27 16 46t38 19h134q23 0 38 -19t15 -46v-1433zM659 1530q-77 24 -77 124q0 88 86 120q25 10 56 10t56 -13t43 -35q35 -45 35 -93.5 t-9.5 -88.5t-25.5 -80q-34 -88 -66.5 -137t-42.5 -59q-23 -25 -39 -25q-24 0 -50 13q-38 19 -38 40q0 13 11 39l18 43q30 71 43 142z" />
<glyph unicode="&#x13f;" horiz-adv-x="1195" d="M240 1469q0 26 16.5 45t39.5 19h140q23 0 39 -19t16 -45v-1246h542q26 0 39.5 -16.5t13.5 -40.5v-110q0 -23 -13.5 -39.5t-39.5 -16.5h-738q-23 0 -39 19t-16 45v1405zM947 614q-68 0 -116 46q-48 47 -48 117q0 68 48 116q46 46 116 46q107 0 150 -97q13 -30 13 -65 q0 -70 -48 -117q-48 -46 -115 -46z" />
<glyph unicode="&#x140;" horiz-adv-x="1196" d="M428 275q0 -71 50 -71q16 0 41 9q46 17 56 17q23 0 36 -29l31 -71q6 -15 6 -28q0 -23 -38 -56q-76 -63 -199 -63q-224 0 -224 299v1426q0 27 16 46t38 19h134q23 0 38 -19t15 -46v-1433zM906 614q-68 0 -116 46q-48 47 -48 117q0 68 48 116q46 46 116 46q107 0 150 -97 q13 -30 13 -65q0 -70 -48 -117q-48 -46 -115 -46z" />
<glyph unicode="&#x141;" horiz-adv-x="1195" d="M159 389q-12 -9 -26.5 -9t-26.5 12t-16 31l-19 90q-1 4 -1 17q0 25 29 49l641 442q21 17 42 17t35.5 -15t17.5 -41l9 -89v-5q0 -35 -28 -57zM239 1469q0 26 16.5 45t39.5 19h140q23 0 39 -19t16 -45v-1246h542q26 0 39.5 -16.5t13.5 -40.5v-110q0 -23 -13.5 -39.5 t-39.5 -16.5h-738q-23 0 -39 19t-16 45v1405z" />
<glyph unicode="&#x142;" d="M432 275q0 -71 51 -71q18 0 43 9q47 17 59 17q23 0 36 -29l31 -71q6 -15 6 -28q0 -23 -38 -56q-76 -63 -199 -63q-224 0 -224 299v375l-103 -73q-9 -6 -20 -6q-28 0 -34 33l-11 53q-5 23 -5 36q0 27 25 47l148 110v851q0 27 16 46t38 19h128q23 0 38 -19t15 -46v-675 l145 108q11 8 25 8q32 0 40 -34l17 -77q3 -14 3 -32t-23 -34l-207 -148v-549z" />
<glyph unicode="&#x143;" horiz-adv-x="1701" d="M241 1409q0 124 108 124h41q41 0 57 -10q30 -18 56 -57l644 -948q37 -54 58 -99l41 -86q1 -2 3.5 -2t0.5 26t-10 75.5t-8 98.5v941q0 26 15.5 43.5t37.5 17.5h132q21 0 36.5 -17.5t15.5 -43.5v-1372q0 -40 -25 -62q-42 -38 -76 -38h-61q-50 0 -73 16q-34 26 -84 98 q-571 835 -612 902l-83 139q-2 3 -5.5 3t-0.5 -15t8.5 -50.5t10.5 -78.5q10 -100 10 -186v-767q0 -25 -15.5 -43t-37.5 -18h-132q-21 0 -36.5 18t-15.5 43v1348zM789 1631q-40 -14 -57 20l-31 67q-15 30 15 47l367 211q24 16 45 16q40 0 51 -26l54 -115q8 -16 8 -30 q0 -37 -43 -52z" />
<glyph unicode="&#x144;" horiz-adv-x="1364" d="M184 1056q0 72 69 72h55q56 0 76 -42q28 -60 48 -158q90 164 268 210q56 15 139.5 15t154.5 -35.5t112 -97.5q76 -113 76 -333v-621q0 -28 -18 -47t-53 -19h-98q-38 0 -56 19t-18 47v622q0 256 -188 256q-110 0 -201 -92q-97 -99 -97 -230v-556q0 -28 -17 -47t-52 -19 h-103q-35 0 -53 19t-18 47v614q0 201 -13 280.5t-13 95.5zM626 1289q-13 -8 -30 -8t-26 14l-49 68q-7 10 -7 23.5t20 31.5l309 281q25 23 47 23q35 0 52 -22l75 -95q12 -15 11 -31q-1 -41 -39 -64z" />
<glyph unicode="&#x145;" horiz-adv-x="1701" d="M241 1409q0 124 108 124h41q41 0 57 -10q30 -18 56 -57l644 -948q37 -54 58 -99l41 -86q1 -2 3.5 -2t0.5 26t-10 75.5t-8 98.5v941q0 26 15.5 43.5t37.5 17.5h132q21 0 36.5 -17.5t15.5 -43.5v-1372q0 -40 -25 -62q-42 -38 -76 -38h-61q-50 0 -73 16q-34 26 -84 98 q-571 835 -612 902l-83 139q-2 3 -5.5 3t-0.5 -15t8.5 -50.5t10.5 -78.5q10 -100 10 -186v-767q0 -25 -15.5 -43t-37.5 -18h-132q-21 0 -36.5 18t-15.5 43v1348zM716 -262q-8 20 -8 46.5t13 49t34 36.5q42 28 85.5 28t71.5 -10.5t49 -29.5q47 -44 47 -112q0 -108 -104 -257 q-38 -57 -85 -57q-14 0 -28 7l-33 16q-21 11 -21 27q0 22 9 36.5t17.5 32t17.5 38.5q23 55 25 76q-65 10 -90 73z" />
<glyph unicode="&#x146;" horiz-adv-x="1364" d="M184 1056q0 72 69 72h55q56 0 76 -42q28 -60 48 -158q90 164 268 210q56 15 139.5 15t154.5 -35.5t112 -97.5q76 -113 76 -333v-621q0 -28 -18 -47t-53 -19h-98q-38 0 -56 19t-18 47v622q0 256 -188 256q-110 0 -201 -92q-97 -99 -97 -230v-556q0 -28 -17 -47t-52 -19 h-103q-35 0 -53 19t-18 47v614q0 201 -13 280.5t-13 95.5zM565 -262q-8 20 -8 46.5t13 49t34 36.5q42 28 85.5 28t71.5 -10.5t49 -29.5q47 -44 47 -112q0 -108 -104 -257q-38 -57 -85 -57q-14 0 -28 7l-33 16q-21 11 -21 27q0 22 9 36.5t17.5 32t17.5 38.5q23 55 25 76 q-65 10 -90 73z" />
<glyph unicode="&#x147;" horiz-adv-x="1701" d="M241 1409q0 124 108 124h41q41 0 57 -10q30 -18 56 -57l644 -948q37 -54 58 -99l41 -86q1 -2 3.5 -2t0.5 26t-10 75.5t-8 98.5v941q0 26 15.5 43.5t37.5 17.5h132q21 0 36.5 -17.5t15.5 -43.5v-1372q0 -40 -25 -62q-42 -38 -76 -38h-61q-50 0 -73 16q-34 26 -84 98 q-571 835 -612 902l-83 139q-2 3 -5.5 3t-0.5 -15t8.5 -50.5t10.5 -78.5q10 -100 10 -186v-767q0 -25 -15.5 -43t-37.5 -18h-132q-21 0 -36.5 18t-15.5 43v1348zM783 1649q-30 0 -55 23l-198 178q-17 14 -17 32t14 33l40 44q15 16 30.5 16t25.5 -7l255 -166l248 173 q11 8 26 8t27 -13l53 -57q9 -11 9 -27t-13 -27l-209 -187q-25 -23 -53 -23h-183z" />
<glyph unicode="&#x148;" horiz-adv-x="1364" d="M184 1056q0 72 69 72h55q56 0 76 -42q28 -60 48 -158q90 164 268 210q56 15 139.5 15t154.5 -35.5t112 -97.5q76 -113 76 -333v-621q0 -28 -18 -47t-53 -19h-98q-38 0 -56 19t-18 47v622q0 256 -188 256q-110 0 -201 -92q-97 -99 -97 -230v-556q0 -28 -17 -47t-52 -19 h-103q-35 0 -53 19t-18 47v614q0 201 -13 280.5t-13 95.5zM645 1280q-46 0 -87 47l-189 228q-14 16 -14 30.5t16 31.5l55 56q32 32 59 6l213 -203l214 206q16 15 32.5 15t29.5 -13l63 -65q24 -24 -2 -55l-202 -239q-38 -45 -86 -45h-102z" />
<glyph unicode="&#x14a;" horiz-adv-x="1701" d="M1055 -361q176 0 176 287v114l239 149v-318q0 -222 -108 -336q-99 -103 -260 -103q-174 0 -238 65q-20 21 -20 47.5t7 50t17 40.5q22 37 43 37q4 0 15.5 -5t29.5 -11q47 -17 99 -17zM241 1409q0 124 108 124h41q41 0 57 -10q30 -18 56 -57l644 -948q37 -54 58 -99l41 -86 q1 -2 3.5 -2t0.5 26t-10 75.5t-8 98.5v941q0 26 15.5 43.5t37.5 17.5h132q21 0 36.5 -17.5t15.5 -43.5v-1372q0 -40 -25 -62q-42 -38 -76 -38h-61q-50 0 -73 16q-34 26 -84 98q-571 835 -612 902l-83 139q-2 3 -5.5 3t-0.5 -15t8.5 -50.5t10.5 -78.5q10 -100 10 -186v-767 q0 -25 -15.5 -43t-37.5 -18h-132q-21 0 -36.5 18t-15.5 43v1348z" />
<glyph unicode="&#x14b;" horiz-adv-x="1364" d="M836 -360q104 0 104 189v859q0 256 -189 256q-109 0 -201 -86q-97 -90 -97 -208v-584q0 -28 -17 -47t-52 -19h-103q-35 0 -53 19t-18 47v614q0 201 -13 280.5t-13 95.5q0 72 69 72h55q56 0 76 -42q28 -60 48 -158q136 225 383 225q294 0 350 -281q17 -85 17 -185v-818 q0 -211 -86 -327q-80 -110 -222 -110q-117 0 -186 52q-37 31 -37 64q0 16 12.5 58.5t24 60.5t30 18t31.5 -7t27 -16q35 -22 60 -22z" />
<glyph unicode="&#x14c;" horiz-adv-x="1709" d="M137.5 569.5q-22.5 101.5 -22.5 240t53.5 281.5t151.5 247q207 220 536 220q350 0 549 -225q189 -213 189 -556q0 -340 -208 -569q-98 -108 -235 -170.5t-277.5 -62.5t-239.5 29.5t-180.5 83t-144.5 127.5t-106 163.5t-65.5 191zM386 784q0 -115 27.5 -218t84.5 -184 q126 -177 355 -177q230 0 355 169q115 156 115 404q0 234 -117 386q-129 165 -352 165q-215 0 -342 -154q-126 -151 -126 -391zM563 1724.5q-13 10.5 -13 27.5v142q0 16 13 26.5t30 10.5h518q18 0 31 -10.5t13 -27.5v-142q0 -16 -13 -26.5t-31 -10.5h-518q-17 0 -30 10.5z " />
<glyph unicode="&#x14d;" horiz-adv-x="1366" d="M120 568q0 130 43.5 238.5t119.5 185.5q159 161 401 161q271 0 420 -161q144 -155 144 -426q0 -262 -163 -428q-159 -163 -401 -163q-255 0 -410 167q-154 163 -154 426zM387 696.5q-17 -70.5 -17 -143t19.5 -139t58.5 -118.5q86 -114 240 -114q157 0 238 112 q72 98 72 267q0 253 -166 349q-61 35 -147.5 35t-146 -33.5t-97 -89t-54.5 -126zM399 1381.5q-13 10.5 -13 27.5v130q0 16 13 26.5t30 10.5h518q18 0 31 -10.5t13 -27.5v-130q0 -16 -13 -26.5t-31 -10.5h-518q-17 0 -30 10.5z" />
<glyph unicode="&#x14e;" horiz-adv-x="1709" d="M137.5 569.5q-22.5 101.5 -22.5 240t53.5 281.5t151.5 247q207 220 536 220q350 0 549 -225q189 -213 189 -556q0 -340 -208 -569q-98 -108 -235 -170.5t-277.5 -62.5t-239.5 29.5t-180.5 83t-144.5 127.5t-106 163.5t-65.5 191zM386 784q0 -115 27.5 -218t84.5 -184 q126 -177 355 -177q230 0 355 169q115 156 115 404q0 234 -117 386q-129 165 -352 165q-215 0 -342 -154q-126 -151 -126 -391zM852 1662q-73 0 -135.5 21.5t-109.5 59.5q-102 82 -102 206q0 34 53 37l108 5q37 3 40 -31q5 -74 57 -106q35 -22 86 -22q89 0 126 54 q16 24 20 57q5 51 54 48l94 -5q49 -4 49 -42q0 -117 -95 -198q-98 -84 -245 -84z" />
<glyph unicode="&#x14f;" horiz-adv-x="1366" d="M120 568q0 130 43.5 238.5t119.5 185.5q159 161 401 161q271 0 420 -161q144 -155 144 -426q0 -262 -163 -428q-159 -163 -401 -163q-255 0 -410 167q-154 163 -154 426zM387 696.5q-17 -70.5 -17 -143t19.5 -139t58.5 -118.5q86 -114 240 -114q157 0 238 112 q72 98 72 267q0 253 -166 349q-61 35 -147.5 35t-146 -33.5t-97 -89t-54.5 -126zM476 1652l23 1q37 0 40 -31q14 -163 152 -163q133 0 150 158q3 36 47 36l93 -5q49 -4 49 -42q0 -127 -93 -218q-99 -98 -247 -98q-234 0 -322 195q-25 56 -25 96.5t9 52.5t44 14z" />
<glyph unicode="&#x150;" horiz-adv-x="1709" d="M137.5 569.5q-22.5 101.5 -22.5 240t53.5 281.5t151.5 247q207 220 536 220q350 0 549 -225q189 -213 189 -556q0 -340 -208 -569q-98 -108 -235 -170.5t-277.5 -62.5t-239.5 29.5t-180.5 83t-144.5 127.5t-106 163.5t-65.5 191zM386 784q0 -115 27.5 -218t84.5 -184 q126 -177 355 -177q230 0 355 169q115 156 115 404q0 234 -117 386q-129 165 -352 165q-215 0 -342 -154q-126 -151 -126 -391zM1009 1704q-11 15 -11 32t16 28l293 214q16 13 35 13q35 0 54 -26l53 -78q11 -17 11 -35q0 -38 -31 -53l-322 -160q-16 -8 -33 -8t-28 17z M650 1640q-17 -11 -34 -11t-34 19l-34 39q-13 14 -13 25q0 16 14 32l239 225q22 22 47.5 22t40.5 -15l67 -68q21 -21 21 -47.5t-33 -49.5z" />
<glyph unicode="&#x151;" horiz-adv-x="1366" d="M120 568q0 130 43.5 238.5t119.5 185.5q159 161 401 161q271 0 420 -161q144 -155 144 -426q0 -262 -163 -428q-159 -163 -401 -163q-255 0 -410 167q-154 163 -154 426zM387 696.5q-17 -70.5 -17 -143t19.5 -139t58.5 -118.5q86 -114 240 -114q157 0 238 112 q72 98 72 267q0 253 -166 349q-61 35 -147.5 35t-146 -33.5t-97 -89t-54.5 -126zM856 1349q-9 9 -9 21q0 21 17 40l224 282q24 30 45 30q29 0 60 -26l66 -62q16 -16 16 -34q0 -33 -41 -69l-262 -239q-14 -12 -31 -12t-29 13zM542 1295q-14 -14 -32 -14t-31 12l-48 43 q-13 12 -13 24q0 21 14 40l194 287q24 35 50.5 35t49.5 -18l68 -54q22 -18 22 -38q0 -35 -32 -67z" />
<glyph unicode="&#x152;" horiz-adv-x="2213" d="M1137 0q-157 -25 -280 -25t-222 30t-180.5 83.5t-144.5 128t-106 163.5q-89 183 -89 377t53.5 336.5t151.5 245.5q207 219 536 219q157 0 284 -25h881q26 0 39.5 -16.5t13.5 -40.5v-108q0 -23 -13.5 -39.5t-39.5 -16.5h-684v-438h544q26 0 39.5 -16.5t13.5 -40.5v-108 q0 -23 -13.5 -39.5t-39.5 -16.5h-544v-432h689q26 0 39.5 -16.5t13.5 -40.5v-108q0 -23 -13.5 -39.5t-39.5 -16.5h-889zM1086 1311q-114 30 -227.5 30t-200 -42t-146.5 -117q-126 -154 -126 -401q0 -239 110 -399q125 -179 353 -190q96 -5 237 28v1091z" />
<glyph unicode="&#x153;" horiz-adv-x="2044" d="M1100 178q-146 -203 -416 -203q-255 0 -410 167q-154 163 -154 424t163 426q159 161 401 161q300 0 432 -201q129 202 400 202q185 0 296 -91q116 -95 116 -265q0 -168 -134 -255q-117 -76 -313 -76q-117 0 -270 42q-6 -142 79 -233q89 -94 245 -94q129 0 261 81 q25 15 43 15q36 0 52 -30l27 -51q9 -16 9 -41t-20 -50t-53 -46t-75.5 -36.5t-88.5 -26.5q-92 -22 -173 -22q-295 0 -417 203zM386.5 696.5q-16.5 -70.5 -16.5 -142.5t18.5 -138.5t57.5 -118.5q85 -115 238 -115q155 0 236 112q73 102 73 267q0 257 -163 349 q-62 35 -150.5 35t-146 -33.5t-94 -89t-53 -126zM1693 801q0 140 -192 140q-116 0 -186.5 -67.5t-93.5 -187.5q50 -22 115 -31t105 -9t87.5 8t83.5 26q81 41 81 121z" />
<glyph unicode="&#x154;" horiz-adv-x="1533" d="M1259 215l103 14q28 0 39.5 -19t17 -40.5t10.5 -38.5t5 -37t-19.5 -40.5t-49.5 -36.5q-64 -34 -133.5 -34t-125.5 16t-106 44q-78 44 -159.5 124t-129.5 137l-165 204q-35 42 -63 68v-513q0 -40 -27 -57q-10 -6 -23 -6h-143q-27 0 -38 16q-18 26 -18 47v1382 q0 35 18.5 61.5t60.5 26.5h446q595 0 595 -470q0 -216 -160 -363q-151 -139 -356 -139q-36 0 -69 5l123 -130q106 -111 165 -150q106 -71 202 -71zM483 767q113 -26 204.5 -26t163.5 17t128 54q124 80 124 237q0 141 -107 209q-90 57 -244 57h-269v-548zM684 1631 q-40 -14 -57 20l-31 67q-15 30 15 47l367 211q24 16 45 16q40 0 51 -26l54 -115q8 -16 8 -30q0 -37 -43 -52z" />
<glyph unicode="&#x155;" horiz-adv-x="853" d="M159 1056q0 72 63 72h54q55 0 78 -48q33 -70 48 -193q0 -2 1.5 -2t6.5 34t29 83.5t59 83.5q71 67 174 67q115 0 160 -38q21 -17 17 -47l-16 -126q-6 -51 -52 -51q-22 0 -54 9q-62 16 -98 16t-76 -31.5t-69 -78.5q-59 -98 -59 -209v-531q0 -28 -16 -47t-46 -19h-116 q-32 0 -48.5 19t-16.5 47v689q0 176 -11.5 232.5t-11.5 68.5zM408 1289q-13 -8 -30 -8t-26 14l-49 68q-7 10 -7 23.5t20 31.5l309 281q25 23 47 23q35 0 52 -22l75 -95q12 -15 11 -31q-1 -41 -39 -64z" />
<glyph unicode="&#x156;" horiz-adv-x="1533" d="M1259 215l103 14q28 0 39.5 -19t17 -40.5t10.5 -38.5t5 -37t-19.5 -40.5t-49.5 -36.5q-64 -34 -133.5 -34t-125.5 16t-106 44q-78 44 -159.5 124t-129.5 137l-165 204q-35 42 -63 68v-513q0 -40 -27 -57q-10 -6 -23 -6h-143q-27 0 -38 16q-18 26 -18 47v1382 q0 35 18.5 61.5t60.5 26.5h446q595 0 595 -470q0 -216 -160 -363q-151 -139 -356 -139q-36 0 -69 5l123 -130q106 -111 165 -150q106 -71 202 -71zM483 767q113 -26 204.5 -26t163.5 17t128 54q124 80 124 237q0 141 -107 209q-90 57 -244 57h-269v-548zM603 -262 q-8 20 -8 46.5t13 49t34 36.5q42 28 85.5 28t71.5 -10.5t49 -29.5q47 -44 47 -112q0 -108 -104 -257q-38 -57 -85 -57q-14 0 -28 7l-33 16q-21 11 -21 27q0 22 9 36.5t17.5 32t17.5 38.5q23 55 25 76q-65 10 -90 73z" />
<glyph unicode="&#x157;" horiz-adv-x="853" d="M159 1056q0 72 63 72h54q55 0 78 -48q33 -70 48 -193q0 -2 1.5 -2t6.5 34t29 83.5t59 83.5q71 67 174 67q115 0 160 -38q21 -17 17 -47l-16 -126q-6 -51 -52 -51q-22 0 -54 9q-62 16 -98 16t-76 -31.5t-69 -78.5q-59 -98 -59 -209v-531q0 -28 -16 -47t-46 -19h-116 q-32 0 -48.5 19t-16.5 47v689q0 176 -11.5 232.5t-11.5 68.5zM169 -261q-8 20 -8 46.5t13 49t34 36.5q42 28 85.5 28t71.5 -10.5t49 -29.5q47 -44 47 -112q0 -108 -104 -257q-38 -57 -85 -57q-14 0 -28 7l-33 16q-21 11 -21 27q0 22 9 36.5t17.5 32t17.5 38.5q23 55 25 76 q-65 10 -90 73z" />
<glyph unicode="&#x158;" horiz-adv-x="1533" d="M1259 215l103 14q28 0 39.5 -19t17 -40.5t10.5 -38.5t5 -37t-19.5 -40.5t-49.5 -36.5q-64 -34 -133.5 -34t-125.5 16t-106 44q-78 44 -159.5 124t-129.5 137l-165 204q-35 42 -63 68v-513q0 -40 -27 -57q-10 -6 -23 -6h-143q-27 0 -38 16q-18 26 -18 47v1382 q0 35 18.5 61.5t60.5 26.5h446q595 0 595 -470q0 -216 -160 -363q-151 -139 -356 -139q-36 0 -69 5l123 -130q106 -111 165 -150q106 -71 202 -71zM483 767q113 -26 204.5 -26t163.5 17t128 54q124 80 124 237q0 141 -107 209q-90 57 -244 57h-269v-548zM654 1658 q-30 0 -55 23l-198 178q-17 14 -17 32t14 33l40 44q15 16 30.5 16t25.5 -7l255 -166l248 173q11 8 26 8t27 -13l53 -57q9 -11 9 -27t-13 -27l-209 -187q-25 -23 -53 -23h-183z" />
<glyph unicode="&#x159;" horiz-adv-x="853" d="M159 1056q0 72 63 72h54q55 0 78 -48q33 -70 48 -193q0 -2 1.5 -2t6.5 34t29 83.5t59 83.5q71 67 174 67q115 0 160 -38q21 -17 17 -47l-16 -126q-6 -51 -52 -51q-22 0 -54 9q-62 16 -98 16t-76 -31.5t-69 -78.5q-59 -98 -59 -209v-531q0 -28 -16 -47t-46 -19h-116 q-32 0 -48.5 19t-16.5 47v689q0 176 -11.5 232.5t-11.5 68.5zM424 1280q-46 0 -87 47l-189 228q-14 16 -14 30.5t16 31.5l55 56q32 32 59 6l213 -203l214 206q16 15 32.5 15t29.5 -13l63 -65q24 -24 -2 -55l-202 -239q-38 -45 -86 -45h-102z" />
<glyph unicode="&#x15a;" horiz-adv-x="1194" d="M139 242q29 49 39 60q20 24 40.5 24t43.5 -13t61.5 -32.5t82.5 -36.5q98 -37 171.5 -37t119.5 13t79 39q68 55 68 154q0 125 -189 213q-54 25 -121.5 50.5t-142 68.5t-133.5 101q-131 130 -131 306q0 187 153 300q143 106 337 106q216 0 355 -94q76 -50 76 -93 q0 -23 -27 -74t-43.5 -69t-30.5 -18q-25 0 -65.5 27t-115.5 59t-142 32t-107.5 -11t-70.5 -33q-62 -47 -62 -137q0 -130 178 -206l97 -40q195 -75 296 -166q139 -126 139 -309q0 -204 -154 -332q-142 -119 -333 -119q-245 0 -417 101q-80 46 -80 81.5t29 84.5zM525 1631 q-40 -14 -57 20l-31 67q-15 30 15 47l367 211q24 16 45 16q40 0 51 -26l54 -115q8 -16 8 -30q0 -37 -43 -52z" />
<glyph unicode="&#x15b;" horiz-adv-x="1024" d="M497 180q192 0 192 129q0 71 -109 120q-46 21 -100.5 39t-104.5 43t-93.5 54.5t-75.5 67.5q-66 80 -66 203q0 150 125 238q111 79 273 79q174 0 291 -68q40 -24 40 -55q0 -44 -23.5 -96.5t-55 -52.5t-57 13t-46 22.5t-43.5 15.5q-50 15 -92.5 15t-68.5 -6t-47 -19 q-51 -31 -51 -76t20.5 -69t56.5 -44t86 -40l108 -45q131 -57 177 -103q90 -92 90 -213q0 -152 -104 -250q-115 -107 -327 -107q-215 0 -323 83q-53 40 -53 72t11.5 57.5t30 60t50 34.5t67 -28.5t97.5 -51t125 -22.5zM458 1289q-13 -8 -30 -8t-26 14l-49 68q-7 10 -7 23.5 t20 31.5l309 281q25 23 47 23q35 0 52 -22l75 -95q12 -15 11 -31q-1 -41 -39 -64z" />
<glyph unicode="&#x15c;" horiz-adv-x="1194" d="M139 242q29 49 39 60q20 24 40.5 24t43.5 -13t61.5 -32.5t82.5 -36.5q98 -37 171.5 -37t119.5 13t79 39q68 55 68 154q0 125 -189 213q-54 25 -121.5 50.5t-142 68.5t-133.5 101q-131 130 -131 306q0 187 153 300q143 106 337 106q216 0 355 -94q76 -50 76 -93 q0 -23 -27 -74t-43.5 -69t-30.5 -18q-25 0 -65.5 27t-115.5 59t-142 32t-107.5 -11t-70.5 -33q-62 -47 -62 -137q0 -130 178 -206l97 -40q195 -75 296 -166q139 -126 139 -309q0 -204 -154 -332q-142 -119 -333 -119q-245 0 -417 101q-80 46 -80 81.5t29 84.5zM368 1663 q-11 -8 -26 -8t-27 13l-53 57q-9 10 -9 26.5t13 27.5l200 180q25 23 53 23h183q30 0 55 -23l198 -178q17 -13 17 -31.5t-14 -33.5l-40 -44q-15 -16 -30.5 -16t-25.5 7l-253 166z" />
<glyph unicode="&#x15d;" horiz-adv-x="1024" d="M497 180q192 0 192 129q0 71 -109 120q-46 21 -100.5 39t-104.5 43t-93.5 54.5t-75.5 67.5q-66 80 -66 203q0 150 125 238q111 79 273 79q174 0 291 -68q40 -24 40 -55q0 -44 -23.5 -96.5t-55 -52.5t-57 13t-46 22.5t-43.5 15.5q-50 15 -92.5 15t-68.5 -6t-47 -19 q-51 -31 -51 -76t20.5 -69t56.5 -44t86 -40l108 -45q131 -57 177 -103q90 -92 90 -213q0 -152 -104 -250q-115 -107 -327 -107q-215 0 -323 83q-53 40 -53 72t11.5 57.5t30 60t50 34.5t67 -28.5t97.5 -51t125 -22.5zM274 1287q-15 0 -30 13l-56 48q-18 15 -18 29q0 16 13 32 l198 243q36 45 86 45h102q48 0 87 -47l190 -240q13 -18 13 -34t-17 -30l-53 -43q-21 -17 -34 -17t-25 11l-214 204l-210 -199q-17 -15 -32 -15z" />
<glyph unicode="&#x15e;" horiz-adv-x="1194" d="M677 -20q123 -108 123 -231q0 -98 -70 -161q-75 -65 -200 -65q-82 0 -134 22q-93 39 -93 87q0 11 4 20t11 28q19 49 47 49q12 0 27 -5l33 -10q51 -16 87.5 -16t65.5 27t29 63.5t-11 63t-28 50t-37 43.5l-37 36q-176 20 -304 95q-80 46 -80 86q0 31 29 80t39 60 q20 24 40.5 24t43.5 -13t61.5 -32.5t82.5 -36.5q98 -37 171.5 -37t119.5 13t79 39q68 55 68 154q0 125 -189 213q-54 25 -121.5 50.5t-142 68.5t-133.5 101q-131 130 -131 306q0 187 153 300q143 106 337 106q216 0 355 -94q76 -50 76 -93q0 -23 -27 -74t-43.5 -69 t-30.5 -18q-25 0 -65.5 27t-115.5 59t-142 32t-107.5 -11t-70.5 -33q-62 -47 -62 -137q0 -130 178 -206l97 -40q195 -75 296 -166q139 -126 139 -309q0 -184 -128 -308q-117 -114 -289 -138z" />
<glyph unicode="&#x15f;" horiz-adv-x="1024" d="M596 -17q126 -110 126 -234q0 -98 -70 -161q-75 -65 -200 -65q-82 0 -134 22q-93 39 -93 87q0 11 4 20t11 28q19 49 47 49q12 0 27 -5l33 -10q51 -16 87.5 -16t65.5 27t29 63.5t-10.5 62t-26.5 48.5q-29 40 -73 79q-162 14 -250 80q-53 40 -53 72t11.5 57.5t30 60 t50 34.5t67 -28.5t97.5 -51t125 -22.5q192 0 192 129q0 71 -109 120q-46 21 -100.5 39t-104.5 43t-93.5 54.5t-75.5 67.5q-66 80 -66 203q0 150 125 238q111 79 273 79q174 0 291 -68q40 -24 40 -55q0 -44 -23.5 -96.5t-55 -52.5t-57 13t-46 22.5t-43.5 15.5 q-50 15 -92.5 15t-68.5 -6t-47 -19q-51 -31 -51 -76t20.5 -69t56.5 -44t86 -40l108 -45q131 -57 177 -103q90 -92 90 -213q0 -208 -181 -304q-62 -32 -146 -45z" />
<glyph unicode="&#x160;" horiz-adv-x="1194" d="M139 242q29 49 39 60q20 24 40.5 24t43.5 -13t61.5 -32.5t82.5 -36.5q98 -37 171.5 -37t119.5 13t79 39q68 55 68 154q0 125 -189 213q-54 25 -121.5 50.5t-142 68.5t-133.5 101q-131 130 -131 306q0 187 153 300q143 106 337 106q216 0 355 -94q76 -50 76 -93 q0 -23 -27 -74t-43.5 -69t-30.5 -18q-25 0 -65.5 27t-115.5 59t-142 32t-107.5 -11t-70.5 -33q-62 -47 -62 -137q0 -130 178 -206l97 -40q195 -75 296 -166q139 -126 139 -309q0 -204 -154 -332q-142 -119 -333 -119q-245 0 -417 101q-80 46 -80 81.5t29 84.5zM512 1658 q-30 0 -55 23l-198 178q-17 14 -17 32t14 33l40 44q15 16 30.5 16t25.5 -7l255 -166l248 173q11 8 26 8t27 -13l53 -57q9 -11 9 -27t-13 -27l-209 -187q-25 -23 -53 -23h-183z" />
<glyph unicode="&#x161;" horiz-adv-x="1024" d="M497 180q192 0 192 129q0 71 -109 120q-46 21 -100.5 39t-104.5 43t-93.5 54.5t-75.5 67.5q-66 80 -66 203q0 150 125 238q111 79 273 79q174 0 291 -68q40 -24 40 -55q0 -44 -23.5 -96.5t-55 -52.5t-57 13t-46 22.5t-43.5 15.5q-50 15 -92.5 15t-68.5 -6t-47 -19 q-51 -31 -51 -76t20.5 -69t56.5 -44t86 -40l108 -45q131 -57 177 -103q90 -92 90 -213q0 -152 -104 -250q-115 -107 -327 -107q-215 0 -323 83q-53 40 -53 72t11.5 57.5t30 60t50 34.5t67 -28.5t97.5 -51t125 -22.5zM462 1280q-46 0 -87 47l-189 228q-14 16 -14 30.5 t16 31.5l55 56q32 32 59 6l213 -203l214 206q16 15 32.5 15t29.5 -13l63 -65q24 -24 -2 -55l-202 -239q-38 -45 -86 -45h-102z" />
<glyph unicode="&#x162;" horiz-adv-x="1192" d="M468 1315h-361q-26 0 -44.5 16.5t-18.5 40.5v105q0 23 18.5 39.5t44.5 16.5h988q26 0 39.5 -16.5t13.5 -40.5v-105q0 -23 -14 -39.5t-40 -16.5h-374v-1251q0 -26 -16.5 -45t-39.5 -19h-141q-23 0 -39 19t-16 45v1251zM456 -262q-8 20 -8 46.5t13 49t34 36.5 q42 28 85.5 28t71.5 -10.5t49 -29.5q47 -44 47 -112q0 -108 -104 -257q-38 -57 -85 -57q-14 0 -28 7l-33 16q-21 11 -21 27q0 22 9 36.5t17.5 32t17.5 38.5q23 55 25 76q-65 10 -90 73z" />
<glyph unicode="&#x163;" horiz-adv-x="851" d="M795 976q0 -56 -63 -56h-282v-628q0 -102 101 -102q64 0 167 64q20 13 43.5 13t37.5 -33l23 -52q13 -30 13 -51t-31.5 -48.5t-80.5 -49.5q-111 -50 -201 -50t-142.5 18.5t-89.5 55.5q-80 78 -80 225v638h-84q-63 0 -63 57v57q0 23 12 36t47 20l100 29l38 235q11 66 54 66 h83q23 0 38 -18.5t15 -47.5v-226h282q63 0 63 -55v-97zM283 -262q-8 20 -8 46.5t13 49t34 36.5q42 28 85.5 28t71.5 -10.5t49 -29.5q47 -44 47 -112q0 -108 -104 -257q-38 -57 -85 -57q-14 0 -28 7l-33 16q-21 11 -21 27q0 22 9 36.5t17.5 32t17.5 38.5q23 55 25 76 q-65 10 -90 73z" />
<glyph unicode="&#x164;" horiz-adv-x="1192" d="M468 1315h-361q-26 0 -44.5 16.5t-18.5 40.5v105q0 23 18.5 39.5t44.5 16.5h988q26 0 39.5 -16.5t13.5 -40.5v-105q0 -23 -14 -39.5t-40 -16.5h-374v-1251q0 -26 -16.5 -45t-39.5 -19h-141q-23 0 -39 19t-16 45v1251zM507 1658q-30 0 -55 23l-198 178q-17 14 -17 32 t14 33l40 44q15 16 30.5 16t25.5 -7l255 -166l248 173q11 8 26 8t27 -13l53 -57q9 -11 9 -27t-13 -27l-209 -187q-25 -23 -53 -23h-183z" />
<glyph unicode="&#x165;" horiz-adv-x="851" d="M795 976q0 -56 -63 -56h-282v-628q0 -102 101 -102q64 0 167 64q20 13 43.5 13t37.5 -33l23 -52q13 -30 13 -51t-31.5 -48.5t-80.5 -49.5q-111 -50 -201 -50t-142.5 18.5t-89.5 55.5q-80 78 -80 225v638h-84q-63 0 -63 57v57q0 23 12 36t47 20l100 29l38 235q11 66 54 66 h83q23 0 38 -18.5t15 -47.5v-226h282q63 0 63 -55v-97zM653 1530q-77 24 -77 124q0 88 86 120q25 10 56 10t56 -13t43 -35q35 -45 35 -93.5t-9.5 -88.5t-25.5 -80q-34 -88 -66.5 -137t-42.5 -59q-23 -25 -39 -25q-24 0 -50 13q-38 19 -38 40q0 13 11 39l18 43q30 71 43 142z " />
<glyph unicode="&#x166;" horiz-adv-x="1192" d="M468 616h-198q-17 0 -30 10.5t-13 27.5v133q0 16 13 26.5t30 10.5h198v491h-361q-26 0 -44.5 16.5t-18.5 40.5v105q0 23 18.5 39.5t44.5 16.5h988q26 0 39.5 -16.5t13.5 -40.5v-105q0 -23 -14 -39.5t-40 -16.5h-374v-491h201q18 0 31 -10.5t13 -27.5v-133 q0 -16 -13 -26.5t-31 -10.5h-201v-552q0 -26 -16.5 -45t-39.5 -19h-141q-23 0 -39 19t-16 45v552z" />
<glyph unicode="&#x167;" horiz-adv-x="851" d="M795 976q0 -56 -63 -56h-282v-229h300q18 0 31 -10.5t13 -27.5v-129q0 -16 -13 -26.5t-31 -10.5h-300v-195q0 -102 101 -102q64 0 167 64q20 13 43.5 13t37.5 -33l23 -52q13 -30 13 -51t-31.5 -48.5t-80.5 -49.5q-111 -50 -201 -50t-142.5 18.5t-89.5 55.5 q-80 78 -80 225v205h-105q-17 0 -30 10.5t-13 27.5v129q0 16 13 26.5t30 10.5h105v229h-84q-63 0 -63 57v57q0 23 12 36t47 20l100 29l38 235q11 66 54 66h83q23 0 38 -18.5t15 -47.5v-226h282q63 0 63 -55v-97z" />
<glyph unicode="&#x168;" horiz-adv-x="1698" d="M847 198q363 0 363 413v858q0 26 16.5 45t39.5 19h137q23 0 39 -19t16 -45v-856q0 -308 -180 -481q-165 -158 -430 -158q-266 0 -433 164q-175 171 -175 475v856q0 26 16.5 45t39.5 19h137q23 0 39 -19t16 -45v-858q0 -207 101 -313q93 -100 258 -100zM509 1691 q-43 11 -32.5 53.5t30.5 81t50 70.5q66 74 149 74q69 0 153 -60l60 -42q27 -19 47 -19t32 7.5t21 18.5q20 22 27 47.5t18 47t28 21.5t28 -3l75 -19q34 -11 38.5 -25t-1 -54t-27 -84.5t-52.5 -77.5q-69 -73 -154 -73q-77 0 -162 57l-58 41q-69 47 -116 -23 q-9 -13 -14.5 -30.5t-24 -29t-47.5 -4.5z" />
<glyph unicode="&#x169;" horiz-adv-x="1364" d="M1195 68q0 -68 -62 -68h-45q-60 0 -79 48q-21 55 -45 153q-42 -105 -142.5 -165.5t-250.5 -60.5q-196 0 -289 122.5t-93 361.5v603q0 28 17.5 47t49.5 19h110q66 0 66 -66v-592q0 -239 111 -276q36 -12 85.5 -12t102 23t94.5 61q94 87 94 199v597q0 28 17 47t54 19h105 q35 0 51 -19t16 -47v-625q0 -211 30 -340q3 -11 3 -29zM465 1336.5q-13 -12.5 -24.5 -12.5t-15 0.5t-12.5 3.5t-26 9l-44 16q-33 11 -33 42.5t18 71.5t49 77q75 88 163 88q69 0 153 -60l60 -42q27 -19 47 -19t32 7.5t21 18.5q20 22 27 48t18.5 46.5t38.5 20.5q3 0 15 -2 l29 -7q72 -16 81.5 -29t9.5 -40.5t-17.5 -75t-49.5 -88.5q-72 -93 -172 -93q-77 0 -162 59l-58 41q-28 19 -52 19q-54 0 -77 -70q-6 -17 -19 -29.5z" />
<glyph unicode="&#x16a;" horiz-adv-x="1698" d="M847 198q363 0 363 413v858q0 26 16.5 45t39.5 19h137q23 0 39 -19t16 -45v-856q0 -308 -180 -481q-165 -158 -430 -158q-266 0 -433 164q-175 171 -175 475v856q0 26 16.5 45t39.5 19h137q23 0 39 -19t16 -45v-858q0 -207 101 -313q93 -100 258 -100zM566 1724.5 q-13 10.5 -13 27.5v142q0 16 13 26.5t30 10.5h518q18 0 31 -10.5t13 -27.5v-142q0 -16 -13 -26.5t-31 -10.5h-518q-17 0 -30 10.5z" />
<glyph unicode="&#x16b;" horiz-adv-x="1364" d="M1195 68q0 -68 -62 -68h-45q-60 0 -79 48q-21 55 -45 153q-42 -105 -142.5 -165.5t-250.5 -60.5q-196 0 -289 122.5t-93 361.5v603q0 28 17.5 47t49.5 19h110q66 0 66 -66v-592q0 -239 111 -276q36 -12 85.5 -12t102 23t94.5 61q94 87 94 199v597q0 28 17 47t54 19h105 q35 0 51 -19t16 -47v-625q0 -211 30 -340q3 -11 3 -29zM381 1381.5q-13 10.5 -13 27.5v130q0 16 13 26.5t30 10.5h518q18 0 31 -10.5t13 -27.5v-130q0 -16 -13 -26.5t-31 -10.5h-518q-17 0 -30 10.5z" />
<glyph unicode="&#x16c;" horiz-adv-x="1698" d="M847 198q363 0 363 413v858q0 26 16.5 45t39.5 19h137q23 0 39 -19t16 -45v-856q0 -308 -180 -481q-165 -158 -430 -158q-266 0 -433 164q-175 171 -175 475v856q0 26 16.5 45t39.5 19h137q23 0 39 -19t16 -45v-858q0 -207 101 -313q93 -100 258 -100zM852 1662 q-73 0 -135.5 21.5t-109.5 59.5q-102 82 -102 206q0 34 53 37l108 5q37 3 40 -31q5 -74 57 -106q35 -22 86 -22q89 0 126 54q16 24 20 57q5 51 54 48l94 -5q49 -4 49 -42q0 -117 -95 -198q-98 -84 -245 -84z" />
<glyph unicode="&#x16d;" horiz-adv-x="1364" d="M1195 68q0 -68 -62 -68h-45q-60 0 -79 48q-21 55 -45 153q-42 -105 -142.5 -165.5t-250.5 -60.5q-196 0 -289 122.5t-93 361.5v603q0 28 17.5 47t49.5 19h110q66 0 66 -66v-592q0 -239 111 -276q36 -12 85.5 -12t102 23t94.5 61q94 87 94 199v597q0 28 17 47t54 19h105 q35 0 51 -19t16 -47v-625q0 -211 30 -340q3 -11 3 -29zM469 1652l23 1q37 0 40 -31q14 -163 152 -163q133 0 150 158q3 36 47 36l93 -5q49 -4 49 -42q0 -127 -93 -218q-99 -98 -247 -98q-234 0 -322 195q-25 56 -25 96.5t9 52.5t44 14z" />
<glyph unicode="&#x16e;" horiz-adv-x="1698" d="M847 198q363 0 363 413v858q0 26 16.5 45t39.5 19h137q23 0 39 -19t16 -45v-856q0 -308 -180 -481q-165 -158 -430 -158q-266 0 -433 164q-175 171 -175 475v856q0 26 16.5 45t39.5 19h137q23 0 39 -19t16 -45v-858q0 -207 101 -313q93 -100 258 -100zM849 1426 q-56 0 -107.5 20.5t-91.5 57.5q-85 80 -85 200t85 200q83 76 200 76q115 0 197 -76q86 -81 86 -200q0 -118 -86 -200q-82 -78 -198 -78zM805.5 1594.5q21.5 -7.5 44 -7.5t44 7.5t38.5 22.5q38 34 38 74t-10.5 61.5t-27.5 36.5q-34 30 -69.5 30t-57 -7.5t-39.5 -22.5 q-38 -33 -38 -73t10.5 -62t28 -37t39 -22.5z" />
<glyph unicode="&#x16f;" horiz-adv-x="1364" d="M1195 68q0 -68 -62 -68h-45q-60 0 -79 48q-21 55 -45 153q-42 -105 -142.5 -165.5t-250.5 -60.5q-196 0 -289 122.5t-93 361.5v603q0 28 17.5 47t49.5 19h110q66 0 66 -66v-592q0 -239 111 -276q36 -12 85.5 -12t102 23t94.5 61q94 87 94 199v597q0 28 17 47t54 19h105 q35 0 51 -19t16 -47v-625q0 -211 30 -340q3 -11 3 -29zM681 1245q-56 0 -107.5 20.5t-91.5 57.5q-85 80 -85 200t85 199q83 77 200 77q115 0 197 -77q86 -80 86 -199q0 -118 -86 -200q-82 -78 -198 -78zM637.5 1413.5q21.5 -7.5 44 -7.5t44 7.5t38.5 22.5q38 34 38 74 t-10.5 61.5t-27.5 36.5q-34 30 -69.5 30t-57 -7.5t-39.5 -22.5q-38 -33 -38 -73t10.5 -62t28 -37t39 -22.5z" />
<glyph unicode="&#x170;" horiz-adv-x="1698" d="M847 198q363 0 363 413v858q0 26 16.5 45t39.5 19h137q23 0 39 -19t16 -45v-856q0 -308 -180 -481q-165 -158 -430 -158q-266 0 -433 164q-175 171 -175 475v856q0 26 16.5 45t39.5 19h137q23 0 39 -19t16 -45v-858q0 -207 101 -313q93 -100 258 -100zM989 1704 q-11 15 -11 32t16 28l293 214q16 13 35 13q35 0 54 -26l53 -78q11 -17 11 -35q0 -38 -31 -53l-322 -160q-16 -8 -33 -8t-28 17zM630 1640q-17 -11 -34 -11t-34 19l-34 39q-13 14 -13 25q0 16 14 32l239 225q22 22 47.5 22t40.5 -15l67 -68q21 -21 21 -47.5t-33 -49.5z" />
<glyph unicode="&#x171;" horiz-adv-x="1364" d="M1195 68q0 -68 -62 -68h-45q-60 0 -79 48q-21 55 -45 153q-42 -105 -142.5 -165.5t-250.5 -60.5q-196 0 -289 122.5t-93 361.5v603q0 28 17.5 47t49.5 19h110q66 0 66 -66v-592q0 -239 111 -276q36 -12 85.5 -12t102 23t94.5 61q94 87 94 199v597q0 28 17 47t54 19h105 q35 0 51 -19t16 -47v-625q0 -211 30 -340q3 -11 3 -29zM838 1349q-9 9 -9 21q0 21 17 40l224 282q24 30 45 30q29 0 60 -26l66 -62q16 -16 16 -34q0 -33 -41 -69l-262 -239q-14 -12 -31 -12t-29 13zM524 1295q-14 -14 -32 -14t-31 12l-48 43q-13 12 -13 24q0 21 14 40 l194 287q24 35 50.5 35t49.5 -18l68 -54q22 -18 22 -38q0 -35 -32 -67z" />
<glyph unicode="&#x172;" horiz-adv-x="1698" d="M847 198q363 0 363 413v858q0 26 16.5 45t39.5 19h137q23 0 39 -19t16 -45v-856q0 -308 -180 -481q-165 -158 -430 -158q-266 0 -433 164q-175 171 -175 475v856q0 26 16.5 45t39.5 19h137q23 0 39 -19t16 -45v-858q0 -207 101 -313q93 -100 258 -100zM1064 -279 q49 0 49 -90q0 -88 -148 -107q-31 -4 -65 -4t-76 11t-78 35q-84 58 -84 161q0 93 72 179q55 66 146 115l46 31l108 20l45 -28q-80 -48 -134 -110.5t-72.5 -95.5t-18.5 -73q0 -69 86 -69q30 0 73.5 12.5t50.5 12.5z" />
<glyph unicode="&#x173;" horiz-adv-x="1364" d="M1208 -279q49 0 49 -90q0 -88 -148 -107q-31 -4 -65 -4t-76 11t-78 35q-84 58 -84 161q0 167 211 304q-29 57 -53 170q-42 -105 -142.5 -165.5t-250.5 -60.5q-196 0 -289 122.5t-93 361.5v603q0 28 17.5 47t49.5 19h110q66 0 66 -66v-592q0 -239 111 -276 q36 -12 85.5 -12t102 23t94.5 61q94 87 94 199v597q0 28 17 47t54 19h105q35 0 51 -19t16 -47v-625q0 -211 30 -340q3 -11 3 -28q0 -38 -23 -59l-52 -48q-122 -109 -122 -197q0 -69 86 -69q30 0 73.5 12.5t50.5 12.5z" />
<glyph unicode="&#x174;" horiz-adv-x="2213" d="M102 1429q-4 16 -4 41t15.5 44t43.5 19h143q48 0 61 -61l164 -730q3 -16 11 -54q80 -392 85 -421l7 -39q1 -9 9 -9q16 0 25 23q52 133 88 279l72 291q34 144 62 287.5t62 291.5q22 97 123 97h100q93 0 124 -97q65 -217 87 -303l216 -864q3 -16 16 -16q12 0 21.5 26.5 t26 79.5t34.5 118l35 136q57 232 76 376.5t25.5 201.5t9.5 102q6 71 6 128t2 79t10 39q19 39 74 39h91q73 0 83 -66q4 -21 4 -47t-2 -71.5t-8 -104.5q-35 -387 -199 -895q-79 -245 -135 -304q-42 -45 -116 -45h-79q-147 0 -191 175l-256 1021q-1 5 -6 5t-5 -5l-55 -298 q-72 -413 -187 -728q-37 -104 -61 -128q-42 -42 -125 -42h-80q-75 0 -116 38.5t-63 127.5zM886 1663q-11 -8 -26 -8t-27 13l-53 57q-9 10 -9 26.5t13 27.5l200 180q25 23 53 23h183q30 0 55 -23l198 -178q17 -13 17 -31.5t-14 -33.5l-40 -44q-15 -16 -30.5 -16t-25.5 7 l-253 166z" />
<glyph unicode="&#x175;" horiz-adv-x="1871" d="M1696 1128q65 0 65 -60q-2 -241 -98 -569q-75 -257 -193 -409q-79 -102 -172.5 -102t-143.5 45t-70 131q-54 225 -76 307l-38 139q-16 57 -25 86q-2 -9 -5.5 -27t-8.5 -39l-21 -87q-59 -212 -91.5 -285t-55.5 -113.5t-54 -75.5q-72 -81 -158 -81q-180 0 -224 191 q-51 215 -115 426l-133 422q-7 20 -7 40q0 61 68 61h118q60 0 82 -75q59 -205 102 -403l86 -394q9 -37 28 -37q21 0 40.5 39t42 95.5t43.5 121t41 134t37 139.5q34 139 55 260l7 42q12 60 105 60q61 0 81 -8q38 -17 63 -83.5t54 -163.5t56 -200q67 -265 99 -408 q7 -29 21 -29q19 0 48 52.5t60 145.5t54 200q47 216 53 446q0 51 44 63q11 3 21 3h115zM693 1287q-15 0 -30 13l-56 48q-18 15 -18 29q0 16 13 32l198 243q36 45 86 45h102q48 0 87 -47l190 -240q13 -18 13 -34t-17 -30l-53 -43q-21 -17 -34 -17t-25 11l-214 204l-210 -199 q-17 -15 -32 -15z" />
<glyph unicode="&#x176;" horiz-adv-x="1355" d="M569 515l-544 937q-9 15 -9 33t13 33t33 15h161q41 0 57 -27q4 -8 9 -16l399 -731q4 -9 7.5 -9t59.5 90.5t147 267.5t167 365q12 30 28 45t48 15h155q24 0 36 -16.5t12 -37t-8 -38.5q-259 -535 -522 -911v-466q0 -27 -16.5 -45.5t-39.5 -18.5h-138q-23 0 -39 19t-16 45 v451zM450 1663q-11 -8 -26 -8t-27 13l-53 57q-9 10 -9 26.5t13 27.5l200 180q25 23 53 23h183q30 0 55 -23l198 -178q17 -13 17 -31.5t-14 -33.5l-40 -44q-15 -16 -30.5 -16t-25.5 7l-253 166z" />
<glyph unicode="&#x177;" horiz-adv-x="1193" d="M1046 1128q64 0 64 -63q0 -73 -76 -323l-62 -191q-219 -628 -543 -1034l-20 -25q-46 -59 -94 -59q-51 0 -118 71q-19 20 -19 46q0 42 45 88.5t83 93t72 93.5q62 85 112 179q-156 421 -189 504l-109 271l-77 175q-43 100 -43 121.5t18.5 37t52.5 15.5h126q44 0 68 -50 q18 -37 49 -122q63 -184 92 -273l81 -265q12 -40 18 -64l9 -36q3 -12 7 -30l9 -38q5 -20 11 -20t13.5 12t15.5 31l17 42q104 267 197 748q12 65 75 65h115zM359 1289q-15 0 -30 13l-56 48q-18 15 -18 29q0 16 13 32l198 243q36 45 86 45h102q48 0 87 -47l190 -240 q13 -18 13 -34t-17 -30l-53 -43q-21 -17 -34 -17t-25 11l-214 204l-210 -199q-17 -15 -32 -15z" />
<glyph unicode="&#x178;" horiz-adv-x="1355" d="M569 515l-544 937q-9 15 -9 33t13 33t33 15h161q41 0 57 -27q4 -8 9 -16l399 -731q4 -9 7.5 -9t59.5 90.5t147 267.5t167 365q12 30 28 45t48 15h155q24 0 36 -16.5t12 -37t-8 -38.5q-259 -535 -522 -911v-466q0 -27 -16.5 -45.5t-39.5 -18.5h-138q-23 0 -39 19t-16 45 v451zM949 1668q-61 0 -106 44q-43 44 -43 109q0 99 91 139q27 12 58 12q61 0 105 -44t44 -91.5t-12 -75.5t-32 -49q-43 -44 -105 -44zM501.5 1680q-26.5 -12 -57.5 -12t-58.5 12t-47.5 32q-44 46 -44 93t12 75t32 48q44 44 107 44q58 0 104 -44q43 -42 43 -90.5t-11.5 -76.5 t-32 -48.5t-47 -32.5z" />
<glyph unicode="&#x179;" horiz-adv-x="1193" d="M992 1533q102 0 102 -87v-47q0 -45 -15 -76.5t-35 -62.5l-605 -933l-73 -93q-13 -18 -13 -24t11.5 -6t27.5 3l36 7q52 9 80 9h536q38 0 59 -12.5t21 -53.5v-104q0 -39 -41 -50q-11 -3 -20 -3h-881q-57 0 -88 48q-11 16 -15.5 44t-4.5 64q0 47 34 103l606 940l80 106 q6 7 6 12t-13 5l-146 -10h-465q-44 0 -57 12q-24 20 -24 64v95q0 29 15.5 39.5t50.5 10.5h831zM510 1631q-40 -14 -57 20l-31 67q-15 30 15 47l367 211q24 16 45 16q40 0 51 -26l54 -115q8 -16 8 -30q0 -37 -43 -52z" />
<glyph unicode="&#x17a;" horiz-adv-x="1023" d="M395 196l121 10h368q23 0 39.5 -14.5t16.5 -35.5v-72q0 -52 -17 -64q-26 -20 -83 -20h-655q-64 0 -89 62q-9 21 -9 50q0 44 57 127l394 566l82 110q6 7 6 12t-13 5l-146 -10h-285q-48 0 -62 14q-24 24 -24 78v65q0 20 16 34.5t39 14.5h680q41 0 59 -24q30 -37 30 -71.5 t-7 -55.5t-17 -39t-22 -34t-21 -30l-367 -554l-94 -110q-4 -5 -4 -9.5t7 -4.5zM453 1289q-13 -8 -30 -8t-26 14l-49 68q-7 10 -7 23.5t20 31.5l309 281q25 23 47 23q35 0 52 -22l75 -95q12 -15 11 -31q-1 -41 -39 -64z" />
<glyph unicode="&#x17b;" horiz-adv-x="1193" d="M992 1533q102 0 102 -87v-47q0 -45 -15 -76.5t-35 -62.5l-605 -933l-73 -93q-13 -18 -13 -24t11.5 -6t27.5 3l36 7q52 9 80 9h536q38 0 59 -12.5t21 -53.5v-104q0 -39 -41 -50q-11 -3 -20 -3h-881q-57 0 -88 48q-11 16 -15.5 44t-4.5 64q0 47 34 103l606 940l80 106 q6 7 6 12t-13 5l-146 -10h-465q-44 0 -57 12q-24 20 -24 64v95q0 29 15.5 39.5t50.5 10.5h831zM602 1667q-68 0 -116 47q-48 46 -48 116q0 68 48 116q46 46 116 46q107 0 150 -98q13 -29 13 -64q0 -70 -48 -116q-48 -47 -115 -47z" />
<glyph unicode="&#x17c;" horiz-adv-x="1023" d="M395 196l121 10h368q23 0 39.5 -14.5t16.5 -35.5v-72q0 -52 -17 -64q-26 -20 -83 -20h-655q-64 0 -89 62q-9 21 -9 50q0 44 57 127l394 566l82 110q6 7 6 12t-13 5l-146 -10h-285q-48 0 -62 14q-24 24 -24 78v65q0 20 16 34.5t39 14.5h680q41 0 59 -24q30 -37 30 -71.5 t-7 -55.5t-17 -39t-22 -34t-21 -30l-367 -554l-94 -110q-4 -5 -4 -9.5t7 -4.5zM510 1306q-68 0 -116 46q-48 47 -48 117q0 68 48 116q46 46 116 46q107 0 150 -97q13 -30 13 -65q0 -70 -48 -117q-48 -46 -115 -46z" />
<glyph unicode="&#x17d;" horiz-adv-x="1193" d="M992 1533q102 0 102 -87v-47q0 -45 -15 -76.5t-35 -62.5l-605 -933l-73 -93q-13 -18 -13 -24t11.5 -6t27.5 3l36 7q52 9 80 9h536q38 0 59 -12.5t21 -53.5v-104q0 -39 -41 -50q-11 -3 -20 -3h-881q-57 0 -88 48q-11 16 -15.5 44t-4.5 64q0 47 34 103l606 940l80 106 q6 7 6 12t-13 5l-146 -10h-465q-44 0 -57 12q-24 20 -24 64v95q0 29 15.5 39.5t50.5 10.5h831zM530 1658q-30 0 -55 23l-198 178q-17 14 -17 32t14 33l40 44q15 16 30.5 16t25.5 -7l255 -166l248 173q11 8 26 8t27 -13l53 -57q9 -11 9 -27t-13 -27l-209 -187 q-25 -23 -53 -23h-183z" />
<glyph unicode="&#x17e;" horiz-adv-x="1023" d="M395 196l121 10h368q23 0 39.5 -14.5t16.5 -35.5v-72q0 -52 -17 -64q-26 -20 -83 -20h-655q-64 0 -89 62q-9 21 -9 50q0 44 57 127l394 566l82 110q6 7 6 12t-13 5l-146 -10h-285q-48 0 -62 14q-24 24 -24 78v65q0 20 16 34.5t39 14.5h680q41 0 59 -24q30 -37 30 -71.5 t-7 -55.5t-17 -39t-22 -34t-21 -30l-367 -554l-94 -110q-4 -5 -4 -9.5t7 -4.5zM462 1280q-46 0 -87 47l-189 228q-14 16 -14 30.5t16 31.5l55 56q32 32 59 6l213 -203l214 206q16 15 32.5 15t29.5 -13l63 -65q24 -24 -2 -55l-202 -239q-38 -45 -86 -45h-102z" />
<glyph unicode="&#x192;" horiz-adv-x="1023" d="M569 860q0 -66 3 -123h285q76 0 67 -79l-7 -69q-5 -56 -66 -56h-282q-35 -636 -122 -877q-82 -224 -173 -224q-41 0 -66 18l-53 36q-32 21 -32 47q0 41 36.5 84t68 126.5t51.5 175.5q53 250 58 614h-196q-65 0 -58 67l4 42q2 23 14 35.5t48 20.5l189 38q-4 58 -4 115 t2 104.5t9 94.5q24 159 122 268q118 131 311 131q111 0 200 -45q88 -46 88 -100q0 -19 -25 -54l-26 -36q-31 -43 -48.5 -43t-32.5 10t-36 22q-56 32 -121 32q-208 0 -208 -375z" />
<glyph unicode="&#x1fc;" horiz-adv-x="1873" d="M81 18.5q-15 18.5 -15 32t3 21.5l500 1358q23 64 59 85q31 18 106 18h946q26 0 39.5 -16.5t13.5 -40.5v-108q0 -23 -13.5 -39.5t-39.5 -16.5h-710l114 -413h530q26 0 39.5 -16.5t13.5 -40.5v-108q0 -23 -13.5 -39.5t-39.5 -16.5h-469l125 -457h415q26 0 39.5 -16.5 t13.5 -40.5v-108q0 -23 -13.5 -39.5t-39.5 -16.5h-537q-49 0 -64 43l-89 325h-565l-112 -325q-14 -43 -61 -43h-132q-29 0 -44 18.5zM926 584l-170 670q-3 10 -12.5 10t-12.5 -10l-227 -670h422zM1058 1631q-40 -14 -57 20l-31 67q-15 30 15 47l367 211q24 16 45 16 q40 0 51 -26l54 -115q8 -16 8 -30q0 -37 -43 -52z" />
<glyph unicode="&#x1fd;" horiz-adv-x="1874" d="M1287 467q-109 0 -263 43q-8 -147 88 -238q96 -90 255 -90q127 0 261 87q24 16 40 16q35 0 51 -30l29 -58q9 -16 9 -41t-20 -50t-53 -46t-75.5 -36.5t-88.5 -26.5q-92 -22 -169 -22t-143.5 14.5t-123.5 42.5q-120 59 -180 166q-45 -92 -156 -156q-115 -67 -256 -67 q-159 0 -270 93q-124 104 -124 273q0 185 136 283q112 79 288 79t298 -103q3 34 3 85t-20 102t-57 85q-76 67 -212 67q-122 0 -248 -67q-24 -13 -42 -13q-27 0 -52 53q-27 54 -27 78q0 44 66 85q126 78 337 78q253 0 379 -189q132 190 399 190q185 0 296 -91 q116 -95 116 -265q0 -167 -136 -255q-118 -76 -335 -76zM1265 646q261 0 261 154q0 99 -102 134q-35 13 -88.5 13t-104.5 -17.5t-91 -51.5q-89 -72 -106 -192q44 -22 118.5 -31t112.5 -9zM352 421q-18 -32 -18 -74.5t15.5 -75.5t42.5 -55q57 -45 129 -45t118.5 17t80.5 43 q72 55 72 119q-8 79 -87 124q-73 42 -171 42q-127 0 -182 -95zM845 1289q-13 -8 -30 -8t-26 14l-49 68q-7 10 -7 23.5t20 31.5l309 281q25 23 47 23q35 0 52 -22l75 -95q12 -15 11 -31q-1 -41 -39 -64z" />
<glyph unicode="&#x218;" horiz-adv-x="1194" d="M139 242q29 49 39 60q20 24 40.5 24t43.5 -13t61.5 -32.5t82.5 -36.5q98 -37 171.5 -37t119.5 13t79 39q68 55 68 154q0 125 -189 213q-54 25 -121.5 50.5t-142 68.5t-133.5 101q-131 130 -131 306q0 187 153 300q143 106 337 106q216 0 355 -94q76 -50 76 -93 q0 -23 -27 -74t-43.5 -69t-30.5 -18q-25 0 -65.5 27t-115.5 59t-142 32t-107.5 -11t-70.5 -33q-62 -47 -62 -137q0 -130 178 -206l97 -40q195 -75 296 -166q139 -126 139 -309q0 -204 -154 -332q-142 -119 -333 -119q-245 0 -417 101q-80 46 -80 81.5t29 84.5zM465 -262 q-8 20 -8 46.5t13 49t34 36.5q42 28 85.5 28t71.5 -10.5t49 -29.5q47 -44 47 -112q0 -108 -104 -257q-38 -57 -85 -57q-14 0 -28 7l-33 16q-21 11 -21 27q0 22 9 36.5t17.5 32t17.5 38.5q23 55 25 76q-65 10 -90 73z" />
<glyph unicode="&#x219;" horiz-adv-x="1024" d="M497 180q192 0 192 129q0 71 -109 120q-46 21 -100.5 39t-104.5 43t-93.5 54.5t-75.5 67.5q-66 80 -66 203q0 150 125 238q111 79 273 79q174 0 291 -68q40 -24 40 -55q0 -44 -23.5 -96.5t-55 -52.5t-57 13t-46 22.5t-43.5 15.5q-50 15 -92.5 15t-68.5 -6t-47 -19 q-51 -31 -51 -76t20.5 -69t56.5 -44t86 -40l108 -45q131 -57 177 -103q90 -92 90 -213q0 -152 -104 -250q-115 -107 -327 -107q-215 0 -323 83q-53 40 -53 72t11.5 57.5t30 60t50 34.5t67 -28.5t97.5 -51t125 -22.5zM382 -262q-8 20 -8 46.5t13 49t34 36.5q42 28 85.5 28 t71.5 -10.5t49 -29.5q47 -44 47 -112q0 -108 -104 -257q-38 -57 -85 -57q-14 0 -28 7l-33 16q-21 11 -21 27q0 22 9 36.5t17.5 32t17.5 38.5q23 55 25 76q-65 10 -90 73z" />
<glyph unicode="&#x237;" d="M127 -360q103 0 103 189v1233q0 29 15 47.5t38 18.5h137q22 0 38 -18.5t16 -47.5v-1193q0 -212 -86 -327q-82 -110 -223 -110q-117 0 -186 52q-37 31 -37 64q0 16 12.5 58.5t24 60.5t30 18t31.5 -7t26 -16q36 -22 61 -22z" />
<glyph unicode="&#x2c6;" horiz-adv-x="853" d="M185 1287q-15 0 -30 13l-56 48q-18 15 -18 29q0 16 13 32l198 243q36 45 86 45h102q48 0 87 -47l190 -240q13 -18 13 -34t-17 -30l-53 -43q-21 -17 -34 -17t-25 11l-214 204l-210 -199q-17 -15 -32 -15z" />
<glyph unicode="&#x2c7;" horiz-adv-x="853" d="M376 1280q-46 0 -87 47l-189 228q-14 16 -14 30.5t16 31.5l55 56q32 32 59 6l213 -203l214 206q16 15 32.5 15t29.5 -13l63 -65q24 -24 -2 -55l-202 -239q-38 -45 -86 -45h-102z" />
<glyph unicode="&#x2d8;" d="M129 1681l23 1q37 0 40 -31q14 -163 152 -163q133 0 150 158q3 36 47 36l93 -5q49 -4 49 -42q0 -127 -93 -218q-99 -98 -247 -98q-234 0 -322 195q-25 56 -25 96.5t9 52.5t44 14z" />
<glyph unicode="&#x2d9;" horiz-adv-x="513" d="M257 1306q-68 0 -116 46q-48 47 -48 117q0 68 48 116q46 46 116 46q107 0 150 -97q13 -30 13 -65q0 -70 -48 -117q-48 -46 -115 -46z" />
<glyph unicode="&#x2da;" horiz-adv-x="681" d="M341 1245q-56 0 -107.5 20.5t-91.5 57.5q-85 80 -85 200t85 199q83 77 200 77q115 0 197 -77q86 -80 86 -199q0 -118 -86 -200q-82 -78 -198 -78zM297.5 1413.5q21.5 -7.5 44 -7.5t44 7.5t38.5 22.5q38 34 38 74t-10.5 61.5t-27.5 36.5q-34 30 -69.5 30t-57 -7.5 t-39.5 -22.5q-38 -33 -38 -73t10.5 -62t28 -37t39 -22.5z" />
<glyph unicode="&#x2db;" d="M468 -279q49 0 49 -90q0 -88 -148 -107q-31 -4 -65 -4t-76 11t-78 35q-84 58 -84 161q0 93 72 179q55 66 146 115l46 31l108 20l45 -28q-80 -48 -134 -110.5t-72.5 -95.5t-18.5 -73q0 -69 86 -69q30 0 73.5 12.5t50.5 12.5z" />
<glyph unicode="&#x2dc;" horiz-adv-x="852" d="M202 1336.5q-13 -12.5 -24.5 -12.5t-15 0.5t-12.5 3.5t-26 9l-44 16q-33 11 -33 42.5t18 71.5t49 77q75 88 163 88q69 0 153 -60l60 -42q27 -19 47 -19t32 7.5t21 18.5q20 22 27 48t18.5 46.5t38.5 20.5q3 0 15 -2l29 -7q72 -16 81.5 -29t9.5 -40.5t-17.5 -75 t-49.5 -88.5q-72 -93 -172 -93q-77 0 -162 59l-58 41q-28 19 -52 19q-54 0 -77 -70q-6 -17 -19 -29.5z" />
<glyph unicode="&#x2dd;" horiz-adv-x="1023" d="M615 1349q-9 9 -9 21q0 21 17 40l224 282q24 30 45 30q29 0 60 -26l66 -62q16 -16 16 -34q0 -33 -41 -69l-262 -239q-14 -12 -31 -12t-29 13zM301 1295q-14 -14 -32 -14t-31 12l-48 43q-13 12 -13 24q0 21 14 40l194 287q24 35 50.5 35t49.5 -18l68 -54q22 -18 22 -38 q0 -35 -32 -67z" />
<glyph unicode="&#x3c0;" horiz-adv-x="1533" d="M1205 264q0 -68 47 -68q15 0 39 8l36 13q11 4 19 4q18 0 34 -35l23 -51q12 -25 12 -40q0 -24 -23 -44t-49 -33.5t-52 -21.5q-107 -31 -198 2q-128 45 -128 273v651h-428v-856q0 -28 -17 -47t-55 -19h-109q-29 0 -45.5 19t-16.5 47v856h-174q-17 0 -30 10.5t-13 27.5v131 q0 16 13 26.5t30 10.5h1252q18 0 31 -10.5t13 -27.5v-131q0 -16 -13 -26.5t-31 -10.5h-167v-658z" />
<glyph unicode="&#x1e02;" horiz-adv-x="1521" d="M238 1447q0 59 42 79q14 7 35 7h465q196 0 334 -83q168 -99 168 -303q0 -139 -80 -232q-72 -82 -184 -104v-4q153 -7 254 -89q115 -96 115 -258q0 -236 -173 -355q-151 -105 -410 -105h-489q-41 0 -59 25.5t-18 60.5v1361zM486 881q152 0 243 6q154 9 226 68.5t72 166.5 t-76.5 153.5t-228.5 46.5h-236v-441zM802 213q220 0 292 125q27 46 27 108t-17 99t-46 63t-68 41.5t-82 24.5q-75 14 -150 14q-94 0 -199 -5l-73 -3l1 -467h315zM713 1667q-68 0 -116 47q-48 46 -48 116q0 68 48 116q46 46 116 46q107 0 150 -98q13 -29 13 -64 q0 -70 -48 -116q-48 -47 -115 -47z" />
<glyph unicode="&#x1e03;" horiz-adv-x="1365" d="M263 0q-60 0 -60 77v1631q0 27 15 46t38 19h136q23 0 38.5 -19t15.5 -46v-731q128 176 366 176q218 0 334 -161q105 -146 105 -389q0 -284 -137 -457q-135 -170 -342 -170q-112 0 -207.5 50.5t-154.5 154.5q-2 -31 -5.5 -61t-4.5 -58q-4 -62 -81 -62h-56zM453 713.5 q-22 -68.5 -22 -143t22 -144t61 -124.5q86 -120 213 -120q142 0 213 124q58 103 58 266q0 269 -138 346q-48 27 -117 27t-127 -30t-99.5 -81.5t-63.5 -120zM791 1306q-68 0 -116 46q-48 47 -48 117q0 68 48 116q46 46 116 46q107 0 150 -97q13 -30 13 -65q0 -70 -48 -117 q-48 -46 -115 -46z" />
<glyph unicode="&#x1e0a;" horiz-adv-x="1533" d="M238 1446q0 35 23.5 61t65.5 26h317q396 0 596 -196q190 -188 190 -537q0 -373 -213.5 -586.5t-590.5 -213.5h-299q-42 0 -65.5 26.5t-23.5 61.5v1358zM674 1313h-50q-33 0 -135 -3v-1089l163 -3h6q387 0 476 334q29 108 29 239.5t-31.5 227t-93.5 161.5 q-125 133 -364 133zM775 1667q-68 0 -116 47q-48 46 -48 116q0 68 48 116q46 46 116 46q107 0 150 -98q13 -29 13 -64q0 -70 -48 -116q-48 -47 -115 -47z" />
<glyph unicode="&#x1e0b;" horiz-adv-x="1364" d="M931 987v723q0 26 15.5 44.5t38.5 18.5h139q23 0 38 -18.5t15 -44.5v-1282q0 -202 32 -335q3 -14 3 -35.5t-18.5 -39.5t-47.5 -18h-49q-59 0 -79 48q-26 61 -43 161q-77 -163 -259 -217q-60 -17 -149.5 -17t-178 46t-150.5 125q-127 164 -127 408q0 252 123 418 q133 181 355 181t342 -166zM367 547q0 -68 16.5 -133t50.5 -116q76 -116 210 -116q122 0 214 106q98 110 98 260q0 182 -95 292q-91 105 -224 105q-139 0 -211 -131q-59 -110 -59 -267zM607 1306q-68 0 -116 46q-48 47 -48 117q0 68 48 116q46 46 116 46q107 0 150 -97 q13 -30 13 -65q0 -70 -48 -117q-48 -46 -115 -46z" />
<glyph unicode="&#x1e1e;" horiz-adv-x="1190" d="M236 1469q0 26 16.5 45t39.5 19h812q26 0 39.5 -16.5t13.5 -40.5v-109q0 -23 -13.5 -39.5t-39.5 -16.5h-617v-497h497q26 0 39.5 -17t13.5 -40v-108q0 -23 -13.5 -39.5t-39.5 -16.5h-498v-529q0 -26 -16.5 -45t-39.5 -19h-139q-23 0 -39 19t-16 45v1405zM724 1667 q-68 0 -116 47q-48 46 -48 116q0 68 48 116q46 46 116 46q107 0 150 -98q13 -29 13 -64q0 -70 -48 -116q-48 -47 -115 -47z" />
<glyph unicode="&#x1e1f;" horiz-adv-x="851" d="M826 976q0 -56 -63 -56h-244v-849q0 -32 -18 -51.5t-50 -19.5h-98q-35 0 -54 19.5t-19 51.5v849h-141q-63 0 -63 57v56q0 23 12.5 34.5t46.5 21.5l149 24q-50 107 -50 181t28.5 130t79.5 95q104 81 274 81q147 0 253 -63q59 -36 59 -64.5t-18 -53.5l-48 -68 q-20 -27 -37.5 -27t-33.5 10t-38 22q-59 32 -112 32t-81 -7t-50 -22q-50 -33 -50 -98t34 -133h269q63 0 63 -55v-97zM569 1667q-68 0 -116 47q-48 46 -48 116q0 68 48 116q46 46 116 46q107 0 150 -98q13 -29 13 -64q0 -70 -48 -116q-48 -47 -115 -47z" />
<glyph unicode="&#x1e40;" horiz-adv-x="2039" d="M1912 50q0 -50 -35 -50h-166q-19 0 -33 12t-16 30l-69 598q-13 113 -19.5 223t-14.5 230l-10 142q0 4 -2.5 4t-3.5 -3l-45 -164q-14 -50 -31 -100l-312 -849q-5 -15 -20 -28t-30 -13h-157q-31 0 -50 40q-347 813 -369.5 869.5t-39.5 107.5l-45 138q-1 3 -3.5 3t-3.5 -4 v-162q0 -212 -17 -433l-45 -599q-2 -16 -18.5 -29t-34.5 -13h-138q-24 0 -39.5 21t-12.5 51l120 1316q7 83 20 105q23 40 84 40h108q49 0 68 -13q35 -23 61 -87l431 -1050l377 1051q33 99 112 99h113q88 0 103 -81q4 -26 8 -56l173 -1325q2 -10 2 -21zM1005 1667 q-68 0 -116 47q-48 46 -48 116q0 68 48 116q46 46 116 46q107 0 150 -98q13 -29 13 -64q0 -70 -48 -116q-48 -47 -115 -47z" />
<glyph unicode="&#x1e41;" horiz-adv-x="2043" d="M800 1153q252 0 319 -225q100 161 265 210q56 16 141 16t164.5 -42t118 -109.5t49 -148.5t10.5 -174v-614q0 -28 -18 -47t-53 -19h-98q-38 0 -56 19t-18 47v623q0 129 -44.5 192t-140.5 63q-109 0 -191 -96q-88 -100 -88 -248v-534q0 -28 -18 -47t-53 -19h-98 q-38 0 -56 19t-18 47v623q0 129 -44.5 192t-140.5 63q-109 0 -192 -96q-87 -100 -87 -248v-534q0 -28 -17 -47t-52 -19h-103q-35 0 -53 19t-18 47v614q0 201 -13 280.5t-13 95.5q0 72 69 72h55q56 0 76 -42q24 -51 46 -158q87 157 252 208q56 17 118 17zM1080 1306 q-68 0 -116 46q-48 47 -48 117q0 68 48 116q46 46 116 46q107 0 150 -97q13 -30 13 -65q0 -70 -48 -117q-48 -46 -115 -46z" />
<glyph unicode="&#x1e56;" horiz-adv-x="1360" d="M480 62q0 -62 -68 -62h-118q-35 0 -50 19t-15 43v1383q0 35 18.5 61.5t60.5 26.5h396q280 0 434 -134q161 -139 161 -397q0 -260 -181 -416q-172 -149 -435 -149q-83 0 -203 15v-390zM480 662l80 -9q36 -4 98 -4t134 19t126 61q119 91 119 272q0 229 -203 295 q-63 20 -141 20h-213v-654zM714 1667q-68 0 -116 47q-48 46 -48 116q0 68 48 116q46 46 116 46q107 0 150 -98q13 -29 13 -64q0 -70 -48 -116q-48 -47 -115 -47z" />
<glyph unicode="&#x1e57;" horiz-adv-x="1365" d="M434 173q10 -100 10 -250v-413q0 -74 -59 -74h-124q-63 0 -63 78v1107q0 281 -30 410q-3 13 -3 36t18.5 42t47.5 19h61q55 0 78 -48q27 -56 41 -145q70 122 191 178q86 40 195.5 40t195.5 -42.5t143 -116.5q113 -147 113 -394q0 -258 -127 -436q-134 -189 -351 -189 q-226 0 -337 198zM421 528q0 -144 96 -248q91 -98 206 -98q145 0 215 141q56 112 56 283q0 138 -66 234q-71 104 -189 104q-133 0 -227 -110q-91 -108 -91 -251v-55zM754 1306q-68 0 -116 46q-48 47 -48 117q0 68 48 116q46 46 116 46q107 0 150 -97q13 -30 13 -65 q0 -70 -48 -117q-48 -46 -115 -46z" />
<glyph unicode="&#x1e60;" horiz-adv-x="1194" d="M139 242q29 49 39 60q20 24 40.5 24t43.5 -13t61.5 -32.5t82.5 -36.5q98 -37 171.5 -37t119.5 13t79 39q68 55 68 154q0 125 -189 213q-54 25 -121.5 50.5t-142 68.5t-133.5 101q-131 130 -131 306q0 187 153 300q143 106 337 106q216 0 355 -94q76 -50 76 -93 q0 -23 -27 -74t-43.5 -69t-30.5 -18q-25 0 -65.5 27t-115.5 59t-142 32t-107.5 -11t-70.5 -33q-62 -47 -62 -137q0 -130 178 -206l97 -40q195 -75 296 -166q139 -126 139 -309q0 -204 -154 -332q-142 -119 -333 -119q-245 0 -417 101q-80 46 -80 81.5t29 84.5zM615 1667 q-68 0 -116 47q-48 46 -48 116q0 68 48 116q46 46 116 46q107 0 150 -98q13 -29 13 -64q0 -70 -48 -116q-48 -47 -115 -47z" />
<glyph unicode="&#x1e61;" horiz-adv-x="1024" d="M497 180q192 0 192 129q0 71 -109 120q-46 21 -100.5 39t-104.5 43t-93.5 54.5t-75.5 67.5q-66 80 -66 203q0 150 125 238q111 79 273 79q174 0 291 -68q40 -24 40 -55q0 -44 -23.5 -96.5t-55 -52.5t-57 13t-46 22.5t-43.5 15.5q-50 15 -92.5 15t-68.5 -6t-47 -19 q-51 -31 -51 -76t20.5 -69t56.5 -44t86 -40l108 -45q131 -57 177 -103q90 -92 90 -213q0 -152 -104 -250q-115 -107 -327 -107q-215 0 -323 83q-53 40 -53 72t11.5 57.5t30 60t50 34.5t67 -28.5t97.5 -51t125 -22.5zM519 1306q-68 0 -116 46q-48 47 -48 117q0 68 48 116 q46 46 116 46q107 0 150 -97q13 -30 13 -65q0 -70 -48 -117q-48 -46 -115 -46z" />
<glyph unicode="&#x1e6a;" horiz-adv-x="1192" d="M468 1315h-361q-26 0 -44.5 16.5t-18.5 40.5v105q0 23 18.5 39.5t44.5 16.5h988q26 0 39.5 -16.5t13.5 -40.5v-105q0 -23 -14 -39.5t-40 -16.5h-374v-1251q0 -26 -16.5 -45t-39.5 -19h-141q-23 0 -39 19t-16 45v1251zM603 1667q-68 0 -116 47q-48 46 -48 116q0 68 48 116 q46 46 116 46q107 0 150 -98q13 -29 13 -64q0 -70 -48 -116q-48 -47 -115 -47z" />
<glyph unicode="&#x1e6b;" horiz-adv-x="851" d="M795 976q0 -56 -63 -56h-282v-628q0 -102 101 -102q64 0 167 64q20 13 43.5 13t37.5 -33l23 -52q13 -30 13 -51t-31.5 -48.5t-80.5 -49.5q-111 -50 -201 -50t-142.5 18.5t-89.5 55.5q-80 78 -80 225v638h-84q-63 0 -63 57v57q0 23 12 36t47 20l100 29l38 235q11 66 54 66 h83q23 0 38 -18.5t15 -47.5v-226h282q63 0 63 -55v-97zM362 1556q-68 0 -116 46q-48 47 -48 117q0 68 48 116q46 46 116 46q107 0 150 -97q13 -30 13 -65q0 -70 -48 -117q-48 -46 -115 -46z" />
<glyph unicode="&#x1e80;" horiz-adv-x="2213" d="M102 1429q-4 16 -4 41t15.5 44t43.5 19h143q48 0 61 -61l164 -730q3 -16 11 -54q80 -392 85 -421l7 -39q1 -9 9 -9q16 0 25 23q52 133 88 279l72 291q34 144 62 287.5t62 291.5q22 97 123 97h100q93 0 124 -97q65 -217 87 -303l216 -864q3 -16 16 -16q12 0 21.5 26.5 t26 79.5t34.5 118l35 136q57 232 76 376.5t25.5 201.5t9.5 102q6 71 6 128t2 79t10 39q19 39 74 39h91q73 0 83 -66q4 -21 4 -47t-2 -71.5t-8 -104.5q-35 -387 -199 -895q-79 -245 -135 -304q-42 -45 -116 -45h-79q-147 0 -191 175l-256 1021q-1 5 -6 5t-5 -5l-55 -298 q-72 -413 -187 -728q-37 -104 -61 -128q-42 -42 -125 -42h-80q-75 0 -116 38.5t-63 127.5zM808 1769q-43 15 -43 52q0 14 8 30l54 115q11 26 41.5 26t54.5 -16l367 -211q30 -17 15 -47l-31 -67q-17 -34 -57 -20z" />
<glyph unicode="&#x1e81;" horiz-adv-x="1871" d="M1696 1128q65 0 65 -60q-2 -241 -98 -569q-75 -257 -193 -409q-79 -102 -172.5 -102t-143.5 45t-70 131q-54 225 -76 307l-38 139q-16 57 -25 86q-2 -9 -5.5 -27t-8.5 -39l-21 -87q-59 -212 -91.5 -285t-55.5 -113.5t-54 -75.5q-72 -81 -158 -81q-180 0 -224 191 q-51 215 -115 426l-133 422q-7 20 -7 40q0 61 68 61h118q60 0 82 -75q59 -205 102 -403l86 -394q9 -37 28 -37q21 0 40.5 39t42 95.5t43.5 121t41 134t37 139.5q34 139 55 260l7 42q12 60 105 60q61 0 81 -8q38 -17 63 -83.5t54 -163.5t56 -200q67 -265 99 -408 q7 -29 21 -29q19 0 48 52.5t60 145.5t54 200q47 216 53 446q0 51 44 63q11 3 21 3h115zM640 1510q-37 23 -38.5 51.5t10.5 43.5l75 95q17 22 37 22q37 0 62 -23l309 -281q20 -18 20 -31.5t-7 -23.5l-49 -68q-9 -14 -26 -14t-30 8z" />
<glyph unicode="&#x1e82;" horiz-adv-x="2213" d="M102 1429q-4 16 -4 41t15.5 44t43.5 19h143q48 0 61 -61l164 -730q3 -16 11 -54q80 -392 85 -421l7 -39q1 -9 9 -9q16 0 25 23q52 133 88 279l72 291q34 144 62 287.5t62 291.5q22 97 123 97h100q93 0 124 -97q65 -217 87 -303l216 -864q3 -16 16 -16q12 0 21.5 26.5 t26 79.5t34.5 118l35 136q57 232 76 376.5t25.5 201.5t9.5 102q6 71 6 128t2 79t10 39q19 39 74 39h91q73 0 83 -66q4 -21 4 -47t-2 -71.5t-8 -104.5q-35 -387 -199 -895q-79 -245 -135 -304q-42 -45 -116 -45h-79q-147 0 -191 175l-256 1021q-1 5 -6 5t-5 -5l-55 -298 q-72 -413 -187 -728q-37 -104 -61 -128q-42 -42 -125 -42h-80q-75 0 -116 38.5t-63 127.5zM1000 1631q-40 -14 -57 20l-31 67q-15 30 15 47l367 211q24 16 45 16q40 0 51 -26l54 -115q8 -16 8 -30q0 -37 -43 -52z" />
<glyph unicode="&#x1e83;" horiz-adv-x="1871" d="M1696 1128q65 0 65 -60q-2 -241 -98 -569q-75 -257 -193 -409q-79 -102 -172.5 -102t-143.5 45t-70 131q-54 225 -76 307l-38 139q-16 57 -25 86q-2 -9 -5.5 -27t-8.5 -39l-21 -87q-59 -212 -91.5 -285t-55.5 -113.5t-54 -75.5q-72 -81 -158 -81q-180 0 -224 191 q-51 215 -115 426l-133 422q-7 20 -7 40q0 61 68 61h118q60 0 82 -75q59 -205 102 -403l86 -394q9 -37 28 -37q21 0 40.5 39t42 95.5t43.5 121t41 134t37 139.5q34 139 55 260l7 42q12 60 105 60q61 0 81 -8q38 -17 63 -83.5t54 -163.5t56 -200q67 -265 99 -408 q7 -29 21 -29q19 0 48 52.5t60 145.5t54 200q47 216 53 446q0 51 44 63q11 3 21 3h115zM884 1289q-13 -8 -30 -8t-26 14l-49 68q-7 10 -7 23.5t20 31.5l309 281q25 23 47 23q35 0 52 -22l75 -95q12 -15 11 -31q-1 -41 -39 -64z" />
<glyph unicode="&#x1e84;" horiz-adv-x="2213" d="M102 1429q-4 16 -4 41t15.5 44t43.5 19h143q48 0 61 -61l164 -730q3 -16 11 -54q80 -392 85 -421l7 -39q1 -9 9 -9q16 0 25 23q52 133 88 279l72 291q34 144 62 287.5t62 291.5q22 97 123 97h100q93 0 124 -97q65 -217 87 -303l216 -864q3 -16 16 -16q12 0 21.5 26.5 t26 79.5t34.5 118l35 136q57 232 76 376.5t25.5 201.5t9.5 102q6 71 6 128t2 79t10 39q19 39 74 39h91q73 0 83 -66q4 -21 4 -47t-2 -71.5t-8 -104.5q-35 -387 -199 -895q-79 -245 -135 -304q-42 -45 -116 -45h-79q-147 0 -191 175l-256 1021q-1 5 -6 5t-5 -5l-55 -298 q-72 -413 -187 -728q-37 -104 -61 -128q-42 -42 -125 -42h-80q-75 0 -116 38.5t-63 127.5zM1369 1668q-61 0 -106 44q-43 44 -43 109q0 99 91 139q27 12 58 12q61 0 105 -44t44 -91.5t-12 -75.5t-32 -49q-43 -44 -105 -44zM921.5 1680q-26.5 -12 -57.5 -12t-58.5 12 t-47.5 32q-44 46 -44 93t12 75t32 48q44 44 107 44q58 0 104 -44q43 -42 43 -90.5t-11.5 -76.5t-32 -48.5t-47 -32.5z" />
<glyph unicode="&#x1e85;" horiz-adv-x="1871" d="M1696 1128q65 0 65 -60q-2 -241 -98 -569q-75 -257 -193 -409q-79 -102 -172.5 -102t-143.5 45t-70 131q-54 225 -76 307l-38 139q-16 57 -25 86q-2 -9 -5.5 -27t-8.5 -39l-21 -87q-59 -212 -91.5 -285t-55.5 -113.5t-54 -75.5q-72 -81 -158 -81q-180 0 -224 191 q-51 215 -115 426l-133 422q-7 20 -7 40q0 61 68 61h118q60 0 82 -75q59 -205 102 -403l86 -394q9 -37 28 -37q21 0 40.5 39t42 95.5t43.5 121t41 134t37 139.5q34 139 55 260l7 42q12 60 105 60q61 0 81 -8q38 -17 63 -83.5t54 -163.5t56 -200q67 -265 99 -408 q7 -29 21 -29q19 0 48 52.5t60 145.5t54 200q47 216 53 446q0 51 44 63q11 3 21 3h115zM1187 1317q-61 0 -105 45q-44 43 -44 108q0 99 91 139q27 12 58 12q61 0 105 -44t44 -91.5t-12 -75.5t-32 -48q-43 -45 -105 -45zM691 1317q-61 0 -105 45q-44 43 -44 108q0 99 91 139 q27 12 58 12q61 0 105 -44t44 -91.5t-12 -75.5t-32 -48q-43 -45 -105 -45z" />
<glyph unicode="&#x1ef2;" horiz-adv-x="1355" d="M569 515l-544 937q-9 15 -9 33t13 33t33 15h161q41 0 57 -27q4 -8 9 -16l399 -731q4 -9 7.5 -9t59.5 90.5t147 267.5t167 365q12 30 28 45t48 15h155q24 0 36 -16.5t12 -37t-8 -38.5q-259 -535 -522 -911v-466q0 -27 -16.5 -45.5t-39.5 -18.5h-138q-23 0 -39 19t-16 45 v451zM428 1769q-43 15 -43 52q0 14 8 30l54 115q11 26 41.5 26t54.5 -16l367 -211q30 -17 15 -47l-31 -67q-17 -34 -57 -20z" />
<glyph unicode="&#x1ef3;" horiz-adv-x="1193" d="M1046 1128q64 0 64 -63q0 -73 -76 -323l-62 -191q-219 -628 -543 -1034l-20 -25q-46 -59 -94 -59q-51 0 -118 71q-19 20 -19 46q0 42 45 88.5t83 93t72 93.5q62 85 112 179q-156 421 -189 504l-109 271l-77 175q-43 100 -43 121.5t18.5 37t52.5 15.5h126q44 0 68 -50 q18 -37 49 -122q63 -184 92 -273l81 -265q12 -40 18 -64l9 -36q3 -12 7 -30l9 -38q5 -20 11 -20t13.5 12t15.5 31l17 42q104 267 197 748q12 65 75 65h115zM274 1512q-37 23 -38.5 51.5t10.5 43.5l75 95q17 22 37 22q37 0 62 -23l309 -281q20 -18 20 -31.5t-7 -23.5l-49 -68 q-9 -14 -26 -14t-30 8z" />
<glyph unicode="&#x2013;" horiz-adv-x="1533" d="M253 522.5q-16 14.5 -16 34.5v95q0 20 16 34t39 14h947q23 0 39.5 -14.5t16.5 -34.5v-95q0 -20 -16.5 -34t-39.5 -14h-947q-23 0 -39 14.5z" />
<glyph unicode="&#x2014;" horiz-adv-x="2048" d="M255 522.5q-16 14.5 -16 34.5v95q0 20 16 34t39 14h1458q23 0 39.5 -14.5t16.5 -34.5v-95q0 -20 -16.5 -34t-39.5 -14h-1458q-23 0 -39 14.5z" />
<glyph unicode="&#x2018;" horiz-adv-x="511" d="M320 1137q-28 -12 -62.5 -12t-64.5 13.5t-51 38.5q-46 53 -46 114t11.5 108t30.5 93q37 92 96 170l18 22q38 43 63.5 43t42.5 -15l32 -25q16 -14 16 -30q0 -22 -21.5 -44.5t-39 -52.5t-29.5 -59q-21 -51 -27 -96q52 -2 79 -30q46 -49 46 -107q0 -92 -94 -131z" />
<glyph unicode="&#x2019;" horiz-adv-x="511" d="M190 1715q28 12 62.5 12t64.5 -13.5t51 -38.5q46 -53 46 -114t-11.5 -108t-30.5 -93q-37 -92 -96 -170l-18 -22q-38 -43 -63.5 -43t-42.5 15l-32 25q-16 14 -16 30q0 22 21.5 44.5t39 52.5t29.5 59q21 51 27 96q-52 2 -79 30q-46 49 -46 107q0 92 94 131z" />
<glyph unicode="&#x201a;" horiz-adv-x="511" d="M190 269q28 12 62.5 12t64.5 -13.5t51 -38.5q46 -53 46 -114t-11.5 -108t-30.5 -93q-37 -92 -96 -170l-18 -22q-38 -43 -63.5 -43t-42.5 15l-32 25q-16 14 -16 30q0 22 21.5 44.5t39 52.5t29.5 59q21 51 27 96q-52 2 -79 30q-46 49 -46 107q0 92 94 131z" />
<glyph unicode="&#x201c;" horiz-adv-x="852" d="M709 1137q-28 -12 -62.5 -12t-64.5 13.5t-51 38.5q-46 53 -46 114t11.5 108t30.5 93q37 92 96 170l18 22q38 43 63.5 43t42.5 -15l32 -25q16 -14 16 -30q0 -22 -21.5 -44.5t-39 -52.5t-29.5 -59q-21 -51 -27 -96q52 -2 79 -30q46 -49 46 -107q0 -92 -94 -131zM271 1137 q-28 -12 -62.5 -12t-64.5 13.5t-51 38.5q-46 53 -46 114t11.5 108t30.5 93q37 92 96 170l18 22q38 43 63.5 43t42.5 -15l32 -25q16 -14 16 -30q0 -22 -21.5 -44.5t-39 -52.5t-29.5 -59q-21 -51 -27 -96q52 -2 79 -30q46 -49 46 -107q0 -92 -94 -131z" />
<glyph unicode="&#x201d;" horiz-adv-x="852" d="M581 1715q28 12 62.5 12t64.5 -13.5t51 -38.5q46 -53 46 -114t-11.5 -108t-30.5 -93q-37 -92 -96 -170l-18 -22q-38 -43 -63.5 -43t-42.5 15l-32 25q-16 14 -16 30q0 22 21.5 44.5t39 52.5t29.5 59q21 51 27 96q-52 2 -79 30q-46 49 -46 107q0 92 94 131zM142 1715 q28 12 62.5 12t64.5 -13.5t51 -38.5q46 -53 46 -114t-11.5 -108t-30.5 -93q-37 -92 -96 -170l-18 -22q-38 -43 -63.5 -43t-42.5 15l-32 25q-16 14 -16 30q0 22 21.5 44.5t39 52.5t29.5 59q21 51 27 96q-52 2 -79 30q-46 49 -46 107q0 92 94 131z" />
<glyph unicode="&#x201e;" horiz-adv-x="852" d="M575 269q28 12 62.5 12t64.5 -13.5t51 -38.5q46 -53 46 -114t-11.5 -108t-30.5 -93q-37 -92 -96 -170l-18 -22q-38 -43 -63.5 -43t-42.5 15l-32 25q-16 14 -16 30q0 22 21.5 44.5t39 52.5t29.5 59q21 51 27 96q-52 2 -79 30q-46 49 -46 107q0 92 94 131zM166 269 q28 12 62.5 12t64.5 -13.5t51 -38.5q46 -53 46 -114t-11.5 -108t-30.5 -93q-37 -92 -96 -170l-18 -22q-38 -43 -63.5 -43t-42.5 15l-32 25q-16 14 -16 30q0 22 21.5 44.5t39 52.5t29.5 59q21 51 27 96q-52 2 -79 30q-46 49 -46 107q0 92 94 131z" />
<glyph unicode="&#x2020;" horiz-adv-x="1193" d="M488 948l-326 -16q-23 -2 -39 13.5t-16 35.5v111q0 20 16 34.5t39 13.5l326 -15v582q0 26 16.5 45t39.5 19h104q23 0 39 -19t16 -45v-582l327 15q23 1 39.5 -14t16.5 -35v-111q0 -31 -34 -45q-10 -4 -22 -3l-327 15v-1207q0 -26 -16.5 -45t-39.5 -19h-104q-23 0 -39 19 t-16 45v1208z" />
<glyph unicode="&#x2021;" horiz-adv-x="1193" d="M123 334.5q-16 15.5 -16 35.5v112q0 20 16 34.5t39 13.5l432 -20l436 20q23 1 39.5 -14t16.5 -35v-112q0 -20 -16.5 -34.5t-39.5 -13.5l-436 21l-432 -21q-23 -2 -39 13.5zM488 948l-326 -16q-23 -2 -39 13.5t-16 35.5v111q0 20 16 34.5t39 13.5l326 -15v582 q0 26 16.5 45t39.5 19h104q23 0 39 -19t16 -45v-582l327 15q23 1 39.5 -14t16.5 -35v-111q0 -31 -34 -45q-10 -4 -22 -3l-327 15v-1207q0 -26 -16.5 -45t-39.5 -19h-104q-23 0 -39 19t-16 45v1208z" />
<glyph unicode="&#x2022;" horiz-adv-x="681" d="M119 732q0 92 65 160q65 66 159 66q92 0 156 -66q65 -68 65 -160q0 -94 -65 -162t-156 -68q-93 0 -159 68q-65 68 -65 162z" />
<glyph unicode="&#x2026;" horiz-adv-x="1539" d="M1112 151q0 71 50 123q50 51 122 51q71 0 120 -51q50 -52 50 -123q0 -72 -50 -124t-120 -52q-71 0 -122 52q-50 52 -50 124zM599 151q0 71 51 123q49 51 121 51q71 0 120 -51q50 -52 50 -123q0 -72 -50 -124t-120 -52q-71 0 -121 52q-51 52 -51 124zM86 151q0 71 50 123 q50 51 122 51q71 0 120 -51q50 -52 50 -123q0 -72 -50 -124t-120 -52q-71 0 -122 52q-50 52 -50 124z" />
<glyph unicode="&#x2030;" horiz-adv-x="2893" d="M480 802q-85 0 -157 30t-123 84q-106 112 -106 293q0 179 112 293q110 111 278 111q186 0 289 -111q99 -107 99 -293q0 -181 -112 -295q-111 -112 -280 -112zM400 994q36 -18 86.5 -18t86 18t57.5 49q42 59 42 163q0 156 -98 213q-37 21 -90 21t-88.5 -20.5t-57.5 -53.5 q-42 -64 -42 -166q0 -151 104 -206zM2079 388q0 90 30 164.5t83 127.5q109 111 277 111q186 0 289 -111q99 -107 99 -293q0 -181 -113 -295q-110 -112 -275 -112q-176 0 -284 114q-106 112 -106 294zM1187 388q0 90 30 164.5t83 127.5q109 111 277 111q186 0 289 -111 q99 -107 99 -293q0 -181 -113 -295q-110 -112 -275 -112q-176 0 -284 114q-106 112 -106 294zM2291 466.5q-10 -43.5 -10 -88t11 -85t34 -71.5q52 -68 145 -68q186 0 186 230q0 156 -99 213q-36 21 -89 21t-88.5 -20.5t-57.5 -54t-32 -77zM1399 466.5q-10 -43.5 -10 -88 t11 -85t34 -71.5q52 -68 145 -68q186 0 186 230q0 156 -99 213q-36 21 -89 21t-88.5 -20.5t-57.5 -54t-32 -77zM443 28q-29 19 -29 41.5t11 37.5l1037 1475q21 31 49 31q15 0 28 -8l73 -47q23 -14 23 -37.5t-13 -40.5l-1033 -1475q-25 -34 -41 -34q-25 0 -46 15z" />
<glyph unicode="&#x2039;" horiz-adv-x="855" d="M132 482q-36 36 -36 78.5t38 80.5l392 393q30 30 55.5 30t45.5 -18l71 -68q19 -19 19 -39q0 -38 -26 -62l-327 -315l319 -312q21 -21 21 -38q0 -34 -24 -58l-63 -69q-17 -19 -45 -19t-44 18z" />
<glyph unicode="&#x203a;" horiz-adv-x="855" d="M701 666q36 -36 36 -78.5t-38 -80.5l-392 -393q-30 -30 -55.5 -30t-45.5 18l-71 68q-19 19 -19 39q0 38 26 62l327 315l-319 312q-21 21 -21 38q0 34 24 58l63 69q17 19 45 19t44 -18z" />
<glyph unicode="&#x2044;" horiz-adv-x="1193" d="M9 28q-29 19 -29 41.5t11 37.5l1037 1475q21 31 49 31q15 0 28 -8l73 -47q23 -14 23 -37.5t-13 -40.5l-1033 -1475q-25 -34 -41 -34q-25 0 -46 15z" />
<glyph unicode="&#x20ac;" horiz-adv-x="1363" d="M490 788q-4 -39 -4 -82.5t3 -78.5h488q15 0 26 -9t11 -23v-107q0 -13 -11 -22.5t-26 -9.5h-455q34 -119 129 -194q98 -78 222 -78t199 48l39 26q38 28 60 28q41 0 60 -30l14 -21q25 -38 25 -67t-32 -64t-88 -64q-126 -65 -298 -65q-216 0 -374 133q-154 131 -199 348 h-176q-15 0 -26 9.5t-11 23.5v106q0 14 11 23t26 9h149q-4 50 -4 82v46q0 14 2 33h-127q-15 0 -26 9.5t-11 23.5v106q0 14 11 23t26 9h150q54 228 209 360q157 133 375 133q224 0 373 -127q27 -22 27 -43q0 -37 -20 -66l-24 -32q-35 -45 -65.5 -45t-57.5 17l-52 32 q-94 55 -175.5 55t-138 -23t-98.5 -62q-84 -76 -116 -199h497q15 0 26 -9t11 -23v-107q0 -13 -11 -22.5t-26 -9.5h-517z" />
<glyph unicode="&#x2122;" horiz-adv-x="2042" d="M869 608q-34 0 -46 44q-3 12 -2 21l73 753q7 63 17 79q19 28 68 28h69q39 0 53 -9q25 -16 45 -64l249 -602l213 598q18 55 52 69q14 6 36 6h76q45 0 67.5 -28t22.5 -73l106 -755q4 -42 -11 -54.5t-28 -12.5h-101q-20 0 -34 12.5t-16 30.5l-55 435l-11 189l-40 -165 l-179 -444q-15 -39 -50 -39h-90q-32 0 -48 37l-209 448l-53 163l3 -188l-35 -435q-2 -17 -18 -30.5t-33 -13.5h-91zM360 608q-23 0 -38.5 17t-15.5 42v691h-202q-26 0 -42.5 16t-16.5 39v64q0 24 16.5 40t42.5 16h595q26 0 40 -16t14 -40v-64q0 -23 -14 -39t-40 -16h-198 v-691q0 -25 -15.5 -42t-38.5 -17h-87z" />
<glyph unicode="&#x2126;" horiz-adv-x="1874" d="M155 162q0 23 18.5 39.5t44.5 16.5h167q17 0 43 -3l51 -6l60 -8q5 0 5 3.5t-3 5.5q-164 84 -257 251q-94 166 -94 354t53.5 320.5t150.5 226.5q204 198 537 198q334 0 539 -199t205 -523q0 -304 -215 -516q-66 -65 -143 -112q-3 -2 -3 -6t4.5 -4t22 3t39.5 6l41 6 q20 3 27 3h233q26 0 39.5 -16.5t13.5 -40.5v-105q0 -23 -14 -39.5t-40 -16.5h-542q-26 0 -44.5 16.5t-18.5 40.5v88q0 31 20.5 46.5t36.5 25.5t36 27q37 31 77 74.5t69.5 96t48.5 111.5q37 116 41 252v29q0 243 -119 382q-123 144 -356 144q-228 0 -351 -151 q-117 -145 -117 -401q0 -250 137 -436q65 -88 133 -122q64 -32 64 -77v-90q0 -23 -14 -39.5t-40 -16.5h-523q-26 0 -44.5 16.5t-18.5 40.5v105z" />
<glyph unicode="&#x2202;" horiz-adv-x="1359" d="M90 528q0 122 42 229t118 183q159 159 412 159q150 0 295 -77q49 -26 87 -61l1 37q0 457 -275 554q-65 22 -142 22q-106 0 -222 -48q-39 -15 -60 -15q-36 0 -57 42l-15 30q-16 32 -16 56.5t21.5 48.5t55.5 42t76.5 31t85.5 21q86 16 180.5 16t192 -36t168.5 -97.5 t118.5 -143t75.5 -173.5q52 -166 52 -339t-18.5 -299.5t-55.5 -237t-92 -202t-128 -157.5q-151 -138 -359 -138q-266 0 -409 159q-132 145 -132 394zM363 669q-27 -69 -27 -152.5t22 -142t62 -98.5q81 -82 211 -80q172 3 285 180q96 153 113 365q-92 88 -242 127 q-53 13 -116 13t-125 -24t-109 -71.5t-74 -116.5z" />
<glyph unicode="&#x2206;" horiz-adv-x="1536" d="M71 18.5q-15 18.5 -15 32t3 21.5l520 1358q25 66 49 81q35 22 91.5 22t80.5 -2t41 -11q30 -17 60 -87l576 -1362q3 -8 3 -22.5t-12 -31.5t-40 -17h-1313q-29 0 -44 18.5zM1156 217l-401 1024q-4 10 -13 10q-14 0 -18 -10l-356 -1024h788z" />
<glyph unicode="&#x220f;" horiz-adv-x="1707" d="M230 1469q0 26 16.5 45t39.5 19h1136q23 0 39 -19t16 -45v-1751q0 -26 -16.5 -45t-39.5 -19h-140q-23 0 -39 19t-16 45v1594h-745v-1595q0 -26 -16.5 -45t-39.5 -19h-140q-23 0 -39 19t-16 45v1752z" />
<glyph unicode="&#x2211;" horiz-adv-x="1193" d="M331 -139q154 15 296 15h466q33 0 48 -10.5t15 -39.5v-120q0 -39 -41 -50q-11 -3 -20 -3h-921q-60 0 -92 57q-16 30 -16 82q0 67 34 120l457 691l-420 648q-47 73 -47 129q0 22 9.5 57.5t21 52.5t25.5 26q24 17 58 17h877q35 0 50.5 -10.5t15.5 -39.5v-117q0 -53 -66 -53 h-459q-93 0 -152 3.5t-103 5.5l375 -582q7 -11 18 -26.5t21 -33.5q24 -43 24 -67t-4 -39.5t-12 -32.5t-21 -38z" />
<glyph unicode="&#x2212;" horiz-adv-x="1363" d="M148 522.5q-16 14.5 -16 34.5v95q0 20 16 34t39 14h988q23 0 39.5 -15t16.5 -38v-84q0 -25 -16.5 -40t-39.5 -15h-988q-23 0 -39 14.5z" />
<glyph unicode="&#x221a;" horiz-adv-x="1363" d="M300 643l-142 -39q-8 -2 -20.5 -2t-27 9.5t-18.5 26.5l-26 108q-1 7 -1 16q0 30 32 38l286 73q12 4 35 4q45 0 67 -63l200 -592q7 -15 20 -15q15 0 20 15l374 1506q11 45 55 45h130q26 0 38 -19.5t12 -36.5t-1 -22l-429 -1585q-15 -59 -39 -77q-43 -34 -129 -34h-57 q-73 0 -101 17q-45 29 -71 94z" />
<glyph unicode="&#x221e;" horiz-adv-x="1704" d="M862 804q122 216 337 216q189 0 293 -133q89 -114 89 -282q0 -183 -97 -295q-100 -116 -278 -116q-126 0 -229 70q-85 57 -131 147q-77 -147 -219 -198q-53 -19 -136 -19t-156.5 37t-120.5 96q-92 114 -92 282q0 183 98 295q103 116 282 116q183 0 306 -140 q33 -39 54 -76zM946 618q19 -76 86 -138q74 -69 156 -69t128.5 51.5t46.5 140.5q0 143 -105 191q-34 16 -95.5 16t-120.5 -44t-96 -148zM448 420q35 -16 97 -16t120.5 43.5t96.5 147.5q-20 77 -86 139q-73 68 -155.5 68t-131.5 -51t-49 -140q0 -142 108 -191z" />
<glyph unicode="&#x222b;" horiz-adv-x="1023" d="M72 -320q20 27 36.5 27t31.5 -9l32 -22q48 -30 90 -30t67 18.5t39 48.5q23 49 23 144v1725q0 149 87 246q99 110 268 110q88 0 149.5 -22.5t91 -47t29.5 -53.5t-19 -57l-47 -68q-20 -27 -36.5 -27t-31.5 9l-32 22q-48 30 -90 30t-67 -18.5t-39 -48.5q-23 -49 -23 -144 v-1695q0 -170 -87 -274q-96 -112 -268 -112q-82 0 -146.5 25t-94 48.5t-29.5 51t19 55.5z" />
<glyph unicode="&#x2248;" horiz-adv-x="1533" d="M280 695q-16 -23 -41 -23t-43 15l-43 35q-19 14 -19 39q0 21 11 39q76 144 199 205q87 43 161.5 43t118.5 -12.5t83 -32t74 -41.5l69 -42q76 -44 137 -44q129 0 242 149q25 31 45 31t37 -14l37 -30q22 -20 22 -44q0 -38 -14 -60q-73 -137 -195 -196q-85 -42 -161 -42 t-119.5 12.5t-82 31.5t-72.5 41t-68 41q-77 44 -138 44q-138 0 -240 -145zM187 238q-21 19 -21 40.5t10 39.5q76 141 199 204q85 43 185 43q127 0 280 -102q107 -69 173 -69q135 0 245 148q24 31 43.5 31t38.5 -14l36 -30q23 -19 23 -43q0 -35 -29 -88t-80 -100.5 t-102 -71.5q-80 -39 -157 -39t-120.5 12.5t-81.5 32t-73 41.5l-68 41q-76 45 -138 45q-137 0 -241 -146q-17 -25 -42 -25t-42 16z" />
<glyph unicode="&#x2260;" horiz-adv-x="1363" d="M303 65l107 211h-198q-23 0 -39 14.5t-16 34.5v100q0 20 16 34t39 14h299l129 253h-428q-23 0 -39 14.5t-16 34.5v100q0 20 16 34t39 14h528l153 300q19 39 55 39q9 0 17 -4l79 -38q28 -14 29 -37t-7 -38l-113 -222h197q23 0 39.5 -15t16.5 -38v-89q0 -25 -16.5 -40 t-39.5 -15h-297l-128 -253h425q23 0 39.5 -15t16.5 -38v-89q0 -25 -16.5 -40t-39.5 -15h-524l-146 -288q-23 -41 -54 -41q-15 0 -31 9l-63 34q-36 19 -36 40t7 35z" />
<glyph unicode="&#x2264;" horiz-adv-x="1363" d="M209 643q-62 27 -68 79q-2 18 -2 40q0 70 35 99q15 12 39 23l871 301q26 11 44 11q41 0 53 -38l20 -65q8 -27 8 -43q0 -45 -47 -59l-718 -223l706 -208q48 -15 50 -64q0 -11 -11 -42l-18 -55q-14 -43 -56 -43q-11 0 -21 4zM153 149q0 20 16 34t39 14h948q23 0 39.5 -15 t16.5 -38v-89q0 -25 -16.5 -40t-39.5 -15h-948q-23 0 -39 14.5t-16 34.5v100z" />
<glyph unicode="&#x2265;" horiz-adv-x="1363" d="M1153 643q62 27 68 79q2 18 2 40q0 70 -35 99q-15 12 -39 23l-871 301q-26 11 -44 11q-41 0 -53 -38l-20 -65q-8 -27 -8 -43q0 -45 47 -59l718 -223l-706 -208q-48 -15 -50 -64q0 -11 11 -42l18 -55q14 -43 56 -43q11 0 21 4zM1209 149q0 20 -16 34t-39 14h-948 q-23 0 -39.5 -15t-16.5 -38v-89q0 -25 16.5 -40t39.5 -15h948q23 0 39 14.5t16 34.5v100z" />
<glyph unicode="&#x25ca;" horiz-adv-x="1536" d="M230 786q-32 62 -32 94q0 31 33 101l328 689q29 63 55 79q38 24 110 24h26q75 0 99 -12q38 -20 72 -88l345 -685q34 -68 34 -97q0 -37 -35 -111l-328 -677q-31 -65 -56 -80q-38 -23 -109 -23h-26q-75 0 -99 12q-38 20 -72 88zM741 250q4 -10 15.5 -10t15.5 10l240 533 q31 72 31 101q0 34 -33 104l-255 533q-5 10 -16.5 10t-14.5 -10l-237 -536q-32 -74 -32 -104q0 -31 30 -95z" />
<glyph unicode="&#x25fc;" horiz-adv-x="1130" d="M0 1130h1130v-1130h-1130v1130z" />
<glyph unicode="&#xf6c3;" horiz-adv-x="513" d="M122 -262q-8 20 -8 46.5t13 49t34 36.5q42 28 85.5 28t71.5 -10.5t49 -29.5q47 -44 47 -112q0 -108 -104 -257q-38 -57 -85 -57q-14 0 -28 7l-33 16q-21 11 -21 27q0 22 9 36.5t17.5 32t17.5 38.5q23 55 25 76q-65 10 -90 73z" />
<glyph unicode="&#xfb00;" horiz-adv-x="1705" d="M1256 976q0 -56 -63 -56h-674v-849q0 -32 -18 -51.5t-50 -19.5h-98q-35 0 -54 19.5t-19 51.5v849h-141q-63 0 -63 57v56q0 23 12.5 34.5t46.5 21.5l149 24l-26 71q-42 117 -42 195.5t21 130t57 91.5t84 69t103 48q106 35 199 35t160.5 -11t129.5 -29q130 -38 194 -92 q10 -9 18 -13t13 -7q10 -6 10 -24q0 -16 -15 -37l-46 -91q-27 -34 -39 -27q-127 88 -299 113q-49 7 -101 7t-101.5 -11t-83.5 -36q-73 -53 -73 -168q0 -72 47 -199h699q63 0 63 -55v-97zM1680 976q0 -56 -63 -56h-244v-849q0 -32 -18 -51.5t-50 -19.5h-98q-35 0 -54 19.5 t-19 51.5v849h-141q-63 0 -63 57v56q0 23 12.5 34.5t46.5 21.5l149 24q-51 134 -59.5 198.5t-8.5 123t26 122.5t76 113q112 110 298 110q147 0 253 -63q59 -36 59 -64.5t-18 -53.5l-48 -68q-20 -27 -37.5 -27t-33.5 10t-38 22q-59 32 -136 32q-169 0 -169 -213 q0 -103 46 -227h269q63 0 63 -55v-97z" />
<glyph unicode="&#xfb01;" horiz-adv-x="1533" d="M1273 275q0 -71 47 -71q16 0 36 9q58 25 69 14.5t18 -26.5l31 -70q8 -17 8 -32q0 -43 -74 -80q-70 -36 -138.5 -36t-109.5 15t-70 50q-58 72 -58 234v638h-513v-849q0 -32 -18 -51.5t-50 -19.5h-98q-35 0 -54 19.5t-19 51.5v849h-141q-63 0 -63 57v56q0 23 12.5 34.5 t46.5 21.5l149 24q-68 189 -68 308q0 178 160 276q136 83 321 83q214 0 403 -84q61 -28 106.5 -61.5t45.5 -67.5t-21 -64l-34 -47q-31 -43 -56.5 -43t-65 28t-85.5 51.5t-95 40.5q-104 36 -175.5 36t-117.5 -11t-80 -36q-75 -54 -75 -160.5t47 -233.5h726q23 0 38 -19 t15 -47v-787z" />
<glyph unicode="&#xfb02;" horiz-adv-x="1528" d="M826 976q0 -56 -63 -56h-244v-849q0 -32 -18 -51.5t-50 -19.5h-98q-35 0 -54 19.5t-19 51.5v849h-141q-63 0 -63 57v56q0 23 12.5 34.5t46.5 21.5l149 24q-66 180 -66 285t39.5 174t104.5 116q131 92 335.5 92t365.5 -103l17 37q14 29 30.5 44t52.5 15h52q26 0 42 -19 t16 -46v-1433q0 -71 50 -71q16 0 41 9q46 17 56 17q23 0 36 -29l31 -71q6 -15 6 -28q0 -23 -39 -56q-75 -63 -198 -63q-224 0 -224 299v1172q-114 118 -339 118q-245 0 -245 -217q0 -103 46 -227h269q63 0 63 -55v-97z" />
<glyph horiz-adv-x="680" d="M339 1426q-56 0 -107.5 20.5t-91.5 57.5q-85 80 -85 200t85 200q83 76 200 76q115 0 197 -76q86 -81 86 -200q0 -118 -86 -200q-82 -78 -198 -78zM295.5 1594.5q21.5 -7.5 44 -7.5t44 7.5t38.5 22.5q38 34 38 74t-10.5 61.5t-27.5 36.5q-34 30 -69.5 30t-57 -7.5 t-39.5 -22.5q-38 -33 -38 -73t10.5 -62t28 -37t39 -22.5z" />
<glyph horiz-adv-x="513" d="M192 1631q-40 -14 -57 20l-31 67q-15 30 15 47l367 211q24 16 45 16q40 0 51 -26l54 -115q8 -16 8 -30q0 -37 -43 -52z" />
<glyph horiz-adv-x="513" d="M268 1667q-68 0 -116 47q-48 46 -48 116q0 68 48 116q46 46 116 46q107 0 150 -98q13 -29 13 -64q0 -70 -48 -116q-48 -47 -115 -47z" />
<glyph horiz-adv-x="2553" d="M1333 1248l298 5q368 0 559 -121q237 -150 237 -529q0 -143 -59 -318q-103 -306 -284 -415q-64 -38 -121.5 -38t-97 18.5t-79.5 39.5q-111 59 -177 59q-68 0 -97.5 -14t-47.5 -29q-219 -188 -514 -210q-85 -7 -170.5 -7t-167.5 22.5t-155 63.5t-134 98t-105 127 q-93 148 -93 317q0 131 81 221q53 56 69.5 89t20 80t-13 91t-37.5 86t-39 89.5t-18 108t20.5 112.5t56.5 96.5t83.5 81t101.5 62.5q115 53 203 53t139 -17.5t96.5 -44.5t88.5 -57.5t91 -57.5q110 -62 234 -62h31zM1302 637q4 -19 4 -50q0 -196 -137 -311 q-128 -108 -319 -108q-232 0 -393 171q-51 54 -87 120l-42 -14q-17 -57 -17 -141t44.5 -171.5t120.5 -148.5q155 -127 384 -127q253 0 410 169q142 155 142 381q0 158 -70 291q-78 -38 -223.5 -38t-235.5 64l-16 -28q17 -33 45 -52q-32 -264 -64 -372l-36 2q-14 33 -14 134 t6.5 201t27.5 197q49 220 170 357q18 0 38 -7.5t23 -8.5q-69 -62 -92 -103q-41 -76 -41 -135.5t14.5 -94.5t39.5 -62q56 -59 124.5 -59t114.5 18t78 49q66 65 66 163v4q-4 137 -135 207q-110 60 -244 60t-236 -35t-182 -101q-175 -144 -175 -374q0 -189 129 -320 q135 -137 331 -137q258 0 361 207q38 75 45 185zM1412 910q24 -37 88 -73l-54 -588h338q3 25 5.5 66.5t6.5 90.5q12 129 25 184t22.5 88t24.5 64q32 67 86 107l35 -47q-55 -34 -85 -88t-30 -94t10 -66t30 -47q42 -44 125 -50q120 0 200 93q75 88 75 211q0 156 -126 211 q-41 19 -95 19q-243 0 -302 -347l-47 27l106 282l-34 36q-188 -60 -399 -66z" />
<glyph horiz-adv-x="513" d="M510 1668q-61 0 -106 44q-43 44 -43 109q0 99 91 139q27 12 58 12q61 0 105 -44t44 -91.5t-12 -75.5t-32 -49q-43 -44 -105 -44zM62.5 1680q-26.5 -12 -57.5 -12t-58.5 12t-47.5 32q-44 46 -44 93t12 75t32 48q44 44 107 44q58 0 104 -44q43 -42 43 -90.5t-11.5 -76.5 t-32 -48.5t-47 -32.5z" />
<glyph horiz-adv-x="513" d="M-75 1769q-43 15 -43 52q0 14 8 30l54 115q11 26 41.5 26t54.5 -16l367 -211q30 -17 15 -47l-31 -67q-17 -34 -57 -20z" />
<glyph horiz-adv-x="513" d="M-33 1724.5q-13 10.5 -13 27.5v142q0 16 13 26.5t30 10.5h518q18 0 31 -10.5t13 -27.5v-142q0 -16 -13 -26.5t-31 -10.5h-518q-17 0 -30 10.5z" />
<glyph horiz-adv-x="853" d="M190 1663q-11 -8 -26 -8t-27 13l-53 57q-9 10 -9 26.5t13 27.5l200 180q25 23 53 23h183q30 0 55 -23l198 -178q17 -13 17 -31.5t-14 -33.5l-40 -44q-15 -16 -30.5 -16t-25.5 7l-253 166z" />
<glyph horiz-adv-x="853" d="M336 1658q-30 0 -55 23l-198 178q-17 14 -17 32t14 33l40 44q15 16 30.5 16t25.5 -7l255 -166l248 173q11 8 26 8t27 -13l53 -57q9 -11 9 -27t-13 -27l-209 -187q-25 -23 -53 -23h-183z" />
<glyph horiz-adv-x="852" d="M90 1691q-43 11 -32.5 53.5t30.5 81t50 70.5q66 74 149 74q69 0 153 -60l60 -42q27 -19 47 -19t32 7.5t21 18.5q20 22 27 47.5t18 47t28 21.5t28 -3l75 -19q34 -11 38.5 -25t-1 -54t-27 -84.5t-52.5 -77.5q-69 -73 -154 -73q-77 0 -162 57l-58 41q-69 47 -116 -23 q-9 -13 -14.5 -30.5t-24 -29t-47.5 -4.5z" />
<glyph horiz-adv-x="513" d="M196 1554q-77 24 -77 124q0 88 86 120q25 10 56 10t56 -13t43 -35q35 -45 35 -93.5t-9.5 -88.5t-25.5 -80q-34 -88 -66.5 -137t-42.5 -59q-23 -25 -39 -25q-24 0 -50 13q-38 19 -38 40q0 13 11 39l18 43q30 71 43 142z" />
<glyph d="M343 1662q-73 0 -135.5 21.5t-109.5 59.5q-102 82 -102 206q0 34 53 37l108 5q37 3 40 -31q5 -74 57 -106q35 -22 86 -22q89 0 126 54q16 24 20 57q5 51 54 48l94 -5q49 -4 49 -42q0 -117 -95 -198q-98 -84 -245 -84z" />
<glyph horiz-adv-x="853" d="M470 1704q-11 15 -11 32t16 28l293 214q16 13 35 13q35 0 54 -26l53 -78q11 -17 11 -35q0 -38 -31 -53l-322 -160q-16 -8 -33 -8t-28 17zM111 1640q-17 -11 -34 -11t-34 19l-34 39q-13 14 -13 25q0 16 14 32l239 225q22 22 47.5 22t40.5 -15l67 -68q21 -21 21 -47.5 t-33 -49.5z" />
</font>
</defs>
</svg>
