<?xml version="1.0" standalone="no"?>
<!DOCTYPE svg PUBLIC "-//W3C//DTD SVG 1.1//EN" "http://www.w3.org/Graphics/SVG/1.1/DTD/svg11.dtd" >
<svg xmlns="http://www.w3.org/2000/svg" xmlns:xlink="http://www.w3.org/1999/xlink" version="1.1">
<metadata></metadata>
<defs>
<font id="hindlight" horiz-adv-x="0" >
<font-face units-per-em="1000" ascent="800" descent="-200" />
<missing-glyph horiz-adv-x="242" />
<glyph />
<glyph />
<glyph unicode="&#xd;" horiz-adv-x="333" />
<glyph unicode=" "  horiz-adv-x="242" />
<glyph unicode="&#x09;" horiz-adv-x="242" />
<glyph unicode="&#xa0;" horiz-adv-x="242" />
<glyph unicode="!" horiz-adv-x="241" d="M83 6q-14 14 -14 35.5t14.5 36.5t36 15t36.5 -15t15 -36.5t-15 -35.5t-37 -14t-36 14zM90 196v478h61v-478h-61z" />
<glyph unicode="&#x22;" horiz-adv-x="271" d="M169 451v230h57v-230h-57zM45 451v230h57v-230h-57z" />
<glyph unicode="#" horiz-adv-x="697" d="M642 449h-112l-47 -224h102v-51h-113l-36 -174h-59l37 174h-190l-37 -174h-57l36 174h-111v51h122l47 224h-110v51h121l36 174h59l-37 -174h190l37 174h57l-36 -174h101v-51zM425 225l47 224h-190l-47 -224h190z" />
<glyph unicode="$" horiz-adv-x="502" d="M269 619q-67 0 -107 -31.5t-40 -83.5q0 -54 45 -86q36 -25 74 -41t59.5 -25.5t45 -23t49.5 -34.5q52 -44 52 -123.5t-53.5 -126t-138.5 -51.5v-100h-55v102q-79 6 -140 42v69q30 -23 77.5 -38t107.5 -15t99.5 31t39.5 89q0 54 -46 85q-35 25 -102 53q-3 1 -5 2t-5 2 t-22.5 9.5t-43 21.5t-50.5 35q-52 44 -52 122t55.5 125t137.5 52v101h55v-103q61 -7 102 -28v-69q-24 16 -63 27t-76 11z" />
<glyph unicode="%" horiz-adv-x="814" d="M520 143q0 -39 27.5 -66.5t66.5 -27.5t66.5 27.5t27.5 66.5t-27.5 66.5t-66.5 27.5t-66.5 -27.5t-27.5 -66.5zM106 510q0 -39 27.5 -66.5t66.5 -27.5t66.5 27.5t27.5 66.5t-27.5 66.5t-66.5 27.5t-66.5 -27.5t-27.5 -66.5zM50 510q0 62 44 106t106 44t106 -44t44 -106 t-44 -106t-106 -44t-106 44t-44 106zM464 143q0 62 44 106t106 44t106 -44.5t44 -106t-44 -105.5t-106 -44t-106 44t-44 106zM200 -1l352 655h62l-353 -655h-61z" />
<glyph unicode="&#x26;" horiz-adv-x="693" d="M312 -8q-107 0 -175 50.5t-68 131.5q0 59 41 100t120 74q-53 56 -74.5 96t-21.5 84q0 72 48.5 117.5t129.5 45.5t131.5 -49.5t50.5 -113.5t-38 -110t-127 -85q56 -51 190 -174q24 42 30 100h61q-9 -81 -46 -141l128 -118h-88l-77 72q-78 -80 -215 -80zM399.5 599.5 q-30.5 31.5 -84 31.5t-85 -27.5t-31.5 -69t17 -73.5t70 -87q75 34 109.5 68t34.5 80t-30.5 77.5zM309 52q108 0 174 61q-200 183 -211 194q-70 -30 -104.5 -59t-34.5 -79.5t49.5 -83.5t126.5 -33z" />
<glyph unicode="'" horiz-adv-x="147" d="M45 451v230h57v-230h-57z" />
<glyph unicode="(" horiz-adv-x="303" d="M80 262q0 119 41 236t111 209h71q-158 -217 -158 -451.5t165 -451.5h-70q-160 204 -160 458z" />
<glyph unicode=")" horiz-adv-x="303" d="M223 262q0 -254 -160 -458h-70q165 217 165 451.5t-158 451.5h71q70 -92 111 -209t41 -236z" />
<glyph unicode="*" horiz-adv-x="381" d="M226 504h-8q16 -7 31 -28l56 -78l-40 -30l-57 78q-15 20 -18 39q-2 -19 -17 -40l-57 -77l-41 29l57 78q14 19 32 29q-4 -1 -16.5 -1t-27.5 5l-91 30l15 48l92 -30q21 -7 37 -20q-9 15 -9 42v96h50v-96q0 -22 -7 -41q12 13 36 21l92 29l16 -47l-92 -31q-15 -5 -33 -5z" />
<glyph unicode="+" horiz-adv-x="544" d="M484 368v-56h-188v-192h-57v192h-179v56h179v192h57v-192h188z" />
<glyph unicode="," horiz-adv-x="207" d="M-8 -122l91 214h90l-127 -214h-54z" />
<glyph unicode="-" horiz-adv-x="345" d="M60 243v55h225v-55h-225z" />
<glyph unicode="." horiz-adv-x="142" d="M20 43q0 22 14.5 36.5t36.5 14.5t36.5 -14.5t14.5 -36.5t-14.5 -36.5t-36.5 -14.5t-36.5 14.5t-14.5 36.5z" />
<glyph unicode="/" horiz-adv-x="387" d="M-11 -102l366 809h62l-367 -809h-61z" />
<glyph unicode="0" horiz-adv-x="543" d="M156.5 529q-48.5 -71 -48.5 -200.5t47 -203t118 -73.5t116.5 72t45.5 204t-47.5 202t-115 70t-116 -71zM45 329q0 152 63 241.5t163 89.5t163.5 -89t63.5 -241.5t-60 -245t-164.5 -92.5t-166.5 92.5t-62 244.5z" />
<glyph unicode="1" horiz-adv-x="308" d="M228 654v-654h-61v587l-147 -92v69l147 90h61z" />
<glyph unicode="2" horiz-adv-x="492" d="M447 55v-55h-407v55q320 245 320 408q0 68 -38.5 103.5t-108.5 35.5t-149 -58v62q68 54 154 54t146 -50.5t60 -143.5q0 -174 -297 -411h320z" />
<glyph unicode="3" horiz-adv-x="461" d="M58 624q54 36 140 36t137 -49t51 -120q0 -114 -104 -159q56 -13 90 -53t34 -99q0 -80 -54 -133t-148.5 -53t-163.5 33v62q71 -37 149 -37t116 36t38 94.5t-42 89.5t-115 31h-44v55h44q56 0 96 34.5t40 92.5t-35.5 87.5t-101.5 29.5t-127 -40v62z" />
<glyph unicode="4" horiz-adv-x="534" d="M509 219v-55h-101v-164h-60v164h-303v55l262 435h101v-435h101zM348 219v400l-240 -400h240z" />
<glyph unicode="5" horiz-adv-x="512" d="M160 599v-218q49 11 87 11q97 0 156 -52t59 -144t-62 -148t-163.5 -56t-171.5 33v62q64 -37 156 -37q177 0 177 153q0 63 -42 97t-110.5 34t-147.5 -35v355h318v-55h-256z" />
<glyph unicode="6" horiz-adv-x="523" d="M349 617q-100 0 -159 -77t-70 -192q32 34 78 53.5t92 19.5q91 0 142.5 -57t51.5 -154t-55 -157.5t-144 -60.5q-109 0 -168.5 84t-59.5 219q0 225 131 327q68 53 162 53q47 0 89 -15v-62q-41 19 -90 19zM165 109.5q46 -60.5 114 -60.5t104.5 46t36.5 117t-36.5 111 t-90.5 40t-100 -22.5t-76 -56.5q2 -114 48 -174.5z" />
<glyph unicode="7" horiz-adv-x="443" d="M10 654h423v-55l-275 -599h-66l276 599h-358v55z" />
<glyph unicode="8" horiz-adv-x="533" d="M478 167q0 -79 -62 -127t-151 -48t-149.5 46.5t-60.5 123.5q0 62 34.5 104t93.5 59q-55 17 -86 57.5t-31 96.5q0 85 59.5 133t138.5 48t138 -47.5t59 -135.5q0 -53 -30.5 -93t-84.5 -57q62 -16 97 -56t35 -104zM165.5 566.5q-36.5 -35.5 -36.5 -92.5t38.5 -88t98 -31 t96 33t36.5 89t-35.5 90.5t-98 34.5t-99 -35.5zM156 83.5q38 -33.5 109.5 -33.5t110.5 36.5t39 88.5t-37.5 87.5t-112 34.5t-111 -38.5t-36.5 -89.5t38 -85.5z" />
<glyph unicode="9" horiz-adv-x="496" d="M175 50q189 0 213 248q-52 -62 -152 -62q-78 0 -137 58.5t-59 152.5t53.5 154.5t145.5 60.5q108 0 160.5 -81t52.5 -201q0 -179 -67.5 -283.5t-209.5 -104.5q-58 0 -112 19v62q53 -23 112 -23zM392 380q0 87 -30 151q-16 34 -47.5 53.5t-74.5 19.5q-62 0 -99 -41.5 t-37 -115t39.5 -114t107.5 -40.5q87 0 141 68v19z" />
<glyph unicode=":" horiz-adv-x="222" d="M74 13q-14 14 -14 35.5t14.5 36.5t36 15t36.5 -15t15 -36.5t-15 -35.5t-37 -14t-36 14zM74 333q-14 14 -14 35.5t14.5 36.5t36 15t36.5 -15t15 -36.5t-15 -35.5t-37 -14t-36 14z" />
<glyph unicode=";" horiz-adv-x="207" d="M-8 -122l91 214h90l-127 -214h-54zM83 332q-14 14 -14 35.5t14.5 36.5t36 15t36.5 -15t15 -36.5t-15 -35.5t-37 -14t-36 14z" />
<glyph unicode="&#x3c;" horiz-adv-x="510" d="M60 311v60l400 191v-65q-239 -110 -333 -155l333 -157v-65z" />
<glyph unicode="=" horiz-adv-x="544" d="M60 215v56h424v-56h-424zM60 410v55h424v-55h-424z" />
<glyph unicode="&#x3e;" horiz-adv-x="510" d="M450 371v-60l-400 -191v65q237 110 333 157l-333 155v65z" />
<glyph unicode="?" horiz-adv-x="450" d="M137 6q-14 14 -14 35.5t14.5 36.5t36 15t36.5 -15t15 -36.5t-15 -35.5t-37 -14t-36 14zM201 682q96 0 152.5 -48t56.5 -134t-59.5 -133t-145.5 -55v-116h-61v170q94 0 148 33.5t54 94.5t-36 95.5t-113 34.5t-157 -51v65q27 18 71.5 31t89.5 13z" />
<glyph unicode="@" horiz-adv-x="886" d="M400 -155q-154 0 -244.5 97.5t-90.5 252.5q0 174 122 288t297 114q149 0 250.5 -92t101.5 -245q0 -114 -52.5 -174t-117.5 -60q-86 0 -109 80q-55 -83 -146 -83q-72 0 -113.5 50t-41.5 131t54 142t135 61t119 -62q1 23 3 56h53l-18 -169q-3 -28 -3 -55q0 -100 71 -100 q46 0 77.5 51t31.5 129q0 134 -84 210.5t-219 76.5t-242 -98.5t-107 -245.5t80.5 -223.5t188 -76.5t178.5 42l-4 -65q-60 -32 -170 -32zM344 109.5q27 -32.5 70.5 -32.5t81.5 29t56 81q0 13 4 55q-8 54 -34 82t-80.5 28t-89.5 -46.5t-35 -105t27 -91z" />
<glyph unicode="A" horiz-adv-x="637" d="M532 0l-64 187h-298l-65 -187h-67l238 674h90l233 -674h-67zM189 242h261l-129 380q-38 -116 -132 -380z" />
<glyph unicode="B" horiz-adv-x="562" d="M80 674h188q102 0 165.5 -46.5t63.5 -128.5q0 -60 -33.5 -102.5t-86.5 -53.5q57 -7 98.5 -49t41.5 -119t-52.5 -126t-150.5 -49h-234v674zM142 619v-251h121q87 0 128 37.5t41 91.5t-39.5 88t-117.5 34h-133zM142 55h172q65 0 101.5 32.5t36.5 94.5t-41.5 96.5 t-115.5 34.5h-153v-258z" />
<glyph unicode="C" horiz-adv-x="599" d="M385 624q-116 0 -193.5 -78.5t-77.5 -207.5t76.5 -208t203.5 -79q99 0 165 52v-68q-61 -43 -168 -43q-153 0 -247 93t-94 250.5t97 252.5t240 95q99 0 170 -36v-65q-44 23 -78 32.5t-94 9.5z" />
<glyph unicode="D" horiz-adv-x="655" d="M80 674h192q148 0 243 -92t95 -241q0 -197 -148 -291q-77 -50 -185 -50h-197v674zM142 57h135q69 0 122 24t84 65q62 82 62 196t-76.5 194.5t-196.5 80.5h-130v-560z" />
<glyph unicode="E" horiz-adv-x="490" d="M142 57h303v-57h-365v674h359v-57h-297v-252h262v-57h-262v-251z" />
<glyph unicode="F" horiz-adv-x="484" d="M439 617h-297v-257h262v-57h-262v-303h-62v674h359v-57z" />
<glyph unicode="G" horiz-adv-x="661" d="M591 371v-321q-79 -58 -200 -58q-154 0 -247.5 92.5t-93.5 249t91.5 254.5t231.5 98q119 0 196 -47v-69q-77 54 -191.5 54t-189 -78.5t-74.5 -209.5t74 -206.5t204 -75.5q77 0 137 31v231h-159v55h221z" />
<glyph unicode="H" horiz-adv-x="632" d="M490 674h62v-674h-62v315h-348v-315h-62v674h62v-302h348v302z" />
<glyph unicode="I" horiz-adv-x="232" d="M85 0v674h62v-674h-62z" />
<glyph unicode="J" horiz-adv-x="349" d="M116 59q91 0 91 96v519h62v-509q0 -165 -147 -165q-54 0 -92 23v63q40 -27 86 -27z" />
<glyph unicode="K" horiz-adv-x="549" d="M239 332l280 -332h-82l-277 332l267 342h78zM80 0v674h62v-674h-62z" />
<glyph unicode="L" horiz-adv-x="474" d="M142 57h297v-57h-359v674h62v-617z" />
<glyph unicode="M" horiz-adv-x="848" d="M75 0l47 674h85l88 -247l119 -343q69 189 218 590h85l57 -674h-62l-50 593q-64 -179 -212 -576h-73l-200 569q-9 -147 -40 -586h-62z" />
<glyph unicode="N" horiz-adv-x="667" d="M80 0v674h85l362 -601q-2 104 -2 315v286h62v-674h-85l-362 601q2 -108 2 -316v-285h-62z" />
<glyph unicode="O" horiz-adv-x="691" d="M175.5 551.5q-61.5 -76.5 -61.5 -210.5t63.5 -211.5t171.5 -77.5t168 76.5t60 212t-60.5 211.5t-170 76t-171 -76.5zM131.5 87q-81.5 95 -81.5 253.5t79.5 253t217.5 94.5t216 -93.5t78 -254t-79 -254.5t-214 -94t-216.5 95z" />
<glyph unicode="P" horiz-adv-x="540" d="M80 674h162q118 0 185.5 -59.5t67.5 -150t-65.5 -149.5t-176.5 -59h-111v-256h-62v674zM142 311h118q79 0 125.5 42t46.5 110.5t-48 112t-135 43.5h-107v-308z" />
<glyph unicode="Q" horiz-adv-x="701" d="M347 -8q-134 0 -215.5 95t-81.5 253.5t79.5 253t217.5 94.5t216 -93.5t78 -254.5q0 -119 -45 -203t-126 -120l198 -128l-65 -28l-202 135q-23 -4 -54 -4zM175.5 551.5q-61.5 -76.5 -61.5 -210.5t63.5 -211.5t171.5 -77.5t168 76.5t60 212t-60.5 211.5t-170 76t-171 -76.5 z" />
<glyph unicode="R" horiz-adv-x="531" d="M263 274h-121v-274h-62v674h152q118 0 176.5 -53.5t58.5 -151.5q-2 -68 -38 -117t-102 -67l179 -285h-74zM142 329h109q74 0 114 41t40 102q0 147 -166 147h-97v-290z" />
<glyph unicode="S" horiz-adv-x="527" d="M284 619q-67 0 -107 -31.5t-40 -83.5q0 -54 46 -86q37 -27 86 -47.5t67 -29t46 -26.5t42 -35q38 -46 38 -106q0 -88 -59 -134.5t-157 -46.5t-171 44v69q30 -23 77.5 -38t107.5 -15t99.5 31t39.5 82t-30 78q-33 30 -122 68q-83 36 -99.5 50t-32.5 29t-23 30q-19 41 -19 79 q0 85 61 132.5t147 47.5t142 -30v-69q-24 16 -63 27t-76 11z" />
<glyph unicode="T" horiz-adv-x="465" d="M450 674v-57h-187v-617h-62v617h-186v57h435z" />
<glyph unicode="U" horiz-adv-x="639" d="M497 253v421h62v-419q0 -130 -63 -196.5t-177 -66.5t-176.5 65t-62.5 190v427h62v-426q0 -101 47.5 -148.5t128.5 -47.5q179 0 179 201z" />
<glyph unicode="V" horiz-adv-x="631" d="M591 674l-237 -674h-85l-229 674h67l205 -619l212 619h67z" />
<glyph unicode="W" horiz-adv-x="929" d="M432 664h73l187 -605q49 226 135 615h62l-153 -674h-85l-181 583q-33 -119 -170 -583h-85l-175 674h65l154 -611q57 202 173 601z" />
<glyph unicode="X" horiz-adv-x="600" d="M260 340l-205 334h72l167 -278l167 278h72l-204 -334l229 -340h-72l-191 287l-181 -287h-72z" />
<glyph unicode="Y" horiz-adv-x="580" d="M320 0h-62v252l-228 422h71l53 -99l135 -260q8 19 190 359h71l-230 -422v-252z" />
<glyph unicode="Z" horiz-adv-x="555" d="M490 674v-55l-370 -564h385v-55h-455v55l370 564h-366v55h436z" />
<glyph unicode="[" horiz-adv-x="296" d="M296 652h-154v-775h154v-56h-216v886h216v-55z" />
<glyph unicode="\" horiz-adv-x="386" d="M32 707l366 -810h-62l-366 810h62z" />
<glyph unicode="]" horiz-adv-x="296" d="M216 707v-886h-216v56h154v775h-154v55h216z" />
<glyph unicode="^" horiz-adv-x="453" d="M405 332h-64l-113 226l-116 -226h-64l140 262h82z" />
<glyph unicode="_" horiz-adv-x="565" d="M30 -82v55h505v-55h-505z" />
<glyph unicode="`" horiz-adv-x="400" d="M191 798l102 -150h-55l-128 150h81z" />
<glyph unicode="a" horiz-adv-x="486" d="M230 515q186 0 186 -195v-320h-61v59q-42 -64 -146 -64q-70 0 -114.5 41.5t-44.5 110.5t56.5 109.5t149.5 40.5h99v23q0 68 -29 102.5t-102.5 34.5t-136.5 -43v66q58 35 143 35zM355 241h-99q-71 0 -106 -27.5t-35 -69t27.5 -67.5t84 -26t92.5 33t36 84v73z" />
<glyph unicode="b" horiz-adv-x="559" d="M141 707v-276q56 84 153.5 84t158.5 -74.5t61 -187t-57 -187t-160 -74.5t-156 82v-74h-61v707h61zM300 50q65 0 107.5 55t42.5 149t-44 148.5t-112 54.5q-51 0 -98 -41q-24 -21 -39.5 -62.5t-15.5 -97.5q0 -111 47 -158.5t112 -47.5z" />
<glyph unicode="c" horiz-adv-x="472" d="M164 396.5q-55 -60.5 -55 -146t53 -144.5t151 -59q61 0 104 32v-62q-43 -29 -111 -29q-123 0 -192 77.5t-69 185t70.5 186.5t190.5 79q62 0 111 -27v-62q-45 30 -105 30q-93 0 -148 -60.5z" />
<glyph unicode="d" horiz-adv-x="555" d="M418 707h61v-707h-61v74q-53 -82 -156 -82t-160 74.5t-57 187t61 187t158.5 74.5t153.5 -84v276zM259 50q65 0 112 47.5t47 158.5q0 56 -15.5 97.5t-40.5 62.5q-46 41 -97 41q-68 0 -112 -54.5t-44 -148.5t42.5 -149t107.5 -55z" />
<glyph unicode="e" horiz-adv-x="519" d="M299 -5q-113 0 -183.5 70.5t-70.5 189t62 188.5t158 70t151 -61t55 -172q0 -34 -4 -54h-358q7 -84 58 -128.5t136 -44.5t136 34v-62q-60 -30 -140 -30zM408 282v23q0 69 -38.5 110t-103 41t-107.5 -45t-50 -129h299z" />
<glyph unicode="f" horiz-adv-x="325" d="M301 646q-21 8 -47.5 8t-48 -23.5t-21.5 -70.5v-53h116v-52h-116v-455h-61v455h-93v52h93v54q0 69 36 110t101 41q19 0 41 -6v-60z" />
<glyph unicode="g" horiz-adv-x="539" d="M408 507h61v-468q0 -115 -62 -172.5t-154.5 -57.5t-153.5 29v60q62 -31 140.5 -31t123.5 41.5t45 130.5v66q-51 -93 -152 -93q-88 0 -149.5 65t-61.5 177.5t56.5 186.5t148.5 74q109 0 158 -97v89zM155 117.5q46 -47.5 102.5 -47.5t103.5 44.5t47 143t-45 149t-101 50.5 q-71 0 -112 -56t-41 -146t46 -137.5z" />
<glyph unicode="h" horiz-adv-x="529" d="M137 707v-287q46 95 161 95q73 0 117 -45t44 -116v-354h-61v335q0 59 -30 90t-85.5 31t-100.5 -47.5t-45 -128.5v-280h-61v707h61z" />
<glyph unicode="i" horiz-adv-x="221" d="M68 669q0 18 12 30.5t30 12.5t30.5 -12.5t12.5 -30.5t-12.5 -30t-30.5 -12t-30 12t-12 30zM80 0v507h61v-507h-61z" />
<glyph unicode="j" horiz-adv-x="216" d="M67 669q0 18 12 30.5t30 12.5t30.5 -12.5t12.5 -30.5t-12.5 -30t-30.5 -12t-30 12t-12 30zM23 -136q57 0 57 74v569h61v-571q0 -62 -31.5 -96t-87.5 -34q-33 0 -69 14v60q35 -16 70 -16z" />
<glyph unicode="k" horiz-adv-x="462" d="M226 266l214 -266h-76l-212 266l206 241h75zM76 0v707h61v-707h-61z" />
<glyph unicode="l" horiz-adv-x="221" d="M80 0v707h61v-707h-61z" />
<glyph unicode="m" horiz-adv-x="807" d="M137 507v-83q43 91 142 91q122 0 150 -100q47 100 150 100q80 0 119 -44.5t39 -116.5v-354h-61v335q0 121 -106 121q-52 0 -92.5 -48t-40.5 -128v-280h-61v335q0 121 -106 121q-52 0 -92.5 -48t-40.5 -128v-280h-61v507h61z" />
<glyph unicode="n" horiz-adv-x="529" d="M137 507v-87q47 95 161 95q73 0 117 -45t44 -116v-354h-61v335q0 59 -30 90t-85.5 31t-100.5 -47.5t-45 -128.5v-280h-61v507h61z" />
<glyph unicode="o" horiz-adv-x="561" d="M409 397.5q-43 58.5 -126.5 58.5t-128.5 -60t-45 -144t46.5 -143.5t126 -59.5t125 58.5t45.5 145t-43 145zM452.5 64.5q-63.5 -73.5 -172.5 -73.5t-172 74t-63 185.5t65 187.5t173 76t170.5 -74.5t62.5 -188t-63.5 -187z" />
<glyph unicode="p" horiz-adv-x="555" d="M137 507v-74q53 82 156 82t160 -74.5t57 -187t-61 -187t-158.5 -74.5t-153.5 84v-276h-61v707h61zM290 50q68 0 112 54.5t44 148.5t-42.5 149t-107.5 55t-112 -47.5t-47 -158.5q0 -56 15.5 -97.5t39.5 -63.5q47 -40 98 -40z" />
<glyph unicode="q" horiz-adv-x="555" d="M418 507h61v-707h-61v276q-56 -84 -153.5 -84t-158.5 74.5t-61 187t57 187t160 74.5t156 -82v74zM265 50q51 0 97 40q25 22 40.5 63.5t15.5 97.5q0 111 -47 158.5t-112 47.5t-107.5 -55t-42.5 -149t44 -148.5t112 -54.5z" />
<glyph unicode="r" horiz-adv-x="314" d="M137 507v-86q42 92 142 92q7 0 25 -2v-62q-20 6 -40 6q-54 0 -90.5 -53.5t-36.5 -118.5v-283h-61v507h61z" />
<glyph unicode="s" horiz-adv-x="406" d="M214 455q-44 0 -69.5 -20.5t-25.5 -47t7.5 -41.5t25.5 -28q24 -15 84 -39.5t97.5 -58t37.5 -93.5t-43.5 -96.5t-127.5 -36.5t-140 30v63q67 -38 144 -38q51 0 77.5 21t26.5 58t-27.5 59t-89.5 46.5t-98 56.5t-36 90.5t45 95t120 36.5t119 -23v-61q-47 27 -127 27z" />
<glyph unicode="t" horiz-adv-x="364" d="M170 455v-315q0 -87 81 -87q40 0 68 23v-62q-29 -19 -67 -19q-144 0 -144 148v312h-83v52h83v127h62v-127h145v-52h-145z" />
<glyph unicode="u" horiz-adv-x="529" d="M392 507h61v-507h-61v91q-40 -98 -161 -98q-74 0 -117.5 44.5t-43.5 117.5v352h61v-335q0 -58 30.5 -89t80.5 -31q67 0 108.5 48t41.5 125v282z" />
<glyph unicode="v" horiz-adv-x="497" d="M205 0l-175 507h64l152 -458q7 27 157 458h64l-180 -507h-82z" />
<glyph unicode="w" horiz-adv-x="788" d="M185 0l-155 507h67q106 -357 128 -446q5 18 128 446h72l132 -448q17 62 137 448h64l-160 -507h-82l-127 436q-29 -109 -122 -436h-82z" />
<glyph unicode="x" horiz-adv-x="465" d="M268 260l170 -260h-73l-133 213l-136 -213h-69l167 261l-157 247h72l124 -200l123 200h71z" />
<glyph unicode="y" horiz-adv-x="482" d="M71 -168q-20 0 -38 5v60q18 -5 34 -5q107 0 149 122l-207 493h70l167 -414q10 33 149 414h68l-184 -494q-38 -103 -90 -142t-118 -39z" />
<glyph unicode="z" horiz-adv-x="446" d="M387 507v-46l-270 -401h284v-60h-356v51l266 397h-256v59h332z" />
<glyph unicode="{" horiz-adv-x="322" d="M235 123q0 -31 -11.5 -85t-11.5 -86t16.5 -54.5t49.5 -22.5q18 0 34 9v-62q-20 -7 -42 -7q-51 0 -86.5 38t-35.5 103q0 28 11.5 77.5t11.5 73.5q0 103 -89 125q-8 2 -32 2v61q69 0 98 43q23 34 23 82q0 24 -11.5 73.5t-11.5 77.5q0 65 35.5 103t86.5 38q22 0 42 -7v-62 q-17 9 -34 9q-33 0 -49.5 -22.5t-16.5 -54.5t11.5 -86t11.5 -85q0 -54 -30.5 -92t-92.5 -48q62 -10 92.5 -48.5t30.5 -92.5z" />
<glyph unicode="|" horiz-adv-x="214" d="M80 -194v889h54v-889h-54z" />
<glyph unicode="}" horiz-adv-x="322" d="M87 404q0 31 11.5 85t11.5 86t-16.5 54.5t-49.5 22.5q-18 0 -34 -9v62q20 7 42 7q51 0 86.5 -38t35.5 -103q0 -28 -11.5 -77.5t-11.5 -73.5q0 -48 23 -82q29 -43 98 -43v-61q-24 0 -32 -2q-89 -22 -89 -125q0 -24 11.5 -73.5t11.5 -77.5q0 -65 -35.5 -103t-86.5 -38 q-22 0 -42 7v62q16 -9 34 -9q33 0 49.5 22.5t16.5 54.5t-11.5 86t-11.5 85q0 54 30.5 92.5t92.5 48.5q-62 10 -92.5 48t-30.5 92z" />
<glyph unicode="~" horiz-adv-x="585" d="M411 195q-45 0 -116.5 40.5t-97.5 40.5q-70 0 -119 -72l-40 37q65 91 152 91q50 0 118.5 -40t102.5 -40q56 0 88 60l47 -32q-53 -85 -135 -85z" />
<glyph unicode="&#xa1;" horiz-adv-x="241" d="M90 -165v478h61v-478h-61zM83.5 431q-14.5 15 -14.5 36.5t14 35.5t36 14t37 -14t15 -35.5t-15 -36.5t-36.5 -15t-36 15z" />
<glyph unicode="&#xa2;" horiz-adv-x="445" d="M317 453q-93 0 -148 -59t-55 -143.5t53 -142t151 -57.5q48 0 87 22v-62q-41 -17 -78 -18v-104h-55v105q-105 13 -163.5 86t-58.5 170.5t59.5 172t162.5 87.5v104h55v-103q37 -2 78 -19v-62q-43 23 -88 23z" />
<glyph unicode="&#xa3;" horiz-adv-x="517" d="M477 55v-55h-412v52q62 28 84 70t22 127q0 23 -3 50h-96v51h91q-9 86 -9 107q0 98 52 150t144 52q53 0 101 -24v-62q-49 27 -100 27q-137 0 -137 -137q0 -25 9 -113h184v-51h-178q2 -34 2 -49q0 -87 -22.5 -129t-61.5 -66h330z" />
<glyph unicode="&#xa4;" horiz-adv-x="536" d="M108 313q0 -70 45 -115.5t115 -45.5t115 45t45 115t-45 116t-115 46t-115 -45.5t-45 -115.5zM94 179q-40 54 -40 129.5t43 132.5l-61 62l41 41l61 -62q58 44 132.5 44t130.5 -40l58 58l41 -41l-58 -58q40 -56 40 -130t-45 -132l63 -62l-41 -41l-63 62q-56 -42 -131.5 -42 t-128.5 39l-59 -59l-41 41z" />
<glyph unicode="&#xa5;" horiz-adv-x="572" d="M493 362v-50h-147l-32 -60v-35h179v-50h-179v-167h-62v167h-179v50h179v35l-32 60h-147v50h121l-154 292h68l175 -343l177 343h68l-155 -292h120z" />
<glyph unicode="&#xa6;" horiz-adv-x="214" d="M134 -194h-54v329h54v-329zM134 366h-54v329h54v-329z" />
<glyph unicode="&#xa7;" horiz-adv-x="489" d="M261 619q-69 0 -108 -27t-39 -78q0 -35 20 -57q18 -19 42 -28.5t47 -18.5t47.5 -19.5t42.5 -19t46 -26.5t43 -35q37 -46 37 -112.5t-43 -112.5q43 -45 43 -111q0 -88 -59 -134.5t-157 -46.5t-171 44v69q30 -23 77.5 -38t107.5 -15t99.5 31t39.5 82t-30 78q-33 30 -122 68 q-83 36 -99.5 50t-32.5 29t-23 30q-19 41 -19 79q0 67 40 113q-40 38 -40 97q0 84 60 127t147 43t143 -30v-69q-24 16 -63 27t-76 11zM112 302q0 -61 64 -98q29 -17 86.5 -42t85.5 -41q30 32 30 79.5t-31 75.5t-88 53q-14 6 -55.5 22.5t-62.5 26.5q-29 -29 -29 -76z" />
<glyph unicode="&#xa8;" horiz-adv-x="400" d="M261.5 695.5q-12.5 12.5 -12.5 31t12.5 30.5t31 12t30.5 -12t12 -30.5t-12 -31t-30.5 -12.5t-31 12.5zM77 695.5q-12 12.5 -12 31t12 30.5t30.5 12t31 -12t12.5 -30.5t-12.5 -31t-31 -12.5t-30.5 12.5z" />
<glyph unicode="&#xa9;" horiz-adv-x="780" d="M320 435q-38 -40 -38 -100.5t38 -100.5t93 -40t84 25v-57q-30 -22 -81 -22q-90 0 -141 57t-51 136t51.5 137.5t140.5 58.5q46 0 81 -20v-57q-34 23 -77 23q-62 0 -100 -40zM104 336q0 -118 84.5 -202.5t202.5 -84.5t202.5 84.5t84.5 202.5t-84.5 203t-202.5 85 t-202.5 -85t-84.5 -203zM45 336q0 141 102 243.5t243 102.5t243 -102.5t102 -243.5t-102 -243t-243 -102t-243 102t-102 243z" />
<glyph unicode="&#xaa;" horiz-adv-x="337" d="M151 825q156 0 156 -164v-269h-51v54q-48 -58 -115 -58t-104 33.5t-37 93t47.5 94t127.5 34.5h81v18q0 57 -24 86.5t-86.5 29.5t-114.5 -36v53q50 31 120 31zM256 593h-69q-134 0 -134 -80q0 -34 24 -55t69.5 -21t77.5 27t32 63v66z" />
<glyph unicode="&#xab;" horiz-adv-x="450" d="M424 415l-147 -162l147 -162h-70l-150 162l150 162h70zM247 415l-147 -162l147 -162h-70l-150 162l150 162h70z" />
<glyph unicode="&#xac;" horiz-adv-x="535" d="M500 166h-61v187h-419v59h480v-246z" />
<glyph unicode="&#xad;" horiz-adv-x="345" d="M60 243v55h225v-55h-225z" />
<glyph unicode="&#xae;" horiz-adv-x="438" d="M219 788q91 0 150 -59t59 -150t-59 -149.5t-150 -58.5t-150 58.5t-59 149.5t59 150t150 59zM100 459.5q45 -45.5 119.5 -45.5t120 45.5t45.5 119.5t-45.5 120t-120 46t-119.5 -46t-45 -120t45 -119.5zM155 690h59q79 0 79 -66q0 -43 -35 -58l52 -84h-48l-45 76h-21v-76 h-41v208zM196 656v-65h26q30 0 30 32.5t-33 32.5h-23z" />
<glyph unicode="&#xaf;" horiz-adv-x="400" d="M331 704h-263v45h263v-45z" />
<glyph unicode="&#xb0;" horiz-adv-x="332" d="M105.5 602.5q-22.5 -24.5 -22.5 -61t24.5 -61.5t60.5 -25t58.5 24.5t22.5 61t-24.5 61.5t-60.5 25t-58.5 -24.5zM30 539q0 59 39 97t99 38t97 -36t37 -95t-39 -97t-99 -38t-97 36t-37 95z" />
<glyph unicode="&#xb1;" horiz-adv-x="544" d="M296 388h188v-56h-188v-177h-57v177h-179v56h179v177h57v-177zM60 31v56h424v-56h-424z" />
<glyph unicode="&#xb2;" horiz-adv-x="365" d="M50 392v41q205 156 205 261q0 42 -22.5 62.5t-58.5 20.5q-54 0 -109 -44v59q54 33 108.5 33t95.5 -33.5t41 -93.5t-50.5 -128.5t-131.5 -131.5h197v-46h-275z" />
<glyph unicode="&#xb3;" horiz-adv-x="318" d="M101 632h27q36 0 61.5 20.5t25.5 55.5q0 69 -78 69q-43 0 -91 -31v53q41 26 98 26t91 -32.5t34 -81.5q0 -80 -78 -100q37 -3 64.5 -32.5t27.5 -77t-36 -80.5t-99 -33t-113 24v51q50 -27 99 -27q95 0 95 72q0 37 -27 57.5t-74 20.5h-27v46z" />
<glyph unicode="&#xb4;" horiz-adv-x="400" d="M110 648l102 150h81l-128 -150h-55z" />
<glyph unicode="&#xb5;" horiz-adv-x="535" d="M398 507h61v-507h-61v81q-36 -88 -141 -88q-76 0 -120 47v-219h-61v686h61v-335q0 -57 39 -88.5t95 -31.5t91.5 48t35.5 125v282z" />
<glyph unicode="&#xb6;" horiz-adv-x="533" d="M397 -148v822h60v-822h-60zM276 674v-822h-60v495q-88 0 -137 45.5t-49 113.5t49.5 118t135.5 50h61z" />
<glyph unicode="&#xb7;" horiz-adv-x="222" d="M60 337q0 22 14.5 36.5t36.5 14.5t36.5 -14.5t14.5 -36.5t-14.5 -36.5t-36.5 -14.5t-36.5 14.5t-14.5 36.5z" />
<glyph unicode="&#xb8;" horiz-adv-x="400" d="M253 -51q18 -26 18 -74t-37 -84t-106 -39v49q87 9 87 73q0 37 -23 75h61z" />
<glyph unicode="&#xb9;" horiz-adv-x="242" d="M166 821v-429h-52v366l-104 -58v57l113 64h43z" />
<glyph unicode="&#xba;" horiz-adv-x="358" d="M281 730q-33 49 -100 49t-102.5 -51t-35.5 -122.5t37 -121.5t100 -50t98.5 49t35.5 123.5t-33 123.5zM317.5 448q-50.5 -62 -139 -62t-138.5 62.5t-50 156.5t51.5 158t139.5 64t137.5 -62.5t49.5 -158.5t-50.5 -158z" />
<glyph unicode="&#xbb;" horiz-adv-x="453" d="M273 415l150 -162l-150 -162h-70l147 162l-147 162h70zM96 415l150 -162l-150 -162h-70l147 162l-147 162h70z" />
<glyph unicode="&#xbf;" horiz-adv-x="450" d="M313 503q14 -14 14 -35.5t-14.5 -36.5t-36 -15t-36.5 15t-15 36.5t15 35.5t37 14t36 -14zM249 -173q-96 0 -152.5 48t-56.5 134t59.5 133t145.5 55v116h61v-170q-94 0 -148 -33.5t-54 -94.5t36 -95.5t113 -34.5t157 51v-65q-27 -18 -71.5 -31t-89.5 -13z" />
<glyph unicode="&#xc0;" horiz-adv-x="637" d="M532 0l-64 187h-298l-65 -187h-67l238 674h90l233 -674h-67zM189 242h261l-129 380q-38 -116 -132 -380zM341 729h-55l-128 150h81z" />
<glyph unicode="&#xc1;" horiz-adv-x="637" d="M532 0l-64 187h-298l-65 -187h-67l238 674h90l233 -674h-67zM189 242h261l-129 380q-38 -116 -132 -380zM483 879l-128 -150h-55l102 150h81z" />
<glyph unicode="&#xc2;" horiz-adv-x="637" d="M532 0l-64 187h-298l-65 -187h-67l238 674h90l233 -674h-67zM189 242h261l-129 380q-38 -116 -132 -380zM321 836l-86 -107h-64l119 150h63l119 -150h-64z" />
<glyph unicode="&#xc3;" horiz-adv-x="637" d="M532 0l-64 187h-298l-65 -187h-67l238 674h90l233 -674h-67zM189 242h261l-129 380q-38 -116 -132 -380zM393 762q-25 0 -69.5 23t-60.5 23q-42 0 -67 -49l-36 30q13 29 39.5 48.5t56 19.5t73 -23t61.5 -23q30 0 50 43l42 -28q-30 -64 -89 -64z" />
<glyph unicode="&#xc4;" horiz-adv-x="637" d="M532 0l-64 187h-298l-65 -187h-67l238 674h90l233 -674h-67zM189 242h261l-129 380q-38 -116 -132 -380zM259.5 774.5q-12.5 -12.5 -31 -12.5t-30.5 12.5t-12 31t12 30.5t30.5 12t31 -12t12.5 -30.5t-12.5 -31zM444 774.5q-12 -12.5 -30.5 -12.5t-31 12.5t-12.5 31 t12.5 30.5t31 12t30.5 -12t12 -30.5t-12 -31z" />
<glyph unicode="&#xc5;" horiz-adv-x="637" d="M532 0l-64 187h-298l-65 -187h-67l238 674h90l233 -674h-67zM189 242h261l-129 380q-38 -116 -132 -380zM321 719q-41 0 -69.5 28.5t-28.5 69.5t28.5 70t69.5 29t70 -29t29 -70t-29 -69.5t-70 -28.5zM359.5 855.5q-15.5 15.5 -38 15.5t-38 -16t-15.5 -38t15.5 -37.5 t37.5 -15.5t38 15.5t16 38t-15.5 38z" />
<glyph unicode="&#xc6;" horiz-adv-x="863" d="M515 57h303v-57h-365v187h-248l-111 -187h-67l398 674h387v-57h-297v-252h262v-57h-262v-251zM453 242v370q-66 -120 -215 -370h215z" />
<glyph unicode="&#xc7;" horiz-adv-x="599" d="M385 624q-116 0 -193.5 -78.5t-77.5 -207.5t76.5 -208t203.5 -79q99 0 165 52v-68q-61 -43 -168 -43q-153 0 -247 93t-94 250.5t97 252.5t240 95q99 0 170 -36v-65q-44 23 -78 32.5t-94 9.5zM397 -51q18 -26 18 -74t-37 -84t-106 -39v49q87 9 87 73q0 37 -23 75h61z" />
<glyph unicode="&#xc8;" horiz-adv-x="490" d="M142 57h303v-57h-365v674h359v-57h-297v-252h262v-57h-262v-251zM313 728h-55l-128 150h81z" />
<glyph unicode="&#xc9;" horiz-adv-x="490" d="M142 57h303v-57h-365v674h359v-57h-297v-252h262v-57h-262v-251zM433 879l-128 -150h-55l102 150h81z" />
<glyph unicode="&#xca;" horiz-adv-x="490" d="M142 57h303v-57h-365v674h359v-57h-297v-252h262v-57h-262v-251zM273 836l-86 -107h-64l119 150h63l119 -150h-64z" />
<glyph unicode="&#xcb;" horiz-adv-x="490" d="M142 57h303v-57h-365v674h359v-57h-297v-252h262v-57h-262v-251zM205.5 772.5q-12.5 -12.5 -31 -12.5t-30.5 12.5t-12 31t12 30.5t30.5 12t31 -12t12.5 -30.5t-12.5 -31zM390 772.5q-12 -12.5 -30.5 -12.5t-31 12.5t-12.5 31t12.5 30.5t31 12t30.5 -12t12 -30.5t-12 -31z " />
<glyph unicode="&#xcc;" horiz-adv-x="232" d="M37 879l102 -150h-55l-128 150h81zM85 0v674h62v-674h-62z" />
<glyph unicode="&#xcd;" horiz-adv-x="232" d="M93 729l102 150h81l-128 -150h-55zM85 0v674h62v-674h-62z" />
<glyph unicode="&#xce;" horiz-adv-x="232" d="M85 0v674h62v-674h-62zM85 879h63l119 -150h-64l-87 107l-86 -107h-64z" />
<glyph unicode="&#xcf;" horiz-adv-x="232" d="M178.5 773.5q-12.5 12.5 -12.5 31t12.5 30.5t31 12t30.5 -12t12 -30.5t-12 -31t-30.5 -12.5t-31 12.5zM-6 773.5q-12 12.5 -12 31t12 30.5t30.5 12t31 -12t12.5 -30.5t-12.5 -31t-31 -12.5t-30.5 12.5zM85 0v674h62v-674h-62z" />
<glyph unicode="&#xd0;" horiz-adv-x="725" d="M150 674h192q148 0 243 -92t95 -241q0 -197 -148 -291q-77 -50 -185 -50h-197v313h-90v53h90v308zM212 57h135q69 0 122 24t84 65q62 82 62 196t-76.5 194.5t-196.5 80.5h-130v-251h184v-53h-184v-256z" />
<glyph unicode="&#xd1;" horiz-adv-x="667" d="M415 761q-25 0 -69.5 23t-60.5 23q-42 0 -67 -49l-36 30q13 29 39.5 48.5t56 19.5t73 -23t61.5 -23q30 0 50 43l42 -28q-30 -64 -89 -64zM80 0v674h85l362 -601q-2 104 -2 315v286h62v-674h-85l-362 601q2 -108 2 -316v-285h-62z" />
<glyph unicode="&#xd2;" horiz-adv-x="691" d="M280 879l102 -150h-55l-128 150h81zM175.5 551.5q-61.5 -76.5 -61.5 -210.5t63.5 -211.5t171.5 -77.5t168 76.5t60 212t-60.5 211.5t-170 76t-171 -76.5zM131.5 87q-81.5 95 -81.5 253.5t79.5 253t217.5 94.5t216 -93.5t78 -254t-79 -254.5t-214 -94t-216.5 95z" />
<glyph unicode="&#xd3;" horiz-adv-x="691" d="M175.5 551.5q-61.5 -76.5 -61.5 -210.5t63.5 -211.5t171.5 -77.5t168 76.5t60 212t-60.5 211.5t-170 76t-171 -76.5zM131.5 87q-81.5 95 -81.5 253.5t79.5 253t217.5 94.5t216 -93.5t78 -254t-79 -254.5t-214 -94t-216.5 95zM327 729l102 150h81l-128 -150h-55z" />
<glyph unicode="&#xd4;" horiz-adv-x="691" d="M322 879h63l119 -150h-64l-87 107l-86 -107h-64zM131.5 87q-81.5 95 -81.5 253.5t79.5 253t217.5 94.5t216 -93.5t78 -254t-79 -254.5t-214 -94t-216.5 95zM175.5 551.5q-61.5 -76.5 -61.5 -210.5t63.5 -211.5t171.5 -77.5t168 76.5t60 212t-60.5 211.5t-170 76 t-171 -76.5z" />
<glyph unicode="&#xd5;" horiz-adv-x="691" d="M420 763q-25 0 -69.5 23t-60.5 23q-42 0 -67 -49l-36 30q13 29 39.5 48.5t56 19.5t73 -23t61.5 -23q30 0 50 43l42 -28q-30 -64 -89 -64zM175.5 551.5q-61.5 -76.5 -61.5 -210.5t63.5 -211.5t171.5 -77.5t168 76.5t60 212t-60.5 211.5t-170 76t-171 -76.5zM131.5 87 q-81.5 95 -81.5 253.5t79.5 253t217.5 94.5t216 -93.5t78 -254t-79 -254.5t-214 -94t-216.5 95z" />
<glyph unicode="&#xd6;" horiz-adv-x="691" d="M175.5 551.5q-61.5 -76.5 -61.5 -210.5t63.5 -211.5t171.5 -77.5t168 76.5t60 212t-60.5 211.5t-170 76t-171 -76.5zM131.5 87q-81.5 95 -81.5 253.5t79.5 253t217.5 94.5t216 -93.5t78 -254t-79 -254.5t-214 -94t-216.5 95zM409.5 774.5q-12.5 12.5 -12.5 31t12.5 30.5 t31 12t30.5 -12t12 -30.5t-12 -31t-30.5 -12.5t-31 12.5zM225 774.5q-12 12.5 -12 31t12 30.5t30.5 12t31 -12t12.5 -30.5t-12.5 -31t-31 -12.5t-30.5 12.5z" />
<glyph unicode="&#xd7;" horiz-adv-x="481" d="M417 477l-137 -136l132 -131l-40 -40l-132 131l-132 -131l-40 40l132 131l-137 135l40 40l137 -135l137 136z" />
<glyph unicode="&#xd8;" horiz-adv-x="664" d="M560 589q73 -95 73 -252t-79 -251t-215 -94q-104 0 -181 61l-46 -62h-71l77 103q-76 93 -76 249t79.5 250.5t215.5 94.5q107 0 181 -58l44 58h72zM337 628q-108 0 -169.5 -76.5t-61.5 -203t51 -202.5l324 434q-57 48 -144 48zM339 52q110 0 170 76.5t60 204.5t-49 203 l-324 -433q59 -51 143 -51z" />
<glyph unicode="&#xd9;" horiz-adv-x="639" d="M247 879l102 -150h-55l-128 150h81zM497 253v421h62v-419q0 -130 -63 -196.5t-177 -66.5t-176.5 65t-62.5 190v427h62v-426q0 -101 47.5 -148.5t128.5 -47.5q179 0 179 201z" />
<glyph unicode="&#xda;" horiz-adv-x="639" d="M497 253v421h62v-419q0 -130 -63 -196.5t-177 -66.5t-176.5 65t-62.5 190v427h62v-426q0 -101 47.5 -148.5t128.5 -47.5q179 0 179 201zM304 729l102 150h81l-128 -150h-55z" />
<glyph unicode="&#xdb;" horiz-adv-x="639" d="M291 879h63l119 -150h-64l-87 107l-86 -107h-64zM497 253v421h62v-419q0 -130 -63 -196.5t-177 -66.5t-176.5 65t-62.5 190v427h62v-426q0 -101 47.5 -148.5t128.5 -47.5q179 0 179 201z" />
<glyph unicode="&#xdc;" horiz-adv-x="639" d="M497 253v421h62v-419q0 -130 -63 -196.5t-177 -66.5t-176.5 65t-62.5 190v427h62v-426q0 -101 47.5 -148.5t128.5 -47.5q179 0 179 201zM381.5 774.5q-12.5 12.5 -12.5 31t12.5 30.5t31 12t30.5 -12t12 -30.5t-12 -31t-30.5 -12.5t-31 12.5zM197 774.5q-12 12.5 -12 31 t12 30.5t30.5 12t31 -12t12.5 -30.5t-12.5 -31t-31 -12.5t-30.5 12.5z" />
<glyph unicode="&#xdd;" horiz-adv-x="580" d="M320 0h-62v252l-228 422h71l53 -99l135 -260q8 19 190 359h71l-230 -422v-252zM463 878l-128 -150h-55l102 150h81z" />
<glyph unicode="&#xde;" horiz-adv-x="529" d="M142 546h90q124 0 188.5 -59t64.5 -151t-62.5 -150t-179.5 -58h-101v-128h-62v674h62v-128zM142 183h108q85 0 128.5 41t43.5 111.5t-45.5 113t-137.5 42.5h-97v-308z" />
<glyph unicode="&#xdf;" horiz-adv-x="526" d="M252 67q37 -17 81.5 -17t71.5 21t27 51.5t-15.5 53.5t-37.5 41t-45 37q-53 43 -53 98q0 28 13.5 53.5t30 41.5t30 41t13.5 59.5t-30 59t-78 24.5q-118 0 -118 -126v-505h-62v505q0 93 50.5 139t129.5 46t124.5 -43t45.5 -106q0 -46 -21 -80.5t-41.5 -59t-20.5 -47 t23 -47.5t50.5 -44t50.5 -54t23 -78q0 -60 -43 -99t-121 -39q-46 0 -78 10v64z" />
<glyph unicode="&#xe0;" horiz-adv-x="486" d="M230 515q186 0 186 -195v-320h-61v59q-42 -64 -146 -64q-70 0 -114.5 41.5t-44.5 110.5t56.5 109.5t149.5 40.5h99v23q0 68 -29 102.5t-102.5 34.5t-136.5 -43v66q58 35 143 35zM355 241h-99q-71 0 -106 -27.5t-35 -69t27.5 -67.5t84 -26t92.5 33t36 84v73zM282 562h-55 l-128 150h81z" />
<glyph unicode="&#xe1;" horiz-adv-x="486" d="M230 515q186 0 186 -195v-320h-61v59q-42 -64 -146 -64q-70 0 -114.5 41.5t-44.5 110.5t56.5 109.5t149.5 40.5h99v23q0 68 -29 102.5t-102.5 34.5t-136.5 -43v66q58 35 143 35zM355 241h-99q-71 0 -106 -27.5t-35 -69t27.5 -67.5t84 -26t92.5 33t36 84v73zM414 712 l-128 -150h-55l102 150h81z" />
<glyph unicode="&#xe2;" horiz-adv-x="486" d="M230 515q186 0 186 -195v-320h-61v59q-42 -64 -146 -64q-70 0 -114.5 41.5t-44.5 110.5t56.5 109.5t149.5 40.5h99v23q0 68 -29 102.5t-102.5 34.5t-136.5 -43v66q58 35 143 35zM355 241h-99q-71 0 -106 -27.5t-35 -69t27.5 -67.5t84 -26t92.5 33t36 84v73zM253 668 l-86 -107h-64l119 150h63l119 -150h-64z" />
<glyph unicode="&#xe3;" horiz-adv-x="486" d="M230 515q186 0 186 -195v-320h-61v59q-42 -64 -146 -64q-70 0 -114.5 41.5t-44.5 110.5t56.5 109.5t149.5 40.5h99v23q0 68 -29 102.5t-102.5 34.5t-136.5 -43v66q58 35 143 35zM355 241h-99q-71 0 -106 -27.5t-35 -69t27.5 -67.5t84 -26t92.5 33t36 84v73zM321 595 q-25 0 -69.5 23t-60.5 23q-42 0 -67 -49l-36 30q13 29 39.5 48.5t56 19.5t73 -23t61.5 -23q30 0 50 43l42 -28q-30 -64 -89 -64z" />
<glyph unicode="&#xe4;" horiz-adv-x="486" d="M230 515q186 0 186 -195v-320h-61v59q-42 -64 -146 -64q-70 0 -114.5 41.5t-44.5 110.5t56.5 109.5t149.5 40.5h99v23q0 68 -29 102.5t-102.5 34.5t-136.5 -43v66q58 35 143 35zM355 241h-99q-71 0 -106 -27.5t-35 -69t27.5 -67.5t84 -26t92.5 33t36 84v73zM187.5 603.5 q-12.5 -12.5 -31 -12.5t-30.5 12.5t-12 31t12 30.5t30.5 12t31 -12t12.5 -30.5t-12.5 -31zM372 603.5q-12 -12.5 -30.5 -12.5t-31 12.5t-12.5 31t12.5 30.5t31 12t30.5 -12t12 -30.5t-12 -31z" />
<glyph unicode="&#xe5;" horiz-adv-x="486" d="M230 515q186 0 186 -195v-320h-61v59q-42 -64 -146 -64q-70 0 -114.5 41.5t-44.5 110.5t56.5 109.5t149.5 40.5h99v23q0 68 -29 102.5t-102.5 34.5t-136.5 -43v66q58 35 143 35zM355 241h-99q-71 0 -106 -27.5t-35 -69t27.5 -67.5t84 -26t92.5 33t36 84v73zM253 552 q-41 0 -69.5 29t-28.5 69.5t28.5 69.5t69.5 29t70 -29t29 -70t-29 -69.5t-70 -28.5zM291.5 688q-15.5 16 -38 16t-38 -16t-15.5 -38t15.5 -37.5t37.5 -15.5t38 15.5t16 37.5t-15.5 38z" />
<glyph unicode="&#xe6;" horiz-adv-x="822" d="M360 178v61h-82q-159 0 -159 -95q0 -41 28 -65.5t82 -24.5t92.5 34t38.5 90zM680.5 417q-38.5 39 -100.5 39t-106 -44t-52 -130h297v23q0 73 -38.5 112zM481 97.5q52 -44.5 132.5 -44.5t131.5 34v-62q-60 -30 -132.5 -30t-128.5 29.5t-87 77.5q-20 -49 -68 -78 t-116.5 -29t-113 39.5t-44.5 110.5t57 112t152 41h96v22q0 68 -29 102.5t-103.5 34.5t-135.5 -42v63q59 37 143 37q132 0 169 -95q61 93 179 93q97 0 148 -62t51 -176q0 -29 -4 -49h-356q7 -84 59 -128.5z" />
<glyph unicode="&#xe7;" horiz-adv-x="472" d="M313 -51q18 -26 18 -74t-37 -84t-106 -39v49q87 9 87 73q0 37 -23 75h61zM164 396.5q-55 -60.5 -55 -146t53 -144.5t151 -59q61 0 104 32v-62q-43 -29 -111 -29q-123 0 -192 77.5t-69 185t70.5 186.5t190.5 79q62 0 111 -27v-62q-45 30 -105 30q-93 0 -148 -60.5z" />
<glyph unicode="&#xe8;" horiz-adv-x="519" d="M299 -5q-113 0 -183.5 70.5t-70.5 189t62 188.5t158 70t151 -61t55 -172q0 -34 -4 -54h-358q7 -84 58 -128.5t136 -44.5t136 34v-62q-60 -30 -140 -30zM408 282v23q0 69 -38.5 110t-103 41t-107.5 -45t-50 -129h299zM314 562h-55l-128 150h81z" />
<glyph unicode="&#xe9;" horiz-adv-x="519" d="M299 -5q-113 0 -183.5 70.5t-70.5 189t62 188.5t158 70t151 -61t55 -172q0 -34 -4 -54h-358q7 -84 58 -128.5t136 -44.5t136 34v-62q-60 -30 -140 -30zM408 282v23q0 69 -38.5 110t-103 41t-107.5 -45t-50 -129h299zM441 712l-128 -150h-55l102 150h81z" />
<glyph unicode="&#xea;" horiz-adv-x="519" d="M299 -5q-113 0 -183.5 70.5t-70.5 189t62 188.5t158 70t151 -61t55 -172q0 -34 -4 -54h-358q7 -84 58 -128.5t136 -44.5t136 34v-62q-60 -30 -140 -30zM408 282v23q0 69 -38.5 110t-103 41t-107.5 -45t-50 -129h299zM284 669l-86 -107h-64l119 150h63l119 -150h-64z" />
<glyph unicode="&#xeb;" horiz-adv-x="519" d="M299 -5q-113 0 -183.5 70.5t-70.5 189t62 188.5t158 70t151 -61t55 -172q0 -34 -4 -54h-358q7 -84 58 -128.5t136 -44.5t136 34v-62q-60 -30 -140 -30zM408 282v23q0 69 -38.5 110t-103 41t-107.5 -45t-50 -129h299zM219.5 606.5q-12.5 -12.5 -31 -12.5t-30.5 12.5 t-12 31t12 30.5t30.5 12t31 -12t12.5 -30.5t-12.5 -31zM404 606.5q-12 -12.5 -30.5 -12.5t-31 12.5t-12.5 31t12.5 30.5t31 12t30.5 -12t12 -30.5t-12 -31z" />
<glyph unicode="&#xec;" horiz-adv-x="221" d="M32 711l102 -150h-55l-128 150h81zM80 0v507h61v-507h-61z" />
<glyph unicode="&#xed;" horiz-adv-x="221" d="M89 562l102 150h81l-128 -150h-55zM80 0v507h61v-507h-61z" />
<glyph unicode="&#xee;" horiz-adv-x="221" d="M80 0v507h61v-507h-61zM80 712h63l119 -150h-64l-87 107l-86 -107h-64z" />
<glyph unicode="&#xef;" horiz-adv-x="221" d="M172.5 608.5q-12.5 12.5 -12.5 31t12.5 30.5t31 12t30.5 -12t12 -30.5t-12 -31t-30.5 -12.5t-31 12.5zM-12 608.5q-12 12.5 -12 31t12 30.5t30.5 12t31 -12t12.5 -30.5t-12.5 -31t-31 -12.5t-30.5 12.5zM80 0v507h61v-507h-61z" />
<glyph unicode="&#xf0;" horiz-adv-x="506" d="M461 264q0 -136 -58 -204.5t-153 -68.5t-153 62t-58 154t60.5 147.5t150 55.5t148.5 -73q-19 111 -97 205l-139 -72v56l104 54q-65 62 -134 94h108q44 -27 80 -66l124 64v-56l-90 -46q107 -136 107 -306zM143.5 90q40.5 -41 105 -41t109.5 53.5t46 159.5q-62 88 -164 88 q-58 0 -97.5 -39t-39.5 -109.5t40.5 -111.5z" />
<glyph unicode="&#xf1;" horiz-adv-x="529" d="M137 507v-87q47 95 161 95q73 0 117 -45t44 -116v-354h-61v335q0 59 -30 90t-85.5 31t-100.5 -47.5t-45 -128.5v-280h-61v507h61zM349 594q-25 0 -69.5 23t-60.5 23q-42 0 -67 -49l-36 30q13 29 39.5 48.5t56 19.5t73 -23t61.5 -23q30 0 50 43l42 -28q-30 -64 -89 -64z " />
<glyph unicode="&#xf2;" horiz-adv-x="561" d="M207 712l102 -150h-55l-128 150h81zM409 397.5q-43 58.5 -126.5 58.5t-128.5 -60t-45 -144t46.5 -143.5t126 -59.5t125 58.5t45.5 145t-43 145zM452.5 64.5q-63.5 -73.5 -172.5 -73.5t-172 74t-63 185.5t65 187.5t173 76t170.5 -74.5t62.5 -188t-63.5 -187z" />
<glyph unicode="&#xf3;" horiz-adv-x="561" d="M409 397.5q-43 58.5 -126.5 58.5t-128.5 -60t-45 -144t46.5 -143.5t126 -59.5t125 58.5t45.5 145t-43 145zM452.5 64.5q-63.5 -73.5 -172.5 -73.5t-172 74t-63 185.5t65 187.5t173 76t170.5 -74.5t62.5 -188t-63.5 -187zM264 562l102 150h81l-128 -150h-55z" />
<glyph unicode="&#xf4;" horiz-adv-x="561" d="M252 711h63l119 -150h-64l-87 107l-86 -107h-64zM452.5 64.5q-63.5 -73.5 -172.5 -73.5t-172 74t-63 185.5t65 187.5t173 76t170.5 -74.5t62.5 -188t-63.5 -187zM409 397.5q-43 58.5 -126.5 58.5t-128.5 -60t-45 -144t46.5 -143.5t126 -59.5t125 58.5t45.5 145t-43 145z " />
<glyph unicode="&#xf5;" horiz-adv-x="561" d="M355 594q-25 0 -69.5 23t-60.5 23q-42 0 -67 -49l-36 30q13 29 39.5 48.5t56 19.5t73 -23t61.5 -23q30 0 50 43l42 -28q-30 -64 -89 -64zM409 397.5q-43 58.5 -126.5 58.5t-128.5 -60t-45 -144t46.5 -143.5t126 -59.5t125 58.5t45.5 145t-43 145zM452.5 64.5 q-63.5 -73.5 -172.5 -73.5t-172 74t-63 185.5t65 187.5t173 76t170.5 -74.5t62.5 -188t-63.5 -187z" />
<glyph unicode="&#xf6;" horiz-adv-x="561" d="M409 397.5q-43 58.5 -126.5 58.5t-128.5 -60t-45 -144t46.5 -143.5t126 -59.5t125 58.5t45.5 145t-43 145zM452.5 64.5q-63.5 -73.5 -172.5 -73.5t-172 74t-63 185.5t65 187.5t173 76t170.5 -74.5t62.5 -188t-63.5 -187zM349.5 604.5q-12.5 12.5 -12.5 31t12.5 30.5 t31 12t30.5 -12t12 -30.5t-12 -31t-30.5 -12.5t-31 12.5zM165 604.5q-12 12.5 -12 31t12 30.5t30.5 12t31 -12t12.5 -30.5t-12.5 -31t-31 -12.5t-30.5 12.5z" />
<glyph unicode="&#xf7;" horiz-adv-x="544" d="M226 161q0 19 13.5 32.5t32.5 13.5t32.5 -13.5t13.5 -32.5t-13.5 -32.5t-32.5 -13.5t-32.5 13.5t-13.5 32.5zM60 312v56h424v-56h-424zM226 519q0 19 13.5 32.5t32.5 13.5t32.5 -13.5t13.5 -32.5t-13.5 -32.5t-32.5 -13.5t-32.5 13.5t-13.5 32.5z" />
<glyph unicode="&#xf8;" horiz-adv-x="563" d="M473 436q60 -71 60 -184.5t-63.5 -187t-174.5 -73.5q-77 0 -132 40l-30 -40h-71l60 78q-60 72 -60 182.5t65 186.5t168 76q80 0 136 -39l30 39h72zM295 459q-80 0 -126 -60.5t-46 -141.5t37 -137l237 310q-42 29 -102 29zM295 46q84 0 130.5 59t46.5 144t-35 139 l-238 -310q43 -32 96 -32z" />
<glyph unicode="&#xf9;" horiz-adv-x="529" d="M392 507h61v-507h-61v91q-40 -98 -161 -98q-74 0 -117.5 44.5t-43.5 117.5v352h61v-335q0 -58 30.5 -89t80.5 -31q67 0 108.5 48t41.5 125v282zM292 561h-55l-128 150h81z" />
<glyph unicode="&#xfa;" horiz-adv-x="529" d="M392 507h61v-507h-61v91q-40 -98 -161 -98q-74 0 -117.5 44.5t-43.5 117.5v352h61v-335q0 -58 30.5 -89t80.5 -31q67 0 108.5 48t41.5 125v282zM424 712l-128 -150h-55l102 150h81z" />
<glyph unicode="&#xfb;" horiz-adv-x="529" d="M392 507h61v-507h-61v91q-40 -98 -161 -98q-74 0 -117.5 44.5t-43.5 117.5v352h61v-335q0 -58 30.5 -89t80.5 -31q67 0 108.5 48t41.5 125v282zM263 669l-86 -107h-64l119 150h63l119 -150h-64z" />
<glyph unicode="&#xfc;" horiz-adv-x="529" d="M392 507h61v-507h-61v91q-40 -98 -161 -98q-74 0 -117.5 44.5t-43.5 117.5v352h61v-335q0 -58 30.5 -89t80.5 -31q67 0 108.5 48t41.5 125v282zM204.5 604.5q-12.5 -12.5 -31 -12.5t-30.5 12.5t-12 31t12 30.5t30.5 12t31 -12t12.5 -30.5t-12.5 -31zM389 604.5 q-12 -12.5 -30.5 -12.5t-31 12.5t-12.5 31t12.5 30.5t31 12t30.5 -12t12 -30.5t-12 -31z" />
<glyph unicode="&#xfd;" horiz-adv-x="482" d="M71 -168q-20 0 -38 5v60q18 -5 34 -5q107 0 149 122l-207 493h70l167 -414q10 33 149 414h68l-184 -494q-38 -103 -90 -142t-118 -39zM222 562l102 150h81l-128 -150h-55z" />
<glyph unicode="&#xfe;" horiz-adv-x="555" d="M137 707v-274q53 82 156 82t160 -74.5t57 -187t-61 -187t-158.5 -74.5t-153.5 84v-276h-61v907h61zM290 50q68 0 112 54.5t44 148.5t-42.5 149t-107.5 55t-112 -47.5t-47 -158.5q0 -56 15.5 -97.5t39.5 -63.5q47 -40 98 -40z" />
<glyph unicode="&#xff;" horiz-adv-x="482" d="M71 -168q-20 0 -38 5v60q18 -5 34 -5q107 0 149 122l-207 493h70l167 -414q10 33 149 414h68l-184 -494q-38 -103 -90 -142t-118 -39zM127 604.5q-12 12.5 -12 31t12 30.5t30.5 12t31 -12t12.5 -30.5t-12.5 -31t-31 -12.5t-30.5 12.5zM311.5 604.5q-12.5 12.5 -12.5 31 t12.5 30.5t31 12t30.5 -12t12 -30.5t-12 -31t-30.5 -12.5t-31 12.5z" />
<glyph unicode="&#x100;" horiz-adv-x="637" d="M532 0l-64 187h-298l-65 -187h-67l238 674h90l233 -674h-67zM189 242h261l-129 380q-38 -116 -132 -380zM453 826v-45h-263v45h263z" />
<glyph unicode="&#x101;" horiz-adv-x="486" d="M230 515q186 0 186 -195v-320h-61v59q-42 -64 -146 -64q-70 0 -114.5 41.5t-44.5 110.5t56.5 109.5t149.5 40.5h99v23q0 68 -29 102.5t-102.5 34.5t-136.5 -43v66q58 35 143 35zM355 241h-99q-71 0 -106 -27.5t-35 -69t27.5 -67.5t84 -26t92.5 33t36 84v73zM376 659v-45 h-263v45h263z" />
<glyph unicode="&#x102;" horiz-adv-x="637" d="M532 0l-64 187h-298l-65 -187h-67l238 674h90l233 -674h-67zM189 242h261l-129 380q-38 -116 -132 -380zM424 878h52q0 -68 -37 -110.5t-118 -42.5t-118 42.5t-37 110.5h52q0 -105 103 -105t103 105z" />
<glyph unicode="&#x103;" horiz-adv-x="486" d="M230 515q186 0 186 -195v-320h-61v59q-42 -64 -146 -64q-70 0 -114.5 41.5t-44.5 110.5t56.5 109.5t149.5 40.5h99v23q0 68 -29 102.5t-102.5 34.5t-136.5 -43v66q58 35 143 35zM355 241h-99q-71 0 -106 -27.5t-35 -69t27.5 -67.5t84 -26t92.5 33t36 84v73zM350 711h52 q0 -68 -37 -110.5t-118 -42.5t-118 42.5t-37 110.5h52q0 -105 103 -105t103 105z" />
<glyph unicode="&#x104;" horiz-adv-x="637" d="M488 -124q0 -32 19 -48.5t53.5 -16.5t61.5 20v-50q-28 -18 -77 -18t-81 30.5t-32 75t27 81.5t69 61l-60 176h-298l-65 -187h-67l238 674h90l233 -674q-111 -50 -111 -124zM189 242h261l-129 380q-38 -116 -132 -380z" />
<glyph unicode="&#x105;" horiz-adv-x="486" d="M416 320v-320q-111 -50 -111 -124q0 -32 19 -48.5t53.5 -16.5t61.5 20v-50q-28 -18 -77 -18t-81 30.5t-32 76.5t30 84.5t76 61.5v47q-56 -68 -146 -68q-70 0 -114.5 39.5t-44.5 110.5t57 112t152 41h96v22q0 68 -29 102.5t-103.5 34.5t-135.5 -42v63q59 37 143 37 q186 0 186 -195zM355 239h-82q-159 0 -159 -95q0 -41 28 -65.5t82.5 -24.5t92.5 32t38 74v79z" />
<glyph unicode="&#x106;" horiz-adv-x="599" d="M337 729l102 150h81l-128 -150h-55zM385 624q-116 0 -193.5 -78.5t-77.5 -207.5t76.5 -208t203.5 -79q99 0 165 52v-68q-61 -43 -168 -43q-153 0 -247 93t-94 250.5t97 252.5t240 95q99 0 170 -36v-65q-44 23 -78 32.5t-94 9.5z" />
<glyph unicode="&#x107;" horiz-adv-x="472" d="M164 396.5q-55 -60.5 -55 -146t53 -144.5t151 -59q61 0 104 32v-62q-43 -29 -111 -29q-123 0 -192 77.5t-69 185t70.5 186.5t190.5 79q62 0 111 -27v-62q-45 30 -105 30q-93 0 -148 -60.5zM265 561l102 150h81l-128 -150h-55z" />
<glyph unicode="&#x108;" horiz-adv-x="599" d="M336 879h63l119 -150h-64l-87 107l-86 -107h-64zM385 624q-116 0 -193.5 -78.5t-77.5 -207.5t76.5 -208t203.5 -79q99 0 165 52v-68q-61 -43 -168 -43q-153 0 -247 93t-94 250.5t97 252.5t240 95q99 0 170 -36v-65q-44 23 -78 32.5t-94 9.5z" />
<glyph unicode="&#x109;" horiz-adv-x="472" d="M237 712h63l119 -150h-64l-87 107l-86 -107h-64zM312 457q-93 0 -148 -60.5t-55 -146t53 -144.5t151 -59q61 0 104 32v-62q-43 -29 -111 -29q-123 0 -192 77.5t-69 185t70.5 186.5t190.5 79q62 0 111 -27v-62q-45 30 -105 30z" />
<glyph unicode="&#x10a;" horiz-adv-x="599" d="M385 624q-116 0 -193.5 -78.5t-77.5 -207.5t76.5 -208t203.5 -79q99 0 165 52v-68q-61 -43 -168 -43q-153 0 -247 93t-94 250.5t97 252.5t240 95q99 0 170 -36v-65q-44 23 -78 32.5t-94 9.5zM340.5 776.5q-12.5 12.5 -12.5 31t12.5 30.5t31 12t30.5 -12t12 -30.5t-12 -31 t-30.5 -12.5t-31 12.5z" />
<glyph unicode="&#x10b;" horiz-adv-x="472" d="M271.5 607.5q-12.5 12.5 -12.5 31t12.5 30.5t31 12t30.5 -12t12 -30.5t-12 -31t-30.5 -12.5t-31 12.5zM164 396.5q-55 -60.5 -55 -146t53 -144.5t151 -59q61 0 104 32v-62q-43 -29 -111 -29q-123 0 -192 77.5t-69 185t70.5 186.5t190.5 79q62 0 111 -27v-62 q-45 30 -105 30q-93 0 -148 -60.5z" />
<glyph unicode="&#x10c;" horiz-adv-x="599" d="M415 729h-63l-119 150h64l87 -107l86 107h64zM385 624q-116 0 -193.5 -78.5t-77.5 -207.5t76.5 -208t203.5 -79q99 0 165 52v-68q-61 -43 -168 -43q-153 0 -247 93t-94 250.5t97 252.5t240 95q99 0 170 -36v-65q-44 23 -78 32.5t-94 9.5z" />
<glyph unicode="&#x10d;" horiz-adv-x="472" d="M307 562h-63l-119 150h64l87 -107l86 107h64zM312 457q-93 0 -148 -60.5t-55 -146t53 -144.5t151 -59q61 0 104 32v-62q-43 -29 -111 -29q-123 0 -192 77.5t-69 185t70.5 186.5t190.5 79q62 0 111 -27v-62q-45 30 -105 30z" />
<glyph unicode="&#x10e;" horiz-adv-x="655" d="M80 674h192q148 0 243 -92t95 -241q0 -197 -148 -291q-77 -50 -185 -50h-197v674zM142 57h135q69 0 122 24t84 65q62 82 62 196t-76.5 194.5t-196.5 80.5h-130v-560zM334 728h-63l-119 150h64l87 -107l86 107h64z" />
<glyph unicode="&#x10f;" horiz-adv-x="637" d="M627 707h76l-110 -187h-54zM418 707h61v-707h-61v74q-53 -82 -156 -82t-160 74.5t-57 187t61 187t158.5 74.5t153.5 -84v276zM259 50q65 0 112 47.5t47 158.5q0 56 -15.5 97.5t-40.5 62.5q-46 41 -97 41q-68 0 -112 -54.5t-44 -148.5t42.5 -149t107.5 -55z" />
<glyph unicode="&#x110;" horiz-adv-x="725" d="M150 674h192q148 0 243 -92t95 -241q0 -197 -148 -291q-77 -50 -185 -50h-197v313h-90v53h90v308zM212 57h135q69 0 122 24t84 65q62 82 62 196t-76.5 194.5t-196.5 80.5h-130v-251h184v-53h-184v-256z" />
<glyph unicode="&#x111;" horiz-adv-x="555" d="M554 641v-48h-75v-593h-61v74q-53 -82 -156 -82t-160 74.5t-57 187t61 187t158.5 74.5t153.5 -84v162h-205v48h205v66h61v-66h75zM259 50q65 0 112 47.5t47 158.5q0 56 -15.5 97.5t-40.5 62.5q-46 41 -97 41q-68 0 -112 -54.5t-44 -148.5t42.5 -149t107.5 -55z" />
<glyph unicode="&#x112;" horiz-adv-x="490" d="M142 57h303v-57h-365v674h359v-57h-297v-252h262v-57h-262v-251zM392 826v-45h-263v45h263z" />
<glyph unicode="&#x113;" horiz-adv-x="519" d="M299 -5q-113 0 -183.5 70.5t-70.5 189t62 188.5t158 70t151 -61t55 -172q0 -34 -4 -54h-358q7 -84 58 -128.5t136 -44.5t136 34v-62q-60 -30 -140 -30zM408 282v23q0 69 -38.5 110t-103 41t-107.5 -45t-50 -129h299zM409 659v-45h-263v45h263z" />
<glyph unicode="&#x114;" horiz-adv-x="490" d="M142 57h303v-57h-365v674h359v-57h-297v-252h262v-57h-262v-251zM368 879h52q0 -68 -37 -110.5t-118 -42.5t-118 42.5t-37 110.5h52q0 -105 103 -105t103 105z" />
<glyph unicode="&#x115;" horiz-adv-x="519" d="M299 -5q-113 0 -183.5 70.5t-70.5 189t62 188.5t158 70t151 -61t55 -172q0 -34 -4 -54h-358q7 -84 58 -128.5t136 -44.5t136 34v-62q-60 -30 -140 -30zM408 282v23q0 69 -38.5 110t-103 41t-107.5 -45t-50 -129h299zM379 712h52q0 -68 -37 -110.5t-118 -42.5t-118 42.5 t-37 110.5h52q0 -105 103 -105t103 105z" />
<glyph unicode="&#x116;" horiz-adv-x="490" d="M142 57h303v-57h-365v674h359v-57h-297v-252h262v-57h-262v-251zM304 775.5q-12 -12.5 -30.5 -12.5t-31 12.5t-12.5 31t12.5 30.5t31 12t30.5 -12t12 -30.5t-12 -31z" />
<glyph unicode="&#x117;" horiz-adv-x="519" d="M299 -5q-113 0 -183.5 70.5t-70.5 189t62 188.5t158 70t151 -61t55 -172q0 -34 -4 -54h-358q7 -84 58 -128.5t136 -44.5t136 34v-62q-60 -30 -140 -30zM408 282v23q0 69 -38.5 110t-103 41t-107.5 -45t-50 -129h299zM313 607.5q-12 -12.5 -30.5 -12.5t-31 12.5t-12.5 31 t12.5 30.5t31 12t30.5 -12t12 -30.5t-12 -31z" />
<glyph unicode="&#x118;" horiz-adv-x="490" d="M445 0h-113q-111 -50 -111 -124q0 -32 19 -48.5t53.5 -16.5t61.5 20v-50q-28 -18 -77 -18t-81 30.5t-32 77.5q0 75 79 129h-164v674h359v-57h-297v-252h262v-57h-262v-251h303v-57z" />
<glyph unicode="&#x119;" horiz-adv-x="519" d="M368 -220q-28 -18 -77 -18t-81 30.5t-32 77.5q0 74 77 128q-95 14 -152.5 82t-57.5 180.5t62 182.5t158 70t151 -61t55 -172q0 -34 -4 -54h-358q7 -84 58 -128.5t136 -44.5t136 34v-62q-36 -18 -96 -27q-109 -50 -109 -123q0 -32 19 -48.5t53.5 -16.5t61.5 20v-50z M408 282v23q0 69 -38.5 110t-103 41t-107.5 -45t-50 -129h299z" />
<glyph unicode="&#x11a;" horiz-adv-x="490" d="M142 57h303v-57h-365v674h359v-57h-297v-252h262v-57h-262v-251zM301 728h-63l-119 150h64l87 -107l86 107h64z" />
<glyph unicode="&#x11b;" horiz-adv-x="519" d="M299 -5q-113 0 -183.5 70.5t-70.5 189t62 188.5t158 70t151 -61t55 -172q0 -34 -4 -54h-358q7 -84 58 -128.5t136 -44.5t136 34v-62q-60 -30 -140 -30zM408 282v23q0 69 -38.5 110t-103 41t-107.5 -45t-50 -129h299zM306 562h-63l-119 150h64l87 -107l86 107h64z" />
<glyph unicode="&#x11c;" horiz-adv-x="661" d="M591 371v-321q-79 -58 -200 -58q-154 0 -247.5 92.5t-93.5 249t91.5 254.5t231.5 98q119 0 196 -47v-69q-77 54 -191.5 54t-189 -78.5t-74.5 -209.5t74 -206.5t204 -75.5q77 0 137 31v231h-159v55h221zM361 835l-86 -107h-64l119 150h63l119 -150h-64z" />
<glyph unicode="&#x11d;" horiz-adv-x="539" d="M408 507h61v-468q0 -115 -62 -172.5t-154.5 -57.5t-153.5 29v60q62 -31 140.5 -31t123.5 41.5t45 130.5v66q-51 -93 -152 -93q-88 0 -149.5 65t-61.5 177.5t56.5 186.5t148.5 74q109 0 158 -97v89zM155 117.5q46 -47.5 102.5 -47.5t103.5 44.5t47 143t-45 149t-101 50.5 q-71 0 -112 -56t-41 -146t46 -137.5zM268 669l-86 -107h-64l119 150h63l119 -150h-64z" />
<glyph unicode="&#x11e;" horiz-adv-x="661" d="M591 371v-321q-79 -58 -200 -58q-154 0 -247.5 92.5t-93.5 249t91.5 254.5t231.5 98q119 0 196 -47v-69q-77 54 -191.5 54t-189 -78.5t-74.5 -209.5t74 -206.5t204 -75.5q77 0 137 31v231h-159v55h221zM469 879h52q0 -68 -37 -110.5t-118 -42.5t-118 42.5t-37 110.5h52 q0 -105 103 -105t103 105z" />
<glyph unicode="&#x11f;" horiz-adv-x="539" d="M408 507h61v-468q0 -115 -62 -172.5t-154.5 -57.5t-153.5 29v60q62 -31 140.5 -31t123.5 41.5t45 130.5v66q-51 -93 -152 -93q-88 0 -149.5 65t-61.5 177.5t56.5 186.5t148.5 74q109 0 158 -97v89zM155 117.5q46 -47.5 102.5 -47.5t103.5 44.5t47 143t-45 149t-101 50.5 q-71 0 -112 -56t-41 -146t46 -137.5zM389 712h52q0 -68 -37 -110.5t-118 -42.5t-118 42.5t-37 110.5h52q0 -105 103 -105t103 105z" />
<glyph unicode="&#x120;" horiz-adv-x="661" d="M591 371v-321q-79 -58 -200 -58q-154 0 -247.5 92.5t-93.5 249t91.5 254.5t231.5 98q119 0 196 -47v-69q-77 54 -191.5 54t-189 -78.5t-74.5 -209.5t74 -206.5t204 -75.5q77 0 137 31v231h-159v55h221zM402 774.5q-12 -12.5 -30.5 -12.5t-31 12.5t-12.5 31t12.5 30.5 t31 12t30.5 -12t12 -30.5t-12 -31z" />
<glyph unicode="&#x121;" horiz-adv-x="539" d="M408 507h61v-468q0 -115 -62 -172.5t-154.5 -57.5t-153.5 29v60q62 -31 140.5 -31t123.5 41.5t45 130.5v66q-51 -93 -152 -93q-88 0 -149.5 65t-61.5 177.5t56.5 186.5t148.5 74q109 0 158 -97v89zM155 117.5q46 -47.5 102.5 -47.5t103.5 44.5t47 143t-45 149t-101 50.5 q-71 0 -112 -56t-41 -146t46 -137.5zM331 607.5q-12 -12.5 -30.5 -12.5t-31 12.5t-12.5 31t12.5 30.5t31 12t30.5 -12t12 -30.5t-12 -31z" />
<glyph unicode="&#x122;" horiz-adv-x="661" d="M591 371v-321q-79 -58 -200 -58q-154 0 -247.5 92.5t-93.5 249t91.5 254.5t231.5 98q119 0 196 -47v-69q-77 54 -191.5 54t-189 -78.5t-74.5 -209.5t74 -206.5t204 -75.5q77 0 137 31v231h-159v55h221zM249 -238l88 187h76l-110 -187h-54z" />
<glyph unicode="&#x123;" horiz-adv-x="539" d="M408 507h61v-468q0 -115 -62 -172.5t-154.5 -57.5t-153.5 29v60q62 -31 140.5 -31t123.5 41.5t45 130.5v66q-51 -93 -152 -93q-88 0 -149.5 65t-61.5 177.5t56.5 186.5t148.5 74q109 0 158 -97v89zM155 117.5q46 -47.5 102.5 -47.5t103.5 44.5t47 143t-45 149t-101 50.5 q-71 0 -112 -56t-41 -146t46 -137.5zM429 748l-88 -187h-76l110 187h54z" />
<glyph unicode="&#x124;" horiz-adv-x="632" d="M490 674h62v-674h-62v315h-348v-315h-62v674h62v-302h348v302zM321 835l-86 -107h-64l119 150h63l119 -150h-64z" />
<glyph unicode="&#x125;" horiz-adv-x="529" d="M137 707v-287q46 95 161 95q73 0 117 -45t44 -116v-354h-61v335q0 59 -30 90t-85.5 31t-100.5 -47.5t-45 -128.5v-280h-61v707h61zM195 762l-87 107l-86 -107h-64l119 150h63l119 -150h-64z" />
<glyph unicode="&#x126;" horiz-adv-x="682" d="M652 568v-50h-75v-518h-62v315h-348v-315h-62v518h-75v50h75v106h62v-106h348v106h62v-106h75zM515 372v146h-348v-146h348z" />
<glyph unicode="&#x127;" horiz-adv-x="529" d="M137 593v-173q46 95 161 95q73 0 117 -45t44 -116v-354h-61v335q0 59 -30 90t-85.5 31t-100.5 -47.5t-45 -128.5v-280h-61v593h-75v48h75v66h61v-66h195v-48h-195z" />
<glyph unicode="&#x128;" horiz-adv-x="232" d="M189 759q-25 0 -69.5 23t-60.5 23q-42 0 -67 -49l-36 30q13 29 39.5 48.5t56 19.5t73 -23t61.5 -23q30 0 50 43l42 -28q-30 -64 -89 -64zM85 0v674h62v-674h-62z" />
<glyph unicode="&#x129;" horiz-adv-x="221" d="M184 590q-25 0 -69.5 23t-60.5 23q-42 0 -67 -49l-36 30q13 29 39.5 48.5t56 19.5t73 -23t61.5 -23q30 0 50 43l42 -28q-30 -64 -89 -64zM80 0v507h61v-507h-61z" />
<glyph unicode="&#x12a;" horiz-adv-x="232" d="M248 781h-263v45h263v-45zM85 0v674h62v-674h-62z" />
<glyph unicode="&#x12b;" horiz-adv-x="221" d="M243 614h-263v45h263v-45zM80 0v507h61v-507h-61z" />
<glyph unicode="&#x12c;" horiz-adv-x="232" d="M85 0v674h62v-674h-62zM-38 879h52q0 -105 103 -105t103 105h52q0 -68 -37 -110.5t-118 -42.5t-118 42.5t-37 110.5z" />
<glyph unicode="&#x12d;" horiz-adv-x="221" d="M80 0v507h61v-507h-61zM-44 712h52q0 -105 103 -105t103 105h52q0 -68 -37 -110.5t-118 -42.5t-118 42.5t-37 110.5z" />
<glyph unicode="&#x12e;" horiz-adv-x="232" d="M147 674v-674q-111 -50 -111 -124q0 -32 19 -48.5t53.5 -16.5t61.5 20v-50q-28 -18 -77 -18t-81 30.5t-32 76t29.5 84t75.5 62.5v658h62z" />
<glyph unicode="&#x12f;" horiz-adv-x="221" d="M141 507v-507q-111 -50 -111 -124q0 -32 19 -48.5t53.5 -16.5t61.5 20v-50q-28 -18 -77 -18t-81 30.5t-32 76.5t30 84.5t76 61.5v491h61zM110 627q-18 0 -30 12t-12 30t12 30.5t30 12.5t30.5 -12.5t12.5 -30.5t-12.5 -30t-30.5 -12z" />
<glyph unicode="&#x130;" horiz-adv-x="232" d="M86.5 776.5q-12.5 12.5 -12.5 31t12.5 30.5t31 12t30.5 -12t12 -30.5t-12 -31t-30.5 -12.5t-31 12.5zM85 0v674h62v-674h-62z" />
<glyph unicode="&#x131;" horiz-adv-x="221" d="M80 0v507h61v-507h-61z" />
<glyph unicode="&#x132;" horiz-adv-x="534" d="M301 59q91 0 91 96v519h62v-509q0 -165 -147 -165q-54 0 -92 23v63q40 -27 86 -27zM85 0v674h62v-674h-62z" />
<glyph unicode="&#x133;" horiz-adv-x="434" d="M284 669q0 18 12 30.5t30 12.5t30.5 -12.5t12.5 -30.5t-12.5 -30t-30.5 -12t-30 12t-12 30zM240 -136q57 0 57 74v569h61v-571q0 -62 -31.5 -96t-87.5 -34q-33 0 -69 14v60q35 -16 70 -16zM64 669q0 18 12 30.5t30 12.5t30.5 -12.5t12.5 -30.5t-12.5 -30t-30.5 -12 t-30 12t-12 30zM76 0v507h61v-507h-61z" />
<glyph unicode="&#x134;" horiz-adv-x="400" d="M208 878h63l119 -150h-64l-87 107l-86 -107h-64zM116 59q91 0 91 96v519h62v-509q0 -165 -147 -165q-54 0 -92 23v63q40 -27 86 -27z" />
<glyph unicode="&#x135;" horiz-adv-x="216" d="M23 -136q57 0 57 74v569h61v-571q0 -62 -31.5 -96t-87.5 -34q-33 0 -69 14v60q35 -16 70 -16zM80 712h63l119 -150h-64l-87 107l-86 -107h-64z" />
<glyph unicode="&#x136;" horiz-adv-x="549" d="M239 332l280 -332h-82l-277 332l267 342h78zM159 -238l88 187h76l-110 -187h-54zM80 0v674h62v-674h-62z" />
<glyph unicode="&#x137;" horiz-adv-x="462" d="M226 266l214 -266h-76l-212 266l206 241h75zM109 -238l88 187h76l-110 -187h-54zM137 707v-707h-61v707h61z" />
<glyph unicode="&#x138;" horiz-adv-x="462" d="M226 266l214 -266h-76l-212 266l206 241h75zM76 0v507h61v-507h-61z" />
<glyph unicode="&#x139;" horiz-adv-x="474" d="M142 57h297v-57h-359v674h62v-617zM438 879l-128 -150h-55l102 150h81z" />
<glyph unicode="&#x13a;" horiz-adv-x="221" d="M80 0v707h61v-707h-61zM86 762l102 150h81l-128 -150h-55z" />
<glyph unicode="&#x13b;" horiz-adv-x="474" d="M142 57h297v-57h-359v674h62v-617zM139 -238l88 187h76l-110 -187h-54z" />
<glyph unicode="&#x13c;" horiz-adv-x="221" d="M-14 -238l88 187h76l-110 -187h-54zM80 0v707h61v-707h-61z" />
<glyph unicode="&#x13d;" horiz-adv-x="474" d="M142 57h297v-57h-359v674h62v-617zM404 702l-110 -187h-54l88 187h76z" />
<glyph unicode="&#x13e;" horiz-adv-x="254" d="M211 520l88 187h76l-110 -187h-54zM80 0v707h61v-707h-61z" />
<glyph unicode="&#x13f;" horiz-adv-x="479" d="M142 57h297v-57h-359v674h62v-617zM300 309q-22 0 -36 14t-14 35.5t14.5 36.5t36 15t36.5 -15t15 -36.5t-15 -35.5t-37 -14z" />
<glyph unicode="&#x140;" horiz-adv-x="351" d="M238 323q-14 14 -14 35.5t14.5 36.5t36 15t36.5 -15t15 -36.5t-15 -35.5t-37 -14t-36 14zM76 0v707h61v-707h-61z" />
<glyph unicode="&#x141;" horiz-adv-x="483" d="M151 57h297v-57h-359v256l-64 -48v66l64 48v352h62v-306l146 108v-66l-146 -108v-245z" />
<glyph unicode="&#x142;" horiz-adv-x="278" d="M162 0h-61v315l-66 -47v66l66 47v326h61v-282l81 58v-66l-81 -58v-359z" />
<glyph unicode="&#x143;" horiz-adv-x="667" d="M80 0v674h85l362 -601q-2 104 -2 315v286h62v-674h-85l-362 601q2 -108 2 -316v-285h-62zM332 728l102 150h81l-128 -150h-55z" />
<glyph unicode="&#x144;" horiz-adv-x="529" d="M137 507v-87q47 95 161 95q73 0 117 -45t44 -116v-354h-61v335q0 59 -30 90t-85.5 31t-100.5 -47.5t-45 -128.5v-280h-61v507h61zM451 712l-128 -150h-55l102 150h81z" />
<glyph unicode="&#x145;" horiz-adv-x="667" d="M80 0v674h85l362 -601q-2 104 -2 315v286h62v-674h-85l-362 601q2 -108 2 -316v-285h-62zM220 -238l88 187h76l-110 -187h-54z" />
<glyph unicode="&#x146;" horiz-adv-x="529" d="M137 507v-87q47 95 161 95q73 0 117 -45t44 -116v-354h-61v335q0 59 -30 90t-85.5 31t-100.5 -47.5t-45 -128.5v-280h-61v507h61zM149 -238l88 187h76l-110 -187h-54z" />
<glyph unicode="&#x147;" horiz-adv-x="667" d="M384 729h-63l-119 150h64l87 -107l86 107h64zM80 0v674h85l362 -601q-2 104 -2 315v286h62v-674h-85l-362 601q2 -108 2 -316v-285h-62z" />
<glyph unicode="&#x148;" horiz-adv-x="529" d="M137 507v-87q47 95 161 95q73 0 117 -45t44 -116v-354h-61v335q0 59 -30 90t-85.5 31t-100.5 -47.5t-45 -128.5v-280h-61v507h61zM316 562h-63l-119 150h64l87 -107l86 107h64z" />
<glyph unicode="&#x149;" horiz-adv-x="552" d="M160 507v-87q47 95 161 95q73 0 117 -45t44 -116v-354h-61v335q0 59 -30 90t-85.5 31t-100.5 -47.5t-45 -128.5v-280h-61v507h61zM51 695h75l-107 -200h-42z" />
<glyph unicode="&#x14a;" horiz-adv-x="667" d="M525 674h62v-709q0 -165 -147 -165q-54 0 -92 23v63q40 -27 86 -27q91 0 91 96v45h-23l-362 601q2 -108 2 -316v-285h-62v674h85l362 -601q-2 104 -2 315v286z" />
<glyph unicode="&#x14b;" horiz-adv-x="529" d="M459 248h1v-312q0 -62 -31.5 -96t-87.5 -34q-33 0 -69 14v60q35 -16 70 -16q57 0 57 74v62h-1v335q0 59 -30 90t-85.5 31t-100.5 -47.5t-45 -128.5v-280h-61v507h61v-87q47 95 161 95q73 0 117 -45t44 -116v-106z" />
<glyph unicode="&#x14c;" horiz-adv-x="691" d="M175.5 551.5q-61.5 -76.5 -61.5 -210.5t63.5 -211.5t171.5 -77.5t168 76.5t60 212t-60.5 211.5t-170 76t-171 -76.5zM131.5 87q-81.5 95 -81.5 253.5t79.5 253t217.5 94.5t216 -93.5t78 -254t-79 -254.5t-214 -94t-216.5 95zM479 781h-263v45h263v-45z" />
<glyph unicode="&#x14d;" horiz-adv-x="561" d="M409 397.5q-43 58.5 -126.5 58.5t-128.5 -60t-45 -144t46.5 -143.5t126 -59.5t125 58.5t45.5 145t-43 145zM452.5 64.5q-63.5 -73.5 -172.5 -73.5t-172 74t-63 185.5t65 187.5t173 76t170.5 -74.5t62.5 -188t-63.5 -187zM415 614h-263v45h263v-45z" />
<glyph unicode="&#x14e;" horiz-adv-x="691" d="M131.5 87q-81.5 95 -81.5 253.5t79.5 253t217.5 94.5t216 -93.5t78 -254t-79 -254.5t-214 -94t-216.5 95zM175.5 551.5q-61.5 -76.5 -61.5 -210.5t63.5 -211.5t171.5 -77.5t168 76.5t60 212t-60.5 211.5t-170 76t-171 -76.5zM194 879h52q0 -105 103 -105t103 105h52 q0 -68 -37 -110.5t-118 -42.5t-118 42.5t-37 110.5z" />
<glyph unicode="&#x14f;" horiz-adv-x="561" d="M452.5 64.5q-63.5 -73.5 -172.5 -73.5t-172 74t-63 185.5t65 187.5t173 76t170.5 -74.5t62.5 -188t-63.5 -187zM409 397.5q-43 58.5 -126.5 58.5t-128.5 -60t-45 -144t46.5 -143.5t126 -59.5t125 58.5t45.5 145t-43 145zM139 712h52q0 -105 103 -105t103 105h52 q0 -68 -37 -110.5t-118 -42.5t-118 42.5t-37 110.5z" />
<glyph unicode="&#x150;" horiz-adv-x="691" d="M175.5 551.5q-61.5 -76.5 -61.5 -210.5t63.5 -211.5t171.5 -77.5t168 76.5t60 212t-60.5 211.5t-170 76t-171 -76.5zM131.5 87q-81.5 95 -81.5 253.5t79.5 253t217.5 94.5t216 -93.5t78 -254t-79 -254.5t-214 -94t-216.5 95zM264 729l99 150h81l-131 -150h-49zM412 729 l103 150h81l-135 -150h-49z" />
<glyph unicode="&#x151;" horiz-adv-x="561" d="M409 397.5q-43 58.5 -126.5 58.5t-128.5 -60t-45 -144t46.5 -143.5t126 -59.5t125 58.5t45.5 145t-43 145zM452.5 64.5q-63.5 -73.5 -172.5 -73.5t-172 74t-63 185.5t65 187.5t173 76t170.5 -74.5t62.5 -188t-63.5 -187zM204 562l99 150h81l-131 -150h-49zM352 562 l103 150h81l-135 -150h-49z" />
<glyph unicode="&#x152;" horiz-adv-x="979" d="M631 57h303v-57h-365v106q-77 -114 -227 -114q-133 0 -212.5 94.5t-79.5 254t77.5 253.5t212.5 94q152 0 229 -112v98h359v-57h-297v-252h262v-57h-262v-251zM175.5 129q61.5 -77 169 -77t166 76t58.5 212t-59 212t-168.5 76t-168.5 -76.5t-59 -211t61.5 -211.5z" />
<glyph unicode="&#x153;" horiz-adv-x="896" d="M815 25q-60 -30 -133.5 -30t-130 30t-89.5 85q-56 -119 -194 -119q-106 0 -164.5 73.5t-58.5 186t60.5 188t162.5 75.5q136 0 192 -114q60 113 193 113q97 0 148 -62t51 -176q0 -29 -4 -49h-356q7 -84 59 -128.5t132.5 -44.5t131.5 34v-62zM151 107.5 q42 -58.5 120.5 -58.5t117 57t38.5 145q0 205 -159 205q-78 0 -118.5 -59t-40.5 -145t42 -144.5zM789 282v23q0 73 -38.5 112t-100.5 39t-106 -44t-52 -130h297z" />
<glyph unicode="&#x154;" horiz-adv-x="531" d="M263 274h-121v-274h-62v674h152q118 0 176.5 -53.5t58.5 -151.5q-2 -68 -38 -117t-102 -67l179 -285h-74zM142 329h109q74 0 114 41t40 102q0 147 -166 147h-97v-290zM419 879l-128 -150h-55l102 150h81z" />
<glyph unicode="&#x155;" horiz-adv-x="314" d="M137 507v-86q42 92 142 92q7 0 25 -2v-62q-20 6 -40 6q-54 0 -90.5 -53.5t-36.5 -118.5v-283h-61v507h61zM353 712l-128 -150h-55l102 150h81z" />
<glyph unicode="&#x156;" horiz-adv-x="531" d="M263 274h-121v-274h-62v674h152q118 0 176.5 -53.5t58.5 -151.5q-2 -68 -38 -117t-102 -67l179 -285h-74zM142 329h109q74 0 114 41t40 102q0 147 -166 147h-97v-290zM155 -238l88 187h76l-110 -187h-54z" />
<glyph unicode="&#x157;" horiz-adv-x="314" d="M137 507v-86q42 92 142 92q7 0 25 -2v-62q-20 6 -40 6q-54 0 -90.5 -53.5t-36.5 -118.5v-283h-61v507h61zM-20 -238l88 187h76l-110 -187h-54z" />
<glyph unicode="&#x158;" horiz-adv-x="531" d="M263 274h-121v-274h-62v674h152q118 0 176.5 -53.5t58.5 -151.5q-2 -68 -38 -117t-102 -67l179 -285h-74zM142 329h109q74 0 114 41t40 102q0 147 -166 147h-97v-290zM300 728h-63l-119 150h64l87 -107l86 107h64z" />
<glyph unicode="&#x159;" horiz-adv-x="314" d="M137 507v-86q42 92 142 92q7 0 25 -2v-62q-20 6 -40 6q-54 0 -90.5 -53.5t-36.5 -118.5v-283h-61v507h61zM231 561h-63l-119 150h64l87 -107l86 107h64z" />
<glyph unicode="&#x15a;" horiz-adv-x="527" d="M284 619q-67 0 -107 -31.5t-40 -83.5q0 -54 46 -86q37 -27 86 -47.5t67 -29t46 -26.5t42 -35q38 -46 38 -106q0 -88 -59 -134.5t-157 -46.5t-171 44v69q30 -23 77.5 -38t107.5 -15t99.5 31t39.5 82t-30 78q-33 30 -122 68q-83 36 -99.5 50t-32.5 29t-23 30q-19 41 -19 79 q0 85 61 132.5t147 47.5t142 -30v-69q-24 16 -63 27t-76 11zM259 728l102 150h81l-128 -150h-55z" />
<glyph unicode="&#x15b;" horiz-adv-x="406" d="M214 455q-44 0 -69.5 -20.5t-25.5 -47t7.5 -41.5t25.5 -28q24 -15 84 -39.5t97.5 -58t37.5 -93.5t-43.5 -96.5t-127.5 -36.5t-140 30v63q67 -38 144 -38q51 0 77.5 21t26.5 58t-27.5 59t-89.5 46.5t-98 56.5t-36 90.5t45 95t120 36.5t119 -23v-61q-47 27 -127 27z M190 562l102 150h81l-128 -150h-55z" />
<glyph unicode="&#x15c;" horiz-adv-x="527" d="M222 878h63l119 -150h-64l-87 107l-86 -107h-64zM284 619q-67 0 -107 -31.5t-40 -83.5q0 -54 46 -86q37 -27 86 -47.5t67 -29t46 -26.5t42 -35q38 -46 38 -106q0 -88 -59 -134.5t-157 -46.5t-171 44v69q30 -23 77.5 -38t107.5 -15t99.5 31t39.5 82t-30 78q-33 30 -122 68 q-83 36 -99.5 50t-32.5 29t-23 30q-19 41 -19 79q0 85 61 132.5t147 47.5t142 -30v-69q-24 16 -63 27t-76 11z" />
<glyph unicode="&#x15d;" horiz-adv-x="406" d="M188 712h63l119 -150h-64l-87 107l-86 -107h-64zM214 455q-44 0 -69.5 -20.5t-25.5 -47t7.5 -41.5t25.5 -28q24 -15 84 -39.5t97.5 -58t37.5 -93.5t-43.5 -96.5t-127.5 -36.5t-140 30v63q67 -38 144 -38q51 0 77.5 21t26.5 58t-27.5 59t-89.5 46.5t-98 56.5t-36 90.5 t45 95t120 36.5t119 -23v-61q-47 27 -127 27z" />
<glyph unicode="&#x15e;" horiz-adv-x="527" d="M288 -51q18 -26 18 -74t-37 -84t-106 -39v49q87 9 87 73q0 37 -23 75h61zM284 619q-67 0 -107 -31.5t-40 -83.5q0 -54 46 -86q37 -27 86 -47.5t67 -29t46 -26.5t42 -35q38 -46 38 -106q0 -88 -59 -134.5t-157 -46.5t-171 44v69q30 -23 77.5 -38t107.5 -15t99.5 31 t39.5 82t-30 78q-33 30 -122 68q-83 36 -99.5 50t-32.5 29t-23 30q-19 41 -19 79q0 85 61 132.5t147 47.5t142 -30v-69q-24 16 -63 27t-76 11z" />
<glyph unicode="&#x15f;" horiz-adv-x="406" d="M253 -51q18 -26 18 -74t-37 -84t-106 -39v49q87 9 87 73q0 37 -23 75h61zM214 455q-44 0 -69.5 -20.5t-25.5 -47t7.5 -41.5t25.5 -28q24 -15 84 -39.5t97.5 -58t37.5 -93.5t-43.5 -96.5t-127.5 -36.5t-140 30v63q67 -38 144 -38q51 0 77.5 21t26.5 58t-27.5 59 t-89.5 46.5t-98 56.5t-36 90.5t45 95t120 36.5t119 -23v-61q-47 27 -127 27z" />
<glyph unicode="&#x160;" horiz-adv-x="527" d="M294 728h-63l-119 150h64l87 -107l86 107h64zM284 619q-67 0 -107 -31.5t-40 -83.5q0 -54 46 -86q37 -27 86 -47.5t67 -29t46 -26.5t42 -35q38 -46 38 -106q0 -88 -59 -134.5t-157 -46.5t-171 44v69q30 -23 77.5 -38t107.5 -15t99.5 31t39.5 82t-30 78q-33 30 -122 68 q-83 36 -99.5 50t-32.5 29t-23 30q-19 41 -19 79q0 85 61 132.5t147 47.5t142 -30v-69q-24 16 -63 27t-76 11z" />
<glyph unicode="&#x161;" horiz-adv-x="406" d="M260 562h-63l-119 150h64l87 -107l86 107h64zM214 455q-44 0 -69.5 -20.5t-25.5 -47t7.5 -41.5t25.5 -28q24 -15 84 -39.5t97.5 -58t37.5 -93.5t-43.5 -96.5t-127.5 -36.5t-140 30v63q67 -38 144 -38q51 0 77.5 21t26.5 58t-27.5 59t-89.5 46.5t-98 56.5t-36 90.5t45 95 t120 36.5t119 -23v-61q-47 27 -127 27z" />
<glyph unicode="&#x162;" horiz-adv-x="465" d="M450 674v-57h-187v-617h-62v617h-186v57h435zM100 -238l88 187h76l-110 -187h-54z" />
<glyph unicode="&#x163;" horiz-adv-x="364" d="M170 455v-315q0 -87 81 -87q40 0 68 23v-62q-29 -19 -67 -19q-144 0 -144 148v312h-83v52h83v127h62v-127h145v-52h-145zM49 -238l88 187h76l-110 -187h-54z" />
<glyph unicode="&#x164;" horiz-adv-x="465" d="M450 674v-57h-187v-617h-62v617h-186v57h435zM265 729h-63l-119 150h64l87 -107l86 107h64z" />
<glyph unicode="&#x165;" horiz-adv-x="364" d="M170 455v-315q0 -87 81 -87q40 0 68 23v-62q-29 -19 -67 -19q-144 0 -144 148v312h-83v52h83v127h62v-127h145v-52h-145zM395 749l-110 -187h-54l88 187h76z" />
<glyph unicode="&#x166;" horiz-adv-x="465" d="M450 617h-187v-261h120v-51h-120v-305h-62v305h-120v51h120v261h-186v57h435v-57z" />
<glyph unicode="&#x167;" horiz-adv-x="364" d="M170 272v-132q0 -87 81 -87q40 0 68 23v-62q-29 -19 -67 -19q-144 0 -144 148v129h-83v46h83v137h-83v52h83v127h62v-127h145v-52h-145v-137h146v-46h-146z" />
<glyph unicode="&#x168;" horiz-adv-x="639" d="M398 760q-25 0 -69.5 23t-60.5 23q-42 0 -67 -49l-36 30q13 29 39.5 48.5t56 19.5t73 -23t61.5 -23q30 0 50 43l42 -28q-30 -64 -89 -64zM497 253v421h62v-419q0 -130 -63 -196.5t-177 -66.5t-176.5 65t-62.5 190v427h62v-426q0 -101 47.5 -148.5t128.5 -47.5 q179 0 179 201z" />
<glyph unicode="&#x169;" horiz-adv-x="529" d="M392 507h61v-507h-61v91q-40 -98 -161 -98q-74 0 -117.5 44.5t-43.5 117.5v352h61v-335q0 -58 30.5 -89t80.5 -31q67 0 108.5 48t41.5 125v282zM338 588q-25 0 -69.5 23t-60.5 23q-42 0 -67 -49l-36 30q13 29 39.5 48.5t56 19.5t73 -23t61.5 -23q30 0 50 43l42 -28 q-30 -64 -89 -64z" />
<glyph unicode="&#x16a;" horiz-adv-x="639" d="M453 781h-263v45h263v-45zM497 253v421h62v-419q0 -130 -63 -196.5t-177 -66.5t-176.5 65t-62.5 190v427h62v-426q0 -101 47.5 -148.5t128.5 -47.5q179 0 179 201z" />
<glyph unicode="&#x16b;" horiz-adv-x="529" d="M392 507h61v-507h-61v91q-40 -98 -161 -98q-74 0 -117.5 44.5t-43.5 117.5v352h61v-335q0 -58 30.5 -89t80.5 -31q67 0 108.5 48t41.5 125v282zM393 659v-45h-263v45h263z" />
<glyph unicode="&#x16c;" horiz-adv-x="639" d="M497 253v421h62v-419q0 -130 -63 -196.5t-177 -66.5t-176.5 65t-62.5 190v427h62v-426q0 -101 47.5 -148.5t128.5 -47.5q179 0 179 201zM169 878h52q0 -105 103 -105t103 105h52q0 -68 -37 -110.5t-118 -42.5t-118 42.5t-37 110.5z" />
<glyph unicode="&#x16d;" horiz-adv-x="529" d="M392 507h61v-507h-61v91q-40 -98 -161 -98q-74 0 -117.5 44.5t-43.5 117.5v352h61v-335q0 -58 30.5 -89t80.5 -31q67 0 108.5 48t41.5 125v282zM370 712h52q0 -68 -37 -110.5t-118 -42.5t-118 42.5t-37 110.5h52q0 -105 103 -105t103 105z" />
<glyph unicode="&#x16e;" horiz-adv-x="639" d="M497 253v421h62v-419q0 -130 -63 -196.5t-177 -66.5t-176.5 65t-62.5 190v427h62v-426q0 -101 47.5 -148.5t128.5 -47.5q179 0 179 201zM269 816q0 -22 15.5 -37.5t37.5 -15.5t38 15.5t16 37.5t-16 38t-38 16t-37.5 -16t-15.5 -38zM253 747q-29 29 -29 69.5t28.5 69.5 t69.5 29t70 -29t29 -70t-29 -69.5t-69.5 -28.5t-69.5 29z" />
<glyph unicode="&#x16f;" horiz-adv-x="529" d="M392 507h61v-507h-61v91q-40 -98 -161 -98q-74 0 -117.5 44.5t-43.5 117.5v352h61v-335q0 -58 30.5 -89t80.5 -31q67 0 108.5 48t41.5 125v282zM340 580.5q-29 -28.5 -69.5 -28.5t-69.5 29t-29 69.5t28.5 69.5t69.5 29t70 -29t29 -70t-29 -69.5zM270 704q-22 0 -37.5 -16 t-15.5 -38t15.5 -37.5t37.5 -15.5t38 15.5t16 37.5t-16 38t-38 16z" />
<glyph unicode="&#x170;" horiz-adv-x="639" d="M216 729l99 150h81l-131 -150h-49zM364 729l103 150h81l-135 -150h-49zM497 253v421h62v-419q0 -130 -63 -196.5t-177 -66.5t-176.5 65t-62.5 190v427h62v-426q0 -101 47.5 -148.5t128.5 -47.5q179 0 179 201z" />
<glyph unicode="&#x171;" horiz-adv-x="529" d="M392 225v282h61v-507h-61v91q-40 -98 -161 -98q-74 0 -117.5 44.5t-43.5 117.5v352h61v-335q0 -58 30.5 -89t80.5 -31q67 0 108.5 48t41.5 125zM345 712l-131 -150h-49l99 150h81zM362 562h-49l103 150h81z" />
<glyph unicode="&#x172;" horiz-adv-x="639" d="M497 674h62v-419q0 -202 -148 -249q-110 -50 -110 -124q0 -32 19 -48.5t53.5 -16.5t61.5 20v-50q-28 -18 -77 -18t-81 30.5t-32 77.5q0 64 61 115q-108 4 -167 69t-59 186v427h62v-426q0 -101 47.5 -148.5t128.5 -47.5q179 0 179 201v421z" />
<glyph unicode="&#x173;" horiz-adv-x="529" d="M453 507v-507q-111 -50 -111 -124q0 -32 19 -48.5t53.5 -16.5t61.5 20v-50q-28 -18 -77 -18t-81 30.5t-32 76.5t30 84.5t76 61.5v75q-40 -98 -161 -98q-74 0 -117.5 44.5t-43.5 117.5v352h61v-335q0 -58 30.5 -89t80.5 -31q67 0 108.5 48t41.5 125v282h61z" />
<glyph unicode="&#x174;" horiz-adv-x="929" d="M439 879h63l119 -150h-64l-87 107l-86 -107h-64zM432 664h73l187 -605q49 226 135 615h62l-153 -674h-85l-181 583q-33 -119 -170 -583h-85l-175 674h65l154 -611q57 202 173 601z" />
<glyph unicode="&#x175;" horiz-adv-x="788" d="M358 712h63l119 -150h-64l-87 107l-86 -107h-64zM185 0l-155 507h67q106 -357 128 -446q5 18 128 446h72l132 -448q17 62 137 448h64l-160 -507h-82l-127 436q-29 -109 -122 -436h-82z" />
<glyph unicode="&#x176;" horiz-adv-x="580" d="M320 0h-62v252l-228 422h71l53 -99l135 -260q8 19 190 359h71l-230 -422v-252zM289 835l-86 -107h-64l119 150h63l119 -150h-64z" />
<glyph unicode="&#x177;" horiz-adv-x="482" d="M71 -168q-20 0 -38 5v60q18 -5 34 -5q107 0 149 122l-207 493h70l167 -414q10 33 149 414h68l-184 -494q-38 -103 -90 -142t-118 -39zM206 712h63l119 -150h-64l-87 107l-86 -107h-64z" />
<glyph unicode="&#x178;" horiz-adv-x="580" d="M320 0h-62v252l-228 422h71l53 -99l135 -260q8 19 190 359h71l-230 -422v-252zM227.5 773.5q-12.5 -12.5 -31 -12.5t-30.5 12.5t-12 31t12 30.5t30.5 12t31 -12t12.5 -30.5t-12.5 -31zM412 773.5q-12 -12.5 -30.5 -12.5t-31 12.5t-12.5 31t12.5 30.5t31 12t30.5 -12 t12 -30.5t-12 -31z" />
<glyph unicode="&#x179;" horiz-adv-x="555" d="M490 674v-55l-370 -564h385v-55h-455v55l370 564h-366v55h436zM261 729l102 150h81l-128 -150h-55z" />
<glyph unicode="&#x17a;" horiz-adv-x="446" d="M387 507v-46l-270 -401h284v-60h-356v51l266 397h-256v59h332zM200 562l102 150h81l-128 -150h-55z" />
<glyph unicode="&#x17b;" horiz-adv-x="555" d="M251.5 776.5q-12.5 12.5 -12.5 31t12.5 30.5t31 12t30.5 -12t12 -30.5t-12 -31t-30.5 -12.5t-31 12.5zM490 674v-55l-370 -564h385v-55h-455v55l370 564h-366v55h436z" />
<glyph unicode="&#x17c;" horiz-adv-x="446" d="M209.5 606.5q-12.5 12.5 -12.5 31t12.5 30.5t31 12t30.5 -12t12 -30.5t-12 -31t-30.5 -12.5t-31 12.5zM387 507v-46l-270 -401h284v-60h-356v51l266 397h-256v59h332z" />
<glyph unicode="&#x17d;" horiz-adv-x="555" d="M305 729h-63l-119 150h64l87 -107l86 107h64zM490 674v-55l-370 -564h385v-55h-455v55l370 564h-366v55h436z" />
<glyph unicode="&#x17e;" horiz-adv-x="446" d="M269 562h-63l-119 150h64l87 -107l86 107h64zM387 507v-46l-270 -401h284v-60h-356v51l266 397h-256v59h332z" />
<glyph unicode="&#x17f;" horiz-adv-x="224" d="M254 702q-21 8 -47.5 8t-48 -23.5t-21.5 -70.5v-616h-61v617q0 69 36 110t101 41q19 0 41 -6v-60z" />
<glyph unicode="&#x192;" horiz-adv-x="357" d="M331 681q37 0 61 -8v-60q-27 10 -57 10q-73 0 -94 -116l-25 -140h100v-52h-109l-72 -405q-15 -85 -50 -126t-100 -41q-37 0 -61 8v60q27 -10 57 -10q73 0 94 116l71 398h-100v52h109l26 147q15 85 50 126t100 41z" />
<glyph unicode="&#x218;" horiz-adv-x="527" d="M140 -238l88 187h76l-110 -187h-54zM284 619q-67 0 -107 -31.5t-40 -83.5q0 -54 46 -86q37 -27 86 -47.5t67 -29t46 -26.5t42 -35q38 -46 38 -106q0 -88 -59 -134.5t-157 -46.5t-171 44v69q30 -23 77.5 -38t107.5 -15t99.5 31t39.5 82t-30 78q-33 30 -122 68 q-83 36 -99.5 50t-32.5 29t-23 30q-19 41 -19 79q0 85 61 132.5t147 47.5t142 -30v-69q-24 16 -63 27t-76 11z" />
<glyph unicode="&#x219;" horiz-adv-x="406" d="M214 455q-44 0 -69.5 -20.5t-25.5 -47t7.5 -41.5t25.5 -28q24 -15 84 -39.5t97.5 -58t37.5 -93.5t-43.5 -96.5t-127.5 -36.5t-140 30v63q67 -38 144 -38q51 0 77.5 21t26.5 58t-27.5 59t-89.5 46.5t-98 56.5t-36 90.5t45 95t120 36.5t119 -23v-61q-47 27 -127 27z M89 -238l88 187h76l-110 -187h-54z" />
<glyph unicode="&#x21a;" horiz-adv-x="465" d="M450 674v-57h-187v-617h-62v617h-186v57h435zM103 -238l88 187h76l-110 -187h-54z" />
<glyph unicode="&#x21b;" horiz-adv-x="364" d="M170 455v-315q0 -87 81 -87q40 0 68 23v-62q-29 -19 -67 -19q-144 0 -144 148v312h-83v52h83v127h62v-127h145v-52h-145zM113 -238l88 187h76l-110 -187h-54z" />
<glyph unicode="&#x237;" horiz-adv-x="216" d="M23 -136q57 0 57 74v569h61v-571q0 -62 -31.5 -96t-87.5 -34q-33 0 -69 14v60q35 -16 70 -16z" />
<glyph unicode="&#x2bc;" horiz-adv-x="161" d="M22 481l79 214h81l-115 -214h-45z" />
<glyph unicode="&#x2c6;" horiz-adv-x="400" d="M168 798h63l119 -150h-64l-87 107l-86 -107h-64z" />
<glyph unicode="&#x2c7;" horiz-adv-x="400" d="M231 648h-63l-119 150h64l87 -107l86 107h64z" />
<glyph unicode="&#x2c9;" horiz-adv-x="400" d="M331 704h-263v45h263v-45z" />
<glyph unicode="&#x2d8;" horiz-adv-x="400" d="M45 798h52q0 -105 103 -105t103 105h52q0 -68 -37 -110.5t-118 -42.5t-118 42.5t-37 110.5z" />
<glyph unicode="&#x2d9;" horiz-adv-x="400" d="M169.5 696.5q-12.5 12.5 -12.5 31t12.5 30.5t31 12t30.5 -12t12 -30.5t-12 -31t-30.5 -12.5t-31 12.5z" />
<glyph unicode="&#x2da;" horiz-adv-x="400" d="M146 723q0 -22 15.5 -37.5t37.5 -15.5t38 15.5t16 38t-15.5 38t-38 15.5t-38 -16t-15.5 -38zM101 723q0 41 28.5 70t69.5 29t70 -29t29 -70t-29 -69.5t-70 -28.5t-69.5 28.5t-28.5 69.5z" />
<glyph unicode="&#x2db;" horiz-adv-x="400" d="M295 -209q-28 -18 -77 -18t-81 30.5t-32 80.5t41.5 94t99.5 63l26 -31q-111 -50 -111 -124q0 -32 19 -48.5t53.5 -16.5t61.5 20v-50z" />
<glyph unicode="&#x2dc;" horiz-adv-x="400" d="M283 668q-25 0 -69.5 23t-60.5 23q-42 0 -67 -49l-36 30q13 29 39.5 48.5t56 19.5t73 -23t61.5 -23q30 0 50 43l42 -28q-30 -64 -89 -64z" />
<glyph unicode="&#x2dd;" horiz-adv-x="400" d="M34 648l99 150h81l-131 -150h-49zM182 648l103 150h81l-135 -150h-49z" />
<glyph unicode="&#x3c0;" horiz-adv-x="576" d="M556 507v-52h-100v-455h-61v455h-209v-303q0 -84 -38.5 -118t-106.5 -34v56q47 0 65.5 19.5t18.5 75.5v304h-100v52h531z" />
<glyph unicode="&#x901;" d="M-180 944q0 20 13 33.5t33 13.5t34 -13.5t14 -33.5t-14 -33t-34 -13t-33 13t-13 33zM-17 779q-48 -38 -117.5 -38t-117.5 37.5t-48 110.5h62q0 -41 27 -68.5t76 -27.5t76.5 27t27.5 69h62q0 -72 -48 -110z" />
<glyph unicode="&#x902;" d="M-180 774q0 20 13 33.5t33 13.5t34 -13.5t14 -33.5t-14 -33t-34 -13t-33 13t-13 33z" />
<glyph unicode="&#x903;" horiz-adv-x="302" d="M52 157q0 20 13 33.5t33 13.5t34 -13.5t14 -33.5t-14 -33t-34 -13t-33 13t-13 33zM52 484q0 20 13 33.5t33 13.5t34 -13.5t14 -33.5t-14 -33t-34 -13t-33 13t-13 33z" />
<glyph unicode="&#x905;" horiz-adv-x="647" d="M392 634h275v-55h-120v-579h-61v268h-147q2 -18 2 -27q0 -72 -52 -117t-141 -45q-64 0 -118 25v59q62 -30 115.5 -30t93.5 27t40 78q0 103 -133 103h-33v57h33q56 0 84.5 25t28.5 67q0 87 -100 87q-53 0 -95 -23v59q43 18 93 18q79 0 121.5 -37t42.5 -92.5t-25 -87.5 t-64 -42q54 -8 84 -49h170v256h-94v55z" />
<glyph unicode="&#x906;" horiz-adv-x="909" d="M929 634v-55h-120v-579h-62v579h-200v-579h-61v268h-147q2 -18 2 -27q0 -72 -52 -117t-141 -45q-64 0 -118 25v59q62 -30 115.5 -30t93.5 27t40 78q0 103 -133 103h-33v57h33q56 0 84.5 25t28.5 67q0 87 -100 87q-53 0 -95 -23v59q43 18 93 18q79 0 121.5 -37t42.5 -92.5 t-25 -87.5t-64 -42q54 -8 84 -49h170v256h-94v55h537z" />
<glyph unicode="&#x907;" horiz-adv-x="468" d="M379 432h-148q-47 0 -74 -18t-27 -51t31.5 -49t107.5 -22q169 -14 169 -136q0 -63 -46 -105t-116 -42q-92 0 -146 57v-123h-60v222h55q18 -44 59.5 -73t88.5 -29t75 25.5t28 65t-27.5 61t-95.5 25.5q-185 12 -185 123q0 57 43 90.5t115 33.5h91v92h-337v55h508v-55h-109 v-147z" />
<glyph unicode="&#x908;" horiz-adv-x="468" d="M379 432h-148q-47 0 -74 -18t-27 -51t31.5 -49t107.5 -22q169 -14 169 -136q0 -63 -46 -105t-116 -42q-92 0 -146 57v-123h-60v222h55q18 -44 59.5 -73t88.5 -29t75 25.5t28 65t-27.5 61t-95.5 25.5q-185 12 -185 123q0 57 43 90.5t115 33.5h91v92h-337v55h318 q-34 37 -34 92t36 93.5t100 38.5q34 0 56 -10v-56q-26 11 -58.5 11t-52 -21.5t-19.5 -63t41 -84.5h121v-55h-109v-147z" />
<glyph unicode="&#x909;" horiz-adv-x="419" d="M439 634v-55h-131q38 -38 38 -97q0 -104 -97 -137q48 -4 89 -44.5t41 -111.5t-55.5 -119t-157.5 -48q-64 0 -136 26v57q62 -30 131 -30t112.5 31t43.5 89.5t-45.5 90t-113.5 31.5h-47v55h50q123 0 123 109q0 27 -12.5 54.5t-31.5 43.5h-260v55h459z" />
<glyph unicode="&#x90a;" horiz-adv-x="684" d="M703 634v-55h-395q38 -38 38 -97q0 -104 -97 -137q57 -5 96 -52q12 45 52.5 75t85.5 30q84 0 127.5 -48t43.5 -130.5t-46 -134t-123 -51.5q-13 0 -20 3v52q8 -2 17 -2q52 0 81 35t29 95t-26 94t-77.5 34t-80 -42.5t-29.5 -101.5v-6q0 -77 -55.5 -125t-157.5 -48 q-64 0 -136 26v57q62 -30 131 -30t112.5 31t43.5 89.5t-45.5 90t-113.5 31.5h-47v55h50q123 0 123 109q0 27 -12.5 54.5t-31.5 43.5h-260v55h723z" />
<glyph unicode="&#x90b;" horiz-adv-x="792" d="M812 579h-391v-244l155 90v55h55v-93q0 -44 22.5 -64t71.5 -20h2v-53h-41q-45 0 -69 -22.5t-24 -59.5t26 -55.5t72.5 -18.5t80.5 22v-53q-34 -21 -90.5 -21t-103.5 33t-47 92q0 41 24.5 74.5t67.5 46.5q-39 21 -46 76l-156 -91v-273h-62v240l-315 -193v68l239 144 q-21 63 -54.5 98t-95.5 36q-53 -1 -103 -24v62q46 22 109.5 22t116 -40.5t78.5 -122.5l25 15v274h-379v55h832v-55z" />
<glyph unicode="&#x90c;" horiz-adv-x="745" d="M647 579v-416q-59 -2 -86.5 -28t-27.5 -61t25.5 -56.5t70.5 -21.5t86 14v-54q-44 -12 -73 -12q-75 0 -122.5 34.5t-47.5 98.5q0 49 30 82.5t83 45.5v192q-35 20 -81 20t-76 -32.5t-30 -100.5v-74h-61v75q0 129 -94 129q-47 0 -79 -40t-32 -120.5t45.5 -141t131.5 -60.5 q29 0 49 9v-53q-22 -8 -58 -8q-103 0 -166.5 75t-63.5 187q0 89 46 146.5t121 57.5q53 0 87.5 -24.5t44.5 -70.5q22 98 136 98q43 0 80 -16v126h-605v55h785v-55h-118z" />
<glyph unicode="&#x90d;" horiz-adv-x="549" d="M569 634v-55h-91v-152q0 -66 -41.5 -108t-121.5 -42q-24 0 -39 5v53q13 -6 39 -6q101 0 101 100v150h-264v-321q0 -170 181 -170q80 0 136 32v-58q-60 -26 -141 -26q-110 0 -174 53t-64 168v322h-110v55h589zM394 889h62q0 -72 -48 -110t-117.5 -38t-117.5 37.5 t-48 110.5h62q0 -41 27.5 -68.5t76 -27.5t76 27t27.5 69z" />
<glyph unicode="&#x90e;" horiz-adv-x="549" d="M569 634v-55h-91v-152q0 -66 -41.5 -108t-121.5 -42q-24 0 -39 5v53q13 -6 39 -6q101 0 101 100v150h-264v-321q0 -170 181 -170q80 0 136 32v-58q-60 -26 -141 -26q-110 0 -174 53t-64 168v322h-110v55h436q0 103 -84 103h-63q-77 0 -113 36.5t-36 119.5h61 q0 -55 21.5 -78.5t67.5 -23.5h61q147 0 147 -157h91z" />
<glyph unicode="&#x90f;" horiz-adv-x="549" d="M569 634v-55h-91v-152q0 -66 -41.5 -108t-121.5 -42q-24 0 -39 5v53q13 -6 39 -6q101 0 101 100v150h-264v-321q0 -170 181 -170q80 0 136 32v-58q-60 -26 -141 -26q-110 0 -174 53t-64 168v322h-110v55h589z" />
<glyph unicode="&#x910;" horiz-adv-x="549" d="M569 634v-55h-91v-152q0 -66 -41.5 -108t-121.5 -42q-24 0 -39 5v53q13 -6 39 -6q101 0 101 100v150h-264v-321q0 -170 181 -170q80 0 136 32v-58q-60 -26 -141 -26q-110 0 -174 53t-64 168v322h-110v55h424l-86 132q-36 56 -95 56l-46 -6v55q22 6 59 6q77 0 135 -89 l101 -154h97z" />
<glyph unicode="&#x911;" horiz-adv-x="908" d="M928 634v-55h-120v-579h-62v579h-199v-579h-61v268h-147q2 -18 2 -27q0 -72 -52 -117t-141 -45q-64 0 -118 25v59q62 -30 115.5 -30t93.5 27t40 78q0 103 -133 103h-33v57h33q56 0 84.5 25t28.5 67q0 87 -100 87q-53 0 -95 -23v59q43 18 93 18q79 0 121.5 -37t42.5 -92.5 t-25 -87.5t-64 -42q54 -8 84 -49h170v256h-94v55h536zM761 889h62q0 -72 -48 -110t-117.5 -38t-117.5 37.5t-48 110.5h62q0 -41 27 -68.5t76 -27.5t76.5 27t27.5 69z" />
<glyph unicode="&#x912;" horiz-adv-x="909" d="M809 634h120v-55h-120v-579h-62v579h-200v-579h-61v268h-147q2 -18 2 -27q0 -72 -52 -117t-141 -45q-64 0 -118 25v59q62 -30 115.5 -30t93.5 27t40 78q0 103 -133 103h-33v57h33q56 0 84.5 25t28.5 67q0 87 -100 87q-53 0 -95 -23v59q43 18 93 18q79 0 121.5 -37 t42.5 -92.5t-25 -87.5t-64 -42q54 -8 84 -49h170v256h-94v55h355q0 103 -84 103h-63q-77 0 -113 36.5t-36 119.5h61q0 -55 21.5 -78.5t67.5 -23.5h61q147 0 147 -157z" />
<glyph unicode="&#x913;" horiz-adv-x="909" d="M919 634v-55h-120v-579h-62v579h-190v-579h-61v268h-147q2 -18 2 -27q0 -72 -52 -117t-141 -45q-64 0 -118 25v59q62 -30 115.5 -30t93.5 27t40 78q0 103 -133 103h-33v57h33q56 0 84.5 25t28.5 67q0 87 -100 87q-53 0 -95 -23v59q43 18 93 18q79 0 121.5 -37t42.5 -92.5 t-25 -87.5t-64 -42q54 -8 84 -49h170v256h-94v55h346l-86 132q-36 56 -95 56l-46 -6v55q22 6 59 6q77 0 135 -89l101 -154h113z" />
<glyph unicode="&#x914;" horiz-adv-x="909" d="M637.5 694q-35.5 18 -68 18t-66.5 -9v62q27 7 53 7q66 0 125 -52l82 -73l-91 119q-40 53 -115 53l-53 -6v58q29 6 55 6q101 0 159 -89l101 -154h110v-55h-120v-579h-62v579h-200v-579h-61v268h-147q2 -18 2 -27q0 -72 -52 -117t-141 -45q-64 0 -118 25v59 q62 -30 115.5 -30t93.5 27t40 78q0 103 -133 103h-33v57h33q56 0 84.5 25t28.5 67q0 87 -100 87q-53 0 -95 -23v59q43 18 93 18q79 0 121.5 -37t42.5 -92.5t-25 -87.5t-64 -42q54 -8 84 -49h170v256h-94v55h333q-52 42 -87.5 60z" />
<glyph unicode="&#x915;" horiz-adv-x="761" d="M781 579h-369v-151q43 49 121 49t128.5 -48t50.5 -131t-56 -134t-137 -51q-15 0 -23 3v54q10 -2 21 -2q57 0 95 35t38 94t-34.5 93.5t-84.5 34.5t-84.5 -32t-34.5 -79v-314h-62v152q-43 -49 -121 -49t-128.5 48t-50.5 131t56 134t137 51q15 0 23 -3v-54q-10 2 -21 2 q-57 0 -95 -35t-38 -94t34.5 -93.5t84.5 -34.5t84.5 32t34.5 79v313h-370v55h801v-55z" />
<glyph unicode="&#x916;" horiz-adv-x="763" d="M783 634v-55h-120v-579h-62v195q-45 -55 -119 -55t-122 44.5t-48 117t47.5 116.5t114.5 44q30 0 53 -6v-54q-19 6 -45 6q-45 0 -76.5 -30.5t-31.5 -79t30.5 -77.5t79 -29t83 34t34.5 86v267h-315v-146q0 -72 -47 -111t-124 -39h-12l224 -283h-77l-220 285v53h65 q129 0 129 102v139h-244v55h803z" />
<glyph unicode="&#x917;" horiz-adv-x="571" d="M-20 634h611v-55h-120v-579h-61v579h-191v-239q0 -62 -30 -95.5t-90 -33.5q-40 0 -69 12v59q32 -15 64 -15q64 0 64 72v240h-178v55z" />
<glyph unicode="&#x918;" horiz-adv-x="643" d="M663 634v-55h-120v-579h-61v198q-32 -41 -88 -69.5t-134 -28.5t-129 40t-51 108q0 97 106 122q-39 6 -70.5 35t-31.5 83.5t46 90.5h-150v55h683zM482 327v252h-271q-65 -30 -65 -96q0 -84 135 -84h51v-55h-62q-60 0 -94 -25.5t-34 -73t38 -70.5t90 -23q88 0 150 53.5 t62 121.5z" />
<glyph unicode="&#x919;" horiz-adv-x="553" d="M-20 634h593v-55h-183v-150h-165q-39 0 -66 -16.5t-27 -53t30.5 -54.5t111 -22t127 -34t46.5 -98.5t-52.5 -110t-148.5 -41.5t-175 41v63q35 -22 86 -37t103 -15t87.5 25t35.5 69t-31.5 63t-104.5 23q-177 9 -177 127q0 61 41.5 93.5t109.5 32.5h107v95h-348v55zM495 390 q20 0 34 -13.5t14 -33.5t-14 -33t-34 -13t-33 13t-13 33t13 33.5t33 13.5z" />
<glyph unicode="&#x91a;" horiz-adv-x="627" d="M647 634v-55h-120v-579h-62v194q-23 -40 -70.5 -66t-120 -26.5t-125.5 42.5t-53 120q0 91 81 130h-147v55h337v-55q-118 0 -163.5 -38.5t-45.5 -91.5t34.5 -82t90.5 -29q86 0 134 52t48 123v251h-485v55h667z" />
<glyph unicode="&#x91b;" horiz-adv-x="624" d="M644 579h-157v-125q77 -41 77 -147.5t-76.5 -177t-184.5 -70.5t-170.5 45.5t-62.5 121.5q0 52 29.5 86.5t75.5 40.5q-30 9 -57.5 40t-27.5 80q0 67 48 106h-158v55h664v-55zM431 579h-210q-69 -32 -69 -107q0 -45 32 -71.5t76 -26.5h28v-53h-38q-55 0 -86.5 -26.5 t-31.5 -74.5t46.5 -78.5t116.5 -30.5q91 0 149 52t58 144q0 53 -30 85t-91 32q-26 0 -42 -7v53q16 6 44 6t48 -3v106z" />
<glyph unicode="&#x91c;" horiz-adv-x="648" d="M-20 634h688v-55h-120v-579h-61v394h-217q75 -45 75 -147q0 -80 -54 -131t-144 -51q-64 0 -117 23v57q58 -28 117 -28t97 34t38 101t-49 104.5t-134 37.5v54h388v131h-507v55z" />
<glyph unicode="&#x91d;" horiz-adv-x="753" d="M773 634v-55h-120v-579h-62v258h-189q40 -38 40 -96.5t-45 -100.5t-117 -42q-96 0 -150 57v-123h-60v222h55q17 -43 61 -72.5t91.5 -29.5t75 25t27.5 66q0 87 -127 96q-85 6 -129.5 30.5t-44.5 83t42.5 91t114.5 32.5h95v82h-351v55h793zM591 311v268h-198v-137h-152 q-100 0 -100 -66q0 -32 29 -45q27 -12 110 -20h311z" />
<glyph unicode="&#x91e;" horiz-adv-x="671" d="M691 634v-55h-120v-579h-62v264h-133q-5 -79 -61 -129t-138.5 -50t-156.5 36v59q67 -41 141 -41t112.5 38.5t38.5 98.5t-35 96.5t-88.5 36.5t-82.5 -13v53q27 12 73 12q81 0 131.5 -37.5t62.5 -104.5h136v260h-529v55h711z" />
<glyph unicode="&#x91f;" horiz-adv-x="488" d="M175 118.5q50 -41.5 130.5 -41.5t142.5 37v-57q-60 -32 -141 -32q-109 0 -178 56t-69 154t69.5 158t174.5 60q19 0 28 -1v127h-352v55h528v-55h-114v-182q-33 5 -64 5q-90 0 -147.5 -43t-57.5 -121t50 -119.5z" />
<glyph unicode="&#x920;" horiz-adv-x="561" d="M581 579h-250v-139q75 -13 122.5 -60.5t47.5 -128.5t-61.5 -134.5t-160 -53.5t-159 54t-60.5 141t62 135t148 51v135h-290v55h601v-55zM393.5 154.5q43.5 39.5 43.5 103.5t-42.5 99t-110 35t-114 -33.5t-46.5 -99.5t42 -105t113 -39t114.5 39.5z" />
<glyph unicode="&#x921;" horiz-adv-x="517" d="M390 429h-165q-39 0 -66 -16.5t-27 -53t30.5 -54.5t111 -22t127 -34t46.5 -98.5t-52.5 -110t-148.5 -41.5t-175 41v63q35 -22 86 -37t103 -15t87.5 25t35.5 69t-31.5 63t-104.5 23q-177 9 -177 127q0 61 41.5 93.5t109.5 32.5h107v95h-348v55h557v-55h-147v-150z" />
<glyph unicode="&#x922;" horiz-adv-x="554" d="M266 271q40 20 99 20t94 -33t35 -91t-53.5 -100.5t-148 -42.5t-163.5 59.5t-69 154.5t67 160.5t179 65.5q26 0 55 -3v118h-381v55h594v-55h-151v-180q-57 9 -102 9q-94 0 -145.5 -47.5t-51.5 -120.5t49.5 -118.5t117 -45.5t104.5 26t37 71q0 29 -21 47.5t-63.5 18.5 t-81.5 -24v56z" />
<glyph unicode="&#x923;" horiz-adv-x="740" d="M760 634v-55h-120v-579h-62v579h-173v-230q0 -83 -42 -127.5t-123.5 -44.5t-120.5 42.5t-39 130.5v229h-100v55h780zM343 349v230h-201v-229q0 -120 97 -120q104 0 104 119z" />
<glyph unicode="&#x924;" horiz-adv-x="582" d="M-20 634h622v-55h-120v-579h-61v391h-101q-187 0 -187 -167q0 -78 39 -124t115 -46q14 0 24 2v-54q-12 -2 -27 -2q-98 0 -156 63.5t-58 162t61.5 159.5t177.5 61h112v133h-441v55z" />
<glyph unicode="&#x925;" horiz-adv-x="630" d="M348 507q0 -84 -63.5 -133.5t-181.5 -75.5q28 -132 170 -132q82 0 139 54.5t57 153.5v260h181v-55h-120v-579h-61v220q-18 -38 -72 -72.5t-124 -34.5q-95 0 -162.5 54.5t-80.5 167.5q131 27 193.5 67t62.5 103q0 36 -18.5 59t-54.5 23t-54.5 -21t-18.5 -45t2.5 -35 t6.5 -19.5t4 -9.5h-62q-13 36 -13 63q0 48 38 83.5t100 35.5t97 -38.5t35 -93.5z" />
<glyph unicode="&#x926;" horiz-adv-x="542" d="M-20 634h582v-55h-122v-164h-167q-72 0 -113.5 -37.5t-41.5 -105.5t37.5 -107.5t100.5 -39.5t100.5 35t37.5 87h58v-257h-61v135q-44 -52 -136 -52t-148.5 57t-56.5 142.5t57.5 141t158.5 55.5h113v110h-399v55z" />
<glyph unicode="&#x927;" horiz-adv-x="632" d="M652 634v-55h-120v-579h-61v163q-24 -41 -75 -70.5t-121 -29.5q-96 0 -150.5 45t-54.5 106t33.5 95t85.5 41q-53 7 -85 38t-32 86q0 70 66 105h-158v55h306v-55q-71 0 -111.5 -30.5t-40.5 -78t42.5 -71t106.5 -23.5h53v-53h-62q-65 0 -103 -28.5t-38 -75t38 -75 t104 -28.5q88 0 142 56t54 117v345h181z" />
<glyph unicode="&#x928;" horiz-adv-x="480" d="M-20 634h520v-55h-120v-579h-62v332h-190q-32 0 -32 -36t14 -76h-53q-27 52 -27 97q0 69 81 69h207v193h-338v55z" />
<glyph unicode="&#x929;" horiz-adv-x="480" d="M-20 634h520v-55h-120v-579h-62v332h-190q-32 0 -32 -36t14 -76h-53q-27 52 -27 97q0 69 81 69h207v193h-338v55zM123 84q20 0 34 -13.5t14 -33.5t-14 -33t-34 -13t-33 13t-13 33t13 33.5t33 13.5z" />
<glyph unicode="&#x92a;" horiz-adv-x="547" d="M567 634v-55h-120v-579h-62v245q-45 -67 -137 -68q-178 0 -178 198v204h-90v55h587zM385 383v196h-253v-204q0 -78 28 -112t86 -34t98.5 41.5t40.5 112.5z" />
<glyph unicode="&#x92b;" horiz-adv-x="777" d="M797 579h-350v-148q43 49 121 49t128.5 -48t50.5 -131t-56 -134t-137 -51q-16 0 -23 3v54q10 -2 21 -2q57 0 95 35t38 94t-34.5 93.5t-85.5 34.5t-84.5 -33t-33.5 -81v-314h-62v246q-44 -64 -135.5 -64.5t-135.5 43t-44 145.5v209h-90v55h817v-55zM385 383v196h-253v-204 q0 -77 27.5 -109.5t86.5 -32.5t99 39.5t40 110.5z" />
<glyph unicode="&#x92c;" horiz-adv-x="611" d="M631 634v-55h-120v-579h-61v173q-23 -38 -72.5 -64t-112.5 -26q-85 0 -145 56.5t-60 147t61.5 147.5t154.5 57q41 0 83 -11v-55q-42 14 -86.5 14t-80.5 -19l217 -225q41 50 41 115v269h-470v55h651zM153 389q-34 -40 -34 -104.5t42 -107t105 -42.5t108 29z" />
<glyph unicode="&#x92d;" horiz-adv-x="545" d="M383 339v295h182v-55h-120v-579h-62v285h-208v-140h-55l-22 50q-27 63 -27 86t12 37.5t30 18.5v177q0 37 -10 53.5t-38.5 16.5t-54.5 -13v53q28 14 66 14q99 0 99 -112v-187h208z" />
<glyph unicode="&#x92e;" horiz-adv-x="569" d="M407 579h-223v-240h223v240zM-20 579v55h609v-55h-120v-579h-62v285h-223v-140h-55l-22 50q-27 63 -27 86t12 37.5t30 18.5v242h-142z" />
<glyph unicode="&#x92f;" horiz-adv-x="623" d="M191.5 221.5q45.5 -39.5 112.5 -39.5t112.5 40t45.5 105v252h-202q26 -39 26 -94q0 -117 -153 -164q13 -60 58.5 -99.5zM296 130q-92 0 -156.5 61t-79.5 173q79 13 121.5 46t42.5 81.5t-31 87.5h-213v55h663v-55h-120v-579h-61v201q-54 -71 -166 -71z" />
<glyph unicode="&#x930;" horiz-adv-x="365" d="M30 338h65q129 0 129 102v139h-244v55h405v-55h-99v-146q0 -72 -47 -111t-124 -39h-10l215 -283h-75l-215 285v53z" />
<glyph unicode="&#x931;" horiz-adv-x="365" d="M30 338h65q129 0 129 102v139h-244v55h405v-55h-99v-146q0 -72 -47 -111t-124 -39h-10l215 -283h-75l-215 285v53zM-22 7q0 20 13 33.5t33 13.5t34 -13.5t14 -33.5t-14 -33t-34 -13t-33 13t-13 33z" />
<glyph unicode="&#x932;" horiz-adv-x="727" d="M-20 634h767v-55h-120v-579h-62v397q-33 20 -65 20q-52 0 -82 -32.5t-30 -100.5v-74h-61v75q0 129 -94 129q-47 0 -79 -40t-32 -120.5t45.5 -141t131.5 -60.5q15 0 23 2v-51q-14 -3 -32 -3q-103 0 -166.5 75t-63.5 187q0 89 46 146.5t121 57.5q53 0 87.5 -24.5 t44.5 -70.5q22 98 136 98q40 0 70 -16v126h-585v55z" />
<glyph unicode="&#x933;" horiz-adv-x="797" d="M817 579h-225v-126q71 -10 113 -57.5t42 -124t-54.5 -128t-134.5 -51.5q-111 0 -176 77q-46 -77 -148 -77q-81 0 -132.5 49t-51.5 130.5t52.5 133t130.5 51.5q109 0 173 -71q41 62 125 70v124h-551v55h837v-55zM358 270q15 47 22 64q-58 70 -143 70q-57 0 -91 -37.5 t-34 -95t34 -91.5t92 -34t81.5 38.5t38.5 85.5zM650 182.5q35 36.5 35 95t-35 92.5t-95 34q-69 0 -101 -60q-14 -26 -27.5 -67t-18.5 -55q60 -76 147 -76q60 0 95 36.5z" />
<glyph unicode="&#x934;" horiz-adv-x="797" d="M817 579h-225v-126q71 -10 113 -57.5t42 -124t-54.5 -128t-134.5 -51.5q-111 0 -176 77q-46 -77 -148 -77q-81 0 -132.5 49t-51.5 130.5t52.5 133t130.5 51.5q109 0 173 -71q41 62 125 70v124h-551v55h837v-55zM358 270q15 47 22 64q-58 70 -143 70q-57 0 -91 -37.5 t-34 -95t34 -91.5t92 -34t81.5 38.5t38.5 85.5zM650 182.5q35 36.5 35 95t-35 92.5t-95 34q-69 0 -101 -60q-14 -26 -27.5 -67t-18.5 -55q60 -76 147 -76q60 0 95 36.5zM214 24q20 0 34 -13.5t14 -33.5t-14 -33t-34 -13t-33 13t-13 33t13 33.5t33 13.5z" />
<glyph unicode="&#x935;" horiz-adv-x="566" d="M586 634v-55h-120v-579h-61v179q-48 -87 -166 -87q-77 0 -133 51t-56 133.5t54 135t137 52.5q34 0 62 -7v-55q-23 8 -59 8q-57 0 -94.5 -36.5t-37.5 -95.5t38 -96.5t92 -37.5q78 0 120.5 52t42.5 123v260h-425v55h606z" />
<glyph unicode="&#x936;" horiz-adv-x="654" d="M492 634h182v-55h-120v-579h-62v634zM77 504q0 54 36.5 92t103 38t108.5 -49t42 -118q0 -97 -64 -152t-151 -55h-47l229 -260h-83l-221 258v57h95q85 0 132.5 40t47.5 104q0 120 -93 120q-38 0 -57 -23t-19 -55.5t14 -57.5h-61q-12 27 -12 61z" />
<glyph unicode="&#x937;" horiz-adv-x="572" d="M592 634v-55h-120v-579h-62v236q-47 -63 -137 -65q-90 0 -141.5 48.5t-51.5 150.5v209h-100v55h612zM142 375q0 -77 35 -114.5t95 -37.5q76 0 114 61l-244 233v-142zM410 373v206h-268v-1l262 -253q6 21 6 48z" />
<glyph unicode="&#x938;" horiz-adv-x="623" d="M643 634v-55h-120v-579h-61v271h-173q-112 0 -182 9l183 -280h-75l-185 285v53h65q59 0 79 23t20 75v143h-214v55h663zM462 328v251h-206v-150q0 -64 -28 -101h234z" />
<glyph unicode="&#x939;" horiz-adv-x="525" d="M429 423h-237q-61 0 -61 -50q0 -33 18.5 -55.5t37.5 -27.5q45 16 98 16q80 0 120 -38.5t40 -90.5q0 -34 -11 -56h-61q15 19 15 53.5t-25.5 57t-87 22.5t-101 -31.5t-39.5 -80t46 -82.5t126 -34t134 18v-55q-64 -16 -128 -16q-114 0 -176.5 52.5t-62.5 122.5t62 115 q-66 44 -66 118q0 45 32 69.5t82 24.5h184v104h-388v55h565v-55h-116v-156z" />
<glyph unicode="&#x93c;" d="M-317 -127q0 20 13 33.5t33 13.5t34 -13.5t14 -33.5t-14 -33t-34 -13t-33 13t-13 33z" />
<glyph unicode="&#x93d;" horiz-adv-x="418" d="M357.5 47q-50.5 -50 -159.5 -50t-193 51v67q97 -64 206 -64q67 0 101.5 32t34.5 73t-35 80t-85.5 71t-100.5 64t-85 73t-35 87t29.5 74.5t83.5 28.5h264v-54h-258q-25 0 -41.5 -13.5t-16.5 -38t25.5 -51.5t63 -51.5t82 -55.5t82 -61t63 -68.5t25.5 -77.5 q0 -66 -50.5 -116z" />
<glyph unicode="&#x93e;" horiz-adv-x="262" d="M-20 579v55h302v-55h-120v-579h-62v579h-120z" />
<glyph unicode="&#x93f;" horiz-adv-x="261" d="M100 634v80q0 78 48 126t134 48t189.5 -34t181.5 -84v-62q-81 57 -187 89t-174 32t-99.5 -31.5t-31.5 -85.5v-78h120v-55h-120v-579h-61v579h-120v55h120z" />
<glyph unicode="&#x940;" horiz-adv-x="261" d="M160 634h121v-55h-120v-579h-61v579h-120v55h118v91q0 52 -28.5 79.5t-73 27.5t-72 -27t-27.5 -80v-17h-61v18q0 81 45.5 121.5t115 40.5t116.5 -40.5t47 -121.5v-92z" />
<glyph unicode="&#x941;" d="M-308.5 -159q73.5 -41 133 -41t88 23.5t28.5 60t-22 55.5t-51 19q-51 0 -92 -26l-13 -8v57q39 29 104.5 29t100.5 -34.5t35 -94t-46.5 -96.5t-117 -37t-143.5 33t-116 73v72q38 -44 111.5 -85z" />
<glyph unicode="&#x942;" d="M-137 -246q-59 0 -98.5 34.5t-39.5 91t39.5 93.5t101.5 37t108.5 -29t69.5 -75q46 -91 46 -189h-57q0 96 -42 168.5t-121 72.5q-37 0 -60 -21t-23 -56.5t25.5 -54.5t51.5 -19t37 3v-52q-15 -4 -38 -4z" />
<glyph unicode="&#x943;" d="M-256 -229q-40 36 -40 94t39.5 95t94.5 37v11h62v-59h-48q-39 0 -62.5 -22t-23.5 -59t21 -59t62 -22t72 21v-53q-30 -20 -71 -20q-66 0 -106 36z" />
<glyph unicode="&#x945;" d="M-13 779q-48 -38 -117.5 -38t-117.5 37.5t-48 110.5h62q0 -41 27 -68.5t76 -27.5t76.5 27t27.5 69h62q0 -72 -48 -110z" />
<glyph unicode="&#x946;" d="M-308 791h61q147 0 147 -157h-62q0 103 -84 103h-63q-77 0 -113 36.5t-36 119.5h61q0 -55 21.5 -78.5t67.5 -23.5z" />
<glyph unicode="&#x947;" d="M-400 871q22 6 59 6q77 0 135 -89l106 -161h-68l-91 139q-36 56 -95 56l-46 -6v55z" />
<glyph unicode="&#x948;" d="M-270 692.5q-37 19.5 -70.5 19.5t-67.5 -9v62q27 7 53 7q66 0 125 -52l82 -73l-91 119q-40 53 -115 53l-53 -6v58q29 6 55 6q101 0 159 -89l106 -161h-90q-56 46 -93 65.5z" />
<glyph unicode="&#x949;" horiz-adv-x="262" d="M246 779q-48 -38 -117.5 -38t-117.5 37.5t-48 110.5h62q0 -41 27.5 -68.5t76 -27.5t76 27t27.5 69h62q0 -72 -48 -110zM-20 579v55h302v-55h-120v-579h-62v579h-120z" />
<glyph unicode="&#x94a;" horiz-adv-x="261" d="M161 634h120v-55h-120v-579h-61v579h-120v55h119q0 103 -84 103h-63q-77 0 -113 36.5t-36 119.5h61q0 -55 21.5 -78.5t67.5 -23.5h61q147 0 147 -157z" />
<glyph unicode="&#x94b;" horiz-adv-x="261" d="M281 634v-55h-120v-579h-61v579h-120v55h109l-86 132q-36 56 -95 56l-46 -6v55q22 6 59 6q77 0 135 -89l101 -154h124z" />
<glyph unicode="&#x94c;" horiz-adv-x="261" d="M-14.5 694q-35.5 18 -68 18t-66.5 -9v62q27 7 53 7q66 0 125 -52l82 -73l-91 119q-40 53 -115 53l-53 -6v58q29 6 55 6q101 0 159 -89l101 -154h114v-55h-120v-579h-61v579h-120v55h93q-52 42 -87.5 60z" />
<glyph unicode="&#x94d;" d="M52 -231h-78l-124 162h63z" />
<glyph unicode="&#x950;" horiz-adv-x="1234" d="M793 555q-48 -38 -117.5 -38t-117.5 37.5t-48 110.5h62q0 -41 27 -68.5t76 -27.5t76.5 27t27.5 69h62q0 -72 -48 -110zM630 720q0 20 13 33.5t33 13.5t34 -13.5t14 -33.5t-14 -33t-34 -13t-33 13t-13 33zM703.5 81q-39.5 -40 -98 -40t-94 25.5t-52.5 58.5 q-7 -49 -56.5 -87t-136 -38t-153.5 44v65q73 -55 166 -55q62 0 96.5 32t34.5 80t-34.5 74.5t-103.5 26.5h-47v55h37q119 0 119 106q0 46 -28.5 74.5t-69.5 28.5q-79 0 -131 -37v58q59 34 130.5 34t116 -45t44.5 -102t-22 -90t-55 -46q58 -1 102 -77q33 -60 41 -72t23 -28 q26 -31 67.5 -31t72 37.5t61 98t39 77.5t32 54.5t41.5 53.5q51 45 105 45q74 0 119.5 -57t45.5 -145.5t-49.5 -152t-134.5 -63.5q-50 0 -87 17v61q37 -24 88 -24t86 44t35 109.5t-26 110.5t-69 45t-80 -43t-99 -170q-36 -72 -75.5 -112z" />
<glyph unicode="&#x951;" d="M-163 904h58v-210h-58v210z" />
<glyph unicode="&#x952;" d="M-102 -214h-505v47h505v-47z" />
<glyph unicode="&#x953;" d="M-277 861l45 37l135 -161l-45 -37z" />
<glyph unicode="&#x954;" d="M-40 898l45 -37l-135 -161l-45 37z" />
<glyph unicode="&#x958;" horiz-adv-x="761" d="M781 579h-369v-151q43 49 121 49t128.5 -48t50.5 -131t-56 -134t-137 -51q-15 0 -23 3v54q10 -2 21 -2q57 0 95 35t38 94t-34.5 93.5t-84.5 34.5t-84.5 -32t-34.5 -79v-314h-62v152q-43 -49 -121 -49t-128.5 48t-50.5 131t56 134t137 51q15 0 23 -3v-54q-10 2 -21 2 q-57 0 -95 -35t-38 -94t34.5 -93.5t84.5 -34.5t84.5 32t34.5 79v313h-370v55h801v-55zM149 10q20 0 34 -13.5t14 -33.5t-14 -33t-34 -13t-33 13t-13 33t13 33.5t33 13.5z" />
<glyph unicode="&#x959;" horiz-adv-x="763" d="M783 634v-55h-120v-579h-62v195q-45 -55 -119 -55t-122 44.5t-48 117t47.5 116.5t114.5 44q30 0 53 -6v-54q-19 6 -45 6q-45 0 -76.5 -30.5t-31.5 -79t30.5 -77.5t79 -29t83 34t34.5 86v267h-315v-146q0 -72 -47 -111t-124 -39h-12l224 -283h-77l-220 285v53h65 q129 0 129 102v139h-244v55h803zM69 20q20 0 34 -13.5t14 -33.5t-14 -33t-34 -13t-33 13t-13 33t13 33.5t33 13.5z" />
<glyph unicode="&#x95a;" horiz-adv-x="571" d="M-20 634h611v-55h-120v-579h-61v579h-191v-239q0 -62 -30 -95.5t-90 -33.5q-40 0 -69 12v59q32 -15 64 -15q64 0 64 72v240h-178v55zM119 80q20 0 34 -13.5t14 -33.5t-14 -33t-34 -13t-33 13t-13 33t13 33.5t33 13.5z" />
<glyph unicode="&#x95b;" horiz-adv-x="648" d="M-20 634h688v-55h-120v-579h-61v394h-217q75 -45 75 -147q0 -80 -54 -131t-144 -51q-64 0 -117 23v57q58 -28 117 -28t97 34t38 101t-49 104.5t-134 37.5v54h388v131h-507v55zM149 -40q20 0 34 -13.5t14 -33.5t-14 -33t-34 -13t-33 13t-13 33t13 33.5t33 13.5z" />
<glyph unicode="&#x95c;" horiz-adv-x="517" d="M390 429h-165q-39 0 -66 -16.5t-27 -53t30.5 -54.5t111 -22t127 -34t46.5 -98.5t-52.5 -110t-148.5 -41.5t-175 41v63q35 -22 86 -37t103 -15t87.5 25t35.5 69t-31.5 63t-104.5 23q-177 9 -177 127q0 61 41.5 93.5t109.5 32.5h107v95h-348v55h557v-55h-147v-150zM249 -90 q20 0 34 -13.5t14 -33.5t-14 -33t-34 -13t-33 13t-13 33t13 33.5t33 13.5z" />
<glyph unicode="&#x95d;" horiz-adv-x="554" d="M256 -127q0 20 13 33.5t33 13.5t34 -13.5t14 -33.5t-14 -33t-34 -13t-33 13t-13 33zM266 271q40 20 99 20t94 -33t35 -91t-53.5 -100.5t-148 -42.5t-163.5 59.5t-69 154.5t67 160.5t179 65.5q26 0 55 -3v118h-381v55h594v-55h-151v-180q-57 9 -102 9q-94 0 -145.5 -47.5 t-51.5 -120.5t49.5 -118.5t117 -45.5t104.5 26t37 71q0 29 -21 47.5t-63.5 18.5t-81.5 -24v56z" />
<glyph unicode="&#x95e;" horiz-adv-x="777" d="M797 579h-350v-148q43 49 121 49t128.5 -48t50.5 -131t-56 -134t-137 -51q-16 0 -23 3v54q10 -2 21 -2q57 0 95 35t38 94t-34.5 93.5t-85.5 34.5t-84.5 -33t-33.5 -81v-314h-62v246q-44 -64 -135.5 -64.5t-135.5 43t-44 145.5v209h-90v55h817v-55zM385 383v196h-253v-204 q0 -77 27.5 -109.5t86.5 -32.5t99 39.5t40 110.5zM139 57q20 0 34 -13.5t14 -33.5t-14 -33t-34 -13t-33 13t-13 33t13 33.5t33 13.5z" />
<glyph unicode="&#x95f;" horiz-adv-x="623" d="M88 -7q0 20 13 33.5t33 13.5t34 -13.5t14 -33.5t-14 -33t-34 -13t-33 13t-13 33zM191.5 221.5q45.5 -39.5 112.5 -39.5t112.5 40t45.5 105v252h-202q26 -39 26 -94q0 -117 -153 -164q13 -60 58.5 -99.5zM296 130q-92 0 -156.5 61t-79.5 173q79 13 121.5 46t42.5 81.5 t-31 87.5h-213v55h663v-55h-120v-579h-61v201q-54 -71 -166 -71z" />
<glyph unicode="&#x960;" horiz-adv-x="690" d="M710 579h-319v-261l112 60v78h61v-67q0 -71 34 -112q14 -17 28 -32q34 -36 34 -83q0 -63 -41.5 -96.5t-107.5 -33.5q-11 0 -31 2v61q18 -5 44.5 -5t50 18.5t23.5 48t-11 48.5t-25 31.5t-28.5 35t-20.5 48.5l-122 -68v-252h-62v218l-258 -145v71l189 102 q-24 67 -58.5 100.5t-94.5 33.5q-17 0 -47 -6v63q21 4 50 4q150 0 205 -165l14 7v296h-349v55h730v-55z" />
<glyph unicode="&#x961;" horiz-adv-x="760" d="M666 579v-284q0 -42 -17.5 -77t-38.5 -54q-56 -51 -56 -87t24 -55t67 -19h18v-54h-42q-41 0 -63 -21.5t-22 -56t24.5 -59.5t65 -25t71.5 12v-56q-36 -11 -71 -11q-68 0 -111 38.5t-43 99.5q0 43 23.5 72t58.5 38q-62 26 -62 93q0 33 17.5 61.5t38.5 46.5t38.5 48t17.5 66 v127h-82q-68 0 -97 -32t-29 -111v-48h-62v49q0 144 -107 144q-55 0 -88 -39.5t-33 -113.5q0 -191 163 -223l-2 -56q-104 18 -163.5 89t-59.5 191q0 90 47 148t130 58q119 0 145 -105q21 102 152 102h86v104h-615v55h783v-55h-106z" />
<glyph unicode="&#x964;" horiz-adv-x="307" d="M145 0v634h62v-634h-62z" />
<glyph unicode="&#x965;" horiz-adv-x="515" d="M353 0v634h62v-634h-62zM145 0v634h62v-634h-62z" />
<glyph unicode="&#x966;" horiz-adv-x="537" d="M153.5 529q-48.5 -71 -48.5 -200.5t47 -203t118 -73.5t116.5 72t45.5 204t-47.5 202t-115 70t-116 -71zM42 329q0 152 63 241.5t163 89.5t163.5 -89t63.5 -241.5t-60 -245t-164.5 -92.5t-166.5 92.5t-62 244.5z" />
<glyph unicode="&#x967;" horiz-adv-x="343" d="M253 654v-654h-61v587l-147 -92v69l147 90h61z" />
<glyph unicode="&#x968;" horiz-adv-x="502" d="M452 55v-55h-407v55q320 245 320 408q0 68 -38.5 103.5t-108.5 35.5t-149 -58v62q68 54 154 54t146 -50.5t60 -143.5q0 -174 -297 -411h320z" />
<glyph unicode="&#x969;" horiz-adv-x="491" d="M83 624q54 36 140 36t137 -49t51 -120q0 -114 -104 -159q56 -13 90 -53t34 -99q0 -80 -54 -133t-148.5 -53t-163.5 33v62q71 -37 149 -37t116 36t38 94.5t-42 89.5t-115 31h-44v55h44q56 0 96 34.5t40 92.5t-35.5 87.5t-101.5 29.5t-127 -40v62z" />
<glyph unicode="&#x96a;" horiz-adv-x="569" d="M524 219v-55h-101v-164h-60v164h-303v55l262 435h101v-435h101zM363 219v400l-240 -400h240z" />
<glyph unicode="&#x96b;" horiz-adv-x="532" d="M170 599v-218q49 11 87 11q97 0 156 -52t59 -144t-62 -148t-163.5 -56t-171.5 33v62q64 -37 156 -37q177 0 177 153q0 63 -42 97t-110.5 34t-147.5 -35v355h318v-55h-256z" />
<glyph unicode="&#x96c;" horiz-adv-x="517" d="M340 617q-94 0 -151 -76.5t-71 -185.5q67 66 160 66t144.5 -57.5t51.5 -153t-54.5 -157t-142.5 -61.5q-112 0 -169.5 80t-57.5 214q0 226 130 333q67 56 161 56q47 0 89 -15v-62q-41 19 -90 19zM113 286q0 -122 45 -179.5t112.5 -57.5t103.5 47t36 117t-36.5 110 t-94.5 40q-106 0 -166 -72v-5z" />
<glyph unicode="&#x96d;" horiz-adv-x="503" d="M40 654h423v-55l-275 -599h-66l276 599h-358v55z" />
<glyph unicode="&#x96e;" horiz-adv-x="539" d="M481 166q0 -79 -62 -126.5t-151 -47.5t-149.5 46t-60.5 116t33.5 112t91.5 59q-54 16 -84 54t-30 94q0 86 59.5 136.5t138.5 50.5t138 -48.5t59 -136.5q0 -53 -30 -92t-84 -56q131 -34 131 -161zM168.5 565q-36.5 -37 -36.5 -94t38 -86.5t98 -29.5t96.5 32t36.5 87.5 t-35.5 91.5t-98 36t-99 -37zM159 83q38 -33 109.5 -33t110.5 36t39 87.5t-37 86t-114 37.5q-74 -4 -110 -40.5t-36 -88.5t38 -85z" />
<glyph unicode="&#x96f;" horiz-adv-x="502" d="M196 50q99 0 145.5 62t55.5 186q-57 -62 -142.5 -62t-145 58t-59.5 149.5t51.5 155t141.5 63.5q74 0 125 -42q94 -76 94 -240q0 -388 -266 -388q-58 0 -112 19v62q53 -23 112 -23zM400 380q0 88 -32 152q-17 33 -49 52.5t-75 19.5q-60 0 -95 -45t-35 -116t40.5 -110.5 t114 -39.5t131.5 69v18z" />
<glyph unicode="&#x970;" horiz-adv-x="416" d="M112 298q0 -39 27.5 -66.5t66.5 -27.5t66.5 27.5t27.5 66.5t-27.5 66.5t-66.5 27.5t-66.5 -27.5t-27.5 -66.5zM56 298q0 62 44 106t106 44t106 -44t44 -106t-44 -106t-106 -44t-106 44t-44 106z" />
<glyph unicode="&#x97d;" horiz-adv-x="543" d="M261 682q83 0 133 -40.5t50 -115.5q0 -64 -60 -130q-24 -27 -49 -55q-60 -67 -60 -153v-188h-61v185q0 52 17 96.5t41.5 74t49.5 56.5q58 63 58 109.5t-29.5 74.5t-88.5 28q-37 0 -79.5 -15t-71.5 -36v65q22 17 68 30.5t82 13.5z" />
<glyph unicode="&#x1e80;" horiz-adv-x="929" d="M432 664h73l187 -605q49 226 135 615h62l-153 -674h-85l-181 583q-33 -119 -170 -583h-85l-175 674h65l154 -611q57 202 173 601zM388 878l102 -150h-55l-128 150h81z" />
<glyph unicode="&#x1e81;" horiz-adv-x="788" d="M185 0l-155 507h67q106 -357 128 -446q5 18 128 446h72l132 -448q17 62 137 448h64l-160 -507h-82l-127 436q-29 -109 -122 -436h-82zM311 712l102 -150h-55l-128 150h81z" />
<glyph unicode="&#x1e82;" horiz-adv-x="929" d="M447 729l102 150h81l-128 -150h-55zM432 664h73l187 -605q49 226 135 615h62l-153 -674h-85l-181 583q-33 -119 -170 -583h-85l-175 674h65l154 -611q57 202 173 601z" />
<glyph unicode="&#x1e83;" horiz-adv-x="788" d="M367 562l102 150h81l-128 -150h-55zM185 0l-155 507h67q106 -357 128 -446q5 18 128 446h72l132 -448q17 62 137 448h64l-160 -507h-82l-127 436q-29 -109 -122 -436h-82z" />
<glyph unicode="&#x1e84;" horiz-adv-x="929" d="M347 772.5q-12 12.5 -12 31t12 30.5t30.5 12t31 -12t12.5 -30.5t-12.5 -31t-31 -12.5t-30.5 12.5zM531.5 772.5q-12.5 12.5 -12.5 31t12.5 30.5t31 12t30.5 -12t12 -30.5t-12 -31t-30.5 -12.5t-31 12.5zM432 664h73l187 -605q49 226 135 615h62l-153 -674h-85l-181 583 q-33 -119 -170 -583h-85l-175 674h65l154 -611q57 202 173 601z" />
<glyph unicode="&#x1e85;" horiz-adv-x="788" d="M266 606.5q-12 12.5 -12 31t12 30.5t30.5 12t31 -12t12.5 -30.5t-12.5 -31t-31 -12.5t-30.5 12.5zM450.5 606.5q-12.5 12.5 -12.5 31t12.5 30.5t31 12t30.5 -12t12 -30.5t-12 -31t-30.5 -12.5t-31 12.5zM185 0l-155 507h67q106 -357 128 -446q5 18 128 446h72l132 -448 q17 62 137 448h64l-160 -507h-82l-127 436q-29 -109 -122 -436h-82z" />
<glyph unicode="&#x1ef2;" horiz-adv-x="580" d="M320 0h-62v252l-228 422h71l53 -99l135 -260q8 19 190 359h71l-230 -422v-252zM330 729h-55l-128 150h81z" />
<glyph unicode="&#x1ef3;" horiz-adv-x="482" d="M71 -168q-20 0 -38 5v60q18 -5 34 -5q107 0 149 122l-207 493h70l167 -414q10 33 149 414h68l-184 -494q-38 -103 -90 -142t-118 -39zM168 712l102 -150h-55l-128 150h81z" />
<glyph unicode="&#x200b;" />
<glyph unicode="&#x200c;" d="M24 -230h-47v1041h47v-1041z" />
<glyph unicode="&#x200d;" d="M24 -230h-47v865l-69 -73l-33 33l93 93l-95 95l33 33l95 -95l96 95l32 -32l-96 -96l96 -95l-33 -33l-72 75v-865z" />
<glyph unicode="&#x2013;" horiz-adv-x="536" d="M60 243v55h416v-55h-416z" />
<glyph unicode="&#x2014;" horiz-adv-x="819" d="M60 245v55h699v-55h-699z" />
<glyph unicode="&#x2018;" horiz-adv-x="157" d="M167 695l-79 -214h-81l115 214h45z" />
<glyph unicode="&#x2019;" horiz-adv-x="158" d="M8 481l79 214h81l-115 -214h-45z" />
<glyph unicode="&#x201a;" horiz-adv-x="158" d="M4 -122l79 214h81l-115 -214h-45z" />
<glyph unicode="&#x201c;" horiz-adv-x="290" d="M300 695l-79 -214h-81l115 214h45zM168 695l-79 -214h-81l115 214h45z" />
<glyph unicode="&#x201d;" horiz-adv-x="289" d="M8 481l79 214h81l-115 -214h-45zM140 481l79 214h81l-115 -214h-45z" />
<glyph unicode="&#x201e;" horiz-adv-x="289" d="M4 -122l79 214h81l-115 -214h-45zM136 -122l79 214h81l-115 -214h-45z" />
<glyph unicode="&#x2020;" horiz-adv-x="514" d="M469 498v-56h-188v-442h-57v442h-179v56h179v176h57v-176h188z" />
<glyph unicode="&#x2021;" horiz-adv-x="514" d="M469 442h-188v-197h188v-56h-188v-189h-57v189h-179v56h179v197h-179v56h179v176h57v-176h188v-56z" />
<glyph unicode="&#x2022;" horiz-adv-x="455" d="M95 356q0 57 37.5 95t94 38t95 -38.5t38.5 -94.5t-38 -94.5t-94.5 -38.5t-94.5 38t-38 95z" />
<glyph unicode="&#x2026;" horiz-adv-x="662" d="M530 43q0 22 14.5 36.5t36.5 14.5t36.5 -14.5t14.5 -36.5t-14.5 -36.5t-36.5 -14.5t-36.5 14.5t-14.5 36.5zM280 43q0 22 14.5 36.5t36.5 14.5t36.5 -14.5t14.5 -36.5t-14.5 -36.5t-36.5 -14.5t-36.5 14.5t-14.5 36.5zM30 43q0 22 14.5 36.5t36.5 14.5t36.5 -14.5 t14.5 -36.5t-14.5 -36.5t-36.5 -14.5t-36.5 14.5t-14.5 36.5z" />
<glyph unicode="&#x2030;" horiz-adv-x="1159" d="M890 143q0 -39 27.5 -66.5t66.5 -27.5t66.5 27.5t27.5 66.5t-27.5 66.5t-66.5 27.5t-66.5 -27.5t-27.5 -66.5zM834 143q0 62 44 106t106 44t106 -44.5t44 -106t-44 -105.5t-106 -44t-106 44t-44 106zM515 143q0 -39 27.5 -66.5t66.5 -27.5t66.5 27.5t27.5 66.5 t-27.5 66.5t-66.5 27.5t-66.5 -27.5t-27.5 -66.5zM101 510q0 -39 27.5 -66.5t66.5 -27.5t66.5 27.5t27.5 66.5t-27.5 66.5t-66.5 27.5t-66.5 -27.5t-27.5 -66.5zM45 510q0 62 44 106t105.5 44t106 -44t44.5 -106t-44 -106t-106 -44t-106 44t-44 106zM459 143q0 62 44 106 t105.5 44t106 -44.5t44.5 -106t-44 -105.5t-106 -44t-106 44t-44 106zM195 -1l352 655h62l-353 -655h-61z" />
<glyph unicode="&#x2039;" horiz-adv-x="280" d="M250 415l-147 -162l147 -162h-70l-150 162l150 162h70z" />
<glyph unicode="&#x203a;" horiz-adv-x="277" d="M100 415l150 -162l-150 -162h-70l147 162l-147 162h70z" />
<glyph unicode="&#x2044;" horiz-adv-x="324" d="M-70 0l456 712h62l-457 -712h-61z" />
<glyph unicode="&#x2074;" horiz-adv-x="376" d="M346 538v-47h-65v-99h-50v99h-196v47l172 283h74v-283h65zM231 538v233l-143 -233h143z" />
<glyph unicode="&#x20ac;" horiz-adv-x="582" d="M542 581q-37 19 -109.5 19t-128 -42.5t-77.5 -123.5h203v-49h-213q-4 -25 -4 -55.5t3 -54.5h214v-49h-205q22 -83 78.5 -129t128.5 -46t110 21v-59q-41 -21 -117 -21q-96 0 -169 63t-97 171h-104v49h97q-3 24 -3 54.5t4 55.5h-98v49h106q26 106 98.5 165.5t172.5 59.5 q72 0 110 -19v-59z" />
<glyph unicode="&#x20b9;" horiz-adv-x="536" d="M486 674v-57h-167q60 -36 72 -115h95v-57h-92q-5 -82 -66.5 -131.5t-161.5 -49.5h-28l208 -264h-77l-204 264v55h101q76 0 118.5 33t47.5 93h-267v57h263q-24 115 -162 115h-101v57h421z" />
<glyph unicode="&#x2122;" horiz-adv-x="678" d="M0 628v46h224v-46h-85v-298h-51v298h-88zM255 331l27 343h72l63 -180l31 -98q18 54 101 278h74l23 -343h-52l-11 167l-5 113q-18 -53 -101 -272h-57l-95 272q-4 -33 -17 -280h-53z" />
<glyph unicode="&#x2126;" horiz-adv-x="778" d="M723 57v-57h-289v57q91 15 136.5 93t45.5 201t-61 200t-169.5 77t-170.5 -77.5t-62 -198.5t51.5 -200.5t139.5 -94.5v-57h-289v57h165q-64 40 -97.5 114.5t-33.5 173.5q0 153 80.5 248t217 95t215 -94.5t78.5 -248.5q0 -210 -123 -288h166z" />
<glyph unicode="&#x2202;" horiz-adv-x="506" d="M391.5 512q70.5 -113 70.5 -234.5t-59 -203.5t-170 -82q-90 0 -141.5 63.5t-51.5 155.5t63 149.5t147.5 57.5t141.5 -63q-22 97 -94 186.5t-146 132.5h88q81 -49 151.5 -162zM241 50q78 0 117.5 65t41.5 163q-60 84 -155 84q-63 0 -102 -42t-39 -111.5t37 -114t100 -44.5 z" />
<glyph unicode="&#x2206;" horiz-adv-x="601" d="M571 0h-541v57l228 617h90l223 -617v-57zM97 55h408l-72 206l-130 364q-44 -115 -206 -570z" />
<glyph unicode="&#x220f;" horiz-adv-x="580" d="M504 674v-854h-62v797h-280v-634q0 -167 -146 -167q-35 0 -61 11v60q24 -12 55 -12q90 0 90 98v701h404z" />
<glyph unicode="&#x2211;" horiz-adv-x="430" d="M475 674v-57h-373l188 -373l-188 -387h373v-57h-445v57l188 387l-188 373v57h445z" />
<glyph unicode="&#x2212;" horiz-adv-x="544" d="M60 312v56h424v-56h-424z" />
<glyph unicode="&#x2215;" horiz-adv-x="324" d="M-70 0l456 712h62l-457 -712h-61z" />
<glyph unicode="&#x2219;" horiz-adv-x="222" d="M60 337q0 22 14.5 36.5t36.5 14.5t36.5 -14.5t14.5 -36.5t-14.5 -36.5t-36.5 -14.5t-36.5 14.5t-14.5 36.5z" />
<glyph unicode="&#x221a;" horiz-adv-x="736" d="M202 411l114 -312l90 -253q29 118 72 260q196 643 240 789h64l-327 -1095h-96l-204 555h-121l11 56h157z" />
<glyph unicode="&#x221e;" horiz-adv-x="836" d="M696.5 269.5q28.5 30.5 28.5 77t-31 78.5t-83 32q-77 0 -152 -110q40 -54 74 -81t84.5 -27t79 30.5zM216 185q-78 0 -122 44.5t-44 116.5t46.5 118t125.5 46q60 0 105.5 -32.5t91.5 -92.5q46 60 92.5 93t116 33t114 -44t44.5 -115.5t-46.5 -119t-117 -47.5t-114.5 31 t-92 91q-96 -122 -200 -122zM110 351q0 -47 30.5 -80t82.5 -33q77 0 154 109q-24 32 -42.5 53t-49.5 39t-63 18q-53 0 -82.5 -29.5t-29.5 -76.5z" />
<glyph unicode="&#x2248;" horiz-adv-x="625" d="M431 370q-45 0 -116.5 40.5t-97.5 40.5q-70 0 -119 -72l-40 37q65 91 152 91q50 0 118.5 -40t102.5 -40q56 0 88 60l47 -32q-53 -85 -135 -85zM431 171q-45 0 -116.5 40.5t-97.5 40.5q-70 0 -119 -72l-40 37q65 91 152 91q50 0 118.5 -40t102.5 -40q56 0 88 60l47 -32 q-53 -85 -135 -85z" />
<glyph unicode="&#x2260;" horiz-adv-x="544" d="M484 410h-156l-61 -139h217v-56h-241l-40 -90h-51l40 90h-132v56h156l61 139h-217v55h241l40 90h51l-40 -90h132v-55z" />
<glyph unicode="&#x2264;" horiz-adv-x="539" d="M479 549v-60l-404 -89l404 -90v-60l-424 101v97zM55 130v55h424v-55h-424z" />
<glyph unicode="&#x2265;" horiz-adv-x="539" d="M60 549l424 -101v-97l-424 -101v60l404 90l-404 89v60zM60 130v55h424v-55h-424z" />
<glyph unicode="&#x25ca;" horiz-adv-x="553" d="M315 674l180 -337l-180 -337h-82l-175 337l175 337h82zM276 54l147 283l-147 283l-146 -283z" />
<glyph unicode="&#x25cc;" horiz-adv-x="701" d="M285 571q0 19 12.5 31.5t31.5 12.5t31.5 -12.5t12.5 -31.5t-12.5 -31.5t-31.5 -12.5t-31.5 12.5t-12.5 31.5zM424 525q-13 13 -13 32t12.5 31.5t32 12.5t31.5 -12.5t12 -31.5t-12.5 -32t-31 -13t-31.5 13zM506 488q0 19 12.5 32t31.5 13t31.5 -12.5t12.5 -32t-12.5 -32 t-31.5 -12.5t-31.5 12.5t-12.5 31.5zM556 370q0 20 12 32t31.5 12t32 -12.5t12.5 -31.5t-12.5 -31.5t-32 -12.5t-31.5 12t-12 32zM559 204.5q-13 12.5 -13 32t13 32t31.5 12.5t31 -13t12.5 -32t-12.5 -31.5t-31 -12.5t-31.5 12.5zM473 138q0 19 12.5 31.5t31.5 12.5 t32 -12.5t13 -31.5t-13 -31.5t-32 -12.5t-31.5 12.5t-12.5 31.5zM352 85q0 19 12 31.5t32 12.5t32.5 -12.5t12.5 -31.5t-12.5 -31.5t-32.5 -12.5t-32 12.5t-12 31.5zM238 68q-13 13 -13 32t13 32t32 13t31.5 -13t12.5 -32t-12.5 -32t-31.5 -13t-32 13zM136 144 q-12 12 -12 31.5t12.5 32t31.5 12.5t31.5 -12.5t12.5 -31.5t-12.5 -31.5t-32 -12.5t-31.5 12zM72 292q0 19 12.5 32t31.5 13t31.5 -12.5t12.5 -32t-12.5 -31.5t-31.5 -12t-31.5 12t-12.5 31zM85 418q0 19 13 31.5t32 12.5t32 -12.5t13 -31.5t-13 -31.5t-32 -12.5t-32 12.5 t-13 31.5zM179.5 495.5q-12.5 12.5 -12.5 32t12.5 32t31.5 12.5t31.5 -12.5t12.5 -32t-12.5 -32t-31.5 -12.5t-31.5 12.5z" />
<glyph unicode="&#x25fc;" horiz-adv-x="510" d="M0 510h510v-510h-510v510z" />
<glyph unicode="&#xf6c3;" horiz-adv-x="400" d="M109 -238l88 187h76l-110 -187h-54z" />
<glyph unicode="&#xfb00;" horiz-adv-x="563" d="M539 646q-21 8 -47.5 8t-48 -23.5t-21.5 -70.5v-53h116v-52h-116v-455h-61v455h-177v-455h-61v455h-93v52h93v54q0 70 37.5 110.5t107 40.5t135.5 -35q35 35 95 35q19 0 41 -6v-60zM361 507v54q0 37 11 68q-48 25 -105 25q-83 0 -83 -94v-53h177z" />
<glyph unicode="&#xfb01;" horiz-adv-x="498" d="M422 507v-507h-61v455h-177v-455h-61v455h-93v52h93v54q0 69 36.5 110t104 41t126.5 -32v-60q-65 34 -128 34q-78 0 -78 -94v-53h238z" />
<glyph unicode="&#xfb02;" horiz-adv-x="488" d="M123 507v54q0 70 36.5 110.5t109.5 40.5t143 -45v-667h-61v635q-47 19 -84 19q-83 0 -83 -94v-53h116v-52h-116v-455h-61v455h-93v52h93z" />
<glyph unicode="&#xfb03;" horiz-adv-x="736" d="M660 507v-507h-61v455h-177v-455h-61v455h-177v-455h-61v455h-93v52h93v54q0 70 37.5 110.5t107 40.5t135.5 -35q38 35 102 35t123 -32v-60q-65 34 -128 34q-78 0 -78 -94v-53h238zM361 507v54q0 37 11 68q-48 25 -105 25q-83 0 -83 -94v-53h177z" />
<glyph unicode="&#xfb04;" horiz-adv-x="727" d="M123 507v54q0 70 37.5 110.5t107 40.5t135.5 -35q38 35 108 35t140 -45v-667h-61v635q-47 19 -84 19q-83 0 -83 -94v-53h116v-52h-116v-455h-61v455h-178v-455h-61v455h-93v52h93zM362 507v54q0 37 11 68q-48 25 -106 25q-83 0 -83 -94v-53h178z" />
<glyph horiz-adv-x="1648" d="M1327 224v185h196v-185h-196zM1327 449v185h196v-185h-196zM1091 0v634h196v-634h-196zM855 449v185h196v-185h-196zM619 0v634h196v-634h-196zM383 449v185h196v-185h-196zM147 0v634h196v-634h-196z" />
<glyph horiz-adv-x="512" d="M412 579v-151q43 49 119 49t124 -42l-42 -42q-34 32 -83 32t-83.5 -32t-34.5 -79v-314h-62v152q-43 -49 -121 -49t-128.5 48t-50.5 131t56 134t137 51q15 0 23 -3v-54q-10 2 -21 2q-57 0 -95 -35t-38 -94t34.5 -93.5t84.5 -34.5t84.5 32t34.5 79v313h-370v55h552v-55 h-120z" />
<glyph horiz-adv-x="571" d="M478 210q-57 0 -96.5 36t-39.5 96t44.5 102.5t114 42.5t121.5 -46t52 -144.5t-73 -173.5t-199 -75t-213.5 77t-118.5 190v53h65q53 0 66 21t13 81v109h-234v55h611v-55h-315v-116q0 -78 -26.5 -114t-94.5 -36h-13q21 -86 91 -148t169.5 -62t156.5 55t57 141 q0 60 -29.5 98t-81 38t-77 -27.5t-25.5 -64.5t21.5 -59t52.5 -22t55 12v-52q-26 -12 -54 -12z" />
<glyph horiz-adv-x="299" d="M-20 634h339v-55h-100v-239q0 -62 -30 -95.5t-90 -33.5q-40 0 -69 12v59q32 -15 64 -15q64 0 64 72v240h-178v55z" />
<glyph horiz-adv-x="367" d="M267 100q-85 0 -136 40t-51 108q0 97 106 122q-39 6 -70.5 35t-31.5 83.5t46 90.5h-150v55h407v-55h-176q-65 -30 -65 -96q0 -84 135 -84h51v-55h-62q-60 0 -94 -25.5t-34 -73t38 -70.5t88 -23t96.5 19t75.5 55l29 -42q-34 -38 -88.5 -61t-113.5 -23z" />
<glyph horiz-adv-x="553" d="M-20 634h593v-55h-183v-150h-165q-39 0 -66 -16.5t-27 -53t30.5 -54.5t111 -22t127 -34t46.5 -98.5t-52.5 -110t-148.5 -41.5t-175 41v63q35 -22 86 -37t103 -15t87.5 25t35.5 69t-31.5 63t-104.5 23q-177 9 -177 127q0 61 41.5 93.5t109.5 32.5h107v95h-348v55zM495 390 q20 0 34 -13.5t14 -33.5t-14 -33t-34 -13t-33 13t-13 33t13 33.5t33 13.5zM233 -69h63l139 -162h-78z" />
<glyph horiz-adv-x="375" d="M415 135q-57 -34 -134.5 -34t-131 43t-53.5 120q0 91 81 130h-147v55h337v-55q-118 0 -163.5 -38.5t-45.5 -90t36.5 -82t94.5 -30.5t108 33t72 74l30 -43q-27 -48 -84 -82zM395 634v-55h-415v55h415z" />
<glyph horiz-adv-x="614" d="M634 579h-413q-69 -32 -69 -107q0 -45 32 -71.5t76 -26.5h28v-53h-38q-55 0 -86.5 -26.5t-31.5 -74.5t46.5 -78.5t116.5 -30.5q91 0 149 52t58 144q0 53 -30 85t-91 32q-26 0 -42 -7v53q16 6 51 6q87 0 130.5 -47t43.5 -123q0 -106 -76.5 -176.5t-184.5 -70.5 t-170.5 45.5t-62.5 121.5q0 52 29.5 86.5t75.5 40.5q-30 9 -57.5 40t-27.5 80q0 67 48 106h-158v55h654v-55z" />
<glyph horiz-adv-x="422" d="M537 448v-54h-267q75 -45 75 -147q0 -80 -54 -131t-144 -51q-64 0 -117 23v57q58 -28 117 -28t97 34t38 101t-49 104.5t-134 37.5v54h438zM442 634v-55h-462v55h462z" />
<glyph horiz-adv-x="540" d="M639 311v-53h-237q40 -38 40 -96.5t-45 -100.5t-117 -42q-96 0 -150 57v-123h-60v222h55q17 -43 61 -72.5t91.5 -29.5t75 25t27.5 66q0 87 -127 96q-85 6 -129.5 30.5t-44.5 83t42.5 91t114.5 32.5h95v82h-351v55h580v-55h-167v-137h-152q-100 0 -100 -66q0 -32 29 -45 q27 -12 110 -20h359z" />
<glyph horiz-adv-x="449" d="M552 319v-55h-176q-5 -79 -61 -129t-138.5 -50t-156.5 36v59q67 -41 141 -41t112.5 38.5t38.5 98.5t-35 96.5t-88.5 36.5t-82.5 -13v53q27 12 73 12q81 0 131.5 -37.5t62.5 -104.5h179zM469 634v-55h-489v55h489z" />
<glyph horiz-adv-x="488" d="M175 118.5q50 -41.5 130.5 -41.5t142.5 37v-57q-60 -32 -141 -32q-109 0 -178 56t-69 154t69.5 158t174.5 60q19 0 28 -1v127h-352v55h528v-55h-114v-182q-33 5 -64 5q-90 0 -147.5 -43t-57.5 -121t50 -119.5zM482 -206h-78l-124 162h63z" />
<glyph horiz-adv-x="561" d="M581 579h-250v-139q75 -13 122.5 -60.5t47.5 -128.5t-61.5 -134.5t-160 -53.5t-159 54t-60.5 141t62 135t148 51v135h-290v55h601v-55zM393.5 154.5q43.5 39.5 43.5 103.5t-42.5 99t-110 35t-114 -33.5t-46.5 -99.5t42 -105t113 -39t114.5 39.5zM250 -6h63l139 -162h-78z " />
<glyph horiz-adv-x="517" d="M390 429h-165q-39 0 -66 -16.5t-27 -53t30.5 -54.5t111 -22t127 -34t46.5 -98.5t-52.5 -110t-148.5 -41.5t-175 41v63q35 -22 86 -37t103 -15t87.5 25t35.5 69t-31.5 63t-104.5 23q-177 9 -177 127q0 61 41.5 93.5t109.5 32.5h107v95h-348v55h557v-55h-147v-150zM230 -69 h63l139 -162h-78z" />
<glyph horiz-adv-x="554" d="M266 271q40 20 99 20t94 -33t35 -91t-53.5 -100.5t-148 -42.5t-163.5 59.5t-69 154.5t67 160.5t179 65.5q26 0 55 -3v118h-381v55h594v-55h-151v-180q-57 9 -102 9q-94 0 -145.5 -47.5t-51.5 -120.5t49.5 -118.5t117 -45.5t104.5 26t37 71q0 29 -21 47.5t-63.5 18.5 t-81.5 -24v56zM472 -207h-78l-124 162h63z" />
<glyph horiz-adv-x="495" d="M515 634v-55h-110v-230q0 -83 -42 -127.5t-123.5 -44.5t-120.5 42.5t-39 130.5v229h-100v55h535zM343 349v230h-201v-229q0 -120 97 -120q104 0 104 119z" />
<glyph horiz-adv-x="377" d="M-20 579v55h417v-55h-417zM531 391h-211q-187 0 -187 -167q0 -78 39 -124t115 -46q14 0 24 2v-54q-12 -2 -27 -2q-98 0 -156 63.5t-58 162t61.5 159.5t177.5 61h222v-55z" />
<glyph horiz-adv-x="421" d="M348 507q0 -84 -63.5 -133.5t-181.5 -75.5q14 -65 62 -98.5t113.5 -33.5t127 31.5t94.5 78.5l33 -45q-44 -52 -109.5 -85t-140.5 -33q-100 0 -170 54t-83 168q131 27 193.5 67t62.5 103q0 36 -18.5 59t-54.5 23t-54.5 -21t-18.5 -45t2.5 -35t6.5 -19.5t4 -9.5h-62 q-13 36 -13 63q0 48 38 83.5t100 35.5t97 -38.5t35 -93.5z" />
<glyph horiz-adv-x="542" d="M-20 634h582v-55h-122v-164h-167q-72 0 -113.5 -37.5t-41.5 -105.5t37.5 -107.5t100.5 -39.5t100.5 35t37.5 87h58v-257h-61v135q-44 -52 -136 -52t-148.5 57t-56.5 142.5t57.5 141t158.5 55.5h113v110h-399v55zM597 -241h-78l-124 162h63z" />
<glyph horiz-adv-x="427" d="M275 63q-96 0 -150.5 45t-54.5 106t33.5 95t85.5 41q-53 7 -85 38t-32 86q0 70 66 105h-158v55h306v-55q-71 0 -111.5 -30.5t-40.5 -78t42.5 -71t106.5 -23.5h53v-53h-62q-65 0 -103 -28.5t-38 -75t38 -75t104 -28.5q146 0 237 133l39 -43q-111 -143 -276 -143z" />
<glyph horiz-adv-x="252" d="M111 386h257v-54h-240q-32 0 -32 -36t14 -76h-53q-27 52 -27 97q0 69 81 69zM-20 579v55h292v-55h-292z" />
<glyph horiz-adv-x="335" d="M70 375v204h-90v55h375v-55h-223v-204q0 -78 28 -112t83 -34t97.5 32t63.5 82l40 -36q-26 -53 -77 -91t-119 -39q-178 0 -178 198z" />
<glyph horiz-adv-x="607" d="M447 579v-149q44 50 124 50q113 0 167 -93l-46 -39q-39 80 -121 80q-52 0 -88 -32.5t-36 -81.5v-314h-62v246q-44 -64 -135.5 -64.5t-135.5 43t-44 145.5v209h-90v55h647v-55h-180zM132 579v-204q0 -77 27.5 -109.5t86.5 -32.5t99 39.5t40 110.5v196h-253z" />
<glyph horiz-adv-x="375" d="M271 83q-88 0 -149.5 56.5t-61.5 147t61.5 147.5t154.5 57q41 0 83 -11v-55q-42 14 -86.5 14t-80.5 -19l224 -231q23 22 49 57l36 -40q-97 -123 -230 -123zM153 389q-34 -40 -34 -104.5t44 -107t106.5 -42.5t108.5 26zM395 634v-55h-415v55h415z" />
<glyph horiz-adv-x="317" d="M413 339v-54h-238v-140h-55l-22 50q-27 63 -27 86t12 37.5t30 18.5v177q0 37 -10 53.5t-38.5 16.5t-54.5 -13v53q28 14 66 14q99 0 99 -112v-187h238z" />
<glyph horiz-adv-x="351" d="M457 339v-54h-273v-140h-55l-22 50q-27 63 -27 86t12 37.5t30 18.5v242h-142v55h391v-55h-187v-240h273z" />
<glyph horiz-adv-x="387" d="M407 579h-147q26 -39 26 -94q0 -117 -153 -164q13 -60 58.5 -99.5t102.5 -39.5t99 26.5t59 73.5l47 -32q-60 -120 -203 -120q-92 0 -156.5 61t-79.5 173q79 13 121.5 46t42.5 81.5t-31 87.5h-213v55h427v-55z" />
<glyph horiz-adv-x="365" d="M30 338h65q129 0 129 102v139h-244v55h405v-55h-99v-146q0 -72 -47 -111t-124 -39h-10l215 -283h-75l-215 285v53zM312 -231h-78l-124 162h63z" />
<glyph horiz-adv-x="469" d="M-20 579v55h509v-55h-509zM290 0q-103 0 -166.5 75t-63.5 187q0 89 46 146.5t121 57.5q53 0 87.5 -24.5t44.5 -70.5q11 47 45.5 72.5t95.5 25.5t108 -47l-37 -40q-27 35 -75.5 35t-78 -33t-29.5 -100v-74h-61v75q0 129 -94 129q-47 0 -79 -40t-32 -120.5t45.5 -141 t131.5 -60.5q15 0 23 2v-51q-14 -3 -32 -3z" />
<glyph horiz-adv-x="797" d="M-20 579v55h837v-55h-837zM358 270q15 47 22 64q-58 70 -143 70q-57 0 -91 -37.5t-34 -95t34 -91.5t92 -34t81.5 38.5t38.5 85.5zM454 344q-14 -26 -27.5 -67t-18.5 -55q60 -76 147 -76q60 0 95 36.5t35 95t-35 92.5t-99.5 34t-96.5 -60zM558 92q-111 0 -176 77 q-46 -77 -148 -77q-81 0 -132.5 49t-51.5 130.5t52.5 133t130.5 51.5q109 0 173 -71q47 71 150 71q86 0 138.5 -49.5t52.5 -130.5t-54.5 -132.5t-134.5 -51.5z" />
<glyph horiz-adv-x="333" d="M353 579h-373v55h373v-55zM244 410q-57 0 -94.5 -36.5t-37.5 -96t42 -96.5t105 -37q104 0 171 96l30 -43q-28 -43 -80.5 -74t-131 -31t-138.5 50t-60 133.5t54 136t137 52.5q34 0 62 -7v-55q-23 8 -59 8z" />
<glyph horiz-adv-x="413" d="M152 260h-47l229 -260h-83l-221 258v57h95q85 0 132.5 40t47.5 104q0 120 -93 120q-38 0 -57 -23t-19 -55.5t14 -57.5h-61q-12 27 -12 61q0 54 36.5 92t103 38t108.5 -49t42 -118q0 -97 -64 -152t-151 -55z" />
<glyph horiz-adv-x="341" d="M80 370v209h-100v55h381v-55h-219v-1l272 -263l7 10l33 -34q-21 -47 -70.5 -83t-110.5 -37q-90 0 -141.5 48.5t-51.5 150.5zM142 375q0 -77 35 -114.5t98 -37.5t114 58l-247 236v-142z" />
<glyph horiz-adv-x="378" d="M476 271h-187q-112 0 -182 9l183 -280h-75l-185 285v53h65q59 0 79 23t20 75v143h-214v55h418v-55h-142v-150q0 -64 -28 -101h248v-57z" />
<glyph horiz-adv-x="457" d="M539 254h-254q-72 0 -111 -30t-39 -81.5t46.5 -84t126 -32.5t133.5 18v-55q-64 -16 -128 -16q-113 0 -176 50.5t-63 123.5t61 117q-65 41 -65 117q0 45 32 69.5t82 24.5h184v104h-388v55h497v-55h-48v-156h-237q-61 0 -61 -50q0 -32 17.5 -55t37.5 -28q45 16 99 16h254 v-52z" />
<glyph horiz-adv-x="511" d="M412 579v-151q43 49 119 49t124 -42l-42 -42q-34 32 -83 32t-83.5 -32t-34.5 -79v-314h-62v152q-43 -49 -121 -49t-128.5 48t-50.5 131t56 134t137 51q15 0 23 -3v-54q-10 2 -21 2q-57 0 -95 -35t-38 -94t34.5 -93.5t84.5 -34.5t84.5 32t34.5 79v313h-370v55h552v-55 h-120zM149 10q20 0 34 -13.5t14 -33.5t-14 -33t-34 -13t-33 13t-13 33t13 33.5t33 13.5z" />
<glyph horiz-adv-x="568" d="M478 210q-57 0 -96.5 36t-39.5 96t44.5 102.5t114 42.5t121.5 -46t52 -144.5t-73 -173.5t-199 -75t-213.5 77t-118.5 190v53h65q53 0 66 21t13 81v109h-234v55h611v-55h-315v-116q0 -78 -26.5 -114t-94.5 -36h-13q21 -86 91 -148t169.5 -62t156.5 55t57 141 q0 60 -29.5 98t-81 38t-77 -27.5t-25.5 -64.5t21.5 -59t52.5 -22t55 12v-52q-26 -12 -54 -12zM79 50q20 0 34 -13.5t14 -33.5t-14 -33t-34 -13t-33 13t-13 33t13 33.5t33 13.5z" />
<glyph horiz-adv-x="319" d="M-20 634h359v-55h-120v-239q0 -62 -30 -95.5t-90 -33.5q-40 0 -69 12v59q32 -15 64 -15q64 0 64 72v240h-178v55zM119 80q20 0 34 -13.5t14 -33.5t-14 -33t-34 -13t-33 13t-13 33t13 33.5t33 13.5z" />
<glyph horiz-adv-x="418" d="M537 448v-54h-267q75 -45 75 -147q0 -80 -54 -131t-144 -51q-64 0 -117 23v57q58 -28 117 -28t97 34t38 101t-49 104.5t-134 37.5v54h438zM149 -40q20 0 34 -13.5t14 -33.5t-14 -33t-34 -13t-33 13t-13 33t13 33.5t33 13.5zM442 634v-55h-462v55h462z" />
<glyph horiz-adv-x="252" d="M77 37q0 20 13 33.5t33 13.5t34 -13.5t14 -33.5t-14 -33t-34 -13t-33 13t-13 33zM111 386h257v-54h-240q-32 0 -32 -36t14 -76h-53q-27 52 -27 97q0 69 81 69zM-20 579v55h292v-55h-292z" />
<glyph horiz-adv-x="599" d="M447 579v-149q44 50 124 50q113 0 167 -93l-46 -39q-39 80 -121 80q-52 0 -88 -32.5t-36 -81.5v-314h-62v246q-44 -64 -135.5 -64.5t-135.5 43t-44 145.5v209h-90v55h647v-55h-180zM132 579v-204q0 -77 27.5 -109.5t86.5 -32.5t99 39.5t40 110.5v196h-253zM139 57 q20 0 34 -13.5t14 -33.5t-14 -33t-34 -13t-33 13t-13 33t13 33.5t33 13.5z" />
<glyph horiz-adv-x="384" d="M88 -7q0 20 13 33.5t33 13.5t34 -13.5t14 -33.5t-14 -33t-34 -13t-33 13t-13 33zM407 579h-147q26 -39 26 -94q0 -117 -153 -164q13 -60 58.5 -99.5t102.5 -39.5t99 26.5t59 73.5l47 -32q-60 -120 -203 -120q-92 0 -156.5 61t-79.5 173q79 13 121.5 46t42.5 81.5 t-31 87.5h-213v55h427v-55z" />
<glyph horiz-adv-x="672" d="M663 452l-218 -140q7 -16 48 -125.5t46 -121.5l-204 168q-20 -14 -205 -168l96 247q-14 8 -111 70t-110 70l261 -8q26 102 69 246l66 -246q136 8 262 8z" />
<glyph horiz-adv-x="508" d="M431 790q20 0 34 -13.5t14 -33.5t-14 -33t-34 -13t-33 13t-13 33t13 33.5t33 13.5zM389 432h-156q-38 0 -65.5 -18t-27.5 -51.5t24 -54t62 -21.5l83 6q67 0 103 -37t36 -98.5t-46.5 -105t-115.5 -43.5q-92 0 -146 57v-123h-60v222h55q18 -44 59.5 -73t88.5 -29t75 27 t28 67t-23.5 61.5t-63.5 21.5l-83 -7q-59 2 -98.5 36.5t-39.5 92t41.5 91.5t109.5 34h98v92h-347v55h333q-50 52 -50 119.5t41.5 111.5t108.5 44q34 0 56 -10v-56q-26 11 -60 11t-59 -29t-25 -68.5t16.5 -71.5t39.5 -51h147v-55h-139v-147z" />
<glyph horiz-adv-x="622" d="M316 579v-148q43 36 99 36q75 0 118.5 -46t43.5 -120.5t-47.5 -120t-118.5 -45.5q-35 0 -55 7v54q17 -7 48 -7q51 0 81 29.5t30 82.5t-27.5 83.5t-72.5 30.5q-41 0 -60.5 -13.5t-27 -20t-24 -24t-34.5 -35.5q-45 -39 -124 -39h-10l215 -283h-75l-215 285v53h65 q129 0 129 102v139h-274v55h662v-55h-326z" />
<glyph horiz-adv-x="624" d="M316 579v-146q0 -14 -1 -21q42 55 119.5 55t119 -47.5t41.5 -122.5t-46 -124.5t-118 -49.5q-42 0 -65 9v54q28 -8 57 -8q53 0 81.5 33t28.5 86.5t-25.5 85.5t-69.5 32t-68.5 -25.5t-24.5 -68.5v-60h-60v56q0 16 1 23q-45 -57 -141 -57h-10l215 -283h-75l-215 285v53h65 q129 0 129 102v139h-274v55h664v-55h-328z" />
<glyph horiz-adv-x="525" d="M429 423h-237q-61 0 -61 -50q0 -32 18 -53.5t38 -26.5q45 16 98 16q80 0 120 -38.5t40 -90.5q0 -34 -11 -56h-61q15 19 15 53.5t-25.5 57t-87 22.5t-101 -33t-39.5 -79t30 -78t89 -36q34 19 84.5 19t87.5 -30.5t37 -88.5t-46.5 -95.5t-122.5 -37.5q-49 0 -99.5 16.5 t-83.5 42.5v63q37 -30 87 -50t98 -20t76.5 23.5t28.5 58.5q0 65 -80 65q-33 0 -63 -19q-96 7 -140 57t-44 117t62 114q-66 42 -66 115q0 45 32 69.5t82 24.5h184v104h-388v55h565v-55h-116v-156z" />
<glyph horiz-adv-x="525" d="M429 423h-237q-61 0 -61 -50q0 -30 15.5 -52t34.5 -29q40 14 89 14q88 0 131.5 -37.5t43.5 -91.5q0 -34 -11 -56h-61q15 19 15 54t-28.5 57t-91 22t-98 -30t-35.5 -76.5t41.5 -77t99 -30.5t98.5 -21.5t63 -52t36 -70.5q22 -63 22 -130h-57q0 131 -68 190q-37 33 -82.5 33 t-68.5 -21t-23 -56t25.5 -53t52 -18t37.5 3v-52q-15 -4 -38 -4q-59 0 -99 33.5t-40 93t51 96.5q-50 14 -80.5 52.5t-30.5 89.5q0 69 58 113q-62 41 -62 115q0 45 32 69.5t82 24.5h184v104h-388v55h565v-55h-116v-156z" />
<glyph horiz-adv-x="486" d="M374 579v-155q-44 15 -121 15q-107 -2 -107 -71q0 -36 31.5 -54.5t88.5 -18.5h57v-55h-57q-57 0 -90.5 -24t-33.5 -64.5t34.5 -60.5t87.5 -20q92 0 162 49v-60q-68 -41 -156 -41t-139 34.5t-51 94.5q0 45 27 77t74 41q-43 6 -70 33t-27 75.5t44 82.5t120 34q23 0 65 -4 v92h-333v55h526v-55h-132z" />
<glyph horiz-adv-x="483" d="M363 423h-187q-61 0 -61 -50.5t41 -76.5q48 25 113 25q99 0 99 -64q0 -28 -50 -75q-16 -15 -16 -24q0 -21 41 -21t90 28v-55q-46 -24 -93 -24t-74 16t-27 43t32.5 57.5t32.5 43t-7 18t-28 5.5q-68 0 -109 -35.5t-41 -88t46 -89t138 -36.5q47 0 96 14v-53 q-54 -14 -102 -14q-112 0 -175.5 50.5t-63.5 126t56 123.5q-60 43 -60 114q0 45 32 69.5t82 24.5h134v104h-322v55h523v-55h-140v-156z" />
<glyph horiz-adv-x="262" d="M-20 634h302v-55h-120v-579h-62v213l-140 -114q-23 -18 -23 -41.5t38 -68.5l-41 -26q-69 41 -69 94q0 39 53 79l182 145v298h-120v55z" />
<glyph horiz-adv-x="595" d="M614 634v-55h-121v-579h-61v140q-51 -72 -150 -72q-82 0 -140.5 52t-71.5 153q143 24 143 98q0 59 -103 59t-187 -48v60q35 19 87.5 30t92.5 11q90 0 131 -32.5t41 -80.5t-37.5 -85t-94.5 -54q10 -49 48.5 -79t100 -30t101 45t39.5 107v305h-452v55h634z" />
<glyph horiz-adv-x="262" d="M-20 634h302v-55h-120v-579h-62v179l-213 -179h-90l303 250v329h-120v55z" />
<glyph d="M-184 0h105l119 -156h-75l-96 128l-97 -128h-75z" />
<glyph horiz-adv-x="195" d="M215 579h-235v55h235v-55zM12 368q49 -35 123.5 -35t147.5 42l15 -55q-78 -41 -156.5 -41t-129.5 29v60z" />
<glyph d="M-14 792q-26 11 -58.5 11t-52 -21.5t-19.5 -53.5t16 -60t37 -45h-69q-46 37 -46 106q0 52 36 90.5t100 38.5q34 0 56 -10v-56z" />
<glyph d="M-98 743q0 20 13 33.5t33 13.5t34 -13.5t14 -33.5t-14 -33t-34 -13t-33 13t-13 33zM-14 843q-26 11 -60 11t-59 -29t-25 -72t22.5 -79.5t50.5 -50.5h-73q-24 18 -43 54.5t-19 78.5q0 65 41.5 109t108.5 44q34 0 56 -10v-56z" />
<glyph horiz-adv-x="262" d="M282 634v-55h-120v-579h-62v579h-120v55h111q-34 37 -34 92t36 93.5t100 38.5q34 0 56 -10v-56q-26 11 -58.5 11t-52 -21.5t-19.5 -63t41 -84.5h122z" />
<glyph horiz-adv-x="262" d="M209 790q20 0 34 -13.5t14 -33.5t-14 -33t-34 -13t-33 13t-13 33t13 33.5t33 13.5zM282 634v-55h-120v-579h-62v579h-120v55h111q-50 52 -50 119.5t41.5 111.5t108.5 44q34 0 56 -10v-56q-26 11 -60 11t-59 -29t-25 -68.5t16.5 -71.5t39.5 -51h123z" />
<glyph d="M-56 774q0 63 34 102.5t97 39.5q39 0 61 -10v-56q-26 11 -60 11t-55 -24t-21 -70v-43l-56 22v28z" />
<glyph d="M-49 843q0 20 13 33.5t33 13.5t34 -13.5t14 -33.5t-14 -33t-34 -13t-33 13t-13 33z" />
<glyph d="M57 762q0 16 11 27t27 11t27 -11t11 -27t-11 -26.5t-27.5 -10.5t-27 10.5t-10.5 26.5zM136 850q-26 11 -60 11t-55 -24t-21 -70v-43l-56 21v29q0 63 34 102.5t97 39.5q39 0 61 -10v-56z" />
<glyph horiz-adv-x="261" d="M300 826q-26 11 -59 11t-57 -31t-24 -84v-88h121v-55h-120v-579h-61v579h-120v55h118v112q0 52 -28.5 79.5t-73 27.5t-72 -27t-27.5 -80v-38h-61v39q0 81 45.5 121.5t114.5 40.5q107 0 147 -80q34 63 110 63q25 0 47 -10v-56z" />
<glyph horiz-adv-x="261" d="M266 831q20 0 34 -13.5t14 -33.5t-14 -33t-34 -13t-33 13t-13 33t13 33.5t33 13.5zM160 726v-92h121v-55h-120v-579h-61v579h-120v55h118v91q0 52 -28.5 79.5t-73 27.5t-72 -27t-27.5 -80v-17h-61v18q0 81 45.5 121.5t115 40.5t116.5 -40.5t47 -121.5z" />
<glyph horiz-adv-x="261" d="M266 790q20 0 34 -13.5t14 -33.5t-14 -33t-34 -13t-33 13t-13 33t13 33.5t33 13.5zM160 740v-106h121v-55h-120v-579h-61v579h-120v55h118v112q0 52 -28.5 79.5t-73 27.5t-72 -27t-27.5 -80v-38h-61v39q0 81 45.5 121.5t114.5 40.5q100 0 142 -72q28 72 116 72 q26 0 50 -10v-56q-29 11 -48 11q-45 0 -70.5 -32t-25.5 -82z" />
<glyph horiz-adv-x="261" d="M160 634h121v-55h-120v-579h-61v579h-120v55h118v33q0 73 -58 119t-172 46t-166.5 -35t-52.5 -94v-6h-61v7q0 86 73.5 135t209 49t212.5 -59t77 -167v-28z" />
<glyph horiz-adv-x="261" d="M160 722v-88h121v-55h-120v-579h-61v579h-120v55h118v33q0 73 -58 119t-172 46t-166.5 -35t-52.5 -94v-6h-61v7q0 86 73.5 135t197.5 49q198 0 267 -105q11 49 42.5 79t84.5 30q25 0 47 -10v-56q-26 11 -59 11t-57 -31t-24 -84z" />
<glyph horiz-adv-x="261" d="M266 831q20 0 34 -13.5t14 -33.5t-14 -33t-34 -13t-33 13t-13 33t13 33.5t33 13.5zM160 662v-28h121v-55h-120v-579h-61v579h-120v55h118v33q0 73 -58 119t-172 46t-166.5 -35t-52.5 -94v-6h-61v7q0 86 73.5 135t209 49t212.5 -59t77 -167z" />
<glyph horiz-adv-x="261" d="M266 790q20 0 34 -13.5t14 -33.5t-14 -33t-34 -13t-33 13t-13 33t13 33.5t33 13.5zM160 634h121v-55h-120v-579h-61v579h-120v55h118v33q0 73 -58 119t-172 46t-166.5 -35t-52.5 -94v-6h-61v7q0 86 73.5 135t197.5 49q198 0 267 -105q4 61 38 93.5t90 32.5q26 0 50 -10 v-56q-29 11 -48 11q-45 0 -70.5 -32t-25.5 -82v-106z" />
<glyph d="M-150 829q33 29 74.5 29t63.5 -10v-56q-26 11 -58.5 11t-52 -21.5t-19.5 -53.5t16 -60t37 -45h-59l-3 4h-17l-91 139q-36 56 -95 56l-46 -6v55q22 6 48 6q92 0 146 -89l19 -31q4 43 37 72z" />
<glyph d="M-120 774q0 20 13 33.5t33 13.5t34 -13.5t14 -33.5t-14 -33t-34 -13t-33 13t-13 33zM-396 871q22 6 59 6q77 0 135 -89l106 -161h-68l-91 139q-36 56 -95 56l-46 -6v55z" />
<glyph d="M-47 790q20 0 34 -13.5t14 -33.5t-14 -33t-34 -13t-33 13t-13 33t13 33.5t33 13.5zM-9 843q-26 11 -60 11t-59 -29t-25 -72t22.5 -79.5t50.5 -50.5h-69l-3 4h-16l-91 139q-36 56 -95 56l-46 -6v55q22 6 58 6q76 0 134 -89l5 -7q8 56 46 92t92 36q34 0 56 -10v-56z" />
<glyph d="M-270 692.5q-37 19.5 -70.5 19.5t-67.5 -9v62q27 7 53 7q66 0 125 -52l82 -73l-91 119q-40 53 -115 53l-53 -6v58q29 6 55 6q101 0 159 -89l23 -35q4 45 36.5 75t72.5 30t62 -10v-56q-26 11 -58.5 11t-52 -21.5t-19.5 -53.5t16 -60t37 -45h-39l-5 4h-57q-56 46 -93 65.5z " />
<glyph d="M-67 821q20 0 34 -13.5t14 -33.5t-14 -33t-34 -13t-33 13t-13 33t13 33.5t33 13.5zM-270 692.5q-37 19.5 -70.5 19.5t-67.5 -9v62q27 7 53 7q66 0 125 -52l82 -73l-91 119q-40 53 -115 53l-53 -6v58q29 6 55 6q101 0 159 -89l106 -161h-90q-56 46 -93 65.5z" />
<glyph d="M-34 790q20 0 34 -13.5t14 -33.5t-14 -33t-34 -13t-33 13t-13 33t13 33.5t33 13.5zM-270 692.5q-37 19.5 -70.5 19.5t-67.5 -9v62q27 7 53 7q66 0 125 -52l82 -73l-91 119q-40 53 -115 53l-53 -6v58q29 6 55 6q101 0 159 -89l9 -14q2 55 38 95t94 40q34 0 56 -10v-56 q-26 11 -60 11t-59 -29t-25 -72t22.5 -79.5t50.5 -50.5h-43l-5 4h-62q-56 46 -93 65.5z" />
<glyph horiz-adv-x="262" d="M162 634h120v-55h-120v-579h-62v579h-120v55h120q0 103 -84 103h-63q-77 0 -113 36.5t-36 119.5h61q0 -55 21.5 -78.5t67.5 -23.5h61q147 0 147 -157zM213 768q-20 0 -33 13t-13 33t13 33.5t33 13.5t34 -13.5t14 -33.5t-14 -33t-34 -13z" />
<glyph horiz-adv-x="262" d="M282 634v-55h-120v-579h-62v579h-120v55h113l-86 132q-36 56 -95 56l-46 -6v55q22 6 48 6q92 0 146 -89l19 -31q4 43 37 72t74.5 29t63.5 -10v-56q-26 11 -58.5 11t-52 -21.5t-19.5 -63t41 -84.5h117z" />
<glyph horiz-adv-x="262" d="M282 634v-55h-120v-579h-62v579h-120v55h112l-86 132q-36 56 -95 56l-46 -6v55q22 6 59 6q77 0 135 -89l101 -154h122zM187 728q-20 0 -33 13t-13 33t13 33.5t33 13.5t34 -13.5t14 -33.5t-14 -33t-34 -13z" />
<glyph horiz-adv-x="262" d="M216 790q20 0 34 -13.5t14 -33.5t-14 -33t-34 -13t-33 13t-13 33t13 33.5t33 13.5zM282 634v-55h-120v-579h-62v579h-120v55h110l-86 132q-36 56 -95 56l-46 -6v55q22 6 59 6q75 0 133 -89l5 -7q8 56 46 92t92 36q34 0 56 -10v-56q-26 11 -60 11t-59 -29t-25 -68.5 t16.5 -71.5t39.5 -51h116z" />
<glyph horiz-adv-x="262" d="M-15.5 694q-35.5 18 -68 18t-66.5 -9v62q27 7 53 7q66 0 125 -52l82 -73l-91 119q-40 53 -115 53l-53 -6v58q29 6 55 6q101 0 159 -89l23 -35q4 45 36.5 75t72.5 30t62 -10v-56q-26 11 -58.5 11t-52 -21.5t-19.5 -63t41 -84.5h112v-55h-120v-579h-62v579h-120v55h92 q-52 42 -87.5 60z" />
<glyph horiz-adv-x="262" d="M-15.5 694q-35.5 18 -68 18t-66.5 -9v62q27 7 53 7q66 0 125 -52l82 -73l-91 119q-40 53 -115 53l-53 -6v58q29 6 55 6q101 0 159 -89l101 -154h116v-55h-120v-579h-62v579h-120v55h92q-52 42 -87.5 60zM191 728q-20 0 -33 13t-13 33t13 33.5t33 13.5t34 -13.5t14 -33.5 t-14 -33t-34 -13z" />
<glyph horiz-adv-x="262" d="M226 790q20 0 34 -13.5t14 -33.5t-14 -33t-34 -13t-33 13t-13 33t13 33.5t33 13.5zM-13.5 694q-35.5 18 -68 18t-66.5 -9v62q27 7 53 7q66 0 125 -52l82 -73l-91 119q-40 53 -115 53l-53 -6v58q29 6 55 6q101 0 159 -89l9 -14q2 55 38 95t94 40q34 0 56 -10v-56 q-26 11 -60 11t-59 -29t-25 -68.5t16.5 -71.5t39.5 -51h106v-55h-120v-579h-62v579h-120v55h94q-52 42 -87.5 60z" />
<glyph horiz-adv-x="740" d="M580 634h183v-55h-120v-579h-62l-1 328h-258q-27 0 -59 5q-60 -16 -99.5 -49t-39.5 -80.5t32 -75t81.5 -27.5t90 34.5t53.5 86.5h55v-222h-60v118q-14 -28 -55.5 -48.5t-85.5 -20.5q-79 0 -127 42.5t-48 103.5t35.5 102.5t93.5 62.5q-81 47 -81 136q0 55 45.5 99t114 44 t114.5 -43t46 -99q0 -78 -62 -116h214v253zM336.5 558q-29.5 29 -70 29t-68.5 -27t-28 -64q0 -91 102 -111q94 29 94 110q0 34 -29.5 63z" />
<glyph horiz-adv-x="523" d="M639 328h-317q-27 0 -59 5q-60 -16 -99.5 -49t-39.5 -80.5t32 -75t81.5 -27.5t90 34.5t53.5 86.5h55v-222h-60v118q-14 -28 -55.5 -48.5t-85.5 -20.5q-79 0 -127 42.5t-48 103.5t35.5 102.5t93.5 62.5q-81 47 -81 136q0 55 45.5 99t114 44t114.5 -43t46 -99 q0 -78 -62 -116h273v-53zM336.5 558q-29.5 29 -70 29t-68.5 -27t-28 -64q0 -91 102 -111q94 29 94 110q0 34 -29.5 63z" />
<glyph horiz-adv-x="1069" d="M480 634h609v-55h-120v-579h-62v285h-223v-140h-55l-22 50q-27 63 -27 89.5t22 43.5h-280q-27 0 -59 5q-60 -16 -99.5 -49t-39.5 -80.5t32 -75t81.5 -27.5t90 34.5t53.5 86.5h55v-222h-60v118q-14 -28 -55.5 -48.5t-85.5 -20.5q-79 0 -127 42.5t-48 103.5t35.5 102.5 t93.5 62.5q-81 47 -81 136q0 55 45.5 99t114 44t114.5 -43t46 -99q0 -78 -62 -116h256v198h-142v55zM336.5 558q-29.5 29 -70 29t-68.5 -27t-28 -64q0 -91 102 -111q94 29 94 110q0 34 -29.5 63zM907 339v240h-223v-240h223z" />
<glyph horiz-adv-x="850" d="M1089 579h-405v-240h263v-54h-263v-140h-55l-22 50q-27 63 -27 89.5t22 43.5h-280q-27 0 -59 5q-60 -16 -99.5 -49t-39.5 -80.5t32 -75t81.5 -27.5t90 34.5t53.5 86.5h55v-222h-60v118q-14 -28 -55.5 -48.5t-85.5 -20.5q-79 0 -127 42.5t-48 103.5t35.5 102.5t93.5 62.5 q-81 47 -81 136q0 55 45.5 99t114 44t114.5 -43t46 -99q0 -78 -62 -116h256v198h-142v55h609v-55zM336.5 558q-29.5 29 -70 29t-68.5 -27t-28 -64q0 -91 102 -111q94 29 94 110q0 34 -29.5 63z" />
<glyph horiz-adv-x="1443" d="M1463 634v-55h-120v-579h-61v201q-54 -71 -166 -71q-73 0 -130.5 40t-86.5 115h-225v-140h-55l-22 50q-27 63 -27 89.5t22 43.5h-270q-27 0 -59 5q-60 -16 -99.5 -49t-39.5 -80.5t32 -75t81.5 -27.5t90 34.5t53.5 86.5h55v-222h-60v118q-14 -28 -55.5 -48.5t-85.5 -20.5 q-79 0 -127 42.5t-48 103.5t35.5 102.5t93.5 62.5q-81 47 -81 136q0 55 45.5 99t114 44t114.5 -43t46 -99q0 -78 -62 -116h246v198h-142v55h993zM336.5 558q-29.5 29 -70 29t-68.5 -27t-28 -64q0 -91 102 -111q94 29 94 110q0 34 -29.5 63zM674 339h210q-2 9 -4 25 q79 13 121.5 46t42.5 81.5t-31 87.5h-339v-240zM1282 327v252h-202q26 -39 26 -94q0 -117 -153 -164q13 -60 58.5 -99.5t112.5 -39.5t112.5 40t45.5 105z" />
<glyph horiz-adv-x="1083" d="M500 634h603v-55h-120v-579h-61v201q-54 -71 -166 -71q-83 0 -145.5 51.5t-84.5 146.5h-204q-27 0 -59 5q-60 -16 -99.5 -49t-39.5 -80.5t32 -75t81.5 -27.5t90 34.5t53.5 86.5h55v-222h-60v118q-14 -28 -55.5 -48.5t-85.5 -20.5q-79 0 -127 42.5t-48 103.5t35.5 102.5 t93.5 62.5q-81 47 -81 136q0 55 45.5 99t114 44t114.5 -43t46 -99q0 -78 -62 -116h220q98 36 98 107q0 52 -31 91h-153v55zM336.5 558q-29.5 29 -70 29t-68.5 -27t-28 -64q0 -91 102 -111q94 29 94 110q0 34 -29.5 63zM922 327v252h-202q26 -39 26 -94q0 -117 -153 -164 q13 -60 58.5 -99.5t112.5 -39.5t112.5 40t45.5 105z" />
<glyph horiz-adv-x="1056" d="M1076 634v-55h-120v-579h-61v179q-48 -87 -166 -87q-77 0 -133 51t-56 136q0 27 6 49h-224q-27 0 -59 5q-60 -16 -99.5 -49t-39.5 -80.5t32 -75t81.5 -27.5t90 34.5t53.5 86.5h55v-222h-60v118q-14 -28 -55.5 -48.5t-85.5 -20.5q-79 0 -127 42.5t-48 103.5t35.5 102.5 t93.5 62.5q-81 47 -81 136q0 55 45.5 99t114 44t114.5 -43t46 -99q0 -78 -62 -116h203q54 83 162 83q34 0 62 -7v-55q-23 8 -59 8q-57 0 -94.5 -36.5t-37.5 -95.5t38 -96.5t92 -37.5q78 0 120.5 52t42.5 123v260h-388v55h569zM336.5 558q-29.5 29 -70 29t-68.5 -27t-28 -64 q0 -91 102 -111q94 29 94 110q0 34 -29.5 63z" />
<glyph horiz-adv-x="712" d="M-30 634h803v-55h-140v-579h-62v432h-326q-46 0 -73 -16.5t-27 -49.5q0 -66 126 -66q175 0 175 -131q0 -66 -47.5 -107t-117.5 -41q-97 0 -151 59v-127h-60v222h55q19 -44 62.5 -73t91 -29t75.5 27t28 71t-35.5 60t-108 16t-115 31t-42.5 87t44.5 89t119.5 33h326v92 h-601v55z" />
<glyph horiz-adv-x="504" d="M711 407h-466q-100 0 -100 -62q0 -31 28 -43t98 -12q175 0 175 -129q0 -65 -47 -102.5t-118 -37.5q-97 0 -151 59v-127h-60v222h55q19 -44 62.5 -73t91.5 -29t75.5 23.5t27.5 67t-35 58.5t-101 15q-165 0 -165 106q0 56 44 87.5t120 31.5h466v-55zM524 634v-55h-554v55 h554z" />
<glyph horiz-adv-x="1093" d="M1113 634v-55h-120v-579h-61v201q-54 -71 -166 -71q-90 0 -154 58.5t-81 166.5q-19 29 -55 40.5t-101 11.5h-130q-100 0 -100 -62q0 -31 28 -43t98 -12q175 0 175 -129q0 -65 -47 -102.5t-118 -37.5q-97 0 -151 59v-127h-60v222h55q19 -44 62.5 -73t91.5 -29t75.5 23.5 t27.5 67t-35 58.5t-101 15q-165 0 -165 106q0 56 44 87.5t120 31.5h149q147 0 202 -81q98 35 98 107q0 52 -31 91h-693v55h1143zM932 327v252h-202q26 -39 26 -94q0 -117 -153 -164q13 -60 58.5 -99.5t112.5 -39.5t112.5 40t45.5 105z" />
<glyph horiz-adv-x="772" d="M791 579h-369v-151q43 49 121 49t128.5 -48t50.5 -131t-56 -134t-137 -51q-15 0 -23 3v54q10 -2 21 -2q57 0 95 35t38 94t-34.5 93.5t-84.5 34.5t-84.5 -32t-34.5 -79v-314h-62v152q-14 -16 -30 -25l-163 -109q-16 -12 -16 -25q0 -29 60 -78l-40 -31q-91 51 -91 107 q0 35 43 64l77 52q-64 11 -102 57t-38 123.5t56 128.5t137 51q15 0 23 -3v-54q-10 2 -21 2q-57 0 -95 -35t-38 -94t34.5 -93.5t84.5 -34.5t84.5 32t34.5 79v313h-380v55h811v-55z" />
<glyph horiz-adv-x="637" d="M657 634v-55h-120v-579h-62v194q-24 -42 -73 -67l-171 -104q-20 -12 -20 -31t14.5 -42t31.5 -37l-43 -30q-75 55 -75 109q0 39 44 64l83 46q-70 7 -115 49t-45 113q0 91 81 130h-147v55h337v-55q-118 0 -163.5 -38.5t-45.5 -91.5t34.5 -82t90.5 -29q86 0 134 52t48 123 v251h-495v55h677z" />
<glyph horiz-adv-x="624" d="M644 579h-157v-125q77 -41 77 -150.5t-84 -180.5v-338h-62v151h-140q-32 0 -32 -36t14 -76h-53q-27 52 -27 97q0 69 81 69h157v94q-56 -25 -123 -25q-100 0 -162.5 45.5t-62.5 121.5q0 52 29.5 86.5t75.5 40.5q-30 9 -57.5 40t-27.5 80q0 67 48 106h-158v55h664v-55z M431 579h-210q-69 -32 -69 -107q0 -45 32 -71.5t76 -26.5h28v-53h-38q-55 0 -86.5 -26.5t-31.5 -74.5t46.5 -78.5t116.5 -30.5q91 0 149 52t58 144q0 53 -30 85t-91 32q-26 0 -42 -7v53q16 6 44 6t48 -3v106z" />
<glyph horiz-adv-x="488" d="M394 579v-182q-33 5 -64 5q-95 0 -160 -33.5t-65 -106t57.5 -104t140.5 -31.5t145 37v-57q-27 -15 -65 -23v-299h-62v151h-140q-32 0 -32 -36t14 -76h-53q-27 52 -27 97q0 69 81 69h157v85h-14q-115 0 -191 46t-76 138.5t78 143t186 50.5q19 0 28 -1v127h-352v55h528v-55 h-114z" />
<glyph horiz-adv-x="576" d="M597 579h-266v-128q86 -12 140.5 -59t54.5 -112.5t-39 -111t-104 -65.5v-318h-62v151h-140q-32 0 -32 -36t14 -76h-53q-27 52 -27 97q0 69 81 69h157v101q-20 -2 -32 -2q-104 0 -171.5 49.5t-67.5 132t63 131.5t157 52v125h-290v55h617v-55zM414 176q48 35 48 97 t-51 95.5t-126 33.5t-123 -35.5t-48 -96t49 -95t126 -34.5t125 35z" />
<glyph horiz-adv-x="552" d="M450 415h-167q-72 0 -113.5 -37.5t-41.5 -105.5t37.5 -107.5t100.5 -39.5t100.5 35t37.5 87h58v-257h-61v135q-11 -14 -31 -26l-176 -116q-25 -16 -25 -43.5t41 -64.5l-43 -28q-69 47 -69 101q0 41 56 76l87 50q-82 8 -131.5 63.5t-49.5 138t57.5 138t158.5 55.5h113v110 h-409v55h592v-55h-122v-164z" />
<glyph horiz-adv-x="512" d="M-20 634h552v-55h-120v-579h-62v217l-177 -29q-43 -7 -43 -45q0 -24 19 -68l-46 -11q-43 59 -43 105q0 56 70 67l220 36l-143 106q-23 16 -42 16q-38 0 -56 -78l-45 15q1 52 23.5 94t62.5 42q29 0 64 -25l136 -102v239h-370v55z" />
<glyph horiz-adv-x="802" d="M822 579h-370v-138q43 49 121 49t128.5 -48t50.5 -131t-56 -134t-137 -51q-15 0 -23 3v54q10 -2 21 -2q57 0 95 35t38 94t-34.5 93.5t-85.5 34.5t-84.5 -33t-33.5 -81v-324h-62v265q-14 -20 -32 -34l-158 -132q-23 -18 -23 -41.5t38 -68.5l-41 -26q-69 41 -69 94 q0 39 53 79l81 61q-164 8 -164 198v184h-95v55h842v-55zM390 403v176h-253v-184q0 -78 28 -112t86 -34t98.5 41.5t40.5 112.5z" />
<glyph horiz-adv-x="621" d="M641 634v-55h-120v-579h-61v173q-17 -27 -47 -49l-177 -124q-19 -13 -19 -40t40 -63l-42 -27q-27 17 -48 43.5t-21 56.5q0 43 56 75l66 38q-83 3 -140.5 59t-57.5 145.5t61.5 146.5t154.5 57q41 0 83 -11v-55q-42 14 -86.5 14t-80.5 -19l217 -225q41 50 41 115v269h-480 v55h661zM163 389q-34 -40 -34 -104.5t42 -107t105 -42.5t108 29z" />
<glyph horiz-adv-x="689" d="M527 634h182v-55h-120v-579h-62v232l-215 -145q-21 -13 -21 -35q0 -34 58 -73l-43 -29q-36 17 -62.5 45t-26.5 60t40 60l194 131q-114 24 -187 55l-201 -125l-48 37l192 116q-114 67 -114 170q0 57 43.5 98.5t116 41.5t117 -42.5t44.5 -99.5q0 -92 -97 -158 q81 -30 210 -51v346zM156 494q0 -77 106 -131q90 58 90 132q0 37 -26 64.5t-73 27.5t-72 -27t-25 -66z" />
<glyph horiz-adv-x="748" d="M768 634v-55h-120v-579h-61v264l-160 -54q-35 -12 -35 -43.5t35 -74.5l-50 -17q-24 21 -41 50.5t-17 54.5q0 52 64 73l182 62q-68 70 -161 70t-171 -67q-34 -35 -103 -35h-10l185 -283h-75l-185 285v53h65q59 0 79 23t20 75v143h-229v55h788zM271 579v-150q0 -16 -1 -23 q57 33 135 33q109 0 182 -69v209h-316z" />
<glyph horiz-adv-x="577" d="M439 423h-247q-61 0 -61 -50q0 -56 56 -88q53 21 121 21q108 0 163.5 -51t55.5 -105.5t-12 -80.5h-61q14 38 14 66.5t-11 47.5l-133 -58q-24 -10 -24 -32q0 -35 42 -75l-44 -20q-24 17 -46 46t-22 57q0 41 51 63l137 61q-43 29 -110 29q-93 0 -138 -45.5t-45 -113 t55 -113.5t139 -46q60 0 102 14v-55q-48 -12 -108 -12q-110 0 -180 63.5t-70 158.5t76 153q-69 50 -69 123q0 45 32 69.5t82 24.5h194v104h-398v55h617v-55h-158v-156z" />
<glyph horiz-adv-x="766" d="M786 579h-369v-151q43 49 121 49t128.5 -48t50.5 -131t-56 -134t-137 -51q-16 0 -23 3v54q10 -2 21 -2q57 0 95 35t38 94t-34.5 93.5t-84.5 34.5t-84.5 -32t-34.5 -79v-314h-62v152l-194 -197h-76l146 148q-77 1 -126.5 49.5t-49.5 130.5t56 133t137 51q16 0 23 -3v-54 q-10 2 -21 2q-57 0 -95 -35t-38 -94t34.5 -93.5t84.5 -34.5t84.5 32t34.5 79v313h-375v55h806v-55z" />
<glyph horiz-adv-x="773" d="M793 634v-55h-120v-579h-62v149q-34 -37 -102 -91.5t-215 -166.5h-94l205 157q-130 0 -217.5 71t-127.5 196v53h65q53 0 66 21t13 81v109h-224v55h813zM611 579h-345v-116q0 -78 -26.5 -114t-94.5 -36h-13q21 -86 91 -148t169.5 -62t160.5 57t61 143q0 60 -32.5 96 t-85 36t-78 -27.5t-25.5 -64.5t21.5 -59t52.5 -22t55 12v-52q-26 -12 -54 -12q-57 0 -96.5 36t-39.5 96t44.5 102.5t115 42.5t119.5 -49v141z" />
<glyph horiz-adv-x="576" d="M-20 634h616v-55h-120v-579h-61v211l-276 -231h-88l364 310v289h-191v-239q0 -62 -30 -95.5t-90 -33.5q-40 0 -69 12v59q32 -15 64 -15q64 0 64 72v240h-183v55z" />
<glyph horiz-adv-x="648" d="M668 634v-55h-120v-579h-61v194l-273 -239h-85l165 146q-83 -11 -146 28t-63 119q0 97 106 122q-39 6 -70.5 35t-31.5 83.5t46 90.5h-155v55h688zM487 327v252h-271q-65 -30 -65 -96q0 -84 135 -84h51v-55h-62q-60 0 -94 -25.5t-34 -73t38 -70.5t90 -23q88 0 150 53.5 t62 121.5z" />
<glyph horiz-adv-x="557" d="M-20 634h597v-55h-183v-150h-165q-39 0 -66 -16.5t-27 -53t30.5 -54.5t111 -22t127 -34t46.5 -100q0 -53 -35 -91.5t-96 -52.5l109 -142h-75l-96 128l-97 -128h-75l107 141q-68 9 -118 36v63q35 -22 86 -37t103 -15t87.5 25t35.5 69t-31.5 63t-104.5 23q-177 9 -177 127 q0 61 41.5 93.5t109.5 32.5h107v95h-352v55zM499 390q20 0 34 -13.5t14 -33.5t-14 -33t-34 -13t-33 13t-13 33t13 33.5t33 13.5z" />
<glyph horiz-adv-x="632" d="M652 634v-55h-120v-579h-62v180l-276 -225h-90l176 146q-78 2 -128.5 45t-50.5 118q0 91 81 130h-147v55h337v-55q-118 0 -163.5 -38.5t-45.5 -91.5t34.5 -82t90.5 -29q84 0 133 50t49 107v269h-490v55h672z" />
<glyph horiz-adv-x="633" d="M653 579h-157v-125q77 -41 77 -148q0 -88 -54.5 -153.5t-143.5 -85.5l110 -144h-75l-96 128l-97 -128h-75l107 140q-78 12 -124 55t-46 101.5t29.5 93t75.5 40.5q-30 9 -57.5 40t-27.5 80q0 67 48 106h-167v55h673v-55zM440 579h-210q-69 -32 -69 -107q0 -45 32 -71.5 t76 -26.5h28v-53h-38q-55 0 -86.5 -26.5t-31.5 -74.5t46.5 -78.5t116.5 -30.5q91 0 149 52t58 144q0 53 -30 85t-91 32q-26 0 -42 -7v53q17 6 44.5 6t47.5 -3v106z" />
<glyph horiz-adv-x="657" d="M-20 634h697v-55h-120v-579h-61v134l-277 -234h-90l367 311v183h-214q72 -42 72 -121.5t-52.5 -128.5t-145.5 -49q-63 0 -116 23v57q58 -28 117 -28t96.5 31t37.5 92t-48.5 92.5t-134.5 31.5v54h388v131h-516v55z" />
<glyph horiz-adv-x="833" d="M853 634v-55h-120v-579h-62v118l-264 -247h-86l350 323v65h-259q41 -38 41 -97t-45 -101t-117 -42q-97 0 -151 57v-123h-60v222h55q17 -43 61.5 -72.5t92 -29.5t75 25t27.5 66q0 87 -127 96q-85 6 -129.5 30.5t-44.5 83t42.5 91t114.5 32.5h95v82h-362v55h873zM671 312 v267h-267v-137h-152q-100 0 -100 -66q0 -32 28.5 -45t99.5 -19h391z" />
<glyph horiz-adv-x="681" d="M701 634v-55h-120v-579h-62v136l-259 -236h-86l345 311v70h-133q-5 -79 -61 -129t-142.5 -50t-152.5 35v60q67 -41 141 -41t112.5 38.5t38.5 98.5t-35 96.5t-88.5 36.5t-82.5 -13v53q27 12 73 12q81 0 131.5 -37.5t62.5 -104.5h136v243h-539v55h721z" />
<glyph horiz-adv-x="488" d="M394 579v-182q-33 5 -64 5q-90 0 -147.5 -43t-57.5 -121t50 -119.5t130.5 -41.5t142.5 37v-57q-41 -23 -105 -30l105 -138h-75l-96 128l-97 -128h-75l112 147q-73 20 -115 71.5t-42 127.5q0 98 69.5 158t174.5 60q19 0 28 -1v127h-352v55h528v-55h-114z" />
<glyph horiz-adv-x="561" d="M581 579h-250v-139q75 -13 122.5 -60.5t47.5 -120.5t-42 -122.5t-113 -66.5l109 -143h-75l-96 128l-97 -128h-75l108 142q-74 15 -117 65.5t-43 122.5q0 88 62 136t148 51v135h-290v55h601v-55zM393.5 154.5q43.5 39.5 43.5 103.5t-42.5 99t-110 35t-114 -33.5 t-46.5 -99.5t42 -105t113 -39t114.5 39.5z" />
<glyph horiz-adv-x="517" d="M390 429h-165q-39 0 -66 -16.5t-27 -53.5t23.5 -58.5t62.5 -22.5l88 6q68 0 104.5 -37.5t36 -94.5t-35 -95t-95.5 -51l109 -143h-75l-96 128l-97 -128h-75l107 141q-68 9 -118 36v63q35 -22 86 -37t103 -15t87.5 25t35.5 68t-23.5 65t-63.5 22l-88 -7q-60 2 -99 38 t-39 96.5t41.5 93t109.5 32.5h107v95h-348v55h557v-55h-147v-150z" />
<glyph horiz-adv-x="554" d="M423 579v-180q-57 9 -102 9q-94 0 -145.5 -47.5t-51.5 -120.5t49.5 -118.5t117 -45.5t104.5 26t37 71q0 29 -21 47.5t-63.5 18.5t-81.5 -24v56q40 20 99 20t94 -33t35 -85t-37 -91t-100 -52l108 -142h-75l-96 128l-97 -128h-75l110 144q-77 18 -124.5 73.5t-47.5 141.5 t67 151.5t179 65.5q26 0 55 -3v118h-381v55h594v-55h-151z" />
<glyph horiz-adv-x="750" d="M770 634v-55h-120v-579h-62v210l-254 -230h-90l344 310v289h-173v-230q0 -83 -42 -127.5t-123.5 -44.5t-120.5 42.5t-39 130.5v229h-110v55h790zM353 349v230h-201v-229q0 -120 97 -120q104 0 104 119z" />
<glyph horiz-adv-x="545" d="M-20 634h585v-55h-120v-579h-62v231l-276 -174l-35 45l295 185q-24 51 -67.5 83.5t-109.5 33t-136 -36.5v59q55 32 144 32q117 0 185 -93v214h-403v55z" />
<glyph horiz-adv-x="635" d="M353 507q0 -84 -63.5 -133.5t-181.5 -75.5q28 -132 170 -132q81 0 138.5 56.5t57.5 156.5v255h181v-55h-120v-579h-61v203l-283 -248h-82l179 158q-100 -3 -170 52t-83 170q131 27 193.5 67t62.5 103q0 36 -18.5 59t-54.5 23t-54.5 -21t-18.5 -45t2.5 -35t6.5 -19.5 t4 -9.5h-62q-13 36 -13 63q0 48 38 83.5t100 35.5t97 -38.5t35 -93.5z" />
<glyph horiz-adv-x="547" d="M-20 634h587v-55h-122v-164h-167q-72 0 -113.5 -37.5t-41.5 -105.5t37.5 -107.5t100.5 -39.5t100.5 35t37.5 87h58v-257h-61v135l-201 -181h-82l141 129q-92 4 -145.5 60t-53.5 140.5t57.5 140t158.5 55.5h113v110h-404v55z" />
<glyph horiz-adv-x="637" d="M657 634v-55h-120v-579h-61v171l-270 -216h-90l159 128q-94 2 -147 42t-53 99t35 94t84 41q-117 16 -117 115q0 70 66 105h-163v55h311v-55q-71 0 -111.5 -30.5t-40.5 -76.5q0 -87 149 -87h53v-53h-62q-61 0 -101 -27.5t-40 -72.5t36.5 -70.5t105.5 -25.5q88 0 142 56 t54 117v325h181z" />
<glyph horiz-adv-x="490" d="M-20 634h530v-55h-120v-579h-62v306l-187 -219h-74l260 305h-201q-32 0 -32 -36t14 -76h-53q-27 52 -27 97q0 69 81 69h219v133h-348v55z" />
<glyph horiz-adv-x="552" d="M572 634v-55h-120v-579h-62v262l-259 -262h-81l189 197q-164 8 -164 198v184h-95v55h592zM390 403v176h-253v-184q0 -78 28 -112t86 -34t98.5 41.5t40.5 112.5z" />
<glyph horiz-adv-x="797" d="M817 579h-365v-148q43 49 121 49t128.5 -48t50.5 -131t-56 -134t-137 -51q-15 0 -23 3v54q10 -2 21 -2q57 0 95 35t38 94t-34.5 93.5t-85.5 34.5t-84.5 -33t-33.5 -81v-314h-62v262l-259 -262h-81l189 197q-164 8 -164 198v184h-95v55h837v-55zM390 403v176h-253v-184 q0 -78 28 -112t86 -34t98.5 41.5t40.5 112.5z" />
<glyph horiz-adv-x="621" d="M641 634v-55h-120v-579h-61v165l-260 -230h-85l167 148q-89 -2 -150.5 55t-61.5 148t61.5 148t154.5 57q41 0 83 -11v-55q-42 14 -86.5 14t-80.5 -19l217 -225q41 50 41 115v269h-480v55h661zM163 389q-34 -40 -34 -104.5t42 -107t105 -42.5t108 29z" />
<glyph horiz-adv-x="554" d="M392 634h182v-55h-120v-579h-62v173l-241 -213h-88l329 293v74h-208v-140h-55l-22 50q-27 63 -27 86t12 37.5t30 18.5v135q0 37 -10 53.5t-38.5 16.5t-54.5 -13v53q28 14 66 14q99 0 99 -112v-145h208v253z" />
<glyph horiz-adv-x="569" d="M-20 634h609v-55h-120v-579h-62v189l-248 -229h-89l337 313v54h-223v-140h-55l-22 50q-27 63 -27 86t12 37.5t30 18.5v200h-142v55zM184 381h223v198h-223v-198z" />
<glyph horiz-adv-x="622" d="M190.5 221.5q45.5 -39.5 112.5 -39.5t112.5 40t45.5 105v252h-202q26 -39 26 -94q0 -117 -153 -164q13 -60 58.5 -99.5zM180.5 410q42.5 33 42.5 81.5t-31 87.5h-212v55h662v-55h-120v-579h-61v196l-271 -241h-91l196 175q-91 0 -156 61t-80 173q79 13 121.5 46z" />
<glyph horiz-adv-x="576" d="M596 634v-55h-120v-579h-61v166l-255 -231h-90l173 157q-76 3 -129.5 53.5t-53.5 132t54 134t137 52.5q34 0 62 -7v-55q-23 8 -59 8q-57 0 -94.5 -36.5t-37.5 -95.5t38 -96.5t92 -37.5q78 0 120.5 52t42.5 123v260h-435v55h616z" />
<glyph horiz-adv-x="677" d="M514 634h183v-55h-120v-579h-63v219l-260 -218l-49 36l242 203q-102 28 -178 64l-188 -133l-49 38l179 126q-109 66 -109 161q0 56 42 99.5t113 43.5t113 -42t42 -102q0 -81 -97 -152q80 -34 199 -62v353zM164 496q0 -71 99 -128q36 24 61.5 57t25.5 69.5t-25 64.5 t-67 28t-68 -27t-26 -64z" />
<glyph horiz-adv-x="718" d="M738 634v-55h-120v-579h-61v263l-165 -138h-88l235 191q-62 69 -138 69q-44 0 -78.5 -16.5t-73.5 -50.5q-37 -35 -104 -35h-10l185 -283h-75l-185 285v53h65q59 0 79 23t20 75v143h-244v55h758zM286 579v-150q0 -15 -1 -23q54 33 115 33q91 0 157 -68v208h-271z" />
<glyph horiz-adv-x="557" d="M442 423h-250q-61 0 -61 -50q0 -29 15 -50.5t34 -29.5q51 23 115 23q94 0 155.5 -51t61.5 -142q0 -35 -11 -72h-60q12 31 12 76t-23 79l-143 -151h-78l178 189q-37 20 -92 20q-83 0 -126.5 -44t-43.5 -115t49.5 -115t144.5 -44q68 0 122 18v-55q-64 -16 -128 -16 q-117 0 -183 61.5t-66 157t70 152.5q-64 44 -64 117q0 45 32 69.5t82 24.5h197v104h-401v55h597v-55h-135v-156z" />
<glyph horiz-adv-x="766" d="M786 579h-369v-151q43 49 121 49t128.5 -48t50.5 -131t-56 -134t-137 -51q-16 0 -23 3v54q10 -2 21 -2q57 0 95 35t38 94t-34.5 93.5t-84.5 34.5t-84.5 -32t-34.5 -79v-314h-62v152l-194 -197h-76l146 148q-77 1 -126.5 49.5t-49.5 130.5t56 133t137 51q16 0 23 -3v-54 q-10 2 -21 2q-57 0 -95 -35t-38 -94t34.5 -93.5t84.5 -34.5t84.5 32t34.5 79v313h-375v55h806v-55zM276 -18q20 0 34 -13.5t14 -33.5t-14 -33t-34 -13t-33 13t-13 33t13 33.5t33 13.5z" />
<glyph horiz-adv-x="773" d="M793 634v-55h-120v-579h-62v149q-34 -37 -102 -91.5t-215 -166.5h-94l205 157q-130 0 -217.5 71t-127.5 196v53h65q53 0 66 21t13 81v109h-224v55h813zM611 579h-345v-116q0 -78 -26.5 -114t-94.5 -36h-13q21 -86 91 -148t169.5 -62t160.5 57t61 143q0 60 -32.5 96 t-85 36t-78 -27.5t-25.5 -64.5t21.5 -59t52.5 -22t55 12v-52q-26 -12 -54 -12q-57 0 -96.5 36t-39.5 96t44.5 102.5t115 42.5t119.5 -49v141zM526 -20q20 0 34 -13.5t14 -33.5t-14 -33t-34 -13t-33 13t-13 33t13 33.5t33 13.5z" />
<glyph horiz-adv-x="576" d="M-20 634h616v-55h-120v-579h-61v211l-276 -231h-88l364 310v289h-191v-239q0 -62 -30 -95.5t-90 -33.5q-40 0 -69 12v59q32 -15 64 -15q64 0 64 72v240h-183v55zM307 -2q20 0 34 -13.5t14 -33.5t-14 -33t-34 -13t-33 13t-13 33t13 33.5t33 13.5z" />
<glyph horiz-adv-x="648" d="M668 634v-55h-120v-579h-61v194l-273 -239h-85l165 146q-83 -11 -146 28t-63 119q0 97 106 122q-39 6 -70.5 35t-31.5 83.5t46 90.5h-155v55h688zM487 327v252h-271q-65 -30 -65 -96q0 -84 135 -84h51v-55h-62q-60 0 -94 -25.5t-34 -73t38 -70.5t90 -23q88 0 150 53.5 t62 121.5zM399 0q20 0 34 -13.5t14 -33.5t-14 -33t-34 -13t-33 13t-13 33t13 33.5t33 13.5z" />
<glyph horiz-adv-x="557" d="M-20 634h597v-55h-183v-150h-165q-39 0 -66 -16.5t-27 -53t30.5 -54.5t111 -22t127 -34t46.5 -100q0 -53 -35 -91.5t-96 -52.5l109 -142h-75l-96 128l-97 -128h-75l107 141q-68 9 -118 36v63q35 -22 86 -37t103 -15t87.5 25t35.5 69t-31.5 63t-104.5 23q-177 9 -177 127 q0 61 41.5 93.5t109.5 32.5h107v95h-352v55zM499 390q20 0 34 -13.5t14 -33.5t-14 -33t-34 -13t-33 13t-13 33t13 33.5t33 13.5zM2 1q20 0 34 -13.5t14 -33.5t-14 -33t-34 -13t-33 13t-13 33t13 33.5t33 13.5z" />
<glyph horiz-adv-x="632" d="M652 634v-55h-120v-579h-62v180l-276 -225h-90l176 146q-78 2 -128.5 45t-50.5 118q0 91 81 130h-147v55h337v-55q-118 0 -163.5 -38.5t-45.5 -91.5t34.5 -82t90.5 -29q84 0 133 50t49 107v269h-490v55h672zM359 -20q20 0 34 -13.5t14 -33.5t-14 -33t-34 -13t-33 13 t-13 33t13 33.5t33 13.5z" />
<glyph horiz-adv-x="633" d="M653 579h-157v-125q77 -41 77 -148q0 -88 -54.5 -153.5t-143.5 -85.5l110 -144h-75l-96 128l-97 -128h-75l107 140q-78 12 -124 55t-46 101.5t29.5 93t75.5 40.5q-30 9 -57.5 40t-27.5 80q0 67 48 106h-167v55h673v-55zM440 579h-210q-69 -32 -69 -107q0 -45 32 -71.5 t76 -26.5h28v-53h-38q-55 0 -86.5 -26.5t-31.5 -74.5t46.5 -78.5t116.5 -30.5q91 0 149 52t58 144q0 53 -30 85t-91 32q-26 0 -42 -7v53q17 6 44.5 6t47.5 -3v106zM49 60q20 0 34 -13.5t14 -33.5t-14 -33t-34 -13t-33 13t-13 33t13 33.5t33 13.5z" />
<glyph horiz-adv-x="657" d="M-20 634h697v-55h-120v-579h-61v134l-277 -234h-90l367 311v183h-214q72 -42 72 -121.5t-52.5 -128.5t-145.5 -49q-63 0 -116 23v57q58 -28 117 -28t96.5 31t37.5 92t-48.5 92.5t-134.5 31.5v54h388v131h-516v55zM399 -70q20 0 34 -13.5t14 -33.5t-14 -33t-34 -13t-33 13 t-13 33t13 33.5t33 13.5z" />
<glyph horiz-adv-x="833" d="M853 634v-55h-120v-579h-62v118l-264 -247h-86l350 323v65h-259q41 -38 41 -97t-45 -101t-117 -42q-97 0 -151 57v-123h-60v222h55q17 -43 61.5 -72.5t92 -29.5t75 25t27.5 66q0 87 -127 96q-85 6 -129.5 30.5t-44.5 83t42.5 91t114.5 32.5h95v82h-362v55h873zM671 312 v267h-267v-137h-152q-100 0 -100 -66q0 -32 28.5 -45t99.5 -19h391zM599 -60q20 0 34 -13.5t14 -33.5t-14 -33t-34 -13t-33 13t-13 33t13 33.5t33 13.5z" />
<glyph horiz-adv-x="681" d="M701 634v-55h-120v-579h-62v136l-259 -236h-86l345 311v70h-133q-5 -79 -61 -129t-142.5 -50t-152.5 35v60q67 -41 141 -41t112.5 38.5t38.5 98.5t-35 96.5t-88.5 36.5t-82.5 -13v53q27 12 73 12q81 0 131.5 -37.5t62.5 -104.5h136v243h-539v55h721zM439 -60 q20 0 34 -13.5t14 -33.5t-14 -33t-34 -13t-33 13t-13 33t13 33.5t33 13.5z" />
<glyph horiz-adv-x="488" d="M394 579v-182q-33 5 -64 5q-90 0 -147.5 -43t-57.5 -121t50 -119.5t130.5 -41.5t142.5 37v-57q-41 -23 -105 -30l105 -138h-75l-96 128l-97 -128h-75l112 147q-73 20 -115 71.5t-42 127.5q0 98 69.5 158t174.5 60q19 0 28 -1v127h-352v55h528v-55h-114zM19 50 q20 0 34 -13.5t14 -33.5t-14 -33t-34 -13t-33 13t-13 33t13 33.5t33 13.5z" />
<glyph horiz-adv-x="561" d="M581 579h-250v-139q75 -13 122.5 -60.5t47.5 -120.5t-42 -122.5t-113 -66.5l109 -143h-75l-96 128l-97 -128h-75l108 142q-74 15 -117 65.5t-43 122.5q0 88 62 136t148 51v135h-290v55h601v-55zM393.5 154.5q43.5 39.5 43.5 103.5t-42.5 99t-110 35t-114 -33.5 t-46.5 -99.5t42 -105t113 -39t114.5 39.5zM19 81q20 0 34 -13.5t14 -33.5t-14 -33t-34 -13t-33 13t-13 33t13 33.5t33 13.5z" />
<glyph horiz-adv-x="517" d="M390 429h-165q-39 0 -66 -16.5t-27 -53.5t23.5 -58.5t62.5 -22.5l88 6q68 0 104.5 -37.5t36 -94.5t-35 -95t-95.5 -51l109 -143h-75l-96 128l-97 -128h-75l107 141q-68 9 -118 36v63q35 -22 86 -37t103 -15t87.5 25t35.5 68t-23.5 65t-63.5 22l-88 -7q-60 2 -99 38 t-39 96.5t41.5 93t109.5 32.5h107v95h-348v55h557v-55h-147v-150zM-11 0q20 0 34 -13.5t14 -33.5t-14 -33t-34 -13t-33 13t-13 33t13 33.5t33 13.5z" />
<glyph horiz-adv-x="554" d="M423 579v-180q-57 9 -102 9q-94 0 -145.5 -47.5t-51.5 -120.5t49.5 -118.5t117 -45.5t104.5 26t37 71q0 29 -21 47.5t-63.5 18.5t-81.5 -24v56q40 20 99 20t94 -33t35 -85t-37 -91t-100 -52l108 -142h-75l-96 128l-97 -128h-75l110 144q-77 18 -124.5 73.5t-47.5 141.5 t67 151.5t179 65.5q26 0 55 -3v118h-381v55h594v-55h-151zM19 50q20 0 34 -13.5t14 -33.5t-14 -33t-34 -13t-33 13t-13 33t13 33.5t33 13.5z" />
<glyph horiz-adv-x="750" d="M770 634v-55h-120v-579h-62v210l-254 -230h-90l344 310v289h-173v-230q0 -83 -42 -127.5t-123.5 -44.5t-120.5 42.5t-39 130.5v229h-110v55h790zM353 349v230h-201v-229q0 -120 97 -120q104 0 104 119zM469 -40q20 0 34 -13.5t14 -33.5t-14 -33t-34 -13t-33 13t-13 33 t13 33.5t33 13.5z" />
<glyph horiz-adv-x="545" d="M-20 634h585v-55h-120v-579h-62v231l-276 -174l-35 45l295 185q-24 51 -67.5 83.5t-109.5 33t-136 -36.5v59q55 32 144 32q117 0 185 -93v214h-403v55zM239 0q20 0 34 -13.5t14 -33.5t-14 -33t-34 -13t-33 13t-13 33t13 33.5t33 13.5z" />
<glyph horiz-adv-x="635" d="M313 -63q0 20 13 33.5t33 13.5t34 -13.5t14 -33.5t-14 -33t-34 -13t-33 13t-13 33zM353 507q0 -84 -63.5 -133.5t-181.5 -75.5q28 -132 170 -132q81 0 138.5 56.5t57.5 156.5v255h181v-55h-120v-579h-61v203l-283 -248h-82l179 158q-100 -3 -170 52t-83 170 q131 27 193.5 67t62.5 103q0 36 -18.5 59t-54.5 23t-54.5 -21t-18.5 -45t2.5 -35t6.5 -19.5t4 -9.5h-62q-13 36 -13 63q0 48 38 83.5t100 35.5t97 -38.5t35 -93.5z" />
<glyph horiz-adv-x="547" d="M273 -107q0 20 13 33.5t33 13.5t34 -13.5t14 -33.5t-14 -33t-34 -13t-33 13t-13 33zM-20 634h587v-55h-122v-164h-167q-72 0 -113.5 -37.5t-41.5 -105.5t37.5 -107.5t100.5 -39.5t100.5 35t37.5 87h58v-257h-61v135l-201 -181h-82l141 129q-92 4 -145.5 60t-53.5 140.5 t57.5 140t158.5 55.5h113v110h-404v55z" />
<glyph horiz-adv-x="637" d="M657 634v-55h-120v-579h-61v171l-270 -216h-90l159 128q-94 2 -147 42t-53 99t35 94t84 41q-117 16 -117 115q0 70 66 105h-163v55h311v-55q-71 0 -111.5 -30.5t-40.5 -76.5q0 -87 149 -87h53v-53h-62q-61 0 -101 -27.5t-40 -72.5t36.5 -70.5t105.5 -25.5q88 0 142 56 t54 117v325h181zM359 -40q20 0 34 -13.5t14 -33.5t-14 -33t-34 -13t-33 13t-13 33t13 33.5t33 13.5z" />
<glyph horiz-adv-x="490" d="M-20 634h530v-55h-120v-579h-62v306l-187 -219h-74l260 305h-201q-32 0 -32 -36t14 -76h-53q-27 52 -27 97q0 69 81 69h219v133h-348v55zM199 10q20 0 34 -13.5t14 -33.5t-14 -33t-34 -13t-33 13t-13 33t13 33.5t33 13.5z" />
<glyph horiz-adv-x="552" d="M572 634v-55h-120v-579h-62v262l-259 -262h-81l189 197q-164 8 -164 198v184h-95v55h592zM390 403v176h-253v-184q0 -78 28 -112t86 -34t98.5 41.5t40.5 112.5zM269 0q20 0 34 -13.5t14 -33.5t-14 -33t-34 -13t-33 13t-13 33t13 33.5t33 13.5z" />
<glyph horiz-adv-x="797" d="M817 579h-365v-148q43 49 121 49t128.5 -48t50.5 -131t-56 -134t-137 -51q-15 0 -23 3v54q10 -2 21 -2q57 0 95 35t38 94t-34.5 93.5t-85.5 34.5t-84.5 -33t-33.5 -81v-314h-62v262l-259 -262h-81l189 197q-164 8 -164 198v184h-95v55h837v-55zM390 403v176h-253v-184 q0 -78 28 -112t86 -34t98.5 41.5t40.5 112.5zM269 0q20 0 34 -13.5t14 -33.5t-14 -33t-34 -13t-33 13t-13 33t13 33.5t33 13.5z" />
<glyph horiz-adv-x="621" d="M641 634v-55h-120v-579h-61v165l-260 -230h-85l167 148q-89 -2 -150.5 55t-61.5 148t61.5 148t154.5 57q41 0 83 -11v-55q-42 14 -86.5 14t-80.5 -19l217 -225q41 50 41 115v269h-480v55h661zM163 389q-34 -40 -34 -104.5t42 -107t105 -42.5t108 29zM359 -30 q20 0 34 -13.5t14 -33.5t-14 -33t-34 -13t-33 13t-13 33t13 33.5t33 13.5z" />
<glyph horiz-adv-x="554" d="M392 634h182v-55h-120v-579h-62v173l-241 -213h-88l329 293v74h-208v-140h-55l-22 50q-27 63 -27 86t12 37.5t30 18.5v135q0 37 -10 53.5t-38.5 16.5t-54.5 -13v53q28 14 66 14q99 0 99 -112v-145h208v253zM289 -10q20 0 34 -13.5t14 -33.5t-14 -33t-34 -13t-33 13 t-13 33t13 33.5t33 13.5z" />
<glyph horiz-adv-x="569" d="M-20 634h609v-55h-120v-579h-62v189l-248 -229h-89l337 313v54h-223v-140h-55l-22 50q-27 63 -27 86t12 37.5t30 18.5v200h-142v55zM184 381h223v198h-223v-198zM304 -10q20 0 34 -13.5t14 -33.5t-14 -33t-34 -13t-33 13t-13 33t13 33.5t33 13.5z" />
<glyph horiz-adv-x="622" d="M293 -67q0 20 13 33.5t33 13.5t34 -13.5t14 -33.5t-14 -33t-34 -13t-33 13t-13 33zM190.5 221.5q45.5 -39.5 112.5 -39.5t112.5 40t45.5 105v252h-202q26 -39 26 -94q0 -117 -153 -164q13 -60 58.5 -99.5zM180.5 410q42.5 33 42.5 81.5t-31 87.5h-212v55h662v-55h-120 v-579h-61v196l-271 -241h-91l196 175q-91 0 -156 61t-80 173q79 13 121.5 46z" />
<glyph horiz-adv-x="576" d="M596 634v-55h-120v-579h-61v166l-255 -231h-90l173 157q-76 3 -129.5 53.5t-53.5 132t54 134t137 52.5q34 0 62 -7v-55q-23 8 -59 8q-57 0 -94.5 -36.5t-37.5 -95.5t38 -96.5t92 -37.5q78 0 120.5 52t42.5 123v260h-435v55h616zM319 -30q20 0 34 -13.5t14 -33.5t-14 -33 t-34 -13t-33 13t-13 33t13 33.5t33 13.5z" />
<glyph horiz-adv-x="519" d="M417 579v-151q43 49 119 49t124 -42l-42 -42q-34 32 -83 32t-83.5 -32t-34.5 -79v-314h-62v152l-194 -197h-76l146 148q-77 1 -126.5 49.5t-49.5 130.5t56 133t137 51q16 0 23 -3v-54q-10 2 -21 2q-57 0 -95 -35t-38 -94t34.5 -93.5t84.5 -34.5t84.5 32t34.5 79v313h-375 v55h559v-55h-122z" />
<glyph horiz-adv-x="563" d="M468 210q-57 0 -96.5 36t-39.5 96t44.5 102.5t108.5 42.5q82 0 131.5 -51.5t49.5 -132.5q0 -118 -103 -200l-269 -212h-94l205 157q-130 0 -217.5 71t-127.5 196v53h65q53 0 66 21t13 81v109h-224v55h603v-55h-317v-116q0 -78 -26.5 -114t-94.5 -36h-13q21 -86 91 -148 t168.5 -62t156.5 57t58 143q0 62 -29 97t-81 35t-77.5 -27.5t-25.5 -64.5t21.5 -59t52.5 -22t55 12v-52q-26 -12 -54 -12z" />
<glyph horiz-adv-x="380" d="M453 324l31 -53l-345 -291h-88zM99 267q64 0 64 72v240h-183v55h420v-55h-176v-239q0 -62 -30 -95.5t-90 -33.5q-40 0 -69 12v59q32 -15 64 -15z" />
<glyph horiz-adv-x="417" d="M85 248q0 97 106 122q-39 6 -70.5 35t-31.5 83.5t46 90.5h-155v55h457v-55h-221q-65 -30 -65 -96q0 -84 135 -84h51v-55h-62q-60 0 -94 -25.5t-34 -73t38 -70.5t90 -23q74 0 135 44t86 100l31 -72l-309 -269h-89l165 146q-83 -11 -146 28t-63 119z" />
<glyph horiz-adv-x="416" d="M101 264q0 91 81 130h-147v55h337v-55q-118 0 -163.5 -38.5t-45.5 -91.5t34.5 -82t95.5 -29t117 41.5t87 98.5l32 -68l-333 -270h-92l176 146q-78 2 -128.5 45t-50.5 118zM436 634v-55h-456v55h456z" />
<glyph horiz-adv-x="468" d="M108 448h541v-54h-367q72 -42 72 -121.5t-52.5 -128.5t-145.5 -49q-63 0 -116 23v57q58 -28 117 -28t96.5 31t37.5 92t-48.5 92.5t-134.5 31.5v54zM129 -100l407 347l33 -49l-350 -298h-90zM488 634v-55h-508v55h508z" />
<glyph horiz-adv-x="602" d="M698 219l37 -49l-328 -299h-86zM709 259h-297q41 -38 41 -97t-45 -101t-117 -42q-97 0 -151 57v-123h-60v222h55q17 -43 61.5 -72.5t92 -29.5t75 25t27.5 66q0 87 -127 96q-85 6 -129.5 30.5t-44.5 83t42.5 91t114.5 32.5h95v82h-362v55h642v-55h-218v-137h-152 q-100 0 -100 -66q0 -32 28.5 -45t99.5 -19h429v-53z" />
<glyph horiz-adv-x="499" d="M570 257l32 -46l-342 -311h-86zM571 281h-185q-5 -79 -61 -129t-142.5 -50t-152.5 35v60q67 -41 141 -41t112.5 38.5t38.5 98.5t-35 96.5t-88.5 36.5t-82.5 -13v53q27 12 73 12q81 0 131.5 -37.5t62.5 -104.5h188v-55zM519 634v-55h-539v55h539z" />
<glyph horiz-adv-x="488" d="M-20 634h528v-55h-114v-182q-33 5 -64 5q-90 0 -147.5 -43t-57.5 -121t50 -119.5t130.5 -41.5t142.5 37v-57q-41 -23 -105 -30l105 -138h-75l-96 128l-97 -128h-75l112 147q-73 20 -115 71.5t-42 127.5q0 98 69.5 158t174.5 60q19 0 28 -1v127h-352v55zM248 -180h63 l139 -162h-78z" />
<glyph horiz-adv-x="561" d="M581 579h-250v-139q75 -13 122.5 -60.5t47.5 -120.5t-42 -122.5t-113 -66.5l109 -143h-75l-96 128l-97 -128h-75l108 142q-74 15 -117 65.5t-43 122.5q0 88 62 136t148 51v135h-290v55h601v-55zM393.5 154.5q43.5 39.5 43.5 103.5t-42.5 99t-110 35t-114 -33.5 t-46.5 -99.5t42 -105t113 -39t114.5 39.5zM257 -142h63l139 -162h-78z" />
<glyph horiz-adv-x="517" d="M390 429h-165q-39 0 -66 -16.5t-27 -53.5t23.5 -58.5t62.5 -22.5l88 6q68 0 104.5 -37.5t36 -94.5t-35 -95t-95.5 -51l109 -143h-75l-96 128l-97 -128h-75l107 141q-68 9 -118 36v63q35 -22 86 -37t103 -15t87.5 25t35.5 68t-23.5 65t-63.5 22l-88 -7q-60 2 -99 38 t-39 96.5t41.5 93t109.5 32.5h107v95h-348v55h557v-55h-147v-150zM220 -206h63l139 -162h-78z" />
<glyph horiz-adv-x="554" d="M423 579v-180q-57 9 -102 9q-94 0 -145.5 -47.5t-51.5 -120.5t49.5 -118.5t117 -45.5t104.5 26t37 71q0 29 -21 47.5t-63.5 18.5t-81.5 -24v56q40 20 99 20t94 -33t35 -85t-37 -91t-100 -52l108 -142h-75l-96 128l-97 -128h-75l110 144q-77 18 -124.5 73.5t-47.5 141.5 t67 151.5t179 65.5q26 0 55 -3v118h-381v55h594v-55h-151zM261 -181h63l139 -162h-78z" />
<glyph horiz-adv-x="508" d="M586 297l35 -48l-297 -269h-90zM405 579v-230q0 -83 -42 -127.5t-123.5 -44.5t-120.5 42.5t-39 130.5v229h-110v55h558v-55h-123zM142 579v-229q0 -120 97 -120q104 0 104 119v230h-201z" />
<glyph horiz-adv-x="341" d="M54 426q55 32 135 32t137.5 -38t84.5 -106q7 -14 13 -45l3 -11l-320 -201l-35 45l295 184q-24 52 -67.5 84.5t-109.5 33t-136 -36.5v59zM361 634v-55h-381v55h381z" />
<glyph horiz-adv-x="429" d="M353 507q0 -84 -63.5 -133.5t-181.5 -75.5q28 -132 170 -132q64 0 118 32.5t89 85.5l44 -44l-328 -285h-82l179 158q-104 -4 -177 50.5t-86 171.5q131 27 193.5 67t62.5 103q0 36 -18.5 59t-54.5 23t-54.5 -21t-18.5 -45t2.5 -35t6.5 -19.5t4 -9.5h-62q-13 36 -13 63 q0 48 38 83.5t100 35.5t97 -38.5t35 -93.5z" />
<glyph horiz-adv-x="547" d="M-20 634h587v-55h-122v-164h-167q-72 0 -113.5 -37.5t-41.5 -105.5t37.5 -107.5t100.5 -39.5t100.5 35t37.5 87h58v-257h-61v135l-201 -181h-82l141 129q-92 4 -145.5 60t-53.5 140.5t57.5 140t158.5 55.5h113v110h-404v55zM485 -287h-78l-124 162h63z" />
<glyph horiz-adv-x="439" d="M75 230q0 53 35 88t84 41q-117 16 -117 115q0 70 66 105h-163v55h311v-55q-71 0 -111.5 -30.5t-40.5 -76.5q0 -87 149 -87h53v-53h-62q-61 0 -101 -27.5t-40 -72.5t36.5 -70.5t103.5 -25.5t122 38.5t121 110.5l37 -54l-349 -276h-93l163 128q-95 2 -149.5 41t-54.5 106z " />
<glyph horiz-adv-x="262" d="M109 446h316v-54l-284 -305h-74l281 305h-222q-32 0 -32 -36t14 -76h-53q-27 52 -27 97q0 69 81 69zM282 634v-55h-302v55h302z" />
<glyph horiz-adv-x="338" d="M75 395v184h-95v55h378v-55h-221v-184q0 -78 28 -112t87 -34q92 0 169 125l32 -48l-322 -326h-81l189 197q-164 8 -164 198z" />
<glyph horiz-adv-x="600" d="M452 579v-149q44 50 124 50q113 0 167 -93l-46 -39q-39 80 -121 80q-52 0 -88 -32.5t-36 -81.5v-314h-62v262l-259 -262h-81l189 197q-164 8 -164 198v184h-95v55h640v-55h-168zM137 579v-184q0 -78 28 -112t86 -34t98.5 41.5t40.5 112.5v176h-253z" />
<glyph horiz-adv-x="373" d="M70 286q0 91 61.5 148t154.5 57q41 0 83 -11v-55q-42 14 -86.5 14t-80.5 -19l216 -223q24 26 42 61l30 -67l-290 -256h-85l167 148q-89 -2 -150.5 55t-61.5 148zM163 389q-34 -40 -34 -104.5t42 -107t103.5 -42.5t108.5 31zM393 634v-55h-413v55h413z" />
<glyph horiz-adv-x="363" d="M184 381h296v-54l-329 -367h-88l337 367h-216v-140h-55l-22 50q-27 63 -27 86t12 37.5t30 18.5v135q0 37 -10 53.5t-38.5 16.5t-54.5 -13v53q28 14 66 14q99 0 99 -112v-145z" />
<glyph horiz-adv-x="372" d="M184 381h303v-54l-328 -367h-89l334 367h-220v-140h-55l-22 50q-27 63 -27 86t12 37.5t30 18.5v200h-142v55h412v-55h-208v-198z" />
<glyph horiz-adv-x="382" d="M402 579h-143q26 -39 26 -94q0 -117 -153 -164q13 -60 58.5 -99.5t101 -39.5t96 21.5t79.5 75.5l28 -53l-305 -271h-91l196 175q-91 0 -156 61t-80 173q79 13 121.5 46t42.5 81.5t-31 87.5h-212v55h422v-55z" />
<glyph horiz-adv-x="356" d="M376 579h-396v55h396v-55zM254 410q-57 0 -94.5 -36.5t-37.5 -95.5t38 -96.5t92 -37.5t98 29.5t90 90.5l36 -51l-310 -278h-88l175 157q-82 0 -137.5 51t-55.5 133.5t54 135t137 52.5q34 0 62 -7v-55q-23 8 -59 8z" />
<glyph horiz-adv-x="520" d="M286 579v-150q0 -15 -1 -23q54 33 115 33q129 0 209 -133l-217 -181h-88l235 191q-62 69 -138 69q-44 0 -78.5 -16.5t-73.5 -50.5q-37 -35 -104 -35h-10l185 -283h-75l-185 285v53h65q59 0 79 23t20 75v143h-244v55h758v-55h-452z" />
<glyph horiz-adv-x="519" d="M417 579v-151q43 49 119 49t124 -42l-42 -42q-34 32 -83 32t-83.5 -32t-34.5 -79v-314h-62v152l-194 -197h-76l146 148q-77 1 -126.5 49.5t-49.5 130.5t56 133t137 51q16 0 23 -3v-54q-10 2 -21 2q-57 0 -95 -35t-38 -94t34.5 -93.5t84.5 -34.5t84.5 32t34.5 79v313h-375 v55h559v-55h-122zM280 -80q20 0 34 -13.5t14 -33.5t-14 -33t-34 -13t-33 13t-13 33t13 33.5t33 13.5z" />
<glyph horiz-adv-x="563" d="M468 210q-57 0 -96.5 36t-39.5 96t44.5 102.5t108.5 42.5q82 0 131.5 -51.5t49.5 -132.5q0 -118 -103 -200l-269 -212h-94l205 157q-130 0 -217.5 71t-127.5 196v53h65q53 0 66 21t13 81v109h-224v55h603v-55h-317v-116q0 -78 -26.5 -114t-94.5 -36h-13q21 -86 91 -148 t168.5 -62t156.5 57t58 143q0 62 -29 97t-81 35t-77.5 -27.5t-25.5 -64.5t21.5 -59t52.5 -22t55 12v-52q-26 -12 -54 -12zM524 -80q20 0 34 -13.5t14 -33.5t-14 -33t-34 -13t-33 13t-13 33t13 33.5t33 13.5z" />
<glyph horiz-adv-x="380" d="M379 32q20 0 34 -13.5t14 -33.5t-14 -33t-34 -13t-33 13t-13 33t13 33.5t33 13.5zM453 324l31 -53l-345 -291h-88zM99 267q64 0 64 72v240h-183v55h420v-55h-176v-239q0 -62 -30 -95.5t-90 -33.5q-40 0 -69 12v59q32 -15 64 -15z" />
<glyph horiz-adv-x="417" d="M439 0q20 0 34 -13.5t14 -33.5t-14 -33t-34 -13t-33 13t-13 33t13 33.5t33 13.5zM85 248q0 97 106 122q-39 6 -70.5 35t-31.5 83.5t46 90.5h-155v55h457v-55h-221q-65 -30 -65 -96q0 -84 135 -84h51v-55h-62q-60 0 -94 -25.5t-34 -73t38 -70.5t90 -23q74 0 135 44t86 100 l31 -72l-309 -269h-89l165 146q-83 -11 -146 28t-63 119z" />
<glyph horiz-adv-x="553" d="M-20 634h593v-55h-183v-150h-165q-39 0 -66 -16.5t-27 -53t30.5 -54.5t111 -22t127 -34t46.5 -100q0 -53 -34.5 -91.5t-95.5 -51.5l116 -153h-75l-96 128l-97 -128h-75l114 149q-74 8 -133 38v63q35 -22 86 -37t103 -15t87.5 25t35.5 69t-31.5 63t-104.5 23 q-177 9 -177 127q0 61 41.5 93.5t109.5 32.5h107v95h-348v55zM495 390q20 0 34 -13.5t14 -33.5t-14 -33t-34 -13t-33 13t-13 33t13 33.5t33 13.5zM284 -172h63l139 -162h-78zM204 -171q20 0 34 -13.5t14 -33.5t-14 -33t-34 -13t-33 13t-13 33t13 33.5t33 13.5z" />
<glyph horiz-adv-x="416" d="M439 10q20 0 34 -13.5t14 -33.5t-14 -33t-34 -13t-33 13t-13 33t13 33.5t33 13.5zM101 264q0 91 81 130h-147v55h337v-55q-118 0 -163.5 -38.5t-45.5 -91.5t34.5 -82t95.5 -29t117 41.5t87 98.5l32 -68l-333 -270h-92l176 146q-78 2 -128.5 45t-50.5 118zM436 634v-55 h-456v55h456z" />
<glyph horiz-adv-x="624" d="M644 579h-157v-125q77 -41 77 -148q0 -86 -52.5 -150.5t-138.5 -86.5l118 -155h-75l-96 128l-97 -128h-75l112 147q-86 8 -138 52t-52 113q0 52 29.5 86.5t75.5 40.5q-30 9 -57.5 40t-27.5 80q0 67 48 106h-158v55h664v-55zM431 579h-210q-69 -32 -69 -107 q0 -45 32 -71.5t76 -26.5h28v-53h-38q-55 0 -86.5 -26.5t-31.5 -74.5t46.5 -78.5t116.5 -30.5q91 0 149 52t58 144q0 53 -30 85t-91 32q-26 0 -42 -7v53q16 6 44 6t48 -3v106zM328 -118h63l139 -162h-78zM248 -114q20 0 34 -13.5t14 -33.5t-14 -33t-34 -13t-33 13t-13 33 t13 33.5t33 13.5z" />
<glyph horiz-adv-x="468" d="M108 448h541v-54h-367q72 -42 72 -121.5t-52.5 -128.5t-145.5 -49q-63 0 -116 23v57q58 -28 117 -28t96.5 31t37.5 92t-48.5 92.5t-134.5 31.5v54zM129 -100l407 347l33 -49l-350 -298h-90zM509 -10q20 0 34 -13.5t14 -33.5t-14 -33t-34 -13t-33 13t-13 33t13 33.5 t33 13.5zM488 634v-55h-508v55h508z" />
<glyph horiz-adv-x="602" d="M659 -50q20 0 34 -13.5t14 -33.5t-14 -33t-34 -13t-33 13t-13 33t13 33.5t33 13.5zM698 219l37 -49l-328 -299h-86zM709 259h-297q41 -38 41 -97t-45 -101t-117 -42q-97 0 -151 57v-123h-60v222h55q17 -43 61.5 -72.5t92 -29.5t75 25t27.5 66q0 87 -127 96 q-85 6 -129.5 30.5t-44.5 83t42.5 91t114.5 32.5h95v82h-362v55h642v-55h-218v-137h-152q-100 0 -100 -66q0 -32 28.5 -45t99.5 -19h429v-53z" />
<glyph horiz-adv-x="499" d="M519 -10q20 0 34 -13.5t14 -33.5t-14 -33t-34 -13t-33 13t-13 33t13 33.5t33 13.5zM570 257l32 -46l-342 -311h-86zM571 281h-185q-5 -79 -61 -129t-142.5 -50t-152.5 35v60q67 -41 141 -41t112.5 38.5t38.5 98.5t-35 96.5t-88.5 36.5t-82.5 -13v53q27 12 73 12 q81 0 131.5 -37.5t62.5 -104.5h188v-55zM519 634v-55h-539v55h539z" />
<glyph horiz-adv-x="488" d="M-20 634h528v-55h-114v-182q-33 5 -64 5q-90 0 -147.5 -43t-57.5 -121t50 -119.5t130.5 -41.5t142.5 37v-57q-41 -23 -105 -30l105 -138h-75l-96 128l-97 -128h-75l112 147q-73 20 -115 71.5t-42 127.5q0 98 69.5 158t174.5 60q19 0 28 -1v127h-352v55zM248 -180h63 l139 -162h-78zM19 50q20 0 34 -13.5t14 -33.5t-14 -33t-34 -13t-33 13t-13 33t13 33.5t33 13.5z" />
<glyph horiz-adv-x="561" d="M581 579h-250v-139q75 -13 122.5 -60.5t47.5 -120.5t-42 -122.5t-113 -66.5l109 -143h-75l-96 128l-97 -128h-75l108 142q-74 15 -117 65.5t-43 122.5q0 88 62 136t148 51v135h-290v55h601v-55zM393.5 154.5q43.5 39.5 43.5 103.5t-42.5 99t-110 35t-114 -33.5 t-46.5 -99.5t42 -105t113 -39t114.5 39.5zM257 -142h63l139 -162h-78zM19 80q20 0 34 -13.5t14 -33.5t-14 -33t-34 -13t-33 13t-13 33t13 33.5t33 13.5z" />
<glyph horiz-adv-x="517" d="M390 429h-165q-39 0 -66 -16.5t-27 -53.5t23.5 -58.5t62.5 -22.5l88 6q68 0 104.5 -37.5t36 -94.5t-35 -95t-95.5 -51l109 -143h-75l-96 128l-97 -128h-75l107 141q-68 9 -118 36v63q35 -22 86 -37t103 -15t87.5 25t35.5 68t-23.5 65t-63.5 22l-88 -7q-60 2 -99 38 t-39 96.5t41.5 93t109.5 32.5h107v95h-348v55h557v-55h-147v-150zM220 -206h63l139 -162h-78zM-1 0q20 0 34 -13.5t14 -33.5t-14 -33t-34 -13t-33 13t-13 33t13 33.5t33 13.5z" />
<glyph horiz-adv-x="554" d="M423 579v-180q-57 9 -102 9q-94 0 -145.5 -47.5t-51.5 -120.5t49.5 -118.5t117 -45.5t104.5 26t37 71q0 29 -21 47.5t-63.5 18.5t-81.5 -24v56q40 20 99 20t94 -33t35 -85t-37 -91t-100 -52l108 -142h-75l-96 128l-97 -128h-75l110 144q-77 18 -124.5 73.5t-47.5 141.5 t67 151.5t179 65.5q26 0 55 -3v118h-381v55h594v-55h-151zM261 -181h63l139 -162h-78zM29 40q20 0 34 -13.5t14 -33.5t-14 -33t-34 -13t-33 13t-13 33t13 33.5t33 13.5z" />
<glyph horiz-adv-x="508" d="M549 10q20 0 34 -13.5t14 -33.5t-14 -33t-34 -13t-33 13t-13 33t13 33.5t33 13.5zM586 297l35 -48l-297 -269h-90zM405 579v-230q0 -83 -42 -127.5t-123.5 -44.5t-120.5 42.5t-39 130.5v229h-110v55h558v-55h-123zM142 579v-229q0 -120 97 -120q104 0 104 119v230h-201z " />
<glyph horiz-adv-x="341" d="M339 60q20 0 34 -13.5t14 -33.5t-14 -33t-34 -13t-33 13t-13 33t13 33.5t33 13.5zM54 426q55 32 135 32t137.5 -38t84.5 -106q7 -14 13 -45l3 -11l-320 -201l-35 45l295 184q-24 52 -67.5 84.5t-109.5 33t-136 -36.5v59zM361 634v-55h-381v55h381z" />
<glyph horiz-adv-x="429" d="M413 -47q0 20 13 33.5t33 13.5t34 -13.5t14 -33.5t-14 -33t-34 -13t-33 13t-13 33zM353 507q0 -84 -63.5 -133.5t-181.5 -75.5q28 -132 170 -132q64 0 118 32.5t89 85.5l44 -44l-328 -285h-82l179 158q-104 -4 -177 50.5t-86 171.5q131 27 193.5 67t62.5 103 q0 36 -18.5 59t-54.5 23t-54.5 -21t-18.5 -45t2.5 -35t6.5 -19.5t4 -9.5h-62q-13 36 -13 63q0 48 38 83.5t100 35.5t97 -38.5t35 -93.5z" />
<glyph horiz-adv-x="547" d="M143 -174q0 20 13 33.5t33 13.5t34 -13.5t14 -33.5t-14 -33t-34 -13t-33 13t-13 33zM-20 634h587v-55h-122v-164h-167q-72 0 -113.5 -37.5t-41.5 -105.5t37.5 -107.5t100.5 -39.5t100.5 35t37.5 87h58v-257h-61v135l-201 -181h-82l141 129q-92 4 -145.5 60t-53.5 140.5 t57.5 140t158.5 55.5h113v110h-404v55zM495 -287h-78l-124 162h63z" />
<glyph horiz-adv-x="554" d="M423 579v-180q-57 9 -102 9q-94 0 -145.5 -47.5t-51.5 -120.5t49.5 -118.5t117 -45.5t104.5 26t37 71q0 29 -21 47.5t-63.5 18.5t-81.5 -24v56q40 20 99 20t94 -33t35 -85t-37 -91t-100 -52l108 -142h-75l-96 128l-97 -128h-75l110 144q-77 18 -124.5 73.5t-47.5 141.5 t67 151.5t179 65.5q26 0 55 -3v118h-381v55h594v-55h-151zM261 -181h63l139 -162h-78zM19 46q20 0 34 -13.5t14 -33.5t-14 -33t-34 -13t-33 13t-13 33t13 33.5t33 13.5z" />
<glyph horiz-adv-x="262" d="M109 446h316v-54l-284 -305h-74l281 305h-222q-32 0 -32 -36t14 -76h-53q-27 52 -27 97q0 69 81 69zM279 40q20 0 34 -13.5t14 -33.5t-14 -33t-34 -13t-33 13t-13 33t13 33.5t33 13.5zM282 634v-55h-302v55h302z" />
<glyph horiz-adv-x="338" d="M339 40q20 0 34 -13.5t14 -33.5t-14 -33t-34 -13t-33 13t-13 33t13 33.5t33 13.5zM75 395v184h-95v55h378v-55h-221v-184q0 -78 28 -112t87 -34q92 0 169 125l32 -48l-322 -326h-81l189 197q-164 8 -164 198z" />
<glyph horiz-adv-x="600" d="M452 579v-149q44 50 124 50q113 0 167 -93l-46 -39q-39 80 -121 80q-52 0 -88 -32.5t-36 -81.5v-314h-62v262l-259 -262h-81l189 197q-164 8 -164 198v184h-95v55h640v-55h-168zM137 579v-184q0 -78 28 -112t86 -34t98.5 41.5t40.5 112.5v176h-253zM259 -53 q20 0 34 -13.5t14 -33.5t-14 -33t-34 -13t-33 13t-13 33t13 33.5t33 13.5z" />
<glyph horiz-adv-x="373" d="M431 -20q20 0 34 -13.5t14 -33.5t-14 -33t-34 -13t-33 13t-13 33t13 33.5t33 13.5zM70 286q0 91 61.5 148t154.5 57q41 0 83 -11v-55q-42 14 -86.5 14t-80.5 -19l216 -223q24 26 42 61l30 -67l-290 -256h-85l167 148q-89 -2 -150.5 55t-61.5 148zM163 389 q-34 -40 -34 -104.5t42 -107t103.5 -42.5t108.5 31zM393 634v-55h-413v55h413z" />
<glyph horiz-adv-x="363" d="M184 381h296v-54l-329 -367h-88l337 367h-216v-140h-55l-22 50q-27 63 -27 86t12 37.5t30 18.5v135q0 37 -10 53.5t-38.5 16.5t-54.5 -13v53q28 14 66 14q99 0 99 -112v-145zM379 10q20 0 34 -13.5t14 -33.5t-14 -33t-34 -13t-33 13t-13 33t13 33.5t33 13.5z" />
<glyph horiz-adv-x="372" d="M184 381h303v-54l-328 -367h-89l334 367h-220v-140h-55l-22 50q-27 63 -27 86t12 37.5t30 18.5v200h-142v55h412v-55h-208v-198zM389 10q20 0 34 -13.5t14 -33.5t-14 -33t-34 -13t-33 13t-13 33t13 33.5t33 13.5z" />
<glyph horiz-adv-x="382" d="M383 -41q0 20 13 33.5t33 13.5t34 -13.5t14 -33.5t-14 -33t-34 -13t-33 13t-13 33zM402 579h-143q26 -39 26 -94q0 -117 -153 -164q13 -60 58.5 -99.5t101 -39.5t96 21.5t79.5 75.5l28 -53l-305 -271h-91l196 175q-91 0 -156 61t-80 173q79 13 121.5 46t42.5 81.5 t-31 87.5h-212v55h422v-55z" />
<glyph horiz-adv-x="356" d="M353 -47q0 20 13 33.5t33 13.5t34 -13.5t14 -33.5t-14 -33t-34 -13t-33 13t-13 33zM376 579h-396v55h396v-55zM254 410q-57 0 -94.5 -36.5t-37.5 -95.5t38 -96.5t92 -37.5t98 29.5t90 90.5l36 -51l-310 -278h-88l175 157q-82 0 -137.5 51t-55.5 133.5t54 135t137 52.5 q34 0 62 -7v-55q-23 8 -59 8z" />
<glyph horiz-adv-x="1261" d="M1281 579h-369v-151q43 49 121 49t128.5 -48t50.5 -131t-56 -134t-137 -51q-15 0 -23 3v54q10 -2 21 -2q57 0 95 35t38 94t-34.5 93.5t-84.5 34.5t-84.5 -32t-34.5 -79v-314h-62v152q-43 -49 -121 -49t-128.5 48t-50.5 125t46 130q-28 19 -71.5 19t-78 -32t-34.5 -79 v-314h-62v152q-43 -49 -121 -49t-128.5 48t-50.5 131t56 134t137 51q15 0 23 -3v-54q-10 2 -21 2q-57 0 -95 -35t-38 -94t34.5 -93.5t84.5 -34.5t84.5 32t34.5 79v313h-370v55h1301v-55zM850 266v313h-438v-151q43 49 114 49t119 -34q43 24 98 24q15 0 23 -3v-54 q-10 2 -21 2q-57 0 -95 -35t-38 -94t34.5 -93.5t84.5 -34.5t84.5 32t34.5 79z" />
<glyph horiz-adv-x="1333" d="M1353 634v-55h-120v-579h-62v195q-45 -55 -119 -55t-122 44.5t-48 117t47.5 116.5t114.5 44q30 0 53 -6v-54q-19 6 -45 6q-45 0 -76.5 -30.5t-31.5 -79t30.5 -77.5t79 -29t83 34t34.5 86v267h-315v-146q0 -72 -47 -111t-124 -39h-12l224 -283h-77l-220 285v46 q0 42 -22 68t-63 26t-72 -31.5t-31 -79.5v-314h-62v152q-43 -49 -121 -49t-128.5 48t-50.5 131t56 134t137 51q15 0 23 -3v-54q-10 2 -21 2q-57 0 -95 -35t-38 -94t34.5 -93.5t84.5 -34.5t84.5 32t34.5 79v313h-370v55h1373zM794 440v139h-382v-148q38 46 101 46t104 -38.5 t44 -100.5h4q129 0 129 102z" />
<glyph horiz-adv-x="1097" d="M1117 634v-55h-120v-579h-62v194q-23 -40 -70.5 -66t-120 -26.5t-125.5 42.5t-53 120q0 91 81 130h-74q-30 31 -72 31t-65.5 -30.5t-23.5 -80.5v-314h-62v152q-43 -49 -121 -49t-128.5 48t-50.5 131t56 134t137 51q15 0 23 -3v-54q-10 2 -21 2q-57 0 -95 -35t-38 -94 t34.5 -93.5t84.5 -34.5t84.5 32t34.5 79v313h-370v55h1137zM935 328v251h-523v-142q32 40 88.5 40t96.5 -28h240v-55q-118 0 -163.5 -38.5t-45.5 -91.5t34.5 -82t90.5 -29q86 0 134 52t48 123z" />
<glyph horiz-adv-x="1162" d="M1182 634v-55h-120v-579h-61v394h-217q75 -45 75 -147q0 -80 -54 -131t-144 -51q-64 0 -117 23v57q58 -28 117 -28t97 34t38 101t-49 104.5t-133 37.5l-1 -1q-34 32 -83 32t-83.5 -32t-34.5 -79v-314h-62v152q-43 -49 -121 -49t-128.5 48t-50.5 131t56 134t137 51 q15 0 23 -3v-54q-10 2 -21 2q-57 0 -95 -35t-38 -94t34.5 -93.5t84.5 -34.5t84.5 32t34.5 79v313h-370v55h1202zM1001 448v131h-589v-151q43 49 112.5 49t113.5 -29h363z" />
<glyph horiz-adv-x="988" d="M894 579v-182q-33 5 -64 5q-90 0 -147.5 -43t-57.5 -121t50 -119.5t130.5 -41.5t142.5 37v-57q-60 -32 -141 -32q-109 0 -178 56t-69 151t62 154q-36 39 -88.5 39t-87 -32t-34.5 -79v-314h-62v152q-43 -49 -121 -49t-128.5 48t-50.5 131t56 134t137 51q15 0 23 -3v-54 q-10 2 -21 2q-57 0 -95 -35t-38 -94t34.5 -93.5t84.5 -34.5t84.5 32t34.5 79v313h-370v55h1028v-55h-114zM412 579v-151q43 49 124.5 49t131.5 -57q61 33 136 33q19 0 28 -1v127h-420z" />
<glyph horiz-adv-x="1270" d="M1290 634v-55h-120v-579h-62v579h-173v-230q0 -83 -42 -127.5t-123.5 -44.5t-120.5 42.5t-39 130.5v46q-34 29 -81.5 29t-82 -32t-34.5 -79v-314h-62v152q-43 -49 -121 -49t-128.5 48t-50.5 131t56 134t137 51q15 0 23 -3v-54q-10 2 -21 2q-57 0 -95 -35t-38 -94 t34.5 -93.5t84.5 -34.5t84.5 32t34.5 79v313h-370v55h1310zM412 579v-151q43 49 119 49q43 0 79 -15v117h-198zM873 349v230h-201v-229q0 -120 97 -120q104 0 104 119z" />
<glyph horiz-adv-x="897" d="M917 579h-402v-193q47 52 135.5 52t145 -59.5t56.5 -151.5t-57 -152t-143 -60q-16 0 -23 3v54q10 -2 21 -2q64 0 102 41t38 115.5t-41.5 117t-97.5 42.5t-96 -32t-40 -79v-275h-61v386h-81q-187 0 -187 -169q0 -76 38.5 -118.5t115.5 -42.5q14 0 24 2v-54q-12 -2 -27 -2 q-99 0 -156.5 58t-57.5 157q0 116 80 168q-20 -1 -65 -1h-56v57h372v138h-474v55h937v-55z" />
<glyph horiz-adv-x="1200" d="M1039 634h181v-55h-120v-579h-61v220q-18 -38 -72 -72.5t-134.5 -34.5t-147.5 50.5t-83 155.5v1l-2 15h1q-10 90 -84 90q-45 0 -75 -31.5t-30 -79.5v-314h-62v152q-43 -49 -121 -49t-128.5 48t-50.5 131t56 134t137 51q15 0 23 -3v-54q-10 2 -21 2q-57 0 -95 -35t-38 -94 t34.5 -93.5t84.5 -34.5t84.5 32t34.5 79v313h-370v55h590v-55h-158v-148q38 46 102 46t101.5 -34.5t46.5 -92.5q99 25 146.5 62.5t47.5 92.5q0 36 -18.5 59t-54.5 23t-54.5 -21t-18.5 -45t2.5 -35t6.5 -19.5t4 -9.5h-62q-13 36 -13 63q0 48 38 83.5t100 35.5t97 -38.5 t35 -93.5q0 -84 -63.5 -133.5t-181.5 -75.5q28 -132 170 -132q82 0 139 54.5t57 153.5v260z" />
<glyph horiz-adv-x="1027" d="M900 429h-165q-39 0 -66 -16.5t-27 -53t30.5 -54.5t111 -22t127 -34t46.5 -98.5t-52.5 -110t-148.5 -41.5t-175 41v63q35 -22 86 -37t103 -15t87.5 25t35.5 69t-31.5 63t-104.5 23q-177 9 -177 127q0 31 10 52q-27 15 -68 15t-75.5 -32t-34.5 -79v-314h-62v152 q-43 -49 -121 -49t-128.5 48t-50.5 131t56 134t137 51q15 0 23 -3v-54q-10 2 -21 2q-57 0 -95 -35t-38 -94t34.5 -93.5t84.5 -34.5t84.5 32t34.5 79v313h-370v55h1067v-55h-147v-150zM412 579v-151q43 49 119 49q53 0 95 -22q41 29 105 29h107v95h-426z" />
<glyph horiz-adv-x="1077" d="M1097 634v-55h-120v-579h-62v245q-45 -67 -137 -68q-178 0 -178 198v29q-30 21 -74.5 21t-79 -32t-34.5 -79v-314h-62v152q-43 -49 -121 -49t-128.5 48t-50.5 131t56 134t137 51q15 0 23 -3v-54q-10 2 -21 2q-57 0 -95 -35t-38 -94t34.5 -93.5t84.5 -34.5t84.5 32 t34.5 79v313h-370v55h1117zM412 579v-151q43 49 119 49q36 0 69 -11v113h-188zM915 383v196h-253v-204q0 -78 28 -112t86 -34t98.5 41.5t40.5 112.5z" />
<glyph horiz-adv-x="1307" d="M1327 579h-350v-148q43 49 121 49t128.5 -48t50.5 -131t-56 -134t-137 -51q-16 0 -23 3v54q10 -2 21 -2q57 0 95 35t38 94t-34.5 93.5t-85.5 34.5t-84.5 -33t-33.5 -81v-314h-62v246q-44 -64 -135.5 -64.5t-135.5 43t-44 145.5v34q-30 21 -74.5 21t-79 -32t-34.5 -79 v-314h-62v152q-43 -49 -121 -49t-128.5 48t-50.5 131t56 134t137 51q15 0 23 -3v-54q-10 2 -21 2q-57 0 -95 -35t-38 -94t34.5 -93.5t84.5 -34.5t84.5 32t34.5 79v313h-370v55h1347v-55zM412 579v-151q43 49 119 49q36 0 69 -11v113h-188zM915 383v196h-253v-204 q0 -77 27.5 -109.5t86.5 -32.5t99 39.5t40 110.5z" />
<glyph horiz-adv-x="1059" d="M1079 634v-55h-120v-579h-62v285h-223v-140h-55l-22 50q-27 63 -27 86t12 37.5t30 18.5v57q-34 31 -82.5 31t-83 -32t-34.5 -79v-314h-62v152q-43 -49 -121 -49t-128.5 48t-50.5 131t56 134t137 51q15 0 23 -3v-54q-10 2 -21 2q-57 0 -95 -35t-38 -94t34.5 -93.5 t84.5 -34.5t84.5 32t34.5 79v313h-370v55h1099zM412 579v-151q43 49 119 49q46 0 81 -16v118h-200zM897 339v240h-223v-240h223z" />
<glyph horiz-adv-x="1156" d="M1176 634v-55h-120v-579h-61v201q-54 -71 -166 -71q-92 0 -156.5 61t-79.5 173h2q-18 61 -78 61q-45 0 -75 -31.5t-30 -79.5v-314h-62v152q-43 -49 -121 -49t-128.5 48t-50.5 131t56 134t137 51q15 0 23 -3v-54q-10 2 -21 2q-57 0 -95 -35t-38 -94t34.5 -93.5t84.5 -34.5 t84.5 32t34.5 79v313h-370v55h1196zM412 579v-148q38 46 109 46q49 0 84 -26t50 -72q102 37 102 109q0 52 -31 91h-314zM995 327v252h-202q26 -39 26 -94q0 -117 -153 -164q13 -60 58.5 -99.5t112.5 -39.5t112.5 40t45.5 105z" />
<glyph horiz-adv-x="1237" d="M1257 634v-55h-120v-579h-62v397q-33 20 -65 20q-52 0 -82 -32.5t-30 -100.5v-74h-61v75q0 129 -94 129q-47 0 -79 -40t-32 -120.5t45.5 -141t131.5 -60.5q15 0 23 2v-51q-14 -3 -32 -3q-103 0 -166.5 75t-63.5 187q0 79 38 136q-32 27 -79.5 27t-82 -32t-34.5 -79v-314 h-62v152q-43 -49 -121 -49t-128.5 48t-50.5 131t56 134t137 51q15 0 23 -3v-54q-10 2 -21 2q-57 0 -95 -35t-38 -94t34.5 -93.5t84.5 -34.5t84.5 32t34.5 79v313h-370v55h1277zM1075 579h-663v-151q43 49 117 49t120 -37q38 26 89.5 26t86 -24.5t44.5 -70.5q22 98 136 98 q40 0 70 -16v126z" />
<glyph horiz-adv-x="1079" d="M1099 634v-55h-120v-579h-61v179q-48 -87 -166 -87q-77 0 -133 51t-56 128.5t43 128.5q-34 25 -79.5 25t-80 -32t-34.5 -79v-314h-62v152q-43 -49 -121 -49t-128.5 48t-50.5 131t56 134t137 51q15 0 23 -3v-54q-10 2 -21 2q-57 0 -95 -35t-38 -94t34.5 -93.5t84.5 -34.5 t84.5 32t34.5 79v313h-370v55h1119zM918 319v260h-506v-151q43 49 117.5 49t122.5 -39q44 26 90 26t74 -7v-55q-23 8 -59 8q-57 0 -94.5 -36.5t-37.5 -95.5t38 -96.5t92 -37.5q78 0 120.5 52t42.5 123z" />
<glyph horiz-adv-x="1194" d="M1032 634h182v-55h-120v-579h-62v634zM645 443l10 -8l-42 -42q-34 32 -83 32t-83.5 -32t-34.5 -79v-314h-62v152q-43 -49 -121 -49t-128.5 48t-50.5 131t56 134t137 51q15 0 23 -3v-54q-10 2 -21 2q-57 0 -95 -35t-38 -94t34.5 -93.5t84.5 -34.5t84.5 32t34.5 79v313 h-370v55h552v-55h-120v-151q43 49 119 49q53 0 93 -21q-7 22 -7 48q0 54 36.5 92t103 38t108.5 -49t42 -118q0 -97 -64 -152t-151 -55h-47l229 -260h-83l-221 258v57h95q85 0 132.5 40t47.5 104q0 120 -93 120q-38 0 -57 -23t-19 -55.5t14 -57.5h-45z" />
<glyph horiz-adv-x="1213" d="M1233 634v-55h-120v-579h-61v271h-173q-112 0 -182 9l183 -280h-75l-185 285v51q-13 89 -103 89q-45 0 -75 -31.5t-30 -79.5v-314h-62v152q-43 -49 -121 -49t-128.5 48t-50.5 131t56 134t137 51q15 0 23 -3v-54q-10 2 -21 2q-57 0 -95 -35t-38 -94t34.5 -93.5t84.5 -34.5 t84.5 32t34.5 79v313h-370v55h1253zM412 579v-148q38 46 102.5 46t110.5 -32t60 -107q59 0 79 23t20 75v143h-372zM1052 328v251h-206v-150q0 -64 -28 -101h234z" />
<glyph horiz-adv-x="1333" d="M1353 634v-55h-120v-579h-62v153q-71 -105 -221 -105q-95 0 -169.5 47t-119.5 124q-26 -75 -93 -123t-168 -48q-124 0 -211.5 77t-118.5 190v53h65q53 0 66 21t13 81v109h-234v55h1373zM685 368q53 0 66 21t13 81v109h-488v-116q0 -78 -26.5 -114t-94.5 -36h-13 q21 -86 91 -148t169.5 -62t156.5 55t57 141q0 60 -29.5 98t-81 38t-77 -27.5t-25.5 -64.5t21.5 -59t52.5 -22t55 12v-52q-26 -12 -54 -12q-57 0 -96.5 36t-39.5 96t44.5 102.5t106 42.5t108 -29t64.5 -90h20zM1171 579h-345v-116q0 -78 -26.5 -114t-94.5 -36h-13 q21 -86 91 -148t169.5 -62t160.5 57t61 143q0 60 -32.5 96t-85 36t-78 -27.5t-25.5 -64.5t21.5 -59t52.5 -22t55 12v-52q-26 -12 -54 -12q-57 0 -96.5 36t-39.5 96t44.5 102.5t116 42.5t118.5 -50v142z" />
<glyph horiz-adv-x="1124" d="M1144 634v-55h-120v-579h-61v391h-101q-187 0 -187 -167q0 -78 39 -124t115 -46q14 0 24 2v-54q-12 -2 -27 -2q-77 0 -130 40t-73 108q-76 -100 -223 -100q-124 0 -211.5 77t-118.5 190v53h65q53 0 66 21t13 81v109h-234v55h1164zM963 446v133h-687v-116 q0 -78 -26.5 -114t-94.5 -36h-13q21 -86 91 -148t169.5 -62t156.5 55t57 141q0 60 -29.5 98t-81 38t-77 -27.5t-25.5 -64.5t21.5 -59t52.5 -22t55 12v-52q-26 -12 -54 -12q-57 0 -96.5 36t-39.5 96t44.5 102.5t105 42.5t106.5 -27.5t65 -85.5q62 72 188 72h112z" />
<glyph horiz-adv-x="1119" d="M1139 634v-55h-120v-579h-62v285h-223v-140h-55l-25 56q-29 -68 -94 -110.5t-160 -42.5q-124 0 -211.5 77t-118.5 190v53h65q53 0 66 21t13 81v109h-234v55h1159zM478 210q-57 0 -96.5 36t-39.5 96t44.5 102.5t109.5 42.5t114.5 -37t60.5 -113h1v242h-396v-116 q0 -78 -26.5 -114t-94.5 -36h-13q21 -86 91 -148t169.5 -62t156.5 55t57 141q0 60 -29.5 98t-81 38t-77 -27.5t-25.5 -64.5t21.5 -59t52.5 -22t55 12v-52q-26 -12 -54 -12zM957 339v240h-223v-240h223z" />
<glyph horiz-adv-x="1173" d="M1193 634v-55h-120v-579h-61v201q-54 -71 -169 -71t-181 93q-24 -76 -91.5 -125.5t-170.5 -49.5q-124 0 -211.5 77t-118.5 190v53h65q53 0 66 21t13 81v109h-234v55h1213zM155 313h-13q21 -86 91 -148t169.5 -62t156.5 55t57 141q0 60 -29.5 98t-81 38t-77 -27.5 t-25.5 -64.5t21.5 -59t52.5 -22t55 12v-52q-26 -12 -54 -12q-57 0 -96.5 36t-39.5 96t44.5 102.5t105 42.5t106 -27t64.5 -84q112 35 112 112q0 52 -31 91h-467v-116q0 -78 -26.5 -114t-94.5 -36zM1012 327v252h-202q26 -39 26 -94q0 -117 -153 -164q13 -60 58.5 -99.5 t112.5 -39.5t112.5 40t45.5 105z" />
<glyph horiz-adv-x="1133" d="M1153 634v-55h-120v-579h-61v179q-48 -87 -166 -87q-50 0 -93.5 23t-68.5 64q-33 -59 -95 -95t-149 -36q-124 0 -211.5 77t-118.5 190v53h65q53 0 66 21t13 81v109h-234v55h1173zM972 319v260h-696v-116q0 -78 -26.5 -114t-94.5 -36h-13q21 -86 91 -148t169.5 -62 t156.5 55t57 141q0 60 -29.5 98t-81 38t-77 -27.5t-25.5 -64.5t21.5 -59t52.5 -22t55 12v-52q-26 -12 -54 -12q-57 0 -96.5 36t-39.5 96t44.5 102.5t102.5 42.5q122 0 166 -93q55 70 153 70q34 0 62 -7v-55q-23 8 -59 8q-57 0 -94.5 -36.5t-37.5 -95.5t38 -96.5t92 -37.5 q78 0 120.5 52t42.5 123z" />
<glyph horiz-adv-x="1254" d="M1092 634h182v-55h-120v-579h-62v634zM677 504q0 54 36.5 92t103 38t108.5 -49t42 -118q0 -97 -64 -152t-151 -55h-47l229 -260h-83l-189 221q-25 -76 -92.5 -124.5t-169.5 -48.5q-124 0 -211.5 77t-118.5 190v53h65q53 0 66 21t13 81v109h-234v55h611v-55h-315v-116 q0 -78 -26.5 -114t-94.5 -36h-13q21 -86 91 -148t169.5 -62t156.5 55t57 141q0 60 -29.5 98t-81 38t-77 -27.5t-25.5 -64.5t21.5 -59t52.5 -22t55 12v-52q-26 -12 -54 -12q-57 0 -96.5 36t-39.5 96t44.5 102.5t112 42.5t118.5 -42t57 -130h51q85 0 132.5 40t47.5 104 q0 120 -93 120q-38 0 -57 -23t-19 -55.5t14 -57.5h-61q-12 27 -12 61z" />
<glyph horiz-adv-x="871" d="M891 634v-55h-120v-579h-61v579h-191v-239q0 -62 -30 -95.5t-90 -33.5q-40 0 -69 12v59q32 -15 64 -15q64 0 64 72v240h-239v-239q0 -62 -30 -95.5t-90 -33.5q-40 0 -69 12v59q32 -15 64 -15q64 0 64 72v240h-178v55h911z" />
<glyph horiz-adv-x="923" d="M943 634v-55h-120v-579h-61v198q-32 -41 -88 -69.5t-134 -28.5t-129 40t-51 108q0 97 106 122q-39 6 -70.5 35t-31.5 83.5t46 90.5h-191v-239q0 -62 -30 -95.5t-90 -33.5q-40 0 -69 12v59q32 -15 64 -15q64 0 64 72v240h-178v55h963zM762 327v252h-271q-65 -30 -65 -96 q0 -84 135 -84h51v-55h-62q-60 0 -94 -25.5t-34 -73t38 -70.5t90 -23q88 0 150 53.5t62 121.5z" />
<glyph horiz-adv-x="958" d="M978 634v-55h-120v-579h-61v394h-217q75 -45 75 -147q0 -80 -54 -131t-144 -51q-64 0 -117 23v57q58 -28 117 -28t97 34t38 101t-49 104.5t-134 37.5v54h388v131h-578v-239q0 -62 -30 -95.5t-90 -33.5q-40 0 -69 12v59q32 -15 64 -15q64 0 64 72v240h-178v55h998z" />
<glyph horiz-adv-x="1040" d="M1060 634v-55h-120v-579h-62v579h-173v-230q0 -83 -42 -127.5t-123.5 -44.5t-120.5 42.5t-39 130.5v229h-161v-239q0 -62 -30 -95.5t-90 -33.5q-40 0 -69 12v59q32 -15 64 -15q64 0 64 72v240h-178v55h1080zM643 349v230h-201v-229q0 -120 97 -120q104 0 104 119z" />
<glyph horiz-adv-x="842" d="M740 415h-167q-72 0 -113.5 -37.5t-41.5 -105.5t37.5 -107.5t100.5 -39.5t100.5 35t37.5 87h58v-257h-61v135q-44 -52 -136 -52t-148.5 57t-56.5 142.5t57.5 141t158.5 55.5h113v110h-460v-239q0 -62 -30 -95.5t-90 -33.5q-40 0 -69 12v59q32 -15 64 -15q64 0 64 72v240 h-178v55h882v-55h-122v-164z" />
<glyph horiz-adv-x="902" d="M922 634v-55h-120v-579h-61v163q-24 -41 -75 -70.5t-121 -29.5q-96 0 -150.5 45t-54.5 106t33.5 95t85.5 41q-53 7 -85 38t-32 86q0 70 66 105h-189v-239q0 -62 -30 -95.5t-90 -33.5q-40 0 -69 12v59q32 -15 64 -15q64 0 64 72v240h-178v55h576v-55q-71 0 -111.5 -30.5 t-40.5 -78t42.5 -71t106.5 -23.5h53v-53h-62q-65 0 -103 -28.5t-38 -75t38 -75t104 -28.5q88 0 142 56t54 117v345h181z" />
<glyph horiz-adv-x="881" d="M901 634v-55h-120v-579h-61v173q-23 -38 -72.5 -64t-112.5 -26q-85 0 -145 56.5t-60 147t61.5 147.5t154.5 57q41 0 83 -11v-55q-42 14 -86.5 14t-80.5 -19l217 -225q41 50 41 115v269h-501v-239q0 -62 -30 -95.5t-90 -33.5q-40 0 -69 12v59q32 -15 64 -15q64 0 64 72 v240h-178v55h921zM423 389q-34 -40 -34 -104.5t42 -107t105 -42.5t108 29z" />
<glyph horiz-adv-x="825" d="M663 634h182v-55h-120v-579h-62v285h-208v-140h-55l-22 50q-27 63 -27 86t12 37.5t30 18.5v177q0 37 -10 53.5t-30.5 16.5t-33.5 -3v-2h-8q-12 -3 -21 -8v8h-71v-239q0 -62 -30 -95.5t-90 -33.5q-40 0 -69 12v59q32 -15 64 -15q64 0 64 72v240h-178v55h339q15 4 37 4 q99 0 99 -112v-187h208v295z" />
<glyph horiz-adv-x="849" d="M869 634v-55h-120v-579h-62v285h-223v-140h-55l-22 50q-27 63 -27 86t12 37.5t30 18.5v242h-183v-239q0 -62 -30 -95.5t-90 -33.5q-40 0 -69 12v59q32 -15 64 -15q64 0 64 72v240h-178v55h889zM687 339v240h-223v-240h223z" />
<glyph horiz-adv-x="923" d="M943 634v-55h-120v-579h-61v201q-54 -71 -166 -71q-92 0 -156.5 61t-79.5 173q79 13 121.5 46t42.5 81.5t-31 87.5h-274v-239q0 -62 -30 -95.5t-90 -33.5q-40 0 -69 12v59q32 -15 64 -15q64 0 64 72v240h-178v55h963zM762 327v252h-202q26 -39 26 -94q0 -117 -153 -164 q13 -60 58.5 -99.5t112.5 -39.5t112.5 40t45.5 105z" />
<glyph horiz-adv-x="1017" d="M1037 634v-55h-120v-579h-62v397q-33 20 -65 20q-52 0 -82 -32.5t-30 -100.5v-74h-61v75q0 129 -94 129q-47 0 -79 -40t-32 -120.5t45.5 -141t131.5 -60.5q15 0 23 2v-51q-14 -3 -32 -3q-103 0 -166.5 75t-63.5 187q0 89 46 146.5t121 57.5q53 0 87.5 -24.5t44.5 -70.5 q22 98 136 98q40 0 70 -16v126h-636v-239q0 -62 -30 -95.5t-90 -33.5q-40 0 -69 12v59q32 -15 64 -15q64 0 64 72v240h-178v55h1057z" />
<glyph horiz-adv-x="866" d="M886 634v-55h-120v-579h-61v179q-48 -87 -166 -87q-77 0 -133 51t-56 133.5t54 135t137 52.5q34 0 62 -7v-55q-23 8 -59 8q-57 0 -94.5 -36.5t-37.5 -95.5t38 -96.5t92 -37.5q78 0 120.5 52t42.5 123v260h-486v-239q0 -62 -30 -95.5t-90 -33.5q-40 0 -69 12v59 q32 -15 64 -15q64 0 64 72v240h-178v55h906z" />
<glyph horiz-adv-x="943" d="M963 634v-55h-120v-579h-61v271h-173q-112 0 -182 9l183 -280h-75l-185 285v53h65q59 0 79 23t20 75v143h-295v-239q0 -62 -30 -95.5t-90 -33.5q-40 0 -69 12v59q32 -15 64 -15q64 0 64 72v240h-178v55h983zM782 328v251h-206v-150q0 -64 -28 -101h234z" />
<glyph horiz-adv-x="909" d="M929 634v-55h-120v-579h-62v285h-223v-140h-55l-12 27q-77 -72 -190 -72q-85 0 -136 40t-51 108q0 97 106 122q-39 6 -70.5 35t-31.5 83.5t46 90.5h-150v55h949zM332 344h-62q-60 0 -94 -25.5t-34 -73t38 -70.5t87.5 -23t94.5 18t74 51q-16 39 -16 61t12 36.5t30 18.5 v242h-251q-65 -30 -65 -96q0 -84 135 -84h51v-55zM747 339v240h-223v-240h223z" />
<glyph horiz-adv-x="973" d="M993 634v-55h-120v-579h-61v201q-54 -71 -159 -71t-170 67q-87 -97 -216 -97q-85 0 -136 40t-51 108q0 97 106 122q-39 6 -70.5 35t-31.5 83.5t46 90.5h-150v55h1013zM332 344h-62q-60 0 -94 -25.5t-34 -73t38 -70.5t90 -23q106 0 183 84q-33 55 -43 128q79 13 121.5 46 t42.5 81.5t-31 87.5h-332q-65 -30 -65 -96q0 -84 135 -84h51v-55zM812 327v252h-202q26 -39 26 -94q0 -117 -153 -164q13 -60 58.5 -99.5t112.5 -39.5t112.5 40t45.5 105z" />
<glyph horiz-adv-x="987" d="M1007 634v-55h-120v-579h-62v194q-23 -40 -70.5 -66t-107.5 -26.5t-104.5 21t-66.5 61.5q-74 -83 -191 -83q-82 0 -135.5 43t-53.5 120q0 91 81 130h-147v55h337v-55q-118 0 -163.5 -38.5t-45.5 -90t36.5 -82t91 -30.5t99.5 26t72 62q-1 8 -1 23q0 91 81 130h-117v55h307 v-55q-118 0 -163.5 -38.5t-45.5 -91.5t34.5 -82t90.5 -29q86 0 134 52t48 123v251h-845v55h1027z" />
<glyph horiz-adv-x="1019" d="M1039 579h-157v-125q77 -41 77 -147.5t-76.5 -177t-192.5 -70.5q-84 0 -142 32t-76 89q-74 -79 -187 -79q-82 0 -135.5 43t-53.5 120q0 91 81 130h-147v55h337v-55q-118 0 -163.5 -38.5t-45.5 -90t36.5 -82t94.5 -30.5t107.5 32.5t72.5 73.5q9 39 36 64t65 30 q-30 9 -57.5 40t-27.5 80q0 67 48 106h-553v55h1059v-55zM826 579h-210q-69 -32 -69 -107q0 -45 32 -71.5t76 -26.5h28v-53h-38q-55 0 -86.5 -26.5t-31.5 -74.5t46.5 -78.5t116.5 -30.5q91 0 149 52t58 144q0 53 -30 85t-91 32q-26 0 -42 -7v53q16 6 44 6t48 -3v106z" />
<glyph horiz-adv-x="929" d="M949 634v-55h-120v-579h-62v285h-223v-140h-55l-16 36q-73 -80 -188 -80q-82 0 -135.5 43t-53.5 120q0 91 81 130h-147v55h337v-55q-118 0 -163.5 -38.5t-45.5 -90t36.5 -82t89.5 -30.5t96.5 23.5t70.5 57.5q-11 33 -11 51.5t12 33t30 18.5v242h-502v55h969zM767 339v240 h-223v-240h223z" />
<glyph horiz-adv-x="993" d="M1013 634v-55h-120v-579h-61v201q-54 -71 -164 -71t-174 78q-29 -46 -84.5 -76.5t-131 -30.5t-129 43t-53.5 120q0 91 81 130h-147v55h337v-55q-118 0 -163.5 -38.5t-45.5 -90t36.5 -82t92.5 -30.5t104.5 30t72.5 69q-25 45 -34 112q79 13 121.5 46t42.5 81.5t-31 87.5 h-583v55h1033zM832 327v252h-202q26 -39 26 -94q0 -117 -153 -164q13 -60 58.5 -99.5t112.5 -39.5t112.5 40t45.5 105z" />
<glyph horiz-adv-x="1163" d="M1184 634v-55h-121v-579h-61v140q-51 -72 -150 -72q-82 0 -140.5 52t-71.5 153q143 24 143 98q0 59 -107 59q-66 0 -136 -26q24 -42 24 -98q0 -106 -76.5 -176.5t-184.5 -70.5t-170.5 45.5t-62.5 121.5q0 52 29.5 86.5t75.5 40.5q-30 9 -57.5 40t-27.5 80q0 67 48 106 h-158v55h1204zM288 321h-38q-55 0 -86.5 -26.5t-31.5 -74.5t46.5 -78.5t116.5 -30.5q91 0 149 52t58 144q0 53 -30 85t-91 32q-26 0 -42 -7v53q16 6 44 6t48 -3v106h-210q-69 -32 -69 -107q0 -45 32 -71.5t76 -26.5h28v-53zM1002 274v305h-515v-125q2 -1 14 -8 q75 37 168.5 37t134.5 -32.5t41 -80.5t-37.5 -85t-94.5 -54q10 -49 48.5 -79t100 -30t101 45t39.5 107z" />
<glyph horiz-adv-x="648" d="M668 579h-137v-124q77 -41 77 -146q0 -89 -78 -157v-452h-61v178q-50 -88 -166 -88q-78 0 -133.5 45.5t-55.5 125.5q0 93 85 137q-58 20 -91.5 59.5t-33.5 88t31.5 80.5t73.5 38q-31 9 -58 37t-27 84t48 94h-162v55h688v-55zM469 19v93q-66 -34 -142 -34h-8 q-66 0 -104.5 -31t-38.5 -87t36 -87t94 -31q78 0 120.5 52.5t42.5 124.5zM475 579h-251q-68 -31 -68 -102q0 -45 31.5 -66.5t76.5 -21.5h28v-53h-38q-54 0 -86 -24.5t-32 -64.5q0 -55 54 -85.5t141.5 -30.5t151 50.5t63.5 128.5q0 53 -30 83.5t-91 30.5q-26 0 -42 -7v53 q16 6 44.5 6t47.5 -3v106z" />
<glyph horiz-adv-x="1201" d="M1221 579h-369v-151q43 49 121 49t128.5 -48t50.5 -131t-56 -134t-137 -51q-15 0 -23 3v54q10 -2 21 -2q57 0 95 35t38 94t-34.5 93.5t-84.5 34.5t-84.5 -32t-34.5 -79v-314h-62v152q-43 -49 -121 -49t-128.5 48t-50.5 121t36 122h-256q75 -45 75 -147q0 -80 -54 -131 t-144 -51q-64 0 -117 23v57q58 -28 117 -28t97 34t38 101t-49 104.5t-134 37.5v54h438v-41q55 60 146 60q15 0 23 -3v-54q-10 2 -21 2q-57 0 -95 -35t-38 -94t34.5 -93.5t84.5 -34.5t84.5 32t34.5 79v313h-810v55h1241v-55z" />
<glyph horiz-adv-x="1048" d="M1068 634v-55h-120v-579h-61v394h-217q75 -45 75 -147q0 -80 -54 -131t-144 -51q-64 0 -117 23v57q58 -28 117 -28t97 34t38 101t-49 104.5t-134 37.5h-229q75 -45 75 -147q0 -80 -54 -131t-144 -51q-64 0 -117 23v57q58 -28 117 -28t97 34t38 101t-49 104.5t-134 37.5 v54h788v131h-907v55h1088z" />
<glyph horiz-adv-x="1153" d="M1173 634v-55h-120v-579h-62v258h-189q40 -38 40 -96.5t-45 -100.5t-117 -42q-96 0 -150 57v-123h-60v222h55q17 -43 61 -72.5t91.5 -29.5t75 25t27.5 66q0 87 -127 96q-85 6 -129.5 30.5t-44.5 84.5q0 13 1 19h-210q75 -45 75 -147q0 -80 -54 -131t-144 -51 q-64 0 -117 23v57q58 -28 117 -28t97 34t38 101t-49 104.5t-134 37.5v54h405q43 49 132 49h95v82h-751v55h1193zM991 311v268h-198v-137h-152q-100 0 -100 -66q0 -32 29 -45q27 -12 110 -20h311z" />
<glyph horiz-adv-x="898" d="M804 579v-182q-33 5 -64 5q-90 0 -147.5 -43t-57.5 -121t50 -119.5t130.5 -41.5t142.5 37v-57q-60 -32 -141 -32q-109 0 -178 56t-69 154t71 159h-271q75 -45 75 -147q0 -80 -54 -131t-144 -51q-64 0 -117 23v57q58 -28 117 -28t97 34t38 101t-49 104.5t-134 37.5v54h558 q30 5 53 5t32 -1v127h-762v55h938v-55h-114z" />
<glyph horiz-adv-x="909" d="M537 394h-4q-9 -14 -9 -34q0 -37 30.5 -55t111 -22t127 -34t46.5 -98.5t-52.5 -110t-148.5 -41.5t-175 41v63q35 -22 86 -37t103 -15t87.5 25t35.5 69t-31.5 63t-104.5 23q-177 9 -177 127q0 14 4 36h-196q75 -45 75 -147q0 -80 -54 -131t-144 -51q-64 0 -117 23v57 q58 -28 117 -28t97 34t38 101t-49 104.5t-134 37.5v54h401q40 36 113 36h107v95h-740v55h949v-55h-147v-150h-165q-57 0 -80 -29v-6z" />
<glyph horiz-adv-x="1002" d="M1022 634v-55h-120v-579h-61v391h-101q-187 0 -187 -167q0 -78 39 -124t115 -46q14 0 24 2v-54q-12 -2 -27 -2q-98 0 -156 63.5t-58 166t69 162.5h-288q74 -43 74 -145q0 -80 -54 -131t-144 -51q-64 0 -117 23v57q58 -28 117 -28t97 34t38 100.5t-49 103.5t-134 37v54 h742v133h-861v55h1042z" />
</font>
</defs>
</svg>
