<?xml version="1.0" standalone="no"?>
<!DOCTYPE svg PUBLIC "-//W3C//DTD SVG 1.1//EN" "http://www.w3.org/Graphics/SVG/1.1/DTD/svg11.dtd" >
<svg xmlns="http://www.w3.org/2000/svg" xmlns:xlink="http://www.w3.org/1999/xlink" version="1.1">
<metadata></metadata>
<defs>
<font id="hind_regularregular" horiz-adv-x="0" >
<font-face units-per-em="1000" ascent="800" descent="-200" />
<missing-glyph horiz-adv-x="244" />
<glyph />
<glyph />
<glyph unicode="&#xd;" horiz-adv-x="333" />
<glyph unicode=" "  horiz-adv-x="244" />
<glyph unicode="&#x09;" horiz-adv-x="244" />
<glyph unicode="&#xa0;" horiz-adv-x="244" />
<glyph unicode="!" horiz-adv-x="251" d="M81.5 9q-16.5 17 -16.5 41.5t17 42t42 17.5t42.5 -17.5t17.5 -42t-17 -41.5t-43 -17t-42.5 17zM87 204v470h77v-470h-77z" />
<glyph unicode="&#x22;" horiz-adv-x="295" d="M181 444v237h70v-237h-70zM44 444v237h71v-237h-71z" />
<glyph unicode="#" horiz-adv-x="710" d="M657 439h-116l-43 -206h107v-63h-120l-36 -170h-73l36 170h-179l-36 -170h-71l36 170h-109v63h122l43 206h-111v64h125l36 171h72l-36 -171h179l36 171h71l-36 -171h103v-64zM425 233l44 206h-179l-44 -206h179z" />
<glyph unicode="$" horiz-adv-x="505" d="M417 564q-61 40 -133.5 40t-108.5 -28.5t-36 -74.5q0 -25 9.5 -43.5t35.5 -35.5q35 -23 67.5 -37.5t53.5 -24t45 -23t51 -35.5q53 -43 53 -124t-52.5 -129t-137.5 -55v-103h-69v104q-82 8 -139 41v87q73 -55 178 -55q63 0 99.5 28.5t36.5 80.5q0 24 -9.5 42.5t-35 35.5 t-40 24.5t-41 18.5t-47.5 20.5t-44.5 23t-48.5 35.5q-51 44 -51 122t54.5 126t138.5 54v104h69v-106q59 -7 102 -28v-85z" />
<glyph unicode="%" horiz-adv-x="847" d="M550 151q0 -37 26.5 -63t63.5 -26t63.5 26t26.5 63t-26 63.5t-63.5 26.5t-64 -26.5t-26.5 -63.5zM118 515q0 -37 26 -63.5t63 -26.5t63.5 26.5t26.5 63.5t-26.5 63t-63.5 26t-63 -26t-26 -63zM95.5 402.5q-46.5 46.5 -46.5 112t46.5 112t111.5 46.5t112 -46.5t47 -112 t-47 -112t-112 -46.5t-111.5 46.5zM528 39.5q-46 46.5 -46 112t46 112t111.5 46.5t112 -47t46.5 -112t-46.5 -111.5t-112 -46.5t-111.5 46.5zM206 -1l357 666h77l-359 -666h-75z" />
<glyph unicode="&#x26;" horiz-adv-x="703" d="M526 63q-81 -71 -201.5 -71t-190 51.5t-69.5 132.5q0 113 158 173q-47 51 -69 90.5t-22 83.5q0 75 51 121t136 46t137 -49.5t52 -123.5q0 -57 -36.5 -103t-122.5 -86l169 -158q24 44 28 98h76q-6 -86 -48 -150l127 -118h-107zM399 588.5q-28 29.5 -77 29.5t-78.5 -25.5 t-29.5 -64t18.5 -70t66.5 -80.5q67 31 97.5 63.5t30.5 75t-28 72zM471 115l-198 184q-64 -24 -95 -53t-31 -74.5t47 -76t131 -30.5t146 50z" />
<glyph unicode="'" horiz-adv-x="159" d="M44 444v237h71v-237h-71z" />
<glyph unicode="(" horiz-adv-x="310" d="M72 261q0 122 41 238t112 208h87q-157 -212 -157 -451t165 -452h-88q-160 204 -160 457z" />
<glyph unicode=")" horiz-adv-x="310" d="M239 261q0 -252 -161 -457h-88q165 213 165 453t-157 450h88q71 -92 112 -208t41 -238z" />
<glyph unicode="*" horiz-adv-x="408" d="M250 488h-7q19 -10 32 -30l56 -78l-51 -38l-57 78q-14 20 -19 39q-5 -20 -19 -40l-57 -77l-52 37l57 79q16 21 31 29h-8q-19 0 -36 6l-91 30l19 62l93 -30q21 -7 39 -23q-9 20 -9 46v96h64v-96q0 -26 -8 -44q15 15 39 22l92 29l20 -61l-92 -30q-16 -6 -36 -6z" />
<glyph unicode="+" horiz-adv-x="553" d="M497 376v-72h-187v-189h-74v189h-179v72h179v189h74v-189h187z" />
<glyph unicode="," horiz-adv-x="225" d="M-8 -123l93 224h105l-129 -224h-69z" />
<glyph unicode="-" horiz-adv-x="348" d="M57 234v69h234v-69h-234z" />
<glyph unicode="." horiz-adv-x="166" d="M24 51q0 25 17 42t42 17t42 -17t17 -42t-17 -42t-42 -17t-42 17t-17 42z" />
<glyph unicode="/" horiz-adv-x="403" d="M-9 -102l364 809h81l-365 -809h-80z" />
<glyph unicode="0" horiz-adv-x="544" d="M124 329q0 -123 42 -192.5t107.5 -69.5t106 68t40.5 193.5t-42.5 192t-105 66.5t-105.5 -67.5t-43 -190.5zM105 84q-62 92 -62 245.5t62.5 243t166.5 89.5t166.5 -89.5t62.5 -243t-60 -245.5t-167 -92t-169 92z" />
<glyph unicode="1" horiz-adv-x="323" d="M247 654v-654h-78v568l-151 -93v85l155 94h74z" />
<glyph unicode="2" horiz-adv-x="494" d="M451 69v-69h-413v67q310 234 310 390q0 62 -36 95.5t-97 33.5q-79 0 -156 -59v79q71 55 161 55t150 -51t60 -145q0 -177 -283 -396h304z" />
<glyph unicode="3" horiz-adv-x="466" d="M58 624q58 37 144.5 37t140 -49.5t53.5 -122.5q0 -53 -26.5 -95t-78.5 -63q57 -13 90.5 -52.5t33.5 -98.5q0 -80 -56 -133t-154 -53t-167 33v79q74 -39 149.5 -39t111 33t35.5 86t-39.5 81.5t-113.5 28.5h-42v69h42q56 0 94.5 31.5t38.5 84.5t-33 80t-96.5 27t-126.5 -41 v77z" />
<glyph unicode="4" horiz-adv-x="540" d="M516 228v-69h-97v-159h-78v159h-299v69l249 426h128v-426h97zM341 228v379l-219 -379h219z" />
<glyph unicode="5" horiz-adv-x="509" d="M169 585v-196q45 10 78 10q100 0 158.5 -53t58.5 -146t-63.5 -150.5t-168 -57.5t-173.5 34v78q64 -38 155 -38q168 0 168 141q0 57 -39 88.5t-106.5 31.5t-145.5 -35v362h328v-69h-250z" />
<glyph unicode="6" horiz-adv-x="526" d="M353 600q-94 0 -150 -70.5t-69 -177.5q66 69 159.5 69t145 -57t51.5 -154t-56.5 -159t-149.5 -62q-112 0 -172 85t-60 222q0 163 80 270t220 107q45 0 92 -15v-77q-43 19 -91 19zM176.5 116.5q41.5 -54.5 103 -54.5t95 42t33.5 107t-33.5 102t-87.5 37q-90 0 -156 -73 q4 -106 45.5 -160.5z" />
<glyph unicode="7" horiz-adv-x="451" d="M12 654h427v-69l-271 -585h-84l271 585h-343v69z" />
<glyph unicode="8" horiz-adv-x="536" d="M485 170q0 -81 -63 -129.5t-156 -48.5t-154 47t-61 126q0 59 31.5 100.5t86.5 60.5q-107 41 -107 151q0 87 60 135.5t143.5 48.5t143.5 -47.5t60 -137.5q0 -51 -28 -89.5t-77 -58.5q121 -37 121 -158zM357 559q-32 32 -90.5 32t-91.5 -33t-33 -85t35.5 -81t89.5 -29 t88 30.5t34 82t-32 83.5zM166 92.5q35 -30.5 100.5 -30.5t101.5 33t36 81.5t-35 81.5t-103 32t-101.5 -35.5t-33.5 -83t35 -79z" />
<glyph unicode="9" horiz-adv-x="504" d="M174 66q181 0 206 227q-50 -59 -148 -59q-80 0 -138 58.5t-58 153t55 155.5t150 61q110 0 165.5 -82t55.5 -207q0 -178 -71.5 -279.5t-213.5 -101.5q-58 0 -113 19v78q52 -23 110 -23zM384 373q0 95 -33.5 155.5t-107.5 60.5q-57 0 -91 -38t-34 -105.5t36 -104.5t98 -37 q82 0 132 64v5z" />
<glyph unicode=":" horiz-adv-x="235" d="M59 57q0 25 16.5 42t41.5 17t42 -17t17 -42t-17 -41.5t-42 -16.5t-41.5 16.5t-16.5 41.5zM75.5 338.5q-16.5 16.5 -16.5 41t16.5 41.5t41.5 17t42 -17t17 -41.5t-17 -41t-42 -16.5t-41.5 16.5z" />
<glyph unicode=";" horiz-adv-x="225" d="M-8 -123l93 224h105l-129 -224h-69zM86.5 337.5q-16.5 16.5 -16.5 41t16.5 41.5t41.5 17t42 -17t17 -41.5t-17 -41t-42 -16.5t-41.5 16.5z" />
<glyph unicode="&#x3c;" horiz-adv-x="527" d="M57 303v76l421 188v-81q-264 -109 -338 -144q68 -34 338 -146v-82z" />
<glyph unicode="=" horiz-adv-x="553" d="M57 205v69h440v-69h-440zM57 407v68h440v-68h-440z" />
<glyph unicode="&#x3e;" horiz-adv-x="527" d="M470 379v-76l-421 -189v82q262 108 337 146q-72 35 -337 144v81z" />
<glyph unicode="?" horiz-adv-x="452" d="M135.5 9q-16.5 17 -16.5 41.5t17 42t41.5 17.5t42.5 -17.5t18 -42t-17.5 -41.5t-43 -17t-42 17zM205 682q95 0 152 -48.5t57 -134t-59 -132.5t-137 -54l-1 -109h-76l-1 166q92 0 142 31.5t50 88.5t-33 89t-104 32t-150 -50v80q65 41 160 41z" />
<glyph unicode="@" horiz-adv-x="905" d="M568 351q0 11 4 59h66l-15 -138q-4 -53 -4 -86q0 -101 66 -101q44 0 73.5 48.5t29.5 125.5q0 136 -84.5 211.5t-221.5 75.5t-241.5 -100.5t-104.5 -246t81.5 -222.5t190 -77t186.5 43l-4 -77q-67 -34 -176 -34q-163 0 -258.5 102.5t-95.5 261.5q0 179 126 298t305 119 q154 0 260.5 -96t106.5 -253q0 -115 -54 -179t-123 -64q-92 0 -117 86q-53 -89 -148 -89q-74 0 -116.5 52.5t-42.5 137t55.5 146t136.5 61.5t119 -64zM359 114.5q27 -31.5 68.5 -31.5t77 28t51.5 78q2 36 4 55q-16 105 -108 105q-52 0 -86 -44t-34 -101.5t27 -89z" />
<glyph unicode="A" horiz-adv-x="648" d="M526 0l-59 177h-285l-60 -177h-87l235 674h112l231 -674h-87zM205 246h239l-118 363q-14 -51 -121 -363z" />
<glyph unicode="B" horiz-adv-x="571" d="M77 674h203q104 0 166.5 -48t62.5 -129q0 -58 -32.5 -100.5t-83.5 -53.5q56 -9 95.5 -50.5t39.5 -117.5t-53.5 -125.5t-151.5 -49.5h-246v674zM158 605v-230h108q81 0 120 34t39 84.5t-36.5 81t-108.5 30.5h-122zM158 69h153q64 0 98.5 29.5t34.5 86.5t-38.5 89 t-109.5 32h-138v-237z" />
<glyph unicode="C" horiz-adv-x="602" d="M387 607q-109 0 -181.5 -74t-72.5 -195.5t72 -195.5t191 -74q96 0 164 51v-85q-62 -42 -170 -42q-152 0 -247 93.5t-95 250t96.5 252t242.5 95.5q105 0 171 -36v-83q-44 23 -79 33t-92 10z" />
<glyph unicode="D" horiz-adv-x="661" d="M77 674h200q149 0 244.5 -92.5t95.5 -239t-88.5 -244.5t-247.5 -98h-204v674zM159 71h121q125 0 189 77.5t64 190.5t-71.5 188t-185.5 75h-117v-531z" />
<glyph unicode="E" horiz-adv-x="501" d="M158 71h295v-71h-376v674h371v-71h-290v-231h256v-71h-256v-230z" />
<glyph unicode="F" horiz-adv-x="489" d="M447 603h-289v-239h254v-71h-254v-293h-81v674h370v-71z" />
<glyph unicode="G" horiz-adv-x="670" d="M603 378v-322h-1l1 -3q-81 -61 -209 -61q-156 0 -251 92.5t-95 249.5t94.5 254.5t238.5 97.5q119 0 197 -46v-87q-82 54 -192.5 54t-181.5 -73.5t-71 -197t70 -195t193 -71.5q68 0 126 27v210h-148v71h229z" />
<glyph unicode="H" horiz-adv-x="643" d="M485 674h81v-674h-81v305h-327v-305h-81v674h81v-296h327v296z" />
<glyph unicode="I" horiz-adv-x="247" d="M83 0v674h81v-674h-81z" />
<glyph unicode="J" horiz-adv-x="358" d="M114 74q87 0 87 92v508h81v-501q0 -173 -157 -173q-56 0 -95 22v78q40 -26 84 -26z" />
<glyph unicode="K" horiz-adv-x="573" d="M274 333l271 -333h-105l-266 333l257 341h100zM77 0v674h81v-674h-81z" />
<glyph unicode="L" horiz-adv-x="477" d="M158 73h287v-73h-368v674h81v-601z" />
<glyph unicode="M" horiz-adv-x="857" d="M70 0l49 674h103l89 -246l108 -314q68 193 207 560h103l59 -674h-81l-47 565q-65 -182 -203 -550h-77l-191 544q0 -27 -38 -559h-81z" />
<glyph unicode="N" horiz-adv-x="673" d="M77 0v674h102l169 -284l171 -292q-4 97 -4 291v285h81v-674h-102q-280 467 -341 577q5 -104 5 -293v-284h-81z" />
<glyph unicode="O" horiz-adv-x="700" d="M190.5 538.5q-57.5 -72.5 -57.5 -198t59.5 -198.5t160.5 -73t157.5 72t56.5 199t-57 199t-159.5 72t-160 -72.5zM131 87q-83 95 -83 253.5t81.5 252.5t222 94t221 -93.5t80.5 -253t-81.5 -254t-219.5 -94.5t-221 95z" />
<glyph unicode="P" horiz-adv-x="545" d="M77 674h177q117 0 184.5 -60.5t67.5 -153.5t-67 -152.5t-177 -59.5h-104v-248h-81v674zM158 317h109q73 1 115 41t42 102.5t-43.5 103t-121.5 41.5h-101v-288z" />
<glyph unicode="Q" horiz-adv-x="709" d="M351 -8q-137 0 -220 95t-83 253.5t81.5 252.5t222 94t221 -93.5t80.5 -253.5q0 -116 -44.5 -199.5t-125.5 -121.5l200 -124l-88 -37l-200 137q-21 -3 -44 -3zM190.5 538.5q-57.5 -72.5 -57.5 -198t59.5 -198.5t160.5 -73t157.5 72t56.5 199t-57 199t-159.5 72t-160 -72.5 z" />
<glyph unicode="R" horiz-adv-x="548" d="M263 266h-105v-266h-81v674h169q117 0 177.5 -55t60.5 -152q-2 -70 -37 -119t-99 -69l177 -279h-97zM158 604v-269h102q69 0 105.5 37.5t36.5 96.5q0 135 -151 135h-93z" />
<glyph unicode="S" horiz-adv-x="524" d="M430 564q-61 40 -134 40t-109 -28.5t-36 -74.5q0 -49 43 -79q32 -21 80 -42.5t66 -30t46.5 -27t43.5 -36.5q37 -45 37 -107q0 -89 -61 -137.5t-162 -48.5t-175 43v87q73 -55 178 -55q63 0 99 28t36 81q0 44 -36 71q-40 30 -93 52.5t-75.5 34.5t-53.5 35q-58 46 -58 129.5 t61.5 132t151.5 48.5t151 -31v-85z" />
<glyph unicode="T" horiz-adv-x="482" d="M463 674v-71h-182v-603h-81v603h-182v71h445z" />
<glyph unicode="U" horiz-adv-x="645" d="M488 254v420h81v-418q0 -130 -65.5 -197t-181.5 -67t-181 65.5t-65 190.5v426h81v-425q0 -93 44.5 -137t119.5 -44q167 0 167 186z" />
<glyph unicode="V" horiz-adv-x="637" d="M601 674l-235 -674h-102l-228 674h87l88 -267l105 -334q51 166 198 601h87z" />
<glyph unicode="W" horiz-adv-x="938" d="M432 664h81l74 -240l102 -342q38 181 131 592h82l-158 -674h-104l-166 550q-29 -111 -159 -550h-103l-176 674h85l63 -250l83 -339q57 210 165 579z" />
<glyph unicode="X" horiz-adv-x="613" d="M303 271l-168 -271h-96l217 340l-205 334h95l155 -261l155 261h96l-204 -334l226 -340h-95z" />
<glyph unicode="Y" horiz-adv-x="593" d="M336 0h-81v250l-229 424h94q157 -304 175 -350q5 15 178 350h94l-231 -423v-251z" />
<glyph unicode="Z" horiz-adv-x="569" d="M502 674v-66l-356 -539h371v-69h-465v67l356 538h-351v69h445z" />
<glyph unicode="[" horiz-adv-x="310" d="M307 637h-152v-748h152v-72h-230v890h230v-70z" />
<glyph unicode="\" horiz-adv-x="402" d="M48 707l364 -810h-80l-365 810h81z" />
<glyph unicode="]" horiz-adv-x="310" d="M233 707v-890h-230v72h152v748h-152v70h230z" />
<glyph unicode="^" horiz-adv-x="461" d="M416 332h-79l-105 208l-108 -208h-79l142 262h91z" />
<glyph unicode="_" horiz-adv-x="561" d="M28 -100v69h505v-69h-505z" />
<glyph unicode="`" horiz-adv-x="421" d="M210 798l98 -156h-69l-124 156h95z" />
<glyph unicode="a" horiz-adv-x="492" d="M234 515q191 0 191 -194v-321h-78v60q-39 -65 -142 -65q-71 0 -114.5 42t-43.5 110.5t55.5 109t151.5 40.5h92v26q0 60 -27 90.5t-99.5 30.5t-135.5 -43v79q57 35 150 35zM346 234h-88q-64 0 -96 -25t-32 -63t25 -61.5t76 -23.5t83 30.5t32 77.5v65z" />
<glyph unicode="b" horiz-adv-x="570" d="M155 707v-276q55 84 152.5 84t158.5 -73.5t61 -186.5t-57.5 -188t-159 -75t-155.5 83v-75h-79v707h79zM198.5 110q43.5 -46 105 -46t101.5 51t40 139t-41.5 138.5t-100 50.5t-103.5 -45t-45 -143.5t43.5 -144.5z" />
<glyph unicode="c" horiz-adv-x="471" d="M314 60q58 0 108 33v-75q-48 -29 -118 -29q-120 0 -190.5 76.5t-70.5 185.5t70.5 187t192.5 78q65 0 116 -28v-75q-46 31 -108 31q-86 0 -137.5 -55.5t-51 -137.5t49.5 -136.5t139 -54.5z" />
<glyph unicode="d" horiz-adv-x="567" d="M415 707h79v-707h-79v75q-54 -83 -155.5 -83t-159 75t-57.5 188t61 186.5t158.5 73.5t152.5 -85v277zM165 115q40 -51 101.5 -51t105 46t43.5 144.5t-45 143.5t-103.5 45t-100 -50.5t-41.5 -138.5t40 -139z" />
<glyph unicode="e" horiz-adv-x="522" d="M299 -5q-115 0 -185.5 70.5t-70.5 189t63 188.5t160 70t153 -61t56 -173q0 -32 -5 -59h-346q9 -75 57 -115t129.5 -40t132.5 35v-74q-59 -31 -144 -31zM396 286v20q0 63 -34 100.5t-92.5 37.5t-98.5 -41t-47 -117h272z" />
<glyph unicode="f" horiz-adv-x="329" d="M315 635q-24 8 -51 8t-47.5 -22t-20.5 -68v-46h112v-64h-112v-443h-79v443h-87v64h87v47q0 74 39.5 117t109.5 43q24 0 49 -7v-72z" />
<glyph unicode="g" horiz-adv-x="549" d="M403 507h79v-466q0 -116 -64 -174.5t-160.5 -58.5t-161.5 31v79q64 -37 144 -37q163 0 163 161v57q-50 -86 -143 -86t-154.5 64t-61.5 177.5t57 186.5t155 73t147 -91v84zM168 127.5q42 -44.5 96 -44.5t96.5 42.5t42.5 133t-41 137.5t-100.5 47t-97.5 -51.5t-38 -135.5 t42 -128.5z" />
<glyph unicode="h" horiz-adv-x="540" d="M151 707v-288q45 95 160 95q73 0 117.5 -45t44.5 -122v-347h-79v328q0 55 -28.5 85t-79.5 30t-93 -43t-42 -123v-277h-78v707h78z" />
<glyph unicode="i" horiz-adv-x="233" d="M65 666q0 22 14.5 37t36.5 15t37 -15t15 -37t-15 -36.5t-37 -14.5t-36.5 14.5t-14.5 36.5zM77 0v507h79v-507h-79z" />
<glyph unicode="j" horiz-adv-x="228" d="M65 666q0 22 14.5 37t36.5 15t37 -15t15 -37t-15 -36.5t-37 -14.5t-36.5 14.5t-14.5 36.5zM22 -126q56 0 56 73v560h78v-562q0 -66 -34.5 -103t-95.5 -37q-33 0 -72 15v70q38 -16 68 -16z" />
<glyph unicode="k" horiz-adv-x="480" d="M254 266l206 -266h-95l-204 266l199 241h94zM73 0v703h78v-703h-78z" />
<glyph unicode="l" horiz-adv-x="233" d="M77 0v707h79v-707h-79z" />
<glyph unicode="m" horiz-adv-x="818" d="M151 507v-82q42 89 143 89q117 0 148 -99q22 48 61.5 73.5t88.5 25.5q79 0 119 -45t40 -121v-348h-79v328q0 115 -97 115q-48 0 -86 -43.5t-38 -122.5v-277h-79v328q0 115 -97 115q-48 0 -86 -43.5t-38 -122.5v-277h-78v507h78z" />
<glyph unicode="n" horiz-adv-x="540" d="M151 507v-88q45 95 160 95q74 0 118 -45t44 -120v-349h-79v328q0 56 -28.5 85.5t-80 29.5t-93 -44t-41.5 -122v-277h-78v507h78z" />
<glyph unicode="o" horiz-adv-x="562" d="M398 389.5q-39 54.5 -115 54.5t-117 -56t-41 -136t42 -135.5t115 -55.5t114 54.5t41 137t-39 137zM455 65q-64 -74 -174.5 -74t-174 73.5t-63.5 186t65.5 188t175.5 75.5t172.5 -74t62.5 -187.5t-64 -187.5z" />
<glyph unicode="p" horiz-adv-x="567" d="M151 507v-77q53 85 155.5 85t160 -73.5t57.5 -187t-60.5 -188t-159 -74.5t-153.5 85v-274h-78v704h78zM196 110q45 -46 104.5 -46t100.5 50.5t41 138.5t-40 139t-101 51t-105.5 -44.5t-44.5 -143.5t45 -145z" />
<glyph unicode="q" horiz-adv-x="567" d="M415 507h79v-704h-79v273q-55 -84 -153 -84t-158.5 74.5t-60.5 188t58 187t159 73.5t155 -83v75zM166 114.5q41 -50.5 100.5 -50.5t104 45.5t44.5 145t-44 144t-105 44.5t-101 -51t-40 -139t41 -138.5z" />
<glyph unicode="r" horiz-adv-x="326" d="M151 507v-89q40 94 138 94q18 0 28 -2v-78q-21 7 -43 7q-53 0 -88 -49t-35 -113v-277h-79l1 507h78z" />
<glyph unicode="s" horiz-adv-x="412" d="M223 443q-40 0 -63.5 -18.5t-23.5 -42t7 -37t27 -26.5q24 -15 80 -38.5t92 -56.5t36 -93.5t-45.5 -98.5t-131 -38t-142.5 31v77q67 -40 144 -40q46 0 70 18t24 51.5t-26.5 53.5t-86 43.5t-94 56.5t-34.5 92.5t47.5 97t122.5 37.5t123 -22v-75q-46 28 -126 28z" />
<glyph unicode="t" horiz-adv-x="369" d="M182 443v-297q0 -81 76 -81q39 0 69 23v-75q-33 -18 -74 -18q-150 0 -150 153v295h-81v64h81v126h79v-126h140v-64h-140z" />
<glyph unicode="u" horiz-adv-x="540" d="M388 507h79v-507h-79v88q-40 -94 -159 -94q-75 0 -118.5 44.5t-43.5 119.5v349h79v-329q0 -55 28 -84t83.5 -29t93 44t37.5 119v279z" />
<glyph unicode="v" horiz-adv-x="505" d="M202 0l-177 507h82l144 -445q9 43 75 231l72 214h82l-181 -507h-97z" />
<glyph unicode="w" horiz-adv-x="792" d="M181 0l-156 507h84q99 -338 120 -430q11 49 121 430h84l124 -431q13 53 128 431h81l-160 -507h-97l-48 166l-70 253q-12 -49 -114 -419h-97z" />
<glyph unicode="x" horiz-adv-x="478" d="M283 259l170 -259h-91l-123 200l-127 -200h-87l170 260l-160 248h91l115 -190l116 190h90z" />
<glyph unicode="y" horiz-adv-x="493" d="M78 -174q-26 0 -42 5v71q15 -4 34 -4q101 0 143 115l-205 494h89l155 -397q8 28 139 397h85l-183 -494q-39 -103 -92.5 -145t-122.5 -42z" />
<glyph unicode="z" horiz-adv-x="453" d="M395 507v-58l-260 -378h274v-71h-365v62l257 375h-247v70h341z" />
<glyph unicode="{" horiz-adv-x="334" d="M288 636q-31 0 -47 -21t-16 -50t10.5 -80t10.5 -80q0 -56 -31.5 -95t-90.5 -48q59 -9 90.5 -48.5t31.5 -94.5q0 -30 -10.5 -81t-10.5 -80t16 -50t47 -21q16 0 33 9v-77q-21 -8 -47 -8q-55 0 -92.5 40.5t-37.5 108.5q0 27 10.5 74t10.5 69q0 101 -88 119q-9 2 -29 2v77 q66 0 94 41q23 32 23 78q0 22 -10.5 69t-10.5 74q0 68 38 109t92 41q21 0 47 -8v-78q-17 9 -33 9z" />
<glyph unicode="|" horiz-adv-x="228" d="M78 -194v889h72v-889h-72z" />
<glyph unicode="}" horiz-adv-x="334" d="M60 713q54 0 92 -41t38 -109q0 -27 -10.5 -74t-10.5 -69q0 -46 23 -78q28 -41 94 -41v-77q-67 0 -96 -43q-21 -32 -21 -78q0 -22 10.5 -69t10.5 -74q0 -68 -37.5 -108.5t-92.5 -40.5q-26 0 -47 8v77q17 -9 40.5 -9t39.5 21t16 50t-10 80t-10 81q0 55 31.5 94.5t89.5 48.5 q-58 9 -89.5 48t-31.5 95q0 30 10 80.5t10 79.5t-16 50t-39.5 21t-40.5 -9v78q26 8 47 8z" />
<glyph unicode="~" horiz-adv-x="599" d="M420 194q-47 0 -117.5 37t-98.5 37q-67 0 -115 -69l-53 46q68 95 156 95q54 0 121.5 -37t99.5 -37q56 0 91 60l59 -42q-58 -90 -143 -90z" />
<glyph unicode="&#xa1;" horiz-adv-x="251" d="M87 -165v470h77v-470h-77zM82 416.5q-17 17.5 -17 42.5t16.5 41.5t42.5 16.5t43 -17t17 -41.5t-17.5 -42t-42.5 -17.5t-42 17.5z" />
<glyph unicode="&#xa2;" horiz-adv-x="452" d="M318 441q-87 0 -138.5 -54.5t-52.5 -135.5q1 -81 50.5 -134t140.5 -53q52 0 94 24v-74q-33 -16 -78 -21v-104h-69v106q-103 13 -161 85t-58 170.5t58.5 172t160.5 87.5v105h69v-103q42 -5 78 -22v-74q-47 25 -94 25z" />
<glyph unicode="&#xa3;" horiz-adv-x="522" d="M483 69v-69h-422v66q57 27 78 67t21 116q0 13 -2 43h-92v63h85q-8 68 -8 94q0 101 53.5 155.5t150.5 54.5q58 0 108 -25v-78q-48 28 -100 28q-131 0 -131 -131q0 -30 8 -98h180v-63h-174q2 -30 2 -42q0 -77 -20.5 -117t-58.5 -64h322z" />
<glyph unicode="&#xa4;" horiz-adv-x="543" d="M165 419.5q-42 -42.5 -42 -107t42 -107t106.5 -42.5t106.5 42t42 106.5t-42 107.5t-106.5 43t-106.5 -42.5zM93 183q-38 53 -38 125.5t40 128.5l-61 61l51 49l60 -61q57 41 128.5 41t127.5 -37l58 57l50 -49l-58 -58q38 -56 38 -126t-42 -128l62 -61l-50 -49l-62 61 q-56 -39 -128.5 -39t-125.5 36l-58 -58l-51 49z" />
<glyph unicode="&#xa5;" horiz-adv-x="585" d="M509 362v-59h-151l-27 -49v-39h178v-58h-178v-157h-82v157h-177v58h177v38l-27 50h-150v59h118l-157 292h92l165 -322l167 322h92l-159 -292h119z" />
<glyph unicode="&#xa6;" horiz-adv-x="228" d="M150 -178h-72v331h72v-331zM150 367h-72v331h72v-331z" />
<glyph unicode="&#xa7;" horiz-adv-x="512" d="M417 564q-61 40 -135 40q-143 0 -143 -93q0 -39 30 -60q26 -19 64.5 -34.5t63 -26.5t43 -20.5t44.5 -27.5t40 -36q34 -44 34 -109t-43 -113q41 -43 41 -106q0 -87 -60.5 -134t-161.5 -47t-175 44v87q74 -56 178 -56q65 0 100.5 27t35.5 73t-30 71t-82.5 48.5t-65.5 29.5 t-42 21.5t-42 28.5t-30 33q-30 34 -30 97.5t42 110.5q-38 38 -38 96q0 83 60.5 127.5t150.5 44.5t151 -31v-85zM158 369q-26 -29 -26 -61.5t9.5 -51.5t32.5 -36q36 -25 97.5 -51.5t82.5 -37.5q25 30 25 72.5t-31 68t-70 44t-71.5 32t-48.5 21.5z" />
<glyph unicode="&#xa8;" horiz-adv-x="421" d="M260 723q0 22 14.5 36.5t36.5 14.5t37 -14.5t15 -36.5t-15 -37t-37 -15t-36.5 15t-14.5 37zM58 723q0 22 15 36.5t37 14.5t36.5 -14.5t14.5 -36.5t-14.5 -37t-36.5 -15t-37 15t-15 37z" />
<glyph unicode="&#xa9;" horiz-adv-x="776" d="M328 244q34 -36 84.5 -36t82.5 25v-65q-32 -21 -84 -21q-86 0 -137 54.5t-50.5 132.5t51 134t137.5 56q47 0 83 -20v-65q-35 23 -84 23t-83.5 -35.5t-34 -91t34.5 -91.5zM110 336q0 -116 82 -197.5t197 -81.5t197 81.5t82 197.5t-82 198t-197 82t-197 -82t-82 -198z M144.5 93q-101.5 102 -101.5 243.5t101.5 243.5t243.5 102t243.5 -102t101.5 -243.5t-101.5 -243.5t-243.5 -102t-243.5 102z" />
<glyph unicode="&#xaa;" horiz-adv-x="350" d="M33 795q53 31 131 31q156 0 156 -164v-270h-65v54q-44 -58 -119 -58q-60 0 -97 33.5t-37 93t47 94t129 34.5h75v21q0 51 -22.5 77t-82.5 26t-115 -37v65zM253 588h-63q-119 0 -119 -74q0 -31 21.5 -50t63 -19t69.5 25t28 59v59z" />
<glyph unicode="&#xab;" horiz-adv-x="480" d="M450 415l-146 -162l146 -162h-87l-150 162l150 162h87zM264 415l-146 -162l146 -162h-87l-150 162l150 162h87z" />
<glyph unicode="&#xac;" horiz-adv-x="549" d="M512 160h-73v182h-414v71h487v-253z" />
<glyph unicode="&#xad;" horiz-adv-x="348" d="M57 234v69h234v-69h-234z" />
<glyph unicode="&#xae;" horiz-adv-x="449" d="M70.5 727q60.5 61 154 61t154 -61t60.5 -154t-60.5 -153t-154 -60t-154 60t-60.5 153t60.5 154zM104.5 452q45.5 -46 121 -46t121.5 46.5t46 121t-46 121t-121.5 46.5t-121 -46.5t-45.5 -121.5t45.5 -121zM159 687h61q82 0 82 -68q0 -43 -36 -60l54 -86h-52l-46 78h-19 v-78h-44v214zM203 651v-64h25q29 0 29 32t-32 32h-22z" />
<glyph unicode="&#xaf;" horiz-adv-x="421" d="M351 693h-282v56h282v-56z" />
<glyph unicode="&#xb0;" horiz-adv-x="355" d="M93 531q0 -36 25 -61t61 -25t59 25t23 61t-24.5 61.5t-60.5 25.5t-59.5 -25.5t-23.5 -61.5zM71 426q-41 40 -41 103.5t42.5 105t106 41.5t105 -40t41.5 -103t-43 -105t-106.5 -42t-104.5 40z" />
<glyph unicode="&#xb1;" horiz-adv-x="553" d="M310 400h187v-69h-187v-169h-74v169h-179v69h179v169h74v-169zM57 30v70h440v-70h-440z" />
<glyph unicode="&#xb2;" horiz-adv-x="365" d="M47 392v49q198 149 198 249q0 39 -21.5 58t-55.5 19q-54 0 -107 -43v69q54 33 111 33t98 -34.5t41 -95t-48 -125.5t-127 -124h190v-55h-279z" />
<glyph unicode="&#xb3;" horiz-adv-x="325" d="M103 637h24q36 0 60.5 18t24.5 50q0 63 -73 63q-44 0 -92 -31v63q44 26 102 26t93.5 -33.5t35.5 -77.5t-21 -70t-58 -34q37 -3 64 -32t27 -76.5t-37 -81t-103.5 -33.5t-114.5 25v60q50 -28 99 -28q91 0 91 66q0 33 -25.5 52t-72.5 19h-24v55z" />
<glyph unicode="&#xb4;" horiz-adv-x="421" d="M115 642l99 156h94l-124 -156h-69z" />
<glyph unicode="&#xb5;" horiz-adv-x="546" d="M394 507h79v-507h-79v77q-36 -83 -133 -83q-66 0 -110 38v-211h-78v686h78v-329q0 -53 36.5 -83t89 -30t85 43.5t32.5 119.5v279z" />
<glyph unicode="&#xb6;" horiz-adv-x="545" d="M401 -148v822h71v-822h-71zM286 674v-822h-71v489q-90 0 -139.5 47t-49.5 116t50.5 119.5t142.5 50.5h67z" />
<glyph unicode="&#xb7;" horiz-adv-x="232" d="M57 319q0 25 17 42t42 17t42 -17t17 -42t-17 -42t-42 -17t-42 17t-17 42z" />
<glyph unicode="&#xb8;" horiz-adv-x="421" d="M267 -51q18 -25 18 -75t-38.5 -87t-111.5 -39v58q84 6 84 71q0 34 -23 72h71z" />
<glyph unicode="&#xb9;" horiz-adv-x="250" d="M179 822v-430h-62v357l-107 -59v65l117 67h52z" />
<glyph unicode="&#xba;" horiz-adv-x="376" d="M282 723q-30 46 -92 46t-94.5 -47.5t-32.5 -115.5t33.5 -115t92.5 -47t91 46t32 116.5t-30 116.5zM329.5 448q-51.5 -62 -142 -62t-142 62t-51.5 157t53 159t143 64t140.5 -62.5t50.5 -159t-51.5 -158.5z" />
<glyph unicode="&#xbb;" horiz-adv-x="482" d="M302 415l151 -162l-151 -162h-87l147 162l-147 162h87zM116 415l151 -162l-151 -162h-87l147 162l-147 162h87z" />
<glyph unicode="&#xbf;" horiz-adv-x="452" d="M340 459q0 -25 -16.5 -42.5t-41.5 -17.5t-43 17.5t-18 42.5t17.5 41.5t43 16.5t42 -16.5t16.5 -41.5zM254 -173q-95 0 -152 48.5t-57 134t59 132.5t137 54l1 109h76l1 -166q-92 0 -142 -31.5t-50 -88.5t33 -88.5t105 -31.5t149 49v-80q-65 -41 -160 -41z" />
<glyph unicode="&#xc0;" horiz-adv-x="648" d="M526 0l-59 177h-285l-60 -177h-87l235 674h112l231 -674h-87zM205 246h239l-118 363q-14 -51 -121 -363zM354 727h-69l-124 156h95z" />
<glyph unicode="&#xc1;" horiz-adv-x="648" d="M526 0l-59 177h-285l-60 -177h-87l235 674h112l231 -674h-87zM205 246h239l-118 363q-14 -51 -121 -363zM492 883l-124 -156h-69l99 156h94z" />
<glyph unicode="&#xc2;" horiz-adv-x="648" d="M526 0l-59 177h-285l-60 -177h-87l235 674h112l231 -674h-87zM205 246h239l-118 363q-14 -51 -121 -363zM327 832l-85 -105h-80l127 156h76l127 -156h-80z" />
<glyph unicode="&#xc3;" horiz-adv-x="648" d="M526 0l-59 177h-285l-60 -177h-87l235 674h112l231 -674h-87zM205 246h239l-118 363q-14 -51 -121 -363zM396 757q-27 0 -69.5 22t-58.5 22q-41 0 -68 -48l-43 37q14 30 41.5 50.5t58.5 20.5t74 -22t61 -22q34 0 54 43l49 -34q-32 -69 -99 -69z" />
<glyph unicode="&#xc4;" horiz-adv-x="648" d="M526 0l-59 177h-285l-60 -177h-87l235 674h112l231 -674h-87zM205 246h239l-118 363q-14 -51 -121 -363zM227 754q-22 0 -37 15t-15 37t15 36.5t37 14.5t36.5 -14.5t14.5 -36.5t-14.5 -37t-36.5 -15zM428 754q-22 0 -36.5 15t-14.5 37t14.5 36.5t36.5 14.5t37 -14.5 t15 -36.5t-15 -37t-37 -15z" />
<glyph unicode="&#xc5;" horiz-adv-x="648" d="M526 0l-59 177h-285l-60 -177h-87l235 674h112l231 -674h-87zM205 246h239l-118 363q-14 -51 -121 -363zM327 717q-44 0 -75 31t-31 75t31 75.5t75 31.5t75 -31.5t31 -75.5t-31 -75t-75 -31zM365.5 862q-15.5 16 -38 16t-38 -15.5t-15.5 -38t15.5 -38.5t37.5 -16t38 16 t16 38t-15.5 38z" />
<glyph unicode="&#xc6;" horiz-adv-x="879" d="M536 71h295v-71h-375v177h-244l-102 -177h-87l383 674h419v-71h-289v-231h256v-71h-256v-230zM456 246v364q-65 -123 -204 -364h204z" />
<glyph unicode="&#xc7;" horiz-adv-x="602" d="M387 607q-109 0 -181.5 -74t-72.5 -195.5t72 -195.5t191 -74q96 0 164 51v-85q-62 -42 -170 -42q-152 0 -247 93.5t-95 250t96.5 252t242.5 95.5q105 0 171 -36v-83q-44 23 -79 33t-92 10zM404 -51q18 -25 18 -75t-38.5 -87t-111.5 -39v58q84 6 84 71q0 34 -23 72h71z " />
<glyph unicode="&#xc8;" horiz-adv-x="501" d="M158 71h295v-71h-376v674h371v-71h-290v-231h256v-71h-256v-230zM320 726h-69l-124 156h95z" />
<glyph unicode="&#xc9;" horiz-adv-x="501" d="M158 71h295v-71h-376v674h371v-71h-290v-231h256v-71h-256v-230zM437 883l-124 -156h-69l99 156h94z" />
<glyph unicode="&#xca;" horiz-adv-x="501" d="M158 71h295v-71h-376v674h371v-71h-290v-231h256v-71h-256v-230zM273 832l-85 -105h-80l127 156h76l127 -156h-80z" />
<glyph unicode="&#xcb;" horiz-adv-x="501" d="M158 71h295v-71h-376v674h371v-71h-290v-231h256v-71h-256v-230zM168 753q-22 0 -37 15t-15 37t15 36.5t37 14.5t36.5 -14.5t14.5 -36.5t-14.5 -37t-36.5 -15zM369 753q-22 0 -36.5 15t-14.5 37t14.5 36.5t36.5 14.5t37 -14.5t15 -36.5t-15 -37t-37 -15z" />
<glyph unicode="&#xcc;" horiz-adv-x="247" d="M55 883l98 -156h-69l-124 156h95zM83 0v674h81v-674h-81z" />
<glyph unicode="&#xcd;" horiz-adv-x="247" d="M93 727l99 156h94l-124 -156h-69zM83 0v674h81v-674h-81z" />
<glyph unicode="&#xce;" horiz-adv-x="247" d="M83 0v674h81v-674h-81zM86 883h76l127 -156h-80l-85 105l-85 -105h-80z" />
<glyph unicode="&#xcf;" horiz-adv-x="247" d="M175 806q0 22 14.5 36.5t36.5 14.5t37 -14.5t15 -36.5t-15 -37t-37 -15t-36.5 15t-14.5 37zM-27 806q0 22 15 36.5t37 14.5t36.5 -14.5t14.5 -36.5t-14.5 -37t-36.5 -15t-37 15t-15 37zM83 0v674h81v-674h-81z" />
<glyph unicode="&#xd0;" horiz-adv-x="730" d="M146 674h200q150 0 245 -92.5t95 -239t-88.5 -244.5t-247.5 -98h-204v304h-85v68h85v302zM228 71h122q64 0 113.5 22t78.5 61q60 77 60 187.5t-71 185.5t-186 75h-117v-230h175v-68h-175v-233z" />
<glyph unicode="&#xd1;" horiz-adv-x="673" d="M415 757q-27 0 -69.5 22t-58.5 22q-41 0 -68 -48l-43 37q14 30 41.5 50.5t58.5 20.5t74 -22t61 -22q34 0 54 43l49 -34q-32 -69 -99 -69zM77 0v674h102l169 -284l171 -292q-4 97 -4 291v285h81v-674h-102q-280 467 -341 577q5 -104 5 -293v-284h-81z" />
<glyph unicode="&#xd2;" horiz-adv-x="700" d="M295 883l98 -156h-69l-124 156h95zM190.5 538.5q-57.5 -72.5 -57.5 -198t59.5 -198.5t160.5 -73t157.5 72t56.5 199t-57 199t-159.5 72t-160 -72.5zM131 87q-83 95 -83 253.5t81.5 252.5t222 94t221 -93.5t80.5 -253t-81.5 -254t-219.5 -94.5t-221 95z" />
<glyph unicode="&#xd3;" horiz-adv-x="700" d="M190.5 538.5q-57.5 -72.5 -57.5 -198t59.5 -198.5t160.5 -73t157.5 72t56.5 199t-57 199t-159.5 72t-160 -72.5zM131 87q-83 95 -83 253.5t81.5 252.5t222 94t221 -93.5t80.5 -253t-81.5 -254t-219.5 -94.5t-221 95zM324 727l99 156h94l-124 -156h-69z" />
<glyph unicode="&#xd4;" horiz-adv-x="700" d="M319 883h76l127 -156h-80l-85 105l-85 -105h-80zM131 87q-83 95 -83 253.5t81.5 252.5t222 94t221 -93.5t80.5 -253t-81.5 -254t-219.5 -94.5t-221 95zM190.5 538.5q-57.5 -72.5 -57.5 -198t59.5 -198.5t160.5 -73t157.5 72t56.5 199t-57 199t-159.5 72t-160 -72.5z" />
<glyph unicode="&#xd5;" horiz-adv-x="700" d="M422 758q-27 0 -69.5 22t-58.5 22q-41 0 -68 -48l-43 37q14 30 41.5 50.5t58.5 20.5t74 -22t61 -22q34 0 54 43l49 -34q-32 -69 -99 -69zM190.5 538.5q-57.5 -72.5 -57.5 -198t59.5 -198.5t160.5 -73t157.5 72t56.5 199t-57 199t-159.5 72t-160 -72.5zM131 87 q-83 95 -83 253.5t81.5 252.5t222 94t221 -93.5t80.5 -253t-81.5 -254t-219.5 -94.5t-221 95z" />
<glyph unicode="&#xd6;" horiz-adv-x="700" d="M190.5 538.5q-57.5 -72.5 -57.5 -198t59.5 -198.5t160.5 -73t157.5 72t56.5 199t-57 199t-159.5 72t-160 -72.5zM131 87q-83 95 -83 253.5t81.5 252.5t222 94t221 -93.5t80.5 -253t-81.5 -254t-219.5 -94.5t-221 95zM404 806q0 22 14.5 36.5t36.5 14.5t37 -14.5t15 -36.5 t-15 -37t-37 -15t-36.5 15t-14.5 37zM202 806q0 22 15 36.5t37 14.5t36.5 -14.5t14.5 -36.5t-14.5 -37t-36.5 -15t-37 15t-15 37z" />
<glyph unicode="&#xd7;" horiz-adv-x="491" d="M431 475l-135 -134l132 -131l-51 -51l-132 131l-131 -131l-51 52l131 130l-135 134l51 50l135 -133l135 134z" />
<glyph unicode="&#xd8;" horiz-adv-x="675" d="M572 586q74 -93 74 -249t-81.5 -250.5t-219.5 -94.5q-103 0 -177 54l-41 -55h-86l77 103q-77 96 -77 250.5t81.5 248.5t220.5 94q105 0 177 -52l39 52h88zM343 612q-102 0 -160 -72.5t-58 -189t44 -187.5l304 408q-52 41 -130 41zM345 67q103 0 160 72.5t57 191 t-42 187.5l-304 -408q54 -43 129 -43z" />
<glyph unicode="&#xd9;" horiz-adv-x="645" d="M262 883l98 -156h-69l-124 156h95zM488 254v420h81v-418q0 -130 -65.5 -197t-181.5 -67t-181 65.5t-65 190.5v426h81v-425q0 -93 44.5 -137t119.5 -44q167 0 167 186z" />
<glyph unicode="&#xda;" horiz-adv-x="645" d="M488 254v420h81v-418q0 -130 -65.5 -197t-181.5 -67t-181 65.5t-65 190.5v426h81v-425q0 -93 44.5 -137t119.5 -44q167 0 167 186zM300 727l99 156h94l-124 -156h-69z" />
<glyph unicode="&#xdb;" horiz-adv-x="645" d="M286 883h76l127 -156h-80l-85 105l-85 -105h-80zM488 254v420h81v-418q0 -130 -65.5 -197t-181.5 -67t-181 65.5t-65 190.5v426h81v-425q0 -93 44.5 -137t119.5 -44q167 0 167 186z" />
<glyph unicode="&#xdc;" horiz-adv-x="645" d="M488 254v420h81v-418q0 -130 -65.5 -197t-181.5 -67t-181 65.5t-65 190.5v426h81v-425q0 -93 44.5 -137t119.5 -44q167 0 167 186zM373 806q0 22 14.5 36.5t36.5 14.5t37 -14.5t15 -36.5t-15 -37t-37 -15t-36.5 15t-14.5 37zM171 806q0 22 15 36.5t37 14.5t36.5 -14.5 t14.5 -36.5t-14.5 -37t-36.5 -15t-37 15t-15 37z" />
<glyph unicode="&#xdd;" horiz-adv-x="593" d="M336 0h-81v250l-229 424h94q157 -304 175 -350q5 15 178 350h94l-231 -423v-251zM472 882l-124 -156h-69l99 156h94z" />
<glyph unicode="&#xde;" horiz-adv-x="536" d="M158 550h88q122 0 187 -59.5t65 -154.5t-64.5 -153.5t-179.5 -58.5h-96v-124h-81v674h81v-124zM158 193h99q79 0 119 38.5t40 103.5t-41 105.5t-126 40.5h-91v-288z" />
<glyph unicode="&#xdf;" horiz-adv-x="541" d="M258 82q39 -20 83 -20t68.5 19.5t24.5 48t-15.5 50.5t-37.5 39.5t-44 35.5q-53 43 -53 97q0 27 12.5 52t28 40.5t28 39.5t12.5 55.5t-27 54.5t-71 23q-112 0 -112 -119v-498h-79v496q0 96 52.5 145t136 49t132 -45t48.5 -109q0 -44 -19.5 -77.5t-38.5 -57t-19 -42.5 t15 -36.5t36 -34t42 -36t36 -49.5t15 -66q0 -63 -44.5 -103.5t-123.5 -40.5q-55 0 -86 13v76z" />
<glyph unicode="&#xe0;" horiz-adv-x="492" d="M234 515q191 0 191 -194v-321h-78v60q-39 -65 -142 -65q-71 0 -114.5 42t-43.5 110.5t55.5 109t151.5 40.5h92v26q0 60 -27 90.5t-99.5 30.5t-135.5 -43v79q57 35 150 35zM346 234h-88q-64 0 -96 -25t-32 -63t25 -61.5t76 -23.5t83 30.5t32 77.5v65zM291 560h-69 l-124 156h95z" />
<glyph unicode="&#xe1;" horiz-adv-x="492" d="M234 515q191 0 191 -194v-321h-78v60q-39 -65 -142 -65q-71 0 -114.5 42t-43.5 110.5t55.5 109t151.5 40.5h92v26q0 60 -27 90.5t-99.5 30.5t-135.5 -43v79q57 35 150 35zM346 234h-88q-64 0 -96 -25t-32 -63t25 -61.5t76 -23.5t83 30.5t32 77.5v65zM416 716l-124 -156 h-69l99 156h94z" />
<glyph unicode="&#xe2;" horiz-adv-x="492" d="M234 515q191 0 191 -194v-321h-78v60q-39 -65 -142 -65q-71 0 -114.5 42t-43.5 110.5t55.5 109t151.5 40.5h92v26q0 60 -27 90.5t-99.5 30.5t-135.5 -43v79q57 35 150 35zM346 234h-88q-64 0 -96 -25t-32 -63t25 -61.5t76 -23.5t83 30.5t32 77.5v65zM254 664l-85 -105 h-80l127 156h76l127 -156h-80z" />
<glyph unicode="&#xe3;" horiz-adv-x="492" d="M234 515q191 0 191 -194v-321h-78v60q-39 -65 -142 -65q-71 0 -114.5 42t-43.5 110.5t55.5 109t151.5 40.5h92v26q0 60 -27 90.5t-99.5 30.5t-135.5 -43v79q57 35 150 35zM346 234h-88q-64 0 -96 -25t-32 -63t25 -61.5t76 -23.5t83 30.5t32 77.5v65zM320 590 q-27 0 -69.5 22t-58.5 22q-41 0 -68 -48l-43 37q14 30 41.5 50.5t58.5 20.5t74 -22t61 -22q34 0 54 43l49 -34q-32 -69 -99 -69z" />
<glyph unicode="&#xe4;" horiz-adv-x="492" d="M234 515q191 0 191 -194v-321h-78v60q-39 -65 -142 -65q-71 0 -114.5 42t-43.5 110.5t55.5 109t151.5 40.5h92v26q0 60 -27 90.5t-99.5 30.5t-135.5 -43v79q57 35 150 35zM346 234h-88q-64 0 -96 -25t-32 -63t25 -61.5t76 -23.5t83 30.5t32 77.5v65zM152 584 q-22 0 -37 15t-15 37t15 36.5t37 14.5t36.5 -14.5t14.5 -36.5t-14.5 -37t-36.5 -15zM353 584q-22 0 -36.5 15t-14.5 37t14.5 36.5t36.5 14.5t37 -14.5t15 -36.5t-15 -37t-37 -15z" />
<glyph unicode="&#xe5;" horiz-adv-x="492" d="M234 515q191 0 191 -194v-321h-78v60q-39 -65 -142 -65q-71 0 -114.5 42t-43.5 110.5t55.5 109t151.5 40.5h92v26q0 60 -27 90.5t-99.5 30.5t-135.5 -43v79q57 35 150 35zM346 234h-88q-64 0 -96 -25t-32 -63t25 -61.5t76 -23.5t83 30.5t32 77.5v65zM255 550 q-44 0 -75 31t-31 75t31 75.5t75 31.5t75 -31.5t31 -75.5t-31 -75t-75 -31zM293.5 695.5q-15.5 15.5 -38 15.5t-38 -15.5t-15.5 -38t15.5 -38.5t37.5 -16t38 16t16 38.5t-15.5 38z" />
<glyph unicode="&#xe6;" horiz-adv-x="819" d="M488 105q49 -40 126.5 -40t128.5 35v-74q-57 -31 -131 -31t-130 28t-86 76q-19 -46 -66 -75t-117.5 -29t-115.5 39.5t-45 110.5t56 112t153 41h90v25q0 60 -27 90.5t-99 30.5t-136 -42v77q58 36 147 36q129 0 165 -90q59 88 175 88q98 0 150.5 -61.5t52.5 -176.5 q0 -28 -5 -55h-344q9 -75 58 -115zM701 286v20q-1 66 -35.5 102t-90.5 36t-96.5 -40t-49.5 -118h272zM351 177v55h-75q-142 0 -142 -87q0 -37 25.5 -59t74.5 -22t83 31t34 82z" />
<glyph unicode="&#xe7;" horiz-adv-x="471" d="M321 -51q18 -25 18 -75t-38.5 -87t-111.5 -39v58q84 6 84 71q0 34 -23 72h71zM314 60q58 0 108 33v-75q-48 -29 -118 -29q-120 0 -190.5 76.5t-70.5 185.5t70.5 187t192.5 78q65 0 116 -28v-75q-46 31 -108 31q-86 0 -137.5 -55.5t-51 -137.5t49.5 -136.5t139 -54.5z" />
<glyph unicode="&#xe8;" horiz-adv-x="522" d="M299 -5q-115 0 -185.5 70.5t-70.5 189t63 188.5t160 70t153 -61t56 -173q0 -32 -5 -59h-346q9 -75 57 -115t129.5 -40t132.5 35v-74q-59 -31 -144 -31zM396 286v20q0 63 -34 100.5t-92.5 37.5t-98.5 -41t-47 -117h272zM318 560h-69l-124 156h95z" />
<glyph unicode="&#xe9;" horiz-adv-x="522" d="M299 -5q-115 0 -185.5 70.5t-70.5 189t63 188.5t160 70t153 -61t56 -173q0 -32 -5 -59h-346q9 -75 57 -115t129.5 -40t132.5 35v-74q-59 -31 -144 -31zM396 286v20q0 63 -34 100.5t-92.5 37.5t-98.5 -41t-47 -117h272zM444 716l-124 -156h-69l99 156h94z" />
<glyph unicode="&#xea;" horiz-adv-x="522" d="M299 -5q-115 0 -185.5 70.5t-70.5 189t63 188.5t160 70t153 -61t56 -173q0 -32 -5 -59h-346q9 -75 57 -115t129.5 -40t132.5 35v-74q-59 -31 -144 -31zM396 286v20q0 63 -34 100.5t-92.5 37.5t-98.5 -41t-47 -117h272zM281 665l-85 -105h-80l127 156h76l127 -156h-80z " />
<glyph unicode="&#xeb;" horiz-adv-x="522" d="M299 -5q-115 0 -185.5 70.5t-70.5 189t63 188.5t160 70t153 -61t56 -173q0 -32 -5 -59h-346q9 -75 57 -115t129.5 -40t132.5 35v-74q-59 -31 -144 -31zM396 286v20q0 63 -34 100.5t-92.5 37.5t-98.5 -41t-47 -117h272zM181 587q-22 0 -37 15t-15 37t15 36.5t37 14.5 t36.5 -14.5t14.5 -36.5t-14.5 -37t-36.5 -15zM382 587q-22 0 -36.5 15t-14.5 37t14.5 36.5t36.5 14.5t37 -14.5t15 -36.5t-15 -37t-37 -15z" />
<glyph unicode="&#xec;" horiz-adv-x="233" d="M47 715l98 -156h-69l-124 156h95zM77 0v507h79v-507h-79z" />
<glyph unicode="&#xed;" horiz-adv-x="233" d="M88 560l99 156h94l-124 -156h-69zM77 0v507h79v-507h-79z" />
<glyph unicode="&#xee;" horiz-adv-x="233" d="M77 0v507h79v-507h-79zM79 716h76l127 -156h-80l-85 105l-85 -105h-80z" />
<glyph unicode="&#xef;" horiz-adv-x="233" d="M166 640q0 22 14.5 36.5t36.5 14.5t37 -14.5t15 -36.5t-15 -37t-37 -15t-36.5 15t-14.5 37zM-36 640q0 22 15 36.5t37 14.5t36.5 -14.5t14.5 -36.5t-14.5 -37t-36.5 -15t-37 15t-15 37zM77 0v507h79v-507h-79z" />
<glyph unicode="&#xf0;" horiz-adv-x="517" d="M471 269q0 -136 -59 -207t-157.5 -71t-157.5 62t-59 153.5t59 146.5t146.5 55t146.5 -68q-18 106 -89 196l-140 -72v61l102 52q-59 59 -132 97h124q40 -26 75 -62l122 62v-61l-85 -44q104 -134 104 -300zM157 101q37 -37 96 -37t99.5 46.5t43.5 145.5q-60 79 -151 79 q-54 0 -89.5 -35.5t-35.5 -98.5t37 -100z" />
<glyph unicode="&#xf1;" horiz-adv-x="540" d="M151 507v-88q45 95 160 95q74 0 118 -45t44 -120v-349h-79v328q0 56 -28.5 85.5t-80 29.5t-93 -44t-41.5 -122v-277h-78v507h78zM350 590q-27 0 -69.5 22t-58.5 22q-41 0 -68 -48l-43 37q14 30 41.5 50.5t58.5 20.5t74 -22t61 -22q34 0 54 43l49 -34q-32 -69 -99 -69z " />
<glyph unicode="&#xf2;" horiz-adv-x="562" d="M220 716l98 -156h-69l-124 156h95zM398 389.5q-39 54.5 -115 54.5t-117 -56t-41 -136t42 -135.5t115 -55.5t114 54.5t41 137t-39 137zM455 65q-64 -74 -174.5 -74t-174 73.5t-63.5 186t65.5 188t175.5 75.5t172.5 -74t62.5 -187.5t-64 -187.5z" />
<glyph unicode="&#xf3;" horiz-adv-x="562" d="M398 389.5q-39 54.5 -115 54.5t-117 -56t-41 -136t42 -135.5t115 -55.5t114 54.5t41 137t-39 137zM455 65q-64 -74 -174.5 -74t-174 73.5t-63.5 186t65.5 188t175.5 75.5t172.5 -74t62.5 -187.5t-64 -187.5zM258 560l99 156h94l-124 -156h-69z" />
<glyph unicode="&#xf4;" horiz-adv-x="562" d="M246 715h76l127 -156h-80l-85 105l-85 -105h-80zM455 65q-64 -74 -174.5 -74t-174 73.5t-63.5 186t65.5 188t175.5 75.5t172.5 -74t62.5 -187.5t-64 -187.5zM398 389.5q-39 54.5 -115 54.5t-117 -56t-41 -136t42 -135.5t115 -55.5t114 54.5t41 137t-39 137z" />
<glyph unicode="&#xf5;" horiz-adv-x="562" d="M354 590q-27 0 -69.5 22t-58.5 22q-41 0 -68 -48l-43 37q14 30 41.5 50.5t58.5 20.5t74 -22t61 -22q34 0 54 43l49 -34q-32 -69 -99 -69zM398 389.5q-39 54.5 -115 54.5t-117 -56t-41 -136t42 -135.5t115 -55.5t114 54.5t41 137t-39 137zM455 65q-64 -74 -174.5 -74 t-174 73.5t-63.5 186t65.5 188t175.5 75.5t172.5 -74t62.5 -187.5t-64 -187.5z" />
<glyph unicode="&#xf6;" horiz-adv-x="562" d="M398 389.5q-39 54.5 -115 54.5t-117 -56t-41 -136t42 -135.5t115 -55.5t114 54.5t41 137t-39 137zM455 65q-64 -74 -174.5 -74t-174 73.5t-63.5 186t65.5 188t175.5 75.5t172.5 -74t62.5 -187.5t-64 -187.5zM339 637q0 22 14.5 36.5t36.5 14.5t37 -14.5t15 -36.5t-15 -37 t-37 -15t-36.5 15t-14.5 37zM137 637q0 22 15 36.5t37 14.5t36.5 -14.5t14.5 -36.5t-14.5 -37t-36.5 -15t-37 15t-15 37z" />
<glyph unicode="&#xf7;" horiz-adv-x="553" d="M238.5 124.5q-15.5 15.5 -15.5 37t15.5 37t37 15.5t37 -15.5t15.5 -37t-15.5 -37t-37 -15.5t-37 15.5zM57 304v72h440v-72h-440zM238.5 481.5q-15.5 15.5 -15.5 37t15.5 37t37 15.5t37 -15.5t15.5 -37t-15.5 -37t-37 -15.5t-37 15.5z" />
<glyph unicode="&#xf8;" horiz-adv-x="563" d="M474 436q59 -73 59 -185t-64 -186t-176 -74q-72 0 -128 35l-27 -35h-82l59 79q-59 71 -59 181.5t66 186.5t171 76q75 0 131 -35l26 35h83zM292 450q-75 0 -117 -57.5t-42 -134t30 -125.5l220 292q-38 25 -91 25zM293 55q79 0 121 56t42 134t-28 130l-221 -293 q38 -27 86 -27z" />
<glyph unicode="&#xf9;" horiz-adv-x="540" d="M388 507h79v-507h-79v88q-40 -94 -159 -94q-75 0 -118.5 44.5t-43.5 119.5v349h79v-329q0 -55 28 -84t83.5 -29t93 44t37.5 119v279zM304 559h-69l-124 156h95z" />
<glyph unicode="&#xfa;" horiz-adv-x="540" d="M388 507h79v-507h-79v88q-40 -94 -159 -94q-75 0 -118.5 44.5t-43.5 119.5v349h79v-329q0 -55 28 -84t83.5 -29t93 44t37.5 119v279zM433 716l-124 -156h-69l99 156h94z" />
<glyph unicode="&#xfb;" horiz-adv-x="540" d="M388 507h79v-507h-79v88q-40 -94 -159 -94q-75 0 -118.5 44.5t-43.5 119.5v349h79v-329q0 -55 28 -84t83.5 -29t93 44t37.5 119v279zM269 665l-85 -105h-80l127 156h76l127 -156h-80z" />
<glyph unicode="&#xfc;" horiz-adv-x="540" d="M388 507h79v-507h-79v88q-40 -94 -159 -94q-75 0 -118.5 44.5t-43.5 119.5v349h79v-329q0 -55 28 -84t83.5 -29t93 44t37.5 119v279zM170 585q-22 0 -37 15t-15 37t15 36.5t37 14.5t36.5 -14.5t14.5 -36.5t-14.5 -37t-36.5 -15zM371 585q-22 0 -36.5 15t-14.5 37 t14.5 36.5t36.5 14.5t37 -14.5t15 -36.5t-15 -37t-37 -15z" />
<glyph unicode="&#xfd;" horiz-adv-x="493" d="M78 -174q-26 0 -42 5v71q15 -4 34 -4q101 0 143 115l-205 494h89l155 -397q8 28 139 397h85l-183 -494q-39 -103 -92.5 -145t-122.5 -42zM222 560l99 156h94l-124 -156h-69z" />
<glyph unicode="&#xfe;" horiz-adv-x="567" d="M151 707v-277q53 85 155.5 85t160 -73.5t57.5 -187t-60.5 -188t-159 -74.5t-153.5 85v-274h-78v904h78zM196 110q45 -46 104.5 -46t100.5 50.5t41 138.5t-40 139t-101 51t-105.5 -44.5t-44.5 -143.5t45 -145z" />
<glyph unicode="&#xff;" horiz-adv-x="493" d="M78 -174q-26 0 -42 5v71q15 -4 34 -4q101 0 143 115l-205 494h89l155 -397q8 28 139 397h85l-183 -494q-39 -103 -92.5 -145t-122.5 -42zM103 637q0 22 15 36.5t37 14.5t36.5 -14.5t14.5 -36.5t-14.5 -37t-36.5 -15t-37 15t-15 37zM305 637q0 22 14.5 36.5t36.5 14.5 t37 -14.5t15 -36.5t-15 -37t-37 -15t-36.5 15t-14.5 37z" />
<glyph unicode="&#x100;" horiz-adv-x="648" d="M526 0l-59 177h-285l-60 -177h-87l235 674h112l231 -674h-87zM205 246h239l-118 363q-14 -51 -121 -363zM468 833v-56h-282v56h282z" />
<glyph unicode="&#x101;" horiz-adv-x="492" d="M234 515q191 0 191 -194v-321h-78v60q-39 -65 -142 -65q-71 0 -114.5 42t-43.5 110.5t55.5 109t151.5 40.5h92v26q0 60 -27 90.5t-99.5 30.5t-135.5 -43v79q57 35 150 35zM346 234h-88q-64 0 -96 -25t-32 -63t25 -61.5t76 -23.5t83 30.5t32 77.5v65zM388 666v-56h-282v56 h282z" />
<glyph unicode="&#x102;" horiz-adv-x="648" d="M526 0l-59 177h-285l-60 -177h-87l235 674h112l231 -674h-87zM205 246h239l-118 363q-14 -51 -121 -363zM425 882h65q0 -73 -41 -116t-123 -43t-123.5 43t-41.5 116h65q0 -46 24 -74t75.5 -28t75.5 28t24 74z" />
<glyph unicode="&#x103;" horiz-adv-x="492" d="M234 515q191 0 191 -194v-321h-78v60q-39 -65 -142 -65q-71 0 -114.5 42t-43.5 110.5t55.5 109t151.5 40.5h92v26q0 60 -27 90.5t-99.5 30.5t-135.5 -43v79q57 35 150 35zM346 234h-88q-64 0 -96 -25t-32 -63t25 -61.5t76 -23.5t83 30.5t32 77.5v65zM349 715h65 q0 -73 -41 -116t-123 -43t-123.5 43t-41.5 116h65q0 -46 24 -74t75.5 -28t75.5 28t24 74z" />
<glyph unicode="&#x104;" horiz-adv-x="646" d="M500 -125q0 -29 17 -44t51 -15t65 22v-60q-31 -20 -84.5 -20t-85.5 31t-32 79q0 84 91 142l-56 167h-285l-60 -177h-87l235 674h112l231 -674q-112 -55 -112 -125zM204 246h239l-118 363q-14 -51 -121 -363z" />
<glyph unicode="&#x105;" horiz-adv-x="491" d="M425 321v-321q-112 -55 -112 -125q0 -29 17 -44t51 -15t65 22v-60q-31 -20 -84.5 -20t-85.5 31t-32 77.5t29 84.5t74 65v47q-51 -68 -142 -68q-71 0 -114.5 40.5t-43.5 110.5t56 111t153 41h90v25q0 60 -27 90.5t-99 30.5t-136 -42v77q58 36 150 36q191 0 191 -194z M346 232h-75q-142 0 -142 -87q0 -37 25.5 -59t75 -22t83 29t33.5 69v70z" />
<glyph unicode="&#x106;" horiz-adv-x="602" d="M330 727l99 156h94l-124 -156h-69zM387 607q-109 0 -181.5 -74t-72.5 -195.5t72 -195.5t191 -74q96 0 164 51v-85q-62 -42 -170 -42q-152 0 -247 93.5t-95 250t96.5 252t242.5 95.5q105 0 171 -36v-83q-44 23 -79 33t-92 10z" />
<glyph unicode="&#x107;" horiz-adv-x="471" d="M314 60q58 0 108 33v-75q-48 -29 -118 -29q-120 0 -190.5 76.5t-70.5 185.5t70.5 187t192.5 78q65 0 116 -28v-75q-46 31 -108 31q-86 0 -137.5 -55.5t-51 -137.5t49.5 -136.5t139 -54.5zM259 559l99 156h94l-124 -156h-69z" />
<glyph unicode="&#x108;" horiz-adv-x="602" d="M325 883h76l127 -156h-80l-85 105l-85 -105h-80zM387 607q-109 0 -181.5 -74t-72.5 -195.5t72 -195.5t191 -74q96 0 164 51v-85q-62 -42 -170 -42q-152 0 -247 93.5t-95 250t96.5 252t242.5 95.5q105 0 171 -36v-83q-44 23 -79 33t-92 10z" />
<glyph unicode="&#x109;" horiz-adv-x="471" d="M231 716h76l127 -156h-80l-85 105l-85 -105h-80zM314 444q-86 0 -137.5 -55.5t-51 -137.5t49.5 -136.5t139 -54.5q58 0 108 33v-75q-48 -29 -118 -29q-120 0 -190.5 76.5t-70.5 185.5t70.5 187t192.5 78q65 0 116 -28v-75q-46 31 -108 31z" />
<glyph unicode="&#x10a;" horiz-adv-x="602" d="M387 607q-109 0 -181.5 -74t-72.5 -195.5t72 -195.5t191 -74q96 0 164 51v-85q-62 -42 -170 -42q-152 0 -247 93.5t-95 250t96.5 252t242.5 95.5q105 0 171 -36v-83q-44 23 -79 33t-92 10zM320 808q0 22 15 36.5t37 14.5t36.5 -14.5t14.5 -36.5t-14.5 -37t-36.5 -15 t-37 15t-15 37z" />
<glyph unicode="&#x10b;" horiz-adv-x="471" d="M248 639q0 22 15 36.5t37 14.5t36.5 -14.5t14.5 -36.5t-14.5 -37t-36.5 -15t-37 15t-15 37zM314 60q58 0 108 33v-75q-48 -29 -118 -29q-120 0 -190.5 76.5t-70.5 185.5t70.5 187t192.5 78q65 0 116 -28v-75q-46 31 -108 31q-86 0 -137.5 -55.5t-51 -137.5t49.5 -136.5 t139 -54.5z" />
<glyph unicode="&#x10c;" horiz-adv-x="602" d="M416 727h-76l-127 156h80l86 -105l84 105h80zM387 607q-109 0 -181.5 -74t-72.5 -195.5t72 -195.5t191 -74q96 0 164 51v-85q-62 -42 -170 -42q-152 0 -247 93.5t-95 250t96.5 252t242.5 95.5q105 0 171 -36v-83q-44 23 -79 33t-92 10z" />
<glyph unicode="&#x10d;" horiz-adv-x="471" d="M313 560h-76l-127 156h80l86 -105l84 105h80zM314 444q-86 0 -137.5 -55.5t-51 -137.5t49.5 -136.5t139 -54.5q58 0 108 33v-75q-48 -29 -118 -29q-120 0 -190.5 76.5t-70.5 185.5t70.5 187t192.5 78q65 0 116 -28v-75q-46 31 -108 31z" />
<glyph unicode="&#x10e;" horiz-adv-x="661" d="M77 674h200q149 0 244.5 -92.5t95.5 -239t-88.5 -244.5t-247.5 -98h-204v674zM159 71h121q125 0 189 77.5t64 190.5t-71.5 188t-185.5 75h-117v-531zM344 726h-76l-127 156h80l86 -105l84 105h80z" />
<glyph unicode="&#x10f;" horiz-adv-x="660" d="M636 707h92l-111 -192h-65zM415 707h79v-707h-79v75q-54 -83 -155.5 -83t-159 75t-57.5 188t61 186.5t158.5 73.5t152.5 -85v277zM165 115q40 -51 101.5 -51t105 46t43.5 144.5t-45 143.5t-103.5 45t-100 -50.5t-41.5 -138.5t40 -139z" />
<glyph unicode="&#x110;" horiz-adv-x="730" d="M146 674h200q150 0 245 -92.5t95 -239t-88.5 -244.5t-247.5 -98h-204v304h-85v68h85v302zM228 71h122q64 0 113.5 22t78.5 61q60 77 60 187.5t-71 185.5t-186 75h-117v-230h175v-68h-175v-233z" />
<glyph unicode="&#x111;" horiz-adv-x="567" d="M565 642v-55h-71v-587h-79v75q-54 -83 -155.5 -83t-159 75t-57.5 188t61 186.5t158.5 73.5t152.5 -85v157h-193v55h193v65h79v-65h71zM165 115q40 -51 101.5 -51t105 46t43.5 144.5t-45 143.5t-103.5 45t-100 -50.5t-41.5 -138.5t40 -139z" />
<glyph unicode="&#x112;" horiz-adv-x="501" d="M158 71h295v-71h-376v674h371v-71h-290v-231h256v-71h-256v-230zM404 834v-56h-282v56h282z" />
<glyph unicode="&#x113;" horiz-adv-x="522" d="M299 -5q-115 0 -185.5 70.5t-70.5 189t63 188.5t160 70t153 -61t56 -173q0 -32 -5 -59h-346q9 -75 57 -115t129.5 -40t132.5 35v-74q-59 -31 -144 -31zM396 286v20q0 63 -34 100.5t-92.5 37.5t-98.5 -41t-47 -117h272zM417 666v-56h-282v56h282z" />
<glyph unicode="&#x114;" horiz-adv-x="501" d="M158 71h295v-71h-376v674h371v-71h-290v-231h256v-71h-256v-230zM368 883h65q0 -73 -41 -116t-123 -43t-123.5 43t-41.5 116h65q0 -46 24 -74t75.5 -28t75.5 28t24 74z" />
<glyph unicode="&#x115;" horiz-adv-x="522" d="M299 -5q-115 0 -185.5 70.5t-70.5 189t63 188.5t160 70t153 -61t56 -173q0 -32 -5 -59h-346q9 -75 57 -115t129.5 -40t132.5 35v-74q-59 -31 -144 -31zM396 286v20q0 63 -34 100.5t-92.5 37.5t-98.5 -41t-47 -117h272zM374 716h65q0 -73 -41 -116t-123 -43t-123.5 43 t-41.5 116h65q0 -46 24 -74t75.5 -28t75.5 28t24 74z" />
<glyph unicode="&#x116;" horiz-adv-x="501" d="M158 71h295v-71h-376v674h371v-71h-290v-231h256v-71h-256v-230zM275 755q-22 0 -37 15t-15 37t15 36.5t37 14.5t36.5 -14.5t14.5 -36.5t-14.5 -37t-36.5 -15z" />
<glyph unicode="&#x117;" horiz-adv-x="522" d="M299 -5q-115 0 -185.5 70.5t-70.5 189t63 188.5t160 70t153 -61t56 -173q0 -32 -5 -59h-346q9 -75 57 -115t129.5 -40t132.5 35v-74q-59 -31 -144 -31zM396 286v20q0 63 -34 100.5t-92.5 37.5t-98.5 -41t-47 -117h272zM282 587q-22 0 -37 15t-15 37t15 36.5t37 14.5 t36.5 -14.5t14.5 -36.5t-14.5 -37t-36.5 -15z" />
<glyph unicode="&#x118;" horiz-adv-x="501" d="M453 0h-89q-113 -56 -113 -125q0 -29 17.5 -44t52 -15t63.5 22v-61q-32 -19 -84.5 -19t-84.5 31t-32 79q0 74 78 132h-184v674h371v-71h-290v-231h256v-71h-256v-230h295v-71z" />
<glyph unicode="&#x119;" horiz-adv-x="522" d="M386 -219q-32 -19 -84.5 -19t-84.5 31t-32 79q0 69 70 126q-97 14 -154.5 82t-57.5 180.5t63 182.5t160 70t153 -61t56 -173q0 -32 -5 -59h-346q9 -75 57 -115t129.5 -40t132.5 35v-74q-34 -18 -85 -26q-105 -55 -105 -121q0 -29 17.5 -44t52 -15t63.5 22v-61zM396 286 v20q0 63 -34 100.5t-92.5 37.5t-98.5 -41t-47 -117h272z" />
<glyph unicode="&#x11a;" horiz-adv-x="501" d="M158 71h295v-71h-376v674h371v-71h-290v-231h256v-71h-256v-230zM309 726h-76l-127 156h80l86 -105l84 105h80z" />
<glyph unicode="&#x11b;" horiz-adv-x="522" d="M299 -5q-115 0 -185.5 70.5t-70.5 189t63 188.5t160 70t153 -61t56 -173q0 -32 -5 -59h-346q9 -75 57 -115t129.5 -40t132.5 35v-74q-59 -31 -144 -31zM396 286v20q0 63 -34 100.5t-92.5 37.5t-98.5 -41t-47 -117h272zM312 560h-76l-127 156h80l86 -105l84 105h80z" />
<glyph unicode="&#x11c;" horiz-adv-x="670" d="M603 378v-322h-1l1 -3q-81 -61 -209 -61q-156 0 -251 92.5t-95 249.5t94.5 254.5t238.5 97.5q119 0 197 -46v-87q-82 54 -192.5 54t-181.5 -73.5t-71 -197t70 -195t193 -71.5q68 0 126 27v210h-148v71h229zM366 831l-85 -105h-80l127 156h76l127 -156h-80z" />
<glyph unicode="&#x11d;" horiz-adv-x="549" d="M403 507h79v-466q0 -116 -64 -174.5t-160.5 -58.5t-161.5 31v79q64 -37 144 -37q163 0 163 161v57q-50 -86 -143 -86t-154.5 64t-61.5 177.5t57 186.5t155 73t147 -91v84zM168 127.5q42 -44.5 96 -44.5t96.5 42.5t42.5 133t-41 137.5t-100.5 47t-97.5 -51.5t-38 -135.5 t42 -128.5zM277 665l-85 -105h-80l127 156h76l127 -156h-80z" />
<glyph unicode="&#x11e;" horiz-adv-x="670" d="M603 378v-322h-1l1 -3q-81 -61 -209 -61q-156 0 -251 92.5t-95 249.5t94.5 254.5t238.5 97.5q119 0 197 -46v-87q-82 54 -192.5 54t-181.5 -73.5t-71 -197t70 -195t193 -71.5q68 0 126 27v210h-148v71h229zM468 883h65q0 -73 -41 -116t-123 -43t-123.5 43t-41.5 116h65 q0 -46 24 -74t75.5 -28t75.5 28t24 74z" />
<glyph unicode="&#x11f;" horiz-adv-x="549" d="M403 507h79v-466q0 -116 -64 -174.5t-160.5 -58.5t-161.5 31v79q64 -37 144 -37q163 0 163 161v57q-50 -86 -143 -86t-154.5 64t-61.5 177.5t57 186.5t155 73t147 -91v84zM168 127.5q42 -44.5 96 -44.5t96.5 42.5t42.5 133t-41 137.5t-100.5 47t-97.5 -51.5t-38 -135.5 t42 -128.5zM391 716h65q0 -73 -41 -116t-123 -43t-123.5 43t-41.5 116h65q0 -46 24 -74t75.5 -28t75.5 28t24 74z" />
<glyph unicode="&#x120;" horiz-adv-x="670" d="M603 378v-322h-1l1 -3q-81 -61 -209 -61q-156 0 -251 92.5t-95 249.5t94.5 254.5t238.5 97.5q119 0 197 -46v-87q-82 54 -192.5 54t-181.5 -73.5t-71 -197t70 -195t193 -71.5q68 0 126 27v210h-148v71h229zM375 754q-22 0 -37 15t-15 37t15 36.5t37 14.5t36.5 -14.5 t14.5 -36.5t-14.5 -37t-36.5 -15z" />
<glyph unicode="&#x121;" horiz-adv-x="549" d="M403 507h79v-466q0 -116 -64 -174.5t-160.5 -58.5t-161.5 31v79q64 -37 144 -37q163 0 163 161v57q-50 -86 -143 -86t-154.5 64t-61.5 177.5t57 186.5t155 73t147 -91v84zM168 127.5q42 -44.5 96 -44.5t96.5 42.5t42.5 133t-41 137.5t-100.5 47t-97.5 -51.5t-38 -135.5 t42 -128.5zM305 587q-22 0 -37 15t-15 37t15 36.5t37 14.5t36.5 -14.5t14.5 -36.5t-14.5 -37t-36.5 -15z" />
<glyph unicode="&#x122;" horiz-adv-x="670" d="M603 378v-322h-1l1 -3q-81 -61 -209 -61q-156 0 -251 92.5t-95 249.5t94.5 254.5t238.5 97.5q119 0 197 -46v-87q-82 54 -192.5 54t-181.5 -73.5t-71 -197t70 -195t193 -71.5q68 0 126 27v210h-148v71h229zM245 -243l84 192h92l-111 -192h-65z" />
<glyph unicode="&#x123;" horiz-adv-x="549" d="M403 507h79v-466q0 -116 -64 -174.5t-160.5 -58.5t-161.5 31v79q64 -37 144 -37q163 0 163 161v57q-50 -86 -143 -86t-154.5 64t-61.5 177.5t57 186.5t155 73t147 -91v84zM168 127.5q42 -44.5 96 -44.5t96.5 42.5t42.5 133t-41 137.5t-100.5 47t-97.5 -51.5t-38 -135.5 t42 -128.5zM438 752l-85 -192h-91l111 192h65z" />
<glyph unicode="&#x124;" horiz-adv-x="643" d="M485 674h81v-674h-81v305h-327v-305h-81v674h81v-296h327v296zM325 831l-85 -105h-80l127 156h76l127 -156h-80z" />
<glyph unicode="&#x125;" horiz-adv-x="540" d="M151 707v-288q45 95 160 95q73 0 117.5 -45t44.5 -122v-347h-79v328q0 55 -28.5 85t-79.5 30t-93 -43t-42 -123v-277h-78v707h78zM199 760l-85 105l-85 -105h-80l127 156h76l127 -156h-80z" />
<glyph unicode="&#x126;" horiz-adv-x="706" d="M672 570v-57h-74v-513h-82v305h-327v-305h-81v513h-75v57h75v104h81v-104h327v104h82v-104h74zM516 378v135h-327v-135h327z" />
<glyph unicode="&#x127;" horiz-adv-x="540" d="M151 587v-168q45 95 160 95q73 0 117.5 -45t44.5 -122v-347h-79v328q0 55 -28.5 85t-79.5 30t-93 -43t-42 -123v-277h-78v587h-72v55h72v65h78v-65h186v-55h-186z" />
<glyph unicode="&#x128;" horiz-adv-x="247" d="M193 755q-27 0 -69.5 22t-58.5 22q-41 0 -68 -48l-43 37q14 30 41.5 50.5t58.5 20.5t74 -22t61 -22q34 0 54 43l49 -34q-32 -69 -99 -69zM83 0v674h81v-674h-81z" />
<glyph unicode="&#x129;" horiz-adv-x="233" d="M187 586q-27 0 -69.5 22t-58.5 22q-41 0 -68 -48l-43 37q14 30 41.5 50.5t58.5 20.5t74 -22t61 -22q34 0 54 43l49 -34q-32 -69 -99 -69zM77 0v507h79v-507h-79z" />
<glyph unicode="&#x12a;" horiz-adv-x="247" d="M265 777h-282v56h282v-56zM83 0v674h81v-674h-81z" />
<glyph unicode="&#x12b;" horiz-adv-x="233" d="M258 610h-282v56h282v-56zM77 0v507h79v-507h-79z" />
<glyph unicode="&#x12c;" horiz-adv-x="247" d="M83 0v674h81v-674h-81zM-40 883h65q0 -46 24 -74t75.5 -28t75.5 28t24 74h65q0 -73 -41 -116t-123 -43t-123.5 43t-41.5 116z" />
<glyph unicode="&#x12d;" horiz-adv-x="233" d="M77 0v507h79v-507h-79zM-48 716h65q0 -46 24 -74t75.5 -28t75.5 28t24 74h65q0 -73 -41 -116t-123 -43t-123.5 43t-41.5 116z" />
<glyph unicode="&#x12e;" horiz-adv-x="247" d="M52 -125q0 -29 17.5 -44t52 -15t63.5 22v-61q-32 -19 -84.5 -19t-84.5 31t-32 79q0 86 99 146v660h81v-673l1 -1q-113 -56 -113 -125z" />
<glyph unicode="&#x12f;" horiz-adv-x="233" d="M156 507v-507q-113 -56 -113 -125q0 -29 17.5 -44t52 -15t63.5 22v-61q-32 -19 -84.5 -19t-84.5 31t-32 77.5t28.5 85t73.5 64.5v491h79zM116 615q-22 0 -36.5 14.5t-14.5 36.5t14.5 37t36.5 15t37 -15t15 -37t-15 -36.5t-37 -14.5z" />
<glyph unicode="&#x130;" horiz-adv-x="247" d="M73 808q0 22 15 36.5t37 14.5t36.5 -14.5t14.5 -36.5t-14.5 -37t-36.5 -15t-37 15t-15 37zM83 0v674h81v-674h-81z" />
<glyph unicode="&#x131;" horiz-adv-x="233" d="M77 0v507h79v-507h-79z" />
<glyph unicode="&#x132;" horiz-adv-x="563" d="M319 74q87 0 87 92v508h81v-501q0 -173 -157 -173q-56 0 -95 22v78q40 -26 84 -26zM83 0v674h81v-674h-81z" />
<glyph unicode="&#x133;" horiz-adv-x="455" d="M291 666q0 22 14.5 37t36.5 15t37 -15t15 -37t-15 -36.5t-37 -14.5t-36.5 14.5t-14.5 36.5zM248 -126q56 0 56 73v560h78v-562q0 -66 -34.5 -103t-95.5 -37q-33 0 -72 15v70q38 -16 68 -16zM62 666q0 22 14.5 37t36.5 15t37 -15t15 -37t-15 -36.5t-37 -14.5t-36.5 14.5 t-14.5 36.5zM74 0v507h79v-507h-79z" />
<glyph unicode="&#x134;" horiz-adv-x="398" d="M205 882h76l127 -156h-80l-85 105l-85 -105h-80zM114 74q87 0 87 92v508h81v-501q0 -173 -157 -173q-56 0 -95 22v78q40 -26 84 -26z" />
<glyph unicode="&#x135;" horiz-adv-x="228" d="M22 -126q56 0 56 73v560h78v-562q0 -66 -34.5 -103t-95.5 -37q-33 0 -72 15v70q38 -16 68 -16zM80 716h76l127 -156h-80l-85 105l-85 -105h-80z" />
<glyph unicode="&#x136;" horiz-adv-x="573" d="M274 333l271 -333h-105l-266 333l257 341h100zM165 -243l85 192h91l-111 -192h-65zM77 0v674h81v-674h-81z" />
<glyph unicode="&#x137;" horiz-adv-x="480" d="M254 266l206 -266h-95l-204 266l199 241h94zM117 -243l85 192h91l-111 -192h-65zM151 703v-703h-78v703h78z" />
<glyph unicode="&#x138;" horiz-adv-x="480" d="M254 266l206 -266h-95l-204 266l199 241h94zM73 0v507h78v-507h-78z" />
<glyph unicode="&#x139;" horiz-adv-x="477" d="M158 674v-601h287v-73h-368v674h81zM448 883l-124 -156h-69l99 156h94z" />
<glyph unicode="&#x13a;" horiz-adv-x="233" d="M77 0v707h79v-707h-79zM84 760l99 156h94l-124 -156h-69z" />
<glyph unicode="&#x13b;" horiz-adv-x="477" d="M158 73h287v-73h-368v674h81v-601zM139 -243l84 192h92l-111 -192h-65z" />
<glyph unicode="&#x13c;" horiz-adv-x="233" d="M-13 -243l84 192h92l-111 -192h-65zM77 0v707h79v-707h-79z" />
<glyph unicode="&#x13d;" horiz-adv-x="477" d="M158 73h287v-73h-368v674h81v-601zM424 701l-111 -192h-65l85 192h91z" />
<glyph unicode="&#x13e;" horiz-adv-x="259" d="M223 515l85 192h91l-111 -192h-65zM77 0v707h79v-707h-79z" />
<glyph unicode="&#x13f;" horiz-adv-x="485" d="M158 73h287v-73h-368v674h81v-601zM360 326q-17 -16 -41.5 -16t-40.5 16t-16 40t16.5 41t40.5 17t41 -17t17 -41t-17 -40z" />
<glyph unicode="&#x140;" horiz-adv-x="383" d="M257 321q-16 16 -16 40.5t16.5 41t40.5 16.5t41 -16.5t17 -41t-16.5 -40.5t-41.5 -16t-41 16zM73 0v707h78v-707h-78z" />
<glyph unicode="&#x141;" horiz-adv-x="500" d="M178 73h287v-73h-368v245l-68 -47v77l68 47v352h81v-296l150 104v-78l-150 -103v-228z" />
<glyph unicode="&#x142;" horiz-adv-x="291" d="M180 0h-79v304l-68 -48v77l68 48v326h79v-270l81 58v-78l-81 -57v-360z" />
<glyph unicode="&#x143;" horiz-adv-x="673" d="M77 0v674h102l169 -284l171 -292q-4 97 -4 291v285h81v-674h-102q-280 467 -341 577q5 -104 5 -293v-284h-81zM326 726l99 156h94l-124 -156h-69z" />
<glyph unicode="&#x144;" horiz-adv-x="540" d="M151 507v-88q45 95 160 95q74 0 118 -45t44 -120v-349h-79v328q0 56 -28.5 85.5t-80 29.5t-93 -44t-41.5 -122v-277h-78v507h78zM459 716l-124 -156h-69l99 156h94z" />
<glyph unicode="&#x145;" horiz-adv-x="673" d="M77 0v674h102l169 -284l171 -292q-4 97 -4 291v285h81v-674h-102q-280 467 -341 577q5 -104 5 -293v-284h-81zM218 -243l84 192h92l-111 -192h-65z" />
<glyph unicode="&#x146;" horiz-adv-x="540" d="M151 507v-88q45 95 160 95q74 0 118 -45t44 -120v-349h-79v328q0 56 -28.5 85.5t-80 29.5t-93 -44t-41.5 -122v-277h-78v507h78zM149 -243l84 192h92l-111 -192h-65z" />
<glyph unicode="&#x147;" horiz-adv-x="673" d="M391 727h-76l-127 156h80l86 -105l84 105h80zM77 0v674h102l169 -284l171 -292q-4 97 -4 291v285h81v-674h-102q-280 467 -341 577q5 -104 5 -293v-284h-81z" />
<glyph unicode="&#x148;" horiz-adv-x="540" d="M151 507v-88q45 95 160 95q74 0 118 -45t44 -120v-349h-79v328q0 56 -28.5 85.5t-80 29.5t-93 -44t-41.5 -122v-277h-78v507h78zM325 560h-76l-127 156h80l86 -105l84 105h80z" />
<glyph unicode="&#x149;" horiz-adv-x="576" d="M188 507v-88q45 95 160 95q74 0 118 -45t44 -120v-349h-79v328q0 56 -28.5 85.5t-80 29.5t-93 -44t-41.5 -122v-277h-78v507h78zM54 695h89l-109 -204h-56z" />
<glyph unicode="&#x14a;" horiz-adv-x="673" d="M515 674h81v-700q0 -173 -157 -173q-58 0 -95 22v78q42 -26 84 -26q87 0 87 92v33h-21q-280 467 -341 577q5 -104 5 -293v-284h-81v674h102l169 -284l171 -292q-4 97 -4 291v285z" />
<glyph unicode="&#x14b;" horiz-adv-x="540" d="M473 241h1v-296q0 -66 -34.5 -103t-96.5 -37q-33 0 -71 15v70q37 -16 67 -16q56 0 56 73v53h-1v328q0 56 -28.5 85.5t-80 29.5t-93 -44t-41.5 -122v-277h-78v507h78v-88q45 95 160 95q74 0 118 -45t44 -120v-108z" />
<glyph unicode="&#x14c;" horiz-adv-x="700" d="M190.5 538.5q-57.5 -72.5 -57.5 -198t59.5 -198.5t160.5 -73t157.5 72t56.5 199t-57 199t-159.5 72t-160 -72.5zM131 87q-83 95 -83 253.5t81.5 252.5t222 94t221 -93.5t80.5 -253t-81.5 -254t-219.5 -94.5t-221 95zM492 777h-282v56h282v-56z" />
<glyph unicode="&#x14d;" horiz-adv-x="562" d="M398 389.5q-39 54.5 -115 54.5t-117 -56t-41 -136t42 -135.5t115 -55.5t114 54.5t41 137t-39 137zM455 65q-64 -74 -174.5 -74t-174 73.5t-63.5 186t65.5 188t175.5 75.5t172.5 -74t62.5 -187.5t-64 -187.5zM425 610h-282v56h282v-56z" />
<glyph unicode="&#x14e;" horiz-adv-x="700" d="M131 87q-83 95 -83 253.5t81.5 252.5t222 94t221 -93.5t80.5 -253t-81.5 -254t-219.5 -94.5t-221 95zM190.5 538.5q-57.5 -72.5 -57.5 -198t59.5 -198.5t160.5 -73t157.5 72t56.5 199t-57 199t-159.5 72t-160 -72.5zM191 883h65q0 -46 24 -74t75.5 -28t75.5 28t24 74h65 q0 -73 -41 -116t-123 -43t-123.5 43t-41.5 116z" />
<glyph unicode="&#x14f;" horiz-adv-x="562" d="M455 65q-64 -74 -174.5 -74t-174 73.5t-63.5 186t65.5 188t175.5 75.5t172.5 -74t62.5 -187.5t-64 -187.5zM398 389.5q-39 54.5 -115 54.5t-117 -56t-41 -136t42 -135.5t115 -55.5t114 54.5t41 137t-39 137zM128 716h65q0 -46 24 -74t75.5 -28t75.5 28t24 74h65 q0 -73 -41 -116t-123 -43t-123.5 43t-41.5 116z" />
<glyph unicode="&#x150;" horiz-adv-x="700" d="M190.5 538.5q-57.5 -72.5 -57.5 -198t59.5 -198.5t160.5 -73t157.5 72t56.5 199t-57 199t-159.5 72t-160 -72.5zM131 87q-83 95 -83 253.5t81.5 252.5t222 94t221 -93.5t80.5 -253t-81.5 -254t-219.5 -94.5t-221 95zM257 727l96 156h92l-127 -156h-61zM413 727l101 156 h94l-134 -156h-61z" />
<glyph unicode="&#x151;" horiz-adv-x="562" d="M398 389.5q-39 54.5 -115 54.5t-117 -56t-41 -136t42 -135.5t115 -55.5t114 54.5t41 137t-39 137zM455 65q-64 -74 -174.5 -74t-174 73.5t-63.5 186t65.5 188t175.5 75.5t172.5 -74t62.5 -187.5t-64 -187.5zM193 560l96 156h92l-127 -156h-61zM349 560l101 156h94 l-134 -156h-61z" />
<glyph unicode="&#x152;" horiz-adv-x="983" d="M638 71h297v-71h-376v88q-79 -96 -214 -96t-216 94.5t-81 253.5t79.5 253t216.5 94t215 -95v82h371v-71h-292v-231h258v-71h-258v-230zM190.5 141.5q57.5 -72.5 157.5 -72.5t155.5 72t55.5 199t-55.5 199t-157.5 72t-157.5 -72t-55.5 -198.5t57.5 -199z" />
<glyph unicode="&#x153;" horiz-adv-x="892" d="M672 -5q-139 0 -210 104q-59 -108 -191 -108q-108 0 -168 73t-60 186.5t62 188.5t166 75q130 0 189 -102q63 101 186 101q98 0 151 -61.5t53 -176.5q0 -28 -5 -55h-345q9 -75 58 -115t127 -40t129 35v-74q-59 -31 -142 -31zM163.5 116q38.5 -55 110.5 -55t108.5 53.5 t36.5 136.5q0 193 -148 193q-72 0 -109 -55t-37 -136.5t38.5 -136.5zM771 286v22q-1 66 -35 101t-90 35t-97 -40t-49 -118h271z" />
<glyph unicode="&#x154;" horiz-adv-x="548" d="M263 266h-105v-266h-81v674h169q117 0 177.5 -55t60.5 -152q-2 -70 -37 -119t-99 -69l177 -279h-97zM158 604v-269h102q69 0 105.5 37.5t36.5 96.5q0 135 -151 135h-93zM429 883l-124 -156h-69l99 156h94z" />
<glyph unicode="&#x155;" horiz-adv-x="326" d="M151 507v-89q40 94 138 94q18 0 28 -2v-78q-21 7 -43 7q-53 0 -88 -49t-35 -113v-277h-79l1 507h78zM361 716l-124 -156h-69l99 156h94z" />
<glyph unicode="&#x156;" horiz-adv-x="548" d="M263 266h-105v-266h-81v674h169q117 0 177.5 -55t60.5 -152q-2 -70 -37 -119t-99 -69l177 -279h-97zM158 604v-269h102q69 0 105.5 37.5t36.5 96.5q0 135 -151 135h-93zM157 -243l85 192h91l-111 -192h-65z" />
<glyph unicode="&#x157;" horiz-adv-x="326" d="M151 507v-89q40 94 138 94q18 0 28 -2v-78q-21 7 -43 7q-53 0 -88 -49t-35 -113v-277h-79l1 507h78zM-20 -243l84 192h92l-111 -192h-65z" />
<glyph unicode="&#x158;" horiz-adv-x="548" d="M263 266h-105v-266h-81v674h169q117 0 177.5 -55t60.5 -152q-2 -70 -37 -119t-99 -69l177 -279h-97zM158 604v-269h102q69 0 105.5 37.5t36.5 96.5q0 135 -151 135h-93zM316 726h-76l-127 156h80l86 -105l84 105h80z" />
<glyph unicode="&#x159;" horiz-adv-x="326" d="M151 507v-89q40 94 138 94q18 0 28 -2v-78q-21 7 -43 7q-53 0 -88 -49t-35 -113v-277h-79l1 507h78zM240 559h-76l-127 156h80l86 -105l84 105h80z" />
<glyph unicode="&#x15a;" horiz-adv-x="524" d="M430 564q-61 40 -134 40t-109 -28.5t-36 -74.5q0 -49 43 -79q32 -21 80 -42.5t66 -30t46.5 -27t43.5 -36.5q37 -45 37 -107q0 -89 -61 -137.5t-162 -48.5t-175 43v87q73 -55 178 -55q63 0 99 28t36 81q0 44 -36 71q-40 30 -93 52.5t-75.5 34.5t-53.5 35q-58 46 -58 129.5 t61.5 132t151.5 48.5t151 -31v-85zM247 726l99 156h94l-124 -156h-69z" />
<glyph unicode="&#x15b;" horiz-adv-x="412" d="M223 443q-40 0 -63.5 -18.5t-23.5 -42t7 -37t27 -26.5q24 -15 80 -38.5t92 -56.5t36 -93.5t-45.5 -98.5t-131 -38t-142.5 31v77q67 -40 144 -40q46 0 70 18t24 51.5t-26.5 53.5t-86 43.5t-94 56.5t-34.5 92.5t47.5 97t122.5 37.5t123 -22v-75q-46 28 -126 28zM188 560 l99 156h94l-124 -156h-69z" />
<glyph unicode="&#x15c;" horiz-adv-x="524" d="M219 882h76l127 -156h-80l-85 105l-85 -105h-80zM430 564q-61 40 -134 40t-109 -28.5t-36 -74.5q0 -49 43 -79q32 -21 80 -42.5t66 -30t46.5 -27t43.5 -36.5q37 -45 37 -107q0 -89 -61 -137.5t-162 -48.5t-175 43v87q73 -55 178 -55q63 0 99 28t36 81q0 44 -36 71 q-40 30 -93 52.5t-75.5 34.5t-53.5 35q-58 46 -58 129.5t61.5 132t151.5 48.5t151 -31v-85z" />
<glyph unicode="&#x15d;" horiz-adv-x="412" d="M186 716h76l127 -156h-80l-85 105l-85 -105h-80zM223 443q-40 0 -63.5 -18.5t-23.5 -42t7 -37t27 -26.5q24 -15 80 -38.5t92 -56.5t36 -93.5t-45.5 -98.5t-131 -38t-142.5 31v77q67 -40 144 -40q46 0 70 18t24 51.5t-26.5 53.5t-86 43.5t-94 56.5t-34.5 92.5t47.5 97 t122.5 37.5t123 -22v-75q-46 28 -126 28z" />
<glyph unicode="&#x15e;" horiz-adv-x="524" d="M295 -51q18 -25 18 -75t-38.5 -87t-111.5 -39v58q84 6 84 71q0 34 -23 72h71zM430 564q-61 40 -134 40t-109 -28.5t-36 -74.5q0 -49 43 -79q32 -21 80 -42.5t66 -30t46.5 -27t43.5 -36.5q37 -45 37 -107q0 -89 -61 -137.5t-162 -48.5t-175 43v87q73 -55 178 -55 q63 0 99 28t36 81q0 44 -36 71q-40 30 -93 52.5t-75.5 34.5t-53.5 35q-58 46 -58 129.5t61.5 132t151.5 48.5t151 -31v-85z" />
<glyph unicode="&#x15f;" horiz-adv-x="412" d="M259 -51q18 -25 18 -75t-38.5 -87t-111.5 -39v58q84 6 84 71q0 34 -23 72h71zM223 443q-40 0 -63.5 -18.5t-23.5 -42t7 -37t27 -26.5q24 -15 80 -38.5t92 -56.5t36 -93.5t-45.5 -98.5t-131 -38t-142.5 31v77q67 -40 144 -40q46 0 70 18t24 51.5t-26.5 53.5t-86 43.5 t-94 56.5t-34.5 92.5t47.5 97t122.5 37.5t123 -22v-75q-46 28 -126 28z" />
<glyph unicode="&#x160;" horiz-adv-x="524" d="M301 726h-76l-127 156h80l86 -105l84 105h80zM430 564q-61 40 -134 40t-109 -28.5t-36 -74.5q0 -49 43 -79q32 -21 80 -42.5t66 -30t46.5 -27t43.5 -36.5q37 -45 37 -107q0 -89 -61 -137.5t-162 -48.5t-175 43v87q73 -55 178 -55q63 0 99 28t36 81q0 44 -36 71 q-40 30 -93 52.5t-75.5 34.5t-53.5 35q-58 46 -58 129.5t61.5 132t151.5 48.5t151 -31v-85z" />
<glyph unicode="&#x161;" horiz-adv-x="412" d="M269 560h-76l-127 156h80l86 -105l84 105h80zM223 443q-40 0 -63.5 -18.5t-23.5 -42t7 -37t27 -26.5q24 -15 80 -38.5t92 -56.5t36 -93.5t-45.5 -98.5t-131 -38t-142.5 31v77q67 -40 144 -40q46 0 70 18t24 51.5t-26.5 53.5t-86 43.5t-94 56.5t-34.5 92.5t47.5 97 t122.5 37.5t123 -22v-75q-46 28 -126 28z" />
<glyph unicode="&#x162;" horiz-adv-x="482" d="M463 674v-71h-182v-603h-81v603h-182v71h445zM105 -243l84 192h92l-111 -192h-65z" />
<glyph unicode="&#x163;" horiz-adv-x="369" d="M182 443v-297q0 -81 76 -81q39 0 69 23v-75q-33 -18 -74 -18q-150 0 -150 153v295h-81v64h81v126h79v-126h140v-64h-140zM57 -243l84 192h92l-112 -192h-64z" />
<glyph unicode="&#x164;" horiz-adv-x="482" d="M463 674v-71h-182v-603h-81v603h-182v71h445zM279 727h-76l-127 156h80l86 -105l84 105h80z" />
<glyph unicode="&#x165;" horiz-adv-x="369" d="M182 443v-297q0 -81 76 -81q39 0 69 23v-75q-33 -18 -74 -18q-150 0 -150 153v295h-81v64h81v126h79v-126h140v-64h-140zM417 760l-111 -193h-65l85 193h91z" />
<glyph unicode="&#x166;" horiz-adv-x="482" d="M463 603h-182v-241h118v-64h-118v-298h-81v298h-118v64h118v241h-182v71h445v-71z" />
<glyph unicode="&#x167;" horiz-adv-x="377" d="M187 261v-115q0 -81 75 -81q39 0 69 23v-75q-31 -18 -74 -18q-150 0 -150 153v113h-81v58h81v126h-81v62h81v126h80v-126h139v-62h-139v-126h140v-58h-140z" />
<glyph unicode="&#x168;" horiz-adv-x="645" d="M399 756q-27 0 -69.5 22t-58.5 22q-41 0 -68 -48l-43 37q14 30 41.5 50.5t58.5 20.5t74 -22t61 -22q34 0 54 43l49 -34q-32 -69 -99 -69zM488 254v420h81v-418q0 -130 -65.5 -197t-181.5 -67t-181 65.5t-65 190.5v426h81v-425q0 -93 44.5 -137t119.5 -44q167 0 167 186z " />
<glyph unicode="&#x169;" horiz-adv-x="540" d="M388 507h79v-507h-79v88q-40 -94 -159 -94q-75 0 -118.5 44.5t-43.5 119.5v349h79v-329q0 -55 28 -84t83.5 -29t93 44t37.5 119v279zM342 585q-27 0 -69.5 22t-58.5 22q-41 0 -68 -48l-43 37q14 30 41.5 50.5t58.5 20.5t74 -22t61 -22q34 0 54 43l49 -34q-32 -69 -99 -69 z" />
<glyph unicode="&#x16a;" horiz-adv-x="645" d="M467 777h-282v56h282v-56zM488 254v420h81v-418q0 -130 -65.5 -197t-181.5 -67t-181 65.5t-65 190.5v426h81v-425q0 -93 44.5 -137t119.5 -44q167 0 167 186z" />
<glyph unicode="&#x16b;" horiz-adv-x="540" d="M388 507h79v-507h-79v88q-40 -94 -159 -94q-75 0 -118.5 44.5t-43.5 119.5v349h79v-329q0 -55 28 -84t83.5 -29t93 44t37.5 119v279zM408 666v-56h-282v56h282z" />
<glyph unicode="&#x16c;" horiz-adv-x="645" d="M488 254v420h81v-418q0 -130 -65.5 -197t-181.5 -67t-181 65.5t-65 190.5v426h81v-425q0 -93 44.5 -137t119.5 -44q167 0 167 186zM161 882h65q0 -46 24 -74t75.5 -28t75.5 28t24 74h65q0 -73 -41 -116t-123 -43t-123.5 43t-41.5 116z" />
<glyph unicode="&#x16d;" horiz-adv-x="540" d="M388 507h79v-507h-79v88q-40 -94 -159 -94q-75 0 -118.5 44.5t-43.5 119.5v349h79v-329q0 -55 28 -84t83.5 -29t93 44t37.5 119v279zM372 716h65q0 -73 -41 -116t-123 -43t-123.5 43t-41.5 116h65q0 -46 24 -74t75.5 -28t75.5 28t24 74z" />
<glyph unicode="&#x16e;" horiz-adv-x="645" d="M488 254v420h81v-418q0 -130 -65.5 -197t-181.5 -67t-181 65.5t-65 190.5v426h81v-425q0 -93 44.5 -137t119.5 -44q167 0 167 186zM287.5 861.5q-15.5 -15.5 -15.5 -38t15.5 -38.5t37.5 -16t38 16t16 38.5t-15.5 38t-38 15.5t-38 -15.5zM219 822q0 44 31 75.5t75 31.5 t75 -31.5t31 -75.5t-31 -75t-75 -31t-75 31t-31 75z" />
<glyph unicode="&#x16f;" horiz-adv-x="540" d="M388 507h79v-507h-79v88q-40 -94 -159 -94q-75 0 -118.5 44.5t-43.5 119.5v349h79v-329q0 -55 28 -84t83.5 -29t93 44t37.5 119v279zM275 550q-44 0 -75 31t-31 75t31 75.5t75 31.5t75 -31.5t31 -75.5t-31 -75t-75 -31zM313.5 695.5q-15.5 15.5 -38 15.5t-38 -15.5 t-15.5 -38t15.5 -38.5t37.5 -16t38 16t16 38.5t-15.5 38z" />
<glyph unicode="&#x170;" horiz-adv-x="645" d="M211 727l96 156h92l-127 -156h-61zM367 727l101 156h94l-134 -156h-61zM488 254v420h81v-418q0 -130 -65.5 -197t-181.5 -67t-181 65.5t-65 190.5v426h81v-425q0 -93 44.5 -137t119.5 -44q167 0 167 186z" />
<glyph unicode="&#x171;" horiz-adv-x="540" d="M388 228v279h79v-507h-79v88q-40 -94 -159 -94q-75 0 -118.5 44.5t-43.5 119.5v349h79v-329q0 -55 28 -84t83.5 -29t93 44t37.5 119zM350 716l-127 -156h-61l96 156h92zM379 560h-61l101 156h94z" />
<glyph unicode="&#x172;" horiz-adv-x="645" d="M488 674h81v-418q0 -200 -150 -249q-112 -56 -112 -125q0 -29 17.5 -44t52 -15t63.5 22v-61q-32 -19 -84.5 -19t-84.5 31t-32 79q0 63 60 118q-105 6 -164 71t-59 184v426h81v-425q0 -93 44.5 -137t119.5 -44q167 0 167 186v420z" />
<glyph unicode="&#x173;" horiz-adv-x="540" d="M467 507v-507q-113 -56 -113 -125q0 -29 17.5 -44t52 -15t63.5 22v-61q-32 -19 -84.5 -19t-84.5 31t-32 77.5t28.5 85t73.5 64.5v72q-40 -94 -159 -94q-75 0 -118.5 44.5t-43.5 119.5v349h79v-329q0 -55 28 -84t83.5 -29t93 44t37.5 119v279h79z" />
<glyph unicode="&#x174;" horiz-adv-x="938" d="M437 883h76l127 -156h-80l-85 105l-85 -105h-80zM432 664h81l74 -240l102 -342q38 181 131 592h82l-158 -674h-104l-166 550q-29 -111 -159 -550h-103l-176 674h85l63 -250l83 -339q57 210 165 579z" />
<glyph unicode="&#x175;" horiz-adv-x="792" d="M355 716h76l127 -156h-80l-85 105l-85 -105h-80zM181 0l-156 507h84q99 -338 120 -430q11 49 121 430h84l124 -431q13 53 128 431h81l-160 -507h-97l-48 166l-70 253q-12 -49 -114 -419h-97z" />
<glyph unicode="&#x176;" horiz-adv-x="593" d="M336 0h-81v250l-229 424h94q157 -304 175 -350q5 15 178 350h94l-231 -423v-251zM296 831l-85 -105h-80l127 156h76l127 -156h-80z" />
<glyph unicode="&#x177;" horiz-adv-x="493" d="M78 -174q-26 0 -42 5v71q15 -4 34 -4q101 0 143 115l-205 494h89l155 -397q8 28 139 397h85l-183 -494q-39 -103 -92.5 -145t-122.5 -42zM206 716h76l127 -156h-80l-85 105l-85 -105h-80z" />
<glyph unicode="&#x178;" horiz-adv-x="593" d="M336 0h-81v250l-229 424h94q157 -304 175 -350q5 15 178 350h94l-231 -423v-251zM197 753q-22 0 -37 15t-15 37t15 36.5t37 14.5t36.5 -14.5t14.5 -36.5t-14.5 -37t-36.5 -15zM398 753q-22 0 -36.5 15t-14.5 37t14.5 36.5t36.5 14.5t37 -14.5t15 -36.5t-15 -37t-37 -15z " />
<glyph unicode="&#x179;" horiz-adv-x="569" d="M502 674v-66l-356 -539h371v-69h-465v67l356 538h-351v69h445zM263 727l99 156h94l-124 -156h-69z" />
<glyph unicode="&#x17a;" horiz-adv-x="453" d="M395 507v-58l-260 -378h274v-71h-365v62l257 375h-247v70h341zM200 560l99 156h94l-124 -156h-69z" />
<glyph unicode="&#x17b;" horiz-adv-x="569" d="M240 808q0 22 15 36.5t37 14.5t36.5 -14.5t14.5 -36.5t-14.5 -37t-36.5 -15t-37 15t-15 37zM502 674v-66l-356 -539h371v-69h-465v67l356 538h-351v69h445z" />
<glyph unicode="&#x17c;" horiz-adv-x="453" d="M191 638q0 22 15 36.5t37 14.5t36.5 -14.5t14.5 -36.5t-14.5 -37t-36.5 -15t-37 15t-15 37zM395 507v-58l-260 -378h274v-71h-365v62l257 375h-247v70h341z" />
<glyph unicode="&#x17d;" horiz-adv-x="569" d="M321 727h-76l-127 156h80l86 -105l84 105h80zM502 674v-66l-356 -539h371v-69h-465v67l356 538h-351v69h445z" />
<glyph unicode="&#x17e;" horiz-adv-x="453" d="M280 560h-76l-127 156h80l86 -105l84 105h80zM395 507v-58l-260 -378h274v-71h-365v62l257 375h-247v70h341z" />
<glyph unicode="&#x17f;" horiz-adv-x="241" d="M271 689q-21 9 -49 9t-49 -22t-21 -68v-608h-78v608q0 74 39 117t110 43q27 0 48 -6v-73z" />
<glyph unicode="&#x192;" horiz-adv-x="392" d="M347 681q41 0 66 -9v-72q-27 10 -57 10q-73 0 -93 -114l-22 -125h99v-64h-110l-67 -387q-15 -87 -53 -132t-108 -45q-41 0 -68 10v72q27 -11 60 -11q71 0 92 114l65 379h-97v64h108l23 133q15 87 53.5 132t108.5 45z" />
<glyph unicode="&#x218;" horiz-adv-x="524" d="M136 -243l84 192h92l-111 -192h-65zM430 564q-61 40 -134 40t-109 -28.5t-36 -74.5q0 -49 43 -79q32 -21 80 -42.5t66 -30t46.5 -27t43.5 -36.5q37 -45 37 -107q0 -89 -61 -137.5t-162 -48.5t-175 43v87q73 -55 178 -55q63 0 99 28t36 81q0 44 -36 71q-40 30 -93 52.5 t-75.5 34.5t-53.5 35q-58 46 -58 129.5t61.5 132t151.5 48.5t151 -31v-85z" />
<glyph unicode="&#x219;" horiz-adv-x="412" d="M223 443q-40 0 -63.5 -18.5t-23.5 -42t7 -37t27 -26.5q24 -15 80 -38.5t92 -56.5t36 -93.5t-45.5 -98.5t-131 -38t-142.5 31v77q67 -40 144 -40q46 0 70 18t24 51.5t-26.5 53.5t-86 43.5t-94 56.5t-34.5 92.5t47.5 97t122.5 37.5t123 -22v-75q-46 28 -126 28zM87 -243 l84 192h92l-111 -192h-65z" />
<glyph unicode="&#x21a;" horiz-adv-x="482" d="M18 674h445v-71h-182v-603h-81v603h-182v71zM108 -243l84 192h92l-111 -192h-65z" />
<glyph unicode="&#x21b;" horiz-adv-x="369" d="M182 443v-297q0 -81 76 -81q39 0 69 23v-75q-33 -18 -74 -18q-150 0 -150 153v295h-81v64h81v126h79v-126h140v-64h-140zM112 -243l84 192h92l-111 -192h-65z" />
<glyph unicode="&#x237;" horiz-adv-x="228" d="M22 -126q56 0 56 73v560h78v-562q0 -66 -34.5 -103t-95.5 -37q-33 0 -72 15v70q38 -16 68 -16z" />
<glyph unicode="&#x2bc;" horiz-adv-x="181" d="M21 471l84 224h98l-120 -224h-62z" />
<glyph unicode="&#x2c6;" horiz-adv-x="421" d="M172 798h76l127 -156h-80l-85 105l-85 -105h-80z" />
<glyph unicode="&#x2c7;" horiz-adv-x="421" d="M248 642h-76l-127 156h80l86 -105l84 105h80z" />
<glyph unicode="&#x2c9;" horiz-adv-x="421" d="M351 693h-282v56h282v-56z" />
<glyph unicode="&#x2d8;" horiz-adv-x="421" d="M46 798h65q0 -46 24 -74t75.5 -28t75.5 28t24 74h65q0 -73 -41 -116t-123 -43t-123.5 43t-41.5 116z" />
<glyph unicode="&#x2d9;" horiz-adv-x="421" d="M159 724q0 22 15 36.5t37 14.5t36.5 -14.5t14.5 -36.5t-14.5 -37t-36.5 -15t-37 15t-15 37z" />
<glyph unicode="&#x2da;" horiz-adv-x="421" d="M172.5 759.5q-15.5 -15.5 -15.5 -38t15.5 -38.5t37.5 -16t38 16t16 38.5t-16 38t-38 15.5t-37.5 -15.5zM104 720q0 44 31 75.5t75 31.5t75 -31.5t31 -75.5t-31 -75t-75 -31t-75 31t-31 75z" />
<glyph unicode="&#x2db;" horiz-adv-x="421" d="M311 -212q-32 -19 -84.5 -19t-84.5 31t-32 84t45.5 99t104.5 66l31 -38q-113 -56 -113 -125q0 -29 17.5 -44t52 -15t63.5 22v-61z" />
<glyph unicode="&#x2dc;" horiz-adv-x="421" d="M289 658q-27 0 -69.5 22t-58.5 22q-41 0 -68 -48l-43 37q14 30 41.5 50.5t58.5 20.5t74 -22t61 -22q34 0 54 43l49 -34q-32 -69 -99 -69z" />
<glyph unicode="&#x2dd;" horiz-adv-x="421" d="M35 642l96 156h92l-127 -156h-61zM191 642l101 156h94l-134 -156h-61z" />
<glyph unicode="&#x3c0;" horiz-adv-x="582" d="M564 507v-64h-95v-443h-79v443h-191v-278q0 -91 -40.5 -128t-117.5 -37v69q44 0 61.5 19t17.5 74v281h-96v64h540z" />
<glyph unicode="&#x901;" d="M-172 914q-14 14 -14 36.5t14.5 37.5t36.5 15t37 -15t15 -37t-15 -36.5t-37.5 -14.5t-36.5 14zM-8.5 780q-52.5 -41 -128.5 -41t-127.5 40t-51.5 117h78q0 -41 27 -68t75 -27t75.5 27t27.5 68h77q0 -75 -52.5 -116z" />
<glyph unicode="&#x902;" d="M-189 783q0 23 15.5 39t38.5 16t39 -16t16 -39t-16 -38t-39 -15t-38.5 15t-15.5 38z" />
<glyph unicode="&#x903;" horiz-adv-x="298" d="M60 156q0 23 15 39t38 16t39 -16t16 -39t-16 -38t-39 -15t-38 15t-15 38zM60 484q0 23 15 38.5t38 15.5t39 -15.5t16 -38.5t-16 -38.5t-39 -15.5t-38 15.5t-15 38.5z" />
<glyph unicode="&#x905;" horiz-adv-x="659" d="M681 642v-67h-116v-575h-78v260h-138q1 -7 1 -22q0 -74 -52.5 -120t-145.5 -46q-65 0 -122 24v74q62 -31 115.5 -31t90 25.5t36.5 74.5q0 97 -125 97h-34v70h32q53 0 80 23t27 62q0 82 -94 82q-53 0 -97 -24v74q43 18 98 18q82 0 126.5 -38t44.5 -95.5t-25.5 -90.5 t-66.5 -44q51 -7 82 -45h167v247h-91v67h285z" />
<glyph unicode="&#x906;" horiz-adv-x="924" d="M946 642v-67h-116v-575h-78v575h-187v-575h-78v260h-138q1 -7 1 -22q0 -74 -52.5 -120t-145.5 -46q-65 0 -122 24v74q62 -31 115.5 -31t90 25.5t36.5 74.5q0 97 -125 97h-34v70h32q53 0 80 23t27 62q0 82 -94 82q-53 0 -97 -24v74q43 18 98 18q82 0 126.5 -38t44.5 -95.5 t-25.5 -90.5t-66.5 -44q51 -7 82 -45h167v247h-91v67h550z" />
<glyph unicode="&#x907;" horiz-adv-x="481" d="M395 426h-160q-42 0 -66 -16t-24 -46t29 -44.5t96 -19.5q181 -11 181 -142q0 -64 -47.5 -108t-126.5 -44t-134 49v-115h-77v228h71q16 -42 55.5 -69.5t84 -27.5t70.5 24t26 62q0 70 -116 77q-191 9 -191 128q0 61 46 96t121 35h83v82h-338v67h525v-67h-108v-149z" />
<glyph unicode="&#x908;" horiz-adv-x="481" d="M393 426h-158q-42 0 -66 -16t-24 -46t29 -44.5t96 -19.5q181 -11 181 -142q0 -64 -47.5 -108t-126.5 -44t-134 49v-115h-77v228h71q16 -42 55.5 -69.5t84 -27.5t70.5 24t26 62q0 70 -116 77q-191 9 -191 128q0 61 46 96t121 35h81v82h-336v67h315q-33 39 -33 96t39.5 97 t105.5 40q41 0 71 -14v-71q-32 15 -66 15t-52.5 -20.5t-18.5 -60.5t38 -82h126v-67h-110v-149z" />
<glyph unicode="&#x909;" horiz-adv-x="428" d="M451 642v-67h-130q35 -38 35 -93q0 -107 -104 -136q55 -5 96.5 -45t41.5 -112.5t-58 -121t-164 -48.5q-69 0 -138 26v72q64 -31 132 -31t108.5 28.5t40.5 83.5t-42 84t-112 29h-46v68h46q120 0 120 103q0 55 -42 93h-257v67h473z" />
<glyph unicode="&#x90a;" horiz-adv-x="693" d="M714 642v-67h-393q35 -38 35 -93q0 -107 -104 -136q58 -5 96 -45q14 45 53.5 74t87.5 29q85 0 130.5 -49t45.5 -133t-48 -138t-129 -54q-14 0 -23 3v65q5 -2 17 -2q51 0 78 32.5t27 89t-24.5 88.5t-72 32t-74 -40t-26.5 -97v-5q0 -80 -58 -128.5t-164 -48.5 q-69 0 -138 26v72q64 -31 132 -31t108.5 28.5t40.5 83.5t-42 84t-112 29h-46v68h46q120 0 120 103q0 55 -42 93h-257v67h736z" />
<glyph unicode="&#x90b;" horiz-adv-x="817" d="M442 575v-228l140 81v57h72v-91q0 -84 88 -84h9v-65h-42q-45 0 -68.5 -20.5t-23.5 -54t23.5 -50.5t70.5 -17t80 23v-67q-33 -21 -93 -21t-109 33.5t-49 94.5q0 42 25 74.5t69 46.5q-38 18 -48 68l-144 -84v-271h-79v231l-312 -188v81l224 133q-16 61 -48 95.5t-87 34.5 t-101 -22v75q43 20 106.5 20t116 -40.5t76.5 -124.5l25 15v265h-385v67h862v-67h-398z" />
<glyph unicode="&#x90c;" horiz-adv-x="761" d="M665 575v-408q-58 -1 -86 -26t-28 -59t24.5 -54t69 -20t86.5 16v-65q-42 -14 -82 -14q-77 0 -126 35.5t-49 101.5q0 48 29.5 82.5t82.5 47.5v180q-32 17 -69 17q-108 0 -108 -127v-72h-78v74q0 119 -88 119q-44 0 -73 -36.5t-29 -113t44 -132t129 -55.5q29 0 47 7v-66 q-26 -7 -58 -7q-108 0 -174 74.5t-66 188.5q0 91 47 148.5t125 57.5q55 0 90.5 -25t45.5 -69q23 98 140 98q38 0 75 -14v116h-608v67h805v-67h-118z" />
<glyph unicode="&#x90d;" horiz-adv-x="555" d="M577 642v-67h-88v-146q0 -70 -43 -112t-121 -42q-25 0 -45 6v65q15 -6 39 -6q92 0 92 93v142h-248v-316q0 -159 174 -159q80 0 141 32v-72q-62 -26 -147 -26q-112 0 -179 54.5t-67 169.5v317h-107v67h599zM395 896h77q0 -75 -51.5 -116t-127.5 -41t-126.5 40t-50.5 117 h78q0 -42 26 -68.5t74 -26.5t74.5 26.5t26.5 68.5z" />
<glyph unicode="&#x90e;" horiz-adv-x="555" d="M577 642v-67h-88v-146q0 -70 -43 -112t-121 -42q-25 0 -45 6v65q15 -6 39 -6q92 0 92 93v142h-248v-316q0 -159 174 -159q80 0 141 32v-72q-62 -26 -147 -26q-112 0 -179 54.5t-67 169.5v317h-107v67h433q-1 45 -18 69.5t-60 24.5h-55q-78 0 -119.5 36t-41.5 124h78 q0 -52 20.5 -73t66.5 -21h54q153 0 153 -160h88z" />
<glyph unicode="&#x90f;" horiz-adv-x="555" d="M577 642v-67h-88v-146q0 -70 -43 -112t-121 -42q-25 0 -45 6v65q15 -6 39 -6q92 0 92 93v142h-248v-316q0 -159 174 -159q80 0 141 32v-72q-62 -26 -147 -26q-112 0 -179 54.5t-67 169.5v317h-107v67h599z" />
<glyph unicode="&#x910;" horiz-adv-x="555" d="M577 642v-67h-88v-146q0 -70 -43 -112t-121 -42q-25 0 -45 6v65q15 -6 39 -6q92 0 92 93v142h-248v-316q0 -159 174 -159q80 0 141 32v-72q-62 -26 -147 -26q-112 0 -179 54.5t-67 169.5v317h-107v67h421l-82 125q-34 52 -91 52q-20 0 -50 -6v68q36 6 54 6q51 0 87 -21.5 t66 -68.5l102 -155h92z" />
<glyph unicode="&#x911;" horiz-adv-x="924" d="M946 642v-67h-116v-575h-78v575h-187v-575h-78v260h-138q1 -7 1 -22q0 -74 -52.5 -120t-145.5 -46q-65 0 -122 24v74q62 -31 115.5 -31t90 25.5t36.5 74.5q0 97 -125 97h-34v70h32q53 0 80 23t27 62q0 82 -94 82q-53 0 -97 -24v74q43 18 98 18q82 0 126.5 -38t44.5 -95.5 t-25.5 -90.5t-66.5 -44q51 -7 82 -45h167v247h-91v67h550zM770 896h77q0 -75 -51.5 -116t-127.5 -41t-126.5 40t-50.5 117h78q0 -42 26 -68.5t74 -26.5t74.5 27t26.5 68z" />
<glyph unicode="&#x912;" horiz-adv-x="925" d="M831 642h116v-67h-116v-575h-78v575h-188v-575h-78v260h-138q1 -7 1 -22q0 -74 -52.5 -120t-145.5 -46q-65 0 -122 24v74q62 -31 115.5 -31t90 25.5t36.5 74.5q0 97 -125 97h-34v70h32q53 0 80 23t27 62q0 82 -94 82q-53 0 -97 -24v74q43 18 98 18q82 0 126.5 -38 t44.5 -95.5t-25.5 -90.5t-66.5 -44q51 -7 82 -45h167v247h-91v67h357q-1 45 -18 69.5t-60 24.5h-55q-78 0 -119.5 36t-41.5 124h78q0 -52 20.5 -73t66.5 -21h54q153 0 153 -160z" />
<glyph unicode="&#x913;" horiz-adv-x="925" d="M939 642v-67h-116v-575h-78v575h-180v-575h-78v260h-138q1 -7 1 -22q0 -74 -52.5 -120t-145.5 -46q-65 0 -122 24v74q62 -31 115.5 -31t90 25.5t36.5 74.5q0 97 -125 97h-34v70h32q53 0 80 23t27 62q0 82 -94 82q-53 0 -97 -24v74q43 18 98 18q82 0 126.5 -38t44.5 -95.5 t-25.5 -90.5t-66.5 -44q51 -7 82 -45h167v247h-91v67h347l-82 125q-34 52 -91 52q-20 0 -50 -6v68q36 6 54 6q51 0 87 -21.5t66 -68.5l102 -155h110z" />
<glyph unicode="&#x914;" horiz-adv-x="925" d="M947 642v-67h-116v-575h-78v575h-188v-575h-78v260h-138q1 -7 1 -22q0 -74 -52.5 -120t-145.5 -46q-65 0 -122 24v74q62 -31 115.5 -31t90 25.5t36.5 74.5q0 97 -125 97h-34v70h32q53 0 80 23t27 62q0 82 -94 82q-53 0 -97 -24v74q43 18 98 18q82 0 126.5 -38t44.5 -95.5 t-25.5 -90.5t-66.5 -44q51 -7 82 -45h167v247h-91v67h332q-50 38 -87.5 55.5t-73.5 17.5t-63 -9v70q24 8 60 8t69 -16.5t77 -54.5l62 -55l-92 118q-44 56 -118 56q-30 0 -58 -7v68q18 6 61 6q107 0 168 -95l104 -162h110z" />
<glyph unicode="&#x915;" horiz-adv-x="771" d="M793 575h-368v-143q46 48 122.5 48t127.5 -50t51 -134t-57 -136t-142 -52q-11 0 -23 2v67q10 -2 20 -2q53 0 88 33t35 87.5t-31.5 87t-79 32.5t-79.5 -30.5t-32 -76.5v-308h-79v144q-44 -46 -121 -46t-128 49.5t-51 133.5t57 136.5t141 52.5q16 0 23 -3v-66q-5 1 -19 1 q-54 0 -89 -33t-35 -87t32 -87t79.5 -33t79 31t31.5 77v305h-368v67h815v-67z" />
<glyph unicode="&#x916;" horiz-adv-x="779" d="M801 642v-67h-115v-575h-79v180q-46 -47 -117.5 -47t-120.5 46t-49 121t49 120.5t120 45.5q25 0 48 -5v-65q-16 5 -38 5q-43 0 -72.5 -29t-29.5 -75t28.5 -73.5t73.5 -27.5t76.5 30.5t31.5 79.5v269h-309v-142q0 -71 -44.5 -111t-118.5 -43l-12 -1l220 -278h-97l-215 279 v65h67q122 0 122 97v134h-242v67h823z" />
<glyph unicode="&#x917;" horiz-adv-x="574" d="M-22 642h618v-67h-116v-575h-77v575h-175v-234q0 -63 -32 -97.5t-93 -34.5q-41 0 -73 13v69q30 -14 61 -14q60 0 60 67v231h-173v67z" />
<glyph unicode="&#x918;" horiz-adv-x="642" d="M664 642v-67h-116v-575h-77v186q-30 -40 -85.5 -66.5t-132 -26.5t-130 41.5t-53.5 111.5q0 52 31 83.5t86 42.5q-45 5 -78 33.5t-33 81t42 88.5h-140v67h686zM471 330v245h-260q-56 -30 -56 -89q0 -79 126 -79h48v-68h-59q-56 0 -88.5 -24.5t-32.5 -68t35.5 -65.5 t85.5 -22q84 0 142.5 51t58.5 120z" />
<glyph unicode="&#x919;" horiz-adv-x="574" d="M-22 642h619v-67h-198v-151h-174q-36 0 -60 -15t-24 -48.5t30 -49t105 -19.5q180 -5 180 -138q-1 -69 -55.5 -112t-154.5 -43t-183 44v77q89 -55 190 -55q57 0 90 23t33 62.5t-30 56.5t-100 20q-184 8 -184 132q0 64 45 98t115 34h99v84h-343v67zM470 384q15 15 37.5 15 t38 -15.5t15.5 -37.5t-15.5 -37t-38.5 -15t-37.5 15t-14.5 37.5t15 37.5z" />
<glyph unicode="&#x91a;" horiz-adv-x="634" d="M656 642v-67h-116v-575h-78v188q-24 -38 -70.5 -63t-120 -25.5t-126.5 43.5t-53 119q0 87 78 125h-142v67h342v-67q-109 0 -154.5 -34.5t-45.5 -85t32.5 -77t85.5 -26.5q81 0 127.5 49.5t46.5 113.5v248h-484v67h678z" />
<glyph unicode="&#x91b;" horiz-adv-x="631" d="M653 575h-153v-117q76 -43 76 -150.5t-79.5 -179t-191 -71.5t-176 45t-64.5 123q0 53 31.5 87.5t81.5 39.5q-36 6 -65.5 38.5t-29.5 89.5t45 95h-150v67h675v-67zM427 575h-204q-62 -34 -62 -102q0 -42 29.5 -67t71.5 -25h30v-67h-38q-53 0 -81.5 -23.5t-28.5 -68 t43 -72.5t109 -28q89 0 145 49.5t56 136.5q0 51 -28.5 80.5t-83.5 29.5q-27 0 -43 -7v65q17 7 41 7t44 -2v94z" />
<glyph unicode="&#x91c;" horiz-adv-x="650" d="M-22 642h694v-67h-116v-575h-78v384h-201q72 -43 72 -141q0 -81 -54.5 -130.5t-144.5 -49.5q-66 0 -120 22v72q54 -28 112 -28t93.5 31.5t35.5 93t-46.5 96t-128.5 34.5v67h382v124h-500v67z" />
<glyph unicode="&#x91d;" horiz-adv-x="759" d="M781 642v-67h-116v-575h-79v252h-163q29 -35 29 -93t-46.5 -101t-127.5 -43t-137 50v-113h-76v226h70q17 -42 58 -70t85.5 -28t70 23t25.5 62q0 78 -118 86q-87 5 -134 31t-47 88.5t45.5 96.5t120.5 34h86v74h-349v67h803zM586 316v259h-180v-141h-160q-92 0 -92 -60 q0 -29 26 -40q26 -13 102 -18h304z" />
<glyph unicode="&#x91e;" horiz-adv-x="675" d="M697 642v-67h-116v-575h-79v258h-117q-7 -79 -64 -129t-142 -50.5t-157 35.5v74q69 -42 140 -42t107 36.5t36 93t-32.5 90.5t-83.5 34t-84 -14v67q32 13 79 13q82 0 133 -37t64 -104h121v250h-524v67h719z" />
<glyph unicode="&#x91f;" horiz-adv-x="495" d="M186.5 127q48.5 -39 128 -39t142.5 38v-72q-62 -32 -145 -32q-114 0 -184.5 57.5t-70.5 156.5t69 160t178 62q16 0 24 -1v118h-350v67h539v-67h-111v-186q-32 5 -70 5q-89 0 -143.5 -40.5t-54.5 -114t48.5 -112.5z" />
<glyph unicode="&#x920;" horiz-adv-x="564" d="M586 575h-244v-129q75 -14 121 -62.5t46 -130t-62.5 -136.5t-164 -55t-164.5 55t-63 143t61.5 137t147.5 54v124h-286v67h608v-67zM388.5 163q40.5 37 40.5 97.5t-40 93.5t-103.5 33t-107 -32t-43.5 -93.5t40 -98.5t106.5 -37t107 37z" />
<glyph unicode="&#x921;" horiz-adv-x="521" d="M399 424h-174q-36 0 -60 -15t-24 -48.5t30 -49t105 -19.5q180 -5 180 -138q-1 -69 -55.5 -112t-154.5 -43t-183 44v77q89 -55 190 -55q57 0 90 23t33 62.5t-30 56.5t-100 20q-184 8 -184 132q0 64 45 98t115 34h99v84h-343v67h565v-67h-144v-151z" />
<glyph unicode="&#x922;" horiz-adv-x="556" d="M266 277q42 21 101.5 21t96.5 -34.5t37 -95t-55 -104t-153.5 -43.5t-168.5 61.5t-70 159.5t69.5 162t184.5 65q22 0 45 -3v109h-375v67h600v-67h-146v-183q-62 10 -102 10q-91 0 -143.5 -44.5t-52.5 -114.5t46.5 -113.5t120.5 -43.5q53 0 88 23.5t35 64.5q0 27 -20 44 t-60 17t-78 -23v65z" />
<glyph unicode="&#x923;" horiz-adv-x="743" d="M765 642v-67h-116v-575h-78v575h-162v-225q0 -86 -44.5 -131.5t-128.5 -45.5q-166 0 -166 177v225h-92v67h787zM331 348v227h-183v-227q0 -109 89 -109q94 0 94 109z" />
<glyph unicode="&#x924;" horiz-adv-x="587" d="M610 642v-67h-116v-575h-78v384h-95q-177 0 -177 -156q0 -74 36.5 -117t107.5 -43q17 0 23 1v-67q-16 -2 -30 -2q-100 0 -158 64t-58 164.5t63 162t184 61.5h104v123h-438v67h632z" />
<glyph unicode="&#x925;" horiz-adv-x="639" d="M361 507q0 -82 -62.5 -132.5t-178.5 -78.5q29 -121 161 -121q77 0 132 50t55 144v273h191v-67h-113v-575h-78v205q-19 -36 -71.5 -66.5t-119.5 -30.5q-97 0 -167.5 59t-81.5 175q132 28 194 66t62 98q0 34 -16.5 55t-49.5 21t-50 -19.5t-17 -46t12 -59.5h-77 q-12 34 -12 64q0 52 39.5 89.5t105.5 37.5t104 -40.5t38 -100.5z" />
<glyph unicode="&#x926;" horiz-adv-x="550" d="M-22 642h594v-67h-120v-167h-176q-68 0 -107 -35t-39 -99t35 -101t94 -37t94.5 33t37.5 85h75v-264h-78v133q-41 -52 -134.5 -52t-150.5 58t-57 145t59 143.5t165 56.5h104v101h-396v67z" />
<glyph unicode="&#x927;" horiz-adv-x="634" d="M656 642v-67h-115v-575h-78v157q-25 -39 -75.5 -66t-116.5 -27q-95 0 -151.5 45.5t-56.5 108t35 96t92 40.5q-56 6 -89 36t-33 84q0 69 62 101h-152v67h310v-67h-1q-66 0 -103 -28t-37 -72.5t38 -66t98 -21.5h50v-67h-59q-61 0 -96 -25.5t-35 -68.5t35.5 -69t96.5 -26 q84 0 136 51.5t52 115.5v344h193z" />
<glyph unicode="&#x928;" horiz-adv-x="490" d="M-22 642h534v-67h-115v-575h-79v329h-177q-18 0 -25 -9t-7 -37t13 -67h-66q-28 56 -28 104q0 75 87 75h203v180h-340v67z" />
<glyph unicode="&#x929;" horiz-adv-x="490" d="M-22 642h534v-67h-115v-575h-79v329h-177q-18 0 -25 -9t-7 -37t13 -67h-66q-28 56 -28 104q0 75 87 75h203v180h-340v67zM128 96q22 0 38 -15.5t16 -37.5t-15.5 -37t-38 -15t-37.5 14.5t-15 37t15 38t37 15.5z" />
<glyph unicode="&#x92a;" horiz-adv-x="553" d="M575 642v-67h-115v-575h-79v238q-46 -61 -133 -62q-180 0 -180 199v200h-90v67h597zM381 382v193h-234v-201q0 -71 26 -102.5t79.5 -31.5t91 38.5t37.5 103.5z" />
<glyph unicode="&#x92b;" horiz-adv-x="791" d="M813 575h-353v-138q45 47 122 47t127.5 -50t50.5 -134t-57 -135.5t-141 -51.5q-18 0 -24 2v67q12 -2 20 -2q54 0 88.5 32.5t34.5 87.5t-31.5 87.5t-78.5 32.5t-79 -31.5t-32 -78.5v-310h-79v238q-46 -58 -134.5 -58.5t-133.5 44.5t-45 147v204h-90v67h835v-67zM381 382 v193h-234v-201q0 -71 25.5 -100.5t79.5 -29.5t91.5 36.5t37.5 101.5z" />
<glyph unicode="&#x92c;" horiz-adv-x="615" d="M638 642v-67h-116v-575h-78v163q-27 -36 -74 -59t-105 -23q-87 0 -148.5 57.5t-61.5 148.5t61.5 149.5t157.5 58.5q40 0 83 -10v-69q-40 13 -82 13t-74 -17l209 -205q34 43 34 99v269h-466v67h660zM160 379q-29 -37 -29 -96t39.5 -98.5t100.5 -39.5t101 28z" />
<glyph unicode="&#x92d;" horiz-adv-x="555" d="M383 347v295h194v-67h-116v-575h-78v281h-196v-137h-70l-24 56q-27 60 -27 85t11.5 40t30.5 19v170q0 34 -10 49.5t-39 15.5t-53 -13v65q30 15 70 15q111 0 111 -119v-180h196z" />
<glyph unicode="&#x92e;" horiz-adv-x="572" d="M401 575h-210v-229h210v229zM-22 575v67h616v-67h-115v-575h-78v280h-210v-136h-68l-25 56q-27 64 -27 87q0 45 42 56v232h-135z" />
<glyph unicode="&#x92f;" horiz-adv-x="625" d="M198 227.5q42 -35.5 106.5 -35.5t107 38.5t42.5 103.5v241h-187q25 -38 25 -93q0 -118 -148 -164q12 -55 54 -90.5zM292 125q-93 0 -159.5 63.5t-81.5 178.5q80 12 121.5 44t41.5 79.5t-31 84.5h-205v67h669v-67h-115v-575h-78v194q-51 -69 -162 -69z" />
<glyph unicode="&#x930;" horiz-adv-x="376" d="M31 344h67q122 0 122 96v135h-242v67h420v-67h-100v-142q0 -71 -44 -111.5t-118 -42.5h-11l212 -279h-95l-211 279v65z" />
<glyph unicode="&#x931;" horiz-adv-x="376" d="M-11 -25.5q-15 14.5 -15 37t15 38t37.5 15.5t38 -15.5t15.5 -37.5t-15 -37t-38 -15t-38 14.5zM31 344h67q122 0 122 96v135h-242v67h420v-67h-100v-142q0 -71 -44 -111.5t-118 -42.5h-11l212 -279h-95l-211 279v65z" />
<glyph unicode="&#x932;" horiz-adv-x="734" d="M756 642v-67h-116v-575h-79v396q-26 13 -54 13q-108 0 -108 -127v-72h-78v74q0 119 -87 119q-44 0 -72.5 -36.5t-28.5 -113t44 -132t129 -55.5q17 0 27 2v-65q-18 -3 -38 -3q-108 0 -174 74.5t-66 188.5q0 91 47 148.5t125 57.5q54 0 89 -24.5t45 -69.5q23 98 140 98 q33 0 60 -11v113h-583v67h778z" />
<glyph unicode="&#x933;" horiz-adv-x="798" d="M820 575h-221v-115q70 -12 111.5 -60.5t41.5 -126t-56 -130t-139 -52.5q-106 0 -172 73q-49 -73 -140.5 -73t-145 50.5t-53.5 134.5t54 136.5t136 52.5q103 0 169 -68q44 56 118 65v113h-545v67h842v-67zM319 198q19 32 33 77.5t20 60.5q-55 64 -132 64q-53 0 -84 -35 t-31 -89.5t31 -86.5t84.5 -32t78.5 41zM640.5 191q32.5 34 32.5 89t-32 87.5t-87 32.5q-63 0 -94 -58q-15 -29 -27 -68t-15 -48q58 -69 136 -69q54 0 86.5 34z" />
<glyph unicode="&#x934;" horiz-adv-x="798" d="M820 575h-221v-115q70 -12 111.5 -60.5t41.5 -126t-56 -130t-139 -52.5q-106 0 -172 73q-49 -73 -140.5 -73t-145 50.5t-53.5 134.5t54 136.5t136 52.5q103 0 169 -68q44 56 118 65v113h-545v67h842v-67zM319 198q19 32 33 77.5t20 60.5q-55 64 -132 64q-53 0 -84 -35 t-31 -89.5t31 -86.5t84.5 -32t78.5 41zM640.5 191q32.5 34 32.5 89t-32 87.5t-87 32.5q-63 0 -94 -58q-15 -29 -27 -68t-15 -48q58 -69 136 -69q54 0 86.5 34zM215 20q22 0 38 -15.5t16 -37.5t-15.5 -37.5t-38 -15.5t-37.5 15t-15 37.5t15 38t37 15.5z" />
<glyph unicode="&#x935;" horiz-adv-x="574" d="M596 642v-67h-116v-575h-78v166q-52 -75 -160 -75q-80 0 -137.5 51.5t-57.5 136.5t55.5 139.5t142.5 54.5q37 0 63 -8v-69q-25 9 -59 9q-53 0 -88 -33.5t-35 -90t35.5 -91.5t88.5 -35q70 0 111 47t41 111v262h-424v67h618z" />
<glyph unicode="&#x936;" horiz-adv-x="668" d="M495 642h195v-67h-116v-575h-79v642zM73 506q0 57 39 97t110 40t116 -50.5t45 -122.5q0 -101 -67.5 -157.5t-158.5 -56.5h-33l230 -256h-103l-221 253v70h99q83 0 129.5 38.5t46.5 99.5t-23.5 87.5t-61 26.5t-55 -21.5t-17.5 -53.5t15 -58h-77q-13 27 -13 64z" />
<glyph unicode="&#x937;" horiz-adv-x="580" d="M602 642v-67h-116v-575h-78v229q-49 -57 -137 -59q-90 0 -142.5 49.5t-52.5 151.5v204h-98v67h624zM153 374q0 -70 33.5 -105t97 -35t99.5 54l-230 223v-137zM408 373v202h-248l244 -240q4 16 4 38z" />
<glyph unicode="&#x938;" horiz-adv-x="635" d="M657 642v-67h-115v-575h-78v265h-168q-111 0 -170 9l184 -274h-95l-187 282v62h66q57 0 77.5 22.5t20.5 71.5v137h-214v67h679zM464 333v242h-194v-143q0 -63 -27 -99h221z" />
<glyph unicode="&#x939;" horiz-adv-x="530" d="M440 418h-240q-56 0 -56 -45q0 -26 14 -46.5t33 -29.5q42 15 97 15q82 0 126 -39.5t44 -94.5q0 -33 -11 -56h-77q14 19 14 51.5t-24.5 53t-81.5 20.5t-94 -29t-37 -74.5t43 -77t117.5 -31.5t138.5 18v-67q-69 -17 -131 -17q-118 0 -182 54t-64 125.5t63 118.5 q-67 44 -67 116q0 48 34 74t88 26h176v92h-385v67h575v-67h-113v-157z" />
<glyph unicode="&#x93c;" d="M-326 -128q0 22 15 37.5t37 15.5t38 -15.5t16 -37.5t-15.5 -37t-38 -15t-37.5 15t-15 37z" />
<glyph unicode="&#x93d;" horiz-adv-x="453" d="M380 47q-52 -50 -163 -50t-199 53v83q101 -66 211 -66q61 0 92.5 28.5t31.5 66t-34.5 73.5t-83.5 67t-97.5 63t-83 74t-34.5 91.5t34 80.5t94 31h257v-70h-248q-56 0 -56 -49q0 -27 34 -57.5t82.5 -61.5t97.5 -65.5t83 -79.5t34 -93q0 -69 -52 -119z" />
<glyph unicode="&#x93e;" horiz-adv-x="266" d="M-22 575v67h310v-67h-116v-575h-78v575h-116z" />
<glyph unicode="&#x93f;" horiz-adv-x="265" d="M465 796q-106 30 -170 30t-93.5 -29t-29.5 -80v-75h115v-67h-115v-575h-78v575h-116v67h116v76q0 81 50 130t139 49q174 0 374 -109v-75q-86 53 -192 83z" />
<glyph unicode="&#x940;" horiz-adv-x="265" d="M171 642h116v-67h-115v-575h-78v575h-116v67h114v84q0 49 -26.5 75t-69.5 26t-68 -25.5t-25 -75.5v-18h-78v20q0 84 48.5 126t123 42t124.5 -42t50 -126v-86z" />
<glyph unicode="&#x941;" d="M-306.5 -155.5q74.5 -42.5 132 -42.5t83.5 21.5t26 54.5t-21 50.5t-60.5 17.5t-94.5 -33v71q55 26 99 26q77 0 115.5 -36t38.5 -97.5t-47.5 -101t-121.5 -39.5t-148.5 34t-118.5 75v89q43 -47 117.5 -89.5z" />
<glyph unicode="&#x942;" d="M-138 -255q-64 0 -106 35.5t-42 95t41.5 98t106 38.5t112.5 -29t74 -76q49 -91 49 -192h-73q0 93 -41 162.5t-116 69.5q-34 0 -55 -19t-21 -51t23.5 -50t51 -18t38.5 5v-64q-16 -5 -42 -5z" />
<glyph unicode="&#x943;" d="M-265.5 -238.5q-42.5 37.5 -42.5 97t39 97t97 39.5v14h78v-73h-48q-41 0 -64.5 -20.5t-23.5 -54.5t20 -54t61 -20t73 22v-64q-32 -21 -78 -21q-69 0 -111.5 37.5z" />
<glyph unicode="&#x945;" d="M-6.5 780q-51.5 -41 -127.5 -41t-126.5 40t-50.5 117h78q0 -42 26 -68.5t74 -26.5t74.5 27t26.5 68h77q0 -75 -51.5 -116z" />
<glyph unicode="&#x946;" d="M-301 802h54q153 0 153 -161h-78q-1 45 -18 70t-60 25h-55q-78 0 -119.5 36t-41.5 124h78q0 -52 20.5 -73t66.5 -21z" />
<glyph unicode="&#x947;" d="M-352 887q51 0 87 -21.5t66 -68.5l107 -162h-86l-87 132q-34 52 -91 52q-20 0 -50 -6v68q36 6 54 6z" />
<glyph unicode="&#x948;" d="M-283 696q-38 19 -75 19t-64 -9v70q24 8 60 8t69 -16.5t77 -54.5l62 -55l-92 118q-44 56 -118 56q-30 0 -58 -7v68q18 6 61 6q107 0 168 -95l109 -169h-105q-56 42 -94 61z" />
<glyph unicode="&#x949;" horiz-adv-x="266" d="M256.5 780q-51.5 -41 -127.5 -41t-126.5 40t-50.5 117h77q0 -41 26.5 -68t74.5 -27t74 26.5t26 68.5h78q0 -75 -51.5 -116zM-22 575v67h310v-67h-116v-575h-78v575h-116z" />
<glyph unicode="&#x94a;" horiz-adv-x="265" d="M171 642h116v-67h-116v-575h-77v575h-116v67h115q-1 45 -18 69.5t-60 24.5h-55q-78 0 -119.5 36t-41.5 124h78q0 -52 20.5 -73t66.5 -21h54q153 0 153 -160z" />
<glyph unicode="&#x94b;" horiz-adv-x="265" d="M287 642v-67h-116v-575h-77v575h-116v67h105l-82 125q-34 52 -91 52q-20 0 -50 -6v68q36 6 54 6q51 0 87 -21.5t66 -68.5l102 -155h118z" />
<glyph unicode="&#x94c;" horiz-adv-x="265" d="M287 642v-67h-115v-575h-78v575h-116v67h88q-50 38 -87.5 55.5t-73.5 17.5t-63 -9v70q24 8 60 8t69 -16.5t77 -54.5l62 -55l-92 118q-44 56 -118 56q-30 0 -58 -7v68q18 6 61 6q107 0 168 -95l104 -162h112z" />
<glyph unicode="&#x94d;" d="M58 -233h-97l-123 165h80z" />
<glyph unicode="&#x950;" horiz-adv-x="1235" d="M810 556.5q-52 -40.5 -128.5 -40.5t-128 40t-51.5 116h77q0 -41 27.5 -67.5t75.5 -26.5t75 26.5t27 67.5h78q0 -75 -52 -115.5zM631 727q0 22 15 37t37 15t37 -15t15 -37t-15 -36.5t-37 -14.5t-37 14.5t-15 36.5zM705.5 82.5q-40.5 -37.5 -96.5 -37.5t-90.5 24t-51.5 57 q-11 -51 -62 -88.5t-137 -37.5t-158 43v79q77 -55 169 -55q57 0 90 30t33 75t-32.5 69.5t-95.5 24.5h-54v67h35q59 0 88 27t29 71.5t-27 71t-73 26.5q-70 0 -127 -39v70q59 37 136 37t123 -45t46 -112q0 -48 -21.5 -81.5t-55.5 -47.5q61 -3 104 -76q35 -62 47.5 -78 t21.5 -23q25 -18 57.5 -18t62.5 34q29 35 64 99.5t40.5 73.5t19 32t21.5 32.5t22.5 27t26 25t26.5 16.5q27 17 67 17q78 0 125.5 -58.5t47.5 -149.5t-51.5 -156t-138.5 -65q-52 0 -90 17v73q37 -23 87 -23t82.5 42t32.5 104.5t-23.5 103.5t-63.5 41t-75 -41.5t-106 -174.5 q-34 -66 -74.5 -103.5z" />
<glyph unicode="&#x951;" d="M-168 918h69v-220h-69v220z" />
<glyph unicode="&#x952;" d="M-92 -219h-493v60h493v-60z" />
<glyph unicode="&#x953;" d="M-286 870l54 44l141 -169l-53 -44z" />
<glyph unicode="&#x954;" d="M-43 914l53 -44l-142 -169l-53 44z" />
<glyph unicode="&#x958;" horiz-adv-x="771" d="M793 575h-368v-143q46 48 122.5 48t127.5 -50t51 -134t-57 -136t-142 -52q-11 0 -23 2v67q10 -2 20 -2q53 0 88 33t35 87.5t-31.5 87t-79 32.5t-79.5 -30.5t-32 -76.5v-308h-79v144q-44 -46 -121 -46t-128 49.5t-51 133.5t57 136.5t141 52.5q16 0 23 -3v-66q-5 1 -19 1 q-54 0 -89 -33t-35 -87t32 -87t79.5 -33t79 31t31.5 77v305h-368v67h815v-67zM154 13q22 0 38 -15.5t16 -37.5t-15.5 -37t-38 -15t-37.5 15t-15 37t15 37.5t37 15.5z" />
<glyph unicode="&#x959;" horiz-adv-x="779" d="M801 642v-67h-115v-575h-79v180q-46 -47 -117.5 -47t-120.5 46t-49 121t49 120.5t120 45.5q25 0 48 -5v-65q-16 5 -38 5q-43 0 -72.5 -29t-29.5 -75t28.5 -73.5t73.5 -27.5t76.5 30.5t31.5 79.5v269h-309v-142q0 -71 -44.5 -111t-118.5 -43l-12 -1l220 -278h-97l-215 279 v65h67q122 0 122 97v134h-242v67h823zM74 19q22 0 38 -15.5t16 -37.5t-15.5 -37t-38 -15t-37.5 15t-15 37t15 37.5t37 15.5z" />
<glyph unicode="&#x95a;" horiz-adv-x="574" d="M-22 642h618v-67h-116v-575h-77v575h-175v-234q0 -63 -32 -97.5t-93 -34.5q-41 0 -73 13v69q30 -14 61 -14q60 0 60 67v231h-173v67zM129 83q22 0 38 -15.5t16 -37.5t-15.5 -37t-38.5 -15t-37.5 15t-14.5 37t15 37.5t37 15.5z" />
<glyph unicode="&#x95b;" horiz-adv-x="650" d="M-22 642h694v-67h-116v-575h-78v384h-201q72 -43 72 -141q0 -81 -54.5 -130.5t-144.5 -49.5q-66 0 -120 22v72q54 -28 112 -28t93.5 31.5t35.5 93t-46.5 96t-128.5 34.5v67h382v124h-500v67zM154 -33q22 0 38 -15.5t16 -37.5t-15.5 -37t-38 -15t-37.5 15t-15 37t15 37.5 t37 15.5z" />
<glyph unicode="&#x95c;" horiz-adv-x="521" d="M399 424h-174q-36 0 -60 -15t-24 -48.5t30 -49t105 -19.5q180 -5 180 -138q-1 -69 -55.5 -112t-154.5 -43t-183 44v77q89 -55 190 -55q57 0 90 23t33 62.5t-30 56.5t-100 20q-184 8 -184 132q0 64 45 98t115 34h99v84h-343v67h565v-67h-144v-151zM248 -83q22 0 38 -15.5 t16 -37.5t-15.5 -37t-38 -15t-37.5 15t-15 37t15 37.5t37 15.5z" />
<glyph unicode="&#x95d;" horiz-adv-x="556" d="M247 -128q0 22 15 37.5t37 15.5t38 -15.5t16 -37.5t-15.5 -37t-38.5 -15t-37.5 15t-14.5 37zM266 277q42 21 101.5 21t96.5 -34.5t37 -95t-55 -104t-153.5 -43.5t-168.5 61.5t-70 159.5t69.5 162t184.5 65q22 0 45 -3v109h-375v67h600v-67h-146v-183q-62 10 -102 10 q-91 0 -143.5 -44.5t-52.5 -114.5t46.5 -113.5t120.5 -43.5q53 0 88 23.5t35 64.5q0 27 -20 44t-60 17t-78 -23v65z" />
<glyph unicode="&#x95e;" horiz-adv-x="791" d="M813 575h-353v-138q45 47 122 47t127.5 -50t50.5 -134t-57 -135.5t-141 -51.5q-18 0 -24 2v67q12 -2 20 -2q54 0 88.5 32.5t34.5 87.5t-31.5 87.5t-78.5 32.5t-79 -31.5t-32 -78.5v-310h-79v238q-46 -58 -134.5 -58.5t-133.5 44.5t-45 147v204h-90v67h835v-67zM381 382 v193h-234v-201q0 -71 25.5 -100.5t79.5 -29.5t91.5 36.5t37.5 101.5zM140 67q22 0 38 -15.5t16 -37.5t-15.5 -37t-38 -15t-37.5 15t-15 37t15 37.5t37 15.5z" />
<glyph unicode="&#x95f;" horiz-adv-x="625" d="M99.5 -46.5q-14.5 14.5 -14.5 37t15 38t37 15.5t38 -15.5t16 -37.5t-15.5 -37t-38.5 -15t-37.5 14.5zM198 227.5q42 -35.5 106.5 -35.5t107 38.5t42.5 103.5v241h-187q25 -38 25 -93q0 -118 -148 -164q12 -55 54 -90.5zM292 125q-93 0 -159.5 63.5t-81.5 178.5 q80 12 121.5 44t41.5 79.5t-31 84.5h-205v67h669v-67h-115v-575h-78v194q-51 -69 -162 -69z" />
<glyph unicode="&#x960;" horiz-adv-x="715" d="M410 575v-245l103 56v79h77v-62q0 -45 14.5 -79t31.5 -51q48 -46 48 -99q1 -68 -42 -102.5t-113 -34.5q-17 0 -36 3l1 73q18 -5 43 -5t47.5 17t22.5 49t-34.5 71t-44.5 70l-118 -64v-251h-78v215l-266 -145v85l184 97q-20 64 -52.5 95.5t-89.5 31.5q-22 0 -51 -8v76 q26 6 56 6q152 0 204 -167l15 8v281h-354v67h759v-67h-327z" />
<glyph unicode="&#x961;" horiz-adv-x="778" d="M679 575v-275q0 -64 -39 -110q-17 -20 -34 -36q-39 -40 -39 -71t22 -48.5t60 -17.5h27v-66h-51q-37 0 -56.5 -19.5t-19.5 -51t22 -54.5t58.5 -23t80.5 17v-70q-37 -14 -80 -14q-71 0 -116.5 40t-45.5 103q0 40 20.5 69t52.5 42q-53 29 -53 90q0 33 17.5 61t38.5 46 t38.5 47.5t17.5 65.5v119h-74q-63 0 -90 -30.5t-27 -104.5v-54h-79v55q0 136 -98 136q-52 0 -82.5 -37.5t-30.5 -107.5q0 -184 163 -216l-2 -68q-112 19 -176 91t-64 194q0 93 49.5 151.5t136.5 58.5q113 0 144 -93q27 90 152 90h78v91h-615v67h800v-67h-106z" />
<glyph unicode="&#x964;" horiz-adv-x="343" d="M160 0v642h79v-642h-79z" />
<glyph unicode="&#x965;" horiz-adv-x="560" d="M377 0v642h78v-642h-78zM160 0v642h79v-642h-79z" />
<glyph unicode="&#x966;" horiz-adv-x="539" d="M122 329q0 -123 41.5 -192.5t107 -69.5t106.5 68t41 193.5t-42.5 192t-105 66.5t-105.5 -67.5t-43 -190.5zM102.5 84q-61.5 92 -61.5 245.5t62 243t166 89.5t167 -89.5t63 -242.5t-60.5 -245.5t-167.5 -92.5t-168.5 92z" />
<glyph unicode="&#x967;" horiz-adv-x="357" d="M273 654v-654h-78v568l-151 -93v85l155 94h74z" />
<glyph unicode="&#x968;" horiz-adv-x="505" d="M457 69v-69h-413v67q310 234 310 390q0 62 -36 95.5t-105 33.5t-148 -59v79q71 55 161 55t150 -51t60 -145q0 -177 -283 -396h304z" />
<glyph unicode="&#x969;" horiz-adv-x="491" d="M213 661q98 0 151.5 -49.5t53.5 -122.5q0 -53 -26.5 -95t-78.5 -63q57 -13 90.5 -52.5t33.5 -98.5q0 -80 -56 -133t-154 -53t-167 33v79q74 -39 149.5 -39t111 33t35.5 86t-39.5 81.5t-113.5 28.5h-42v69h42q56 0 94.5 31.5t38.5 84.5t-33 80t-96 27t-128 -41v77 q60 37 134 37z" />
<glyph unicode="&#x96a;" horiz-adv-x="571" d="M529 228v-69h-97v-159h-78v159h-299v69l249 426h128v-426h97zM354 228v379l-219 -379h219z" />
<glyph unicode="&#x96b;" horiz-adv-x="528" d="M179 585v-196q45 10 78 10q100 0 158.5 -53t58.5 -146t-63.5 -150.5t-168 -57.5t-173.5 34v78q64 -38 155 -38q168 0 168 141q0 57 -39 88.5t-106.5 31.5t-145.5 -35v362h328v-69h-250z" />
<glyph unicode="&#x96c;" horiz-adv-x="525" d="M348 600q-89 0 -143.5 -70t-69.5 -172q65 63 155.5 63t142 -57.5t51.5 -153.5t-56 -158.5t-148 -62.5q-114 0 -172.5 81.5t-58.5 218.5q0 164 79.5 274t218.5 110q45 0 92 -15v-77q-43 19 -91 19zM172 115.5q41 -53.5 102.5 -53.5t94.5 42.5t33 107t-33 101.5t-87 37 q-94 0 -152 -67q1 -114 42 -167.5z" />
<glyph unicode="&#x96d;" horiz-adv-x="500" d="M37 654h426v-69l-270 -585h-85l272 585h-343v69z" />
<glyph unicode="&#x96e;" horiz-adv-x="540" d="M487 169q0 -80 -63 -128.5t-156 -48.5t-154 46.5t-61 125.5q0 122 116 162q-105 39 -105 147q0 87 60.5 137.5t143.5 50.5t143 -48.5t60 -138.5q0 -50 -27 -88t-76 -58q119 -37 119 -159zM359 558q-32 33 -90.5 33t-91 -34t-32.5 -86t35 -80t89.5 -28t88 29.5t33.5 81 t-32 84.5zM168.5 92.5q34.5 -30.5 100.5 -30.5t102 33.5t36 81t-34.5 79.5t-104.5 34q-68 -3 -101 -37t-33 -82t34.5 -78.5z" />
<glyph unicode="&#x96f;" horiz-adv-x="513" d="M195 66q95 0 140.5 56.5t55.5 170.5q-53 -59 -139.5 -59t-145 57.5t-58.5 150.5t53 156.5t147 63.5q111 0 168.5 -82t57.5 -207q0 -180 -66.5 -280.5t-209.5 -100.5q-58 0 -113 19v78q52 -23 110 -23zM394 373q0 95 -34.5 155.5t-108.5 60.5q-56 0 -88.5 -40.5 t-32.5 -105.5t36.5 -102t98.5 -37q76 0 129 64v5z" />
<glyph unicode="&#x970;" horiz-adv-x="434" d="M126 303q0 -37 26 -63.5t63.5 -26.5t63.5 26.5t26 63.5t-26 63t-63 26t-63.5 -26t-26.5 -63zM103.5 190.5q-46.5 46.5 -46.5 112t46.5 112t112 46.5t112 -46.5t46.5 -112t-46.5 -112t-112 -46.5t-112 46.5z" />
<glyph unicode="&#x97d;" horiz-adv-x="559" d="M264 689q85 0 136.5 -42.5t51.5 -119.5q0 -67 -58 -133q-25 -27 -50 -56q-59 -67 -59 -150v-188h-78v189q0 50 17 93.5t41 73.5t48 56q58 63 58 107t-28 71t-73 27q-88 0 -159 -50v80q24 17 70 29.5t83 12.5z" />
<glyph unicode="&#x1e80;" horiz-adv-x="938" d="M432 664h81l74 -240l102 -342q38 181 131 592h82l-158 -674h-104l-166 550q-29 -111 -159 -550h-103l-176 674h85l63 -250l83 -339q57 210 165 579zM403 882l98 -156h-69l-124 156h95z" />
<glyph unicode="&#x1e81;" horiz-adv-x="792" d="M181 0l-156 507h84q99 -338 120 -430q11 49 121 430h84l124 -431q13 53 128 431h81l-160 -507h-97l-48 166l-70 253q-12 -49 -114 -419h-97zM325 716l98 -156h-69l-124 156h95z" />
<glyph unicode="&#x1e82;" horiz-adv-x="938" d="M446 727l99 156h94l-124 -156h-69zM432 664h81l74 -240l102 -342q38 181 131 592h82l-158 -674h-104l-166 550q-29 -111 -159 -550h-103l-176 674h85l63 -250l83 -339q57 210 165 579z" />
<glyph unicode="&#x1e83;" horiz-adv-x="792" d="M364 560l99 156h94l-124 -156h-69zM181 0l-156 507h84q99 -338 120 -430q11 49 121 430h84l124 -431q13 53 128 431h81l-160 -507h-97l-48 166l-70 253q-12 -49 -114 -419h-97z" />
<glyph unicode="&#x1e84;" horiz-adv-x="938" d="M321 805q0 22 15 36.5t37 14.5t36.5 -14.5t14.5 -36.5t-14.5 -37t-36.5 -15t-37 15t-15 37zM523 805q0 22 14.5 36.5t36.5 14.5t37 -14.5t15 -36.5t-15 -37t-37 -15t-36.5 15t-14.5 37zM432 664h81l74 -240l102 -342q38 181 131 592h82l-158 -674h-104l-166 550 q-29 -111 -159 -550h-103l-176 674h85l63 -250l83 -339q57 210 165 579z" />
<glyph unicode="&#x1e85;" horiz-adv-x="792" d="M240 638q0 22 15 36.5t37 14.5t36.5 -14.5t14.5 -36.5t-14.5 -37t-36.5 -15t-37 15t-15 37zM442 638q0 22 14.5 36.5t36.5 14.5t37 -14.5t15 -36.5t-15 -37t-37 -15t-36.5 15t-14.5 37zM181 0l-156 507h84q99 -338 120 -430q11 49 121 430h84l124 -431q13 53 128 431h81 l-160 -507h-97l-48 166l-70 253q-12 -49 -114 -419h-97z" />
<glyph unicode="&#x1ef2;" horiz-adv-x="593" d="M336 0h-81v250l-229 424h94q157 -304 175 -350q5 15 178 350h94l-231 -423v-251zM341 727h-69l-124 156h95z" />
<glyph unicode="&#x1ef3;" horiz-adv-x="493" d="M78 -174q-26 0 -42 5v71q15 -4 34 -4q101 0 143 115l-205 494h89l155 -397q8 28 139 397h85l-183 -494q-39 -103 -92.5 -145t-122.5 -42zM185 716l98 -156h-69l-124 156h95z" />
<glyph unicode="&#x200b;" />
<glyph unicode="&#x200c;" d="M24 -230h-47v1041h47v-1041z" />
<glyph unicode="&#x200d;" d="M24 -230h-47v865l-69 -73l-33 33l93 93l-95 95l33 33l95 -95l96 95l32 -32l-96 -96l96 -95l-33 -33l-72 75v-865z" />
<glyph unicode="&#x2013;" horiz-adv-x="540" d="M57 237v66h426v-66h-426z" />
<glyph unicode="&#x2014;" horiz-adv-x="823" d="M57 239v66h709v-66h-709z" />
<glyph unicode="&#x2018;" horiz-adv-x="180" d="M193 695l-84 -224h-98l120 224h62z" />
<glyph unicode="&#x2019;" horiz-adv-x="181" d="M12 471l84 224h98l-120 -224h-62z" />
<glyph unicode="&#x201a;" horiz-adv-x="181" d="M2 -123l83 224h98l-119 -224h-62z" />
<glyph unicode="&#x201c;" horiz-adv-x="324" d="M337 695l-83 -224h-95l117 224h61zM193 695l-84 -224h-97l120 224h61z" />
<glyph unicode="&#x201d;" horiz-adv-x="323" d="M12 471l83 224h94l-116 -224h-61zM155 471l85 224h97l-121 -224h-61z" />
<glyph unicode="&#x201e;" horiz-adv-x="323" d="M3 -123l82 224h95l-116 -224h-61zM146 -123l84 224h97l-120 -224h-61z" />
<glyph unicode="&#x2020;" horiz-adv-x="523" d="M482 503v-69h-188v-434h-72v434h-180v69h180v171h72v-171h188z" />
<glyph unicode="&#x2021;" horiz-adv-x="530" d="M485 434h-188v-184h188v-69h-188v-181h-72v181h-180v69h180v184h-180v69h180v171h72v-171h188v-69z" />
<glyph unicode="&#x2022;" horiz-adv-x="449" d="M92 356q0 57 37.5 95t94 38t95 -38.5t38.5 -94.5t-38 -94.5t-94.5 -38.5t-94.5 38t-38 95z" />
<glyph unicode="&#x2026;" horiz-adv-x="720" d="M566 51q0 25 17 42t42 17t42 -17t17 -42t-17 -42t-42 -17t-42 17t-17 42zM301 51q0 25 17 42t42 17t42 -17t17 -42t-17 -42t-42 -17t-42 17t-17 42zM36 51q0 25 17 42t42 17t42 -17t17 -42t-17 -42t-42 -17t-42 17t-17 42z" />
<glyph unicode="&#x2030;" horiz-adv-x="1212" d="M935 151q0 -37 26.5 -63t63.5 -26t63 26t26 63t-26 63.5t-63 26.5t-63.5 -26.5t-26.5 -63.5zM866 151q0 65 46.5 112t112 47t112 -47t46.5 -112t-46.5 -111.5t-112 -46.5t-112 46.5t-46.5 111.5zM547 151q0 -37 26 -63t63 -26t63.5 26t26.5 63t-26 63.5t-63.5 26.5 t-63.5 -26.5t-26 -63.5zM114 515q0 -37 26 -63.5t63 -26.5t63.5 26.5t26.5 63.5t-26.5 63t-63.5 26t-63 -26t-26 -63zM91.5 402.5q-46.5 46.5 -46.5 112t46.5 112t111.5 46.5t112 -46.5t47 -112t-47 -112t-112 -46.5t-111.5 46.5zM524 39.5q-46 46.5 -46 112t46 112 t111.5 46.5t112 -47t46.5 -112t-46.5 -111.5t-112 -46.5t-111.5 46.5zM202 -1l357 666h77l-359 -666h-75z" />
<glyph unicode="&#x2039;" horiz-adv-x="299" d="M267 415l-147 -162l147 -162h-87l-151 162l151 162h87z" />
<glyph unicode="&#x203a;" horiz-adv-x="297" d="M120 415l150 -162l-150 -162h-88l147 162l-147 162h88z" />
<glyph unicode="&#x2044;" horiz-adv-x="311" d="M20 149l271 413h26l-271 -413h-26z" />
<glyph unicode="&#x2074;" horiz-adv-x="383" d="M352 544v-54h-63v-98h-59v98h-195v54l164 278h90v-278h63zM230 544v227l-134 -227h134z" />
<glyph unicode="&#x20ac;" horiz-adv-x="590" d="M439 584q-71 0 -123 -38.5t-75 -109.5h199v-57h-212q-3 -25 -3 -52t3 -49h212v-57h-201q22 -74 74.5 -114t122.5 -40t114 27v-78q-45 -24 -134.5 -24t-163 61.5t-98.5 167.5h-102v57h92q-2 30 -2 52t3 49h-93v57h103q27 106 101 165t174 59q77 0 120 -23v-78 q-40 25 -111 25z" />
<glyph unicode="&#x20b9;" horiz-adv-x="541" d="M493 674v-68h-162q49 -38 63 -104h99v-67h-96q-7 -82 -68 -131t-162 -49h-9l204 -255h-100l-198 255v67h98q142 0 155 113h-253v67h249q-25 104 -152 104h-97v68h429z" />
<glyph unicode="&#x2122;" horiz-adv-x="694" d="M2 620v54h232v-54h-85v-290h-60v290h-87zM266 331l27 343h78l57 -162l34 -106q22 67 98 268h79l25 -343h-60l-10 155l-4 116q-14 -44 -97 -264h-61l-91 264q0 -13 -15 -271h-60z" />
<glyph unicode="&#x2126;" horiz-adv-x="781" d="M728 71v-71h-293v71q84 15 125.5 89t41.5 190.5t-56 188.5t-158 72t-159 -72t-57 -186.5t46 -190.5t127 -91v-71h-292v71h157q-123 83 -123 274q0 154 81 248t220 94t219 -93.5t80 -248.5q0 -193 -118 -274h159z" />
<glyph unicode="&#x2202;" horiz-adv-x="516" d="M403 508q67 -112 67 -233.5t-59.5 -202t-170.5 -80.5q-94 0 -147.5 63.5t-53.5 156.5t62 151t145 58t137 -56q-25 94 -95 178.5t-147 130.5h112q83 -54 150 -166zM154.5 105q33.5 -40 98 -40t101.5 59t39 155q-55 72 -143 72q-57 0 -93 -39t-36 -103t33.5 -104z" />
<glyph unicode="&#x2206;" horiz-adv-x="618" d="M587 0h-556v66l224 608h112l220 -608v-66zM118 69h382l-189 543q-33 -88 -193 -543z" />
<glyph unicode="&#x220f;" horiz-adv-x="594" d="M520 674v-854h-81v781h-261v-605q0 -180 -153 -180q-37 0 -64 11v75q26 -12 54 -12q82 0 82 97v687h423z" />
<glyph unicode="&#x2211;" horiz-adv-x="441" d="M479 674v-71h-358l178 -359l-178 -373h358v-71h-449v71l179 373l-179 359v71h449z" />
<glyph unicode="&#x2212;" horiz-adv-x="553" d="M57 304v72h440v-72h-440z" />
<glyph unicode="&#x2215;" horiz-adv-x="431" d="M83 149l271 413h26l-271 -413h-26z" />
<glyph unicode="&#x2219;" horiz-adv-x="242" d="M62 337q0 25 17 42t42 17t42 -17t17 -42t-17 -42t-42 -17t-42 17t-17 42z" />
<glyph unicode="&#x221a;" horiz-adv-x="755" d="M413 -132q0 10 25 103t121 406t159 521h83l-332 -1096h-111l-202 552h-123l15 68h171l107 -299q87 -239 87 -255z" />
<glyph unicode="&#x221e;" horiz-adv-x="835" d="M684.5 275q26.5 27 26.5 70.5t-28 72.5t-76 29q-72 0 -141 -102q37 -48 68.5 -72.5t77.5 -24.5t72.5 27zM219 181q-81 0 -125.5 44.5t-44.5 118.5t47.5 120.5t128.5 46.5q59 0 104 -30.5t89 -87.5q91 119 196 119q81 0 126.5 -44t45.5 -117.5t-48 -121.5t-128 -48 q-61 0 -105 30t-89 86q-44 -54 -90 -85t-107 -31zM123 348q0 -43 28 -72.5t76 -29.5q71 0 142 100q-23 30 -40 48.5t-45.5 35t-57.5 16.5q-49 0 -76 -27.5t-27 -70.5z" />
<glyph unicode="&#x2248;" horiz-adv-x="617" d="M426 368q-46 0 -115 36.5t-96 36.5q-67 0 -114 -68l-51 45q68 93 153 93q53 0 119.5 -36.5t97.5 -36.5q55 0 89 59l57 -41q-56 -88 -140 -88zM426 168q-46 0 -115 36.5t-96 36.5q-67 0 -114 -68l-51 45q68 93 153 93q53 0 119.5 -36.5t97.5 -36.5q56 0 89 59l57 -41 q-56 -88 -140 -88z" />
<glyph unicode="&#x2260;" horiz-adv-x="553" d="M497 407h-163l-59 -134h222v-68h-253l-39 -88h-56l39 88h-131v68h162l59 134h-221v68h252l39 88h56l-39 -88h132v-68z" />
<glyph unicode="&#x2264;" horiz-adv-x="548" d="M492 559v-74l-407 -81l407 -82v-73l-440 97v115zM52 120v68h440v-68h-440z" />
<glyph unicode="&#x2265;" horiz-adv-x="548" d="M57 559l440 -98v-115l-440 -97v73l408 82l-408 81v74zM57 120v68h440v-68h-440z" />
<glyph unicode="&#x25ca;" horiz-adv-x="564" d="M328 674l184 -337l-184 -337h-96l-180 337l180 337h96zM380 253l44 84l-143 271q-20 -40 -141 -271l141 -271q31 63 99 187z" />
<glyph unicode="&#x25cc;" horiz-adv-x="701" d="M285 571q0 19 12.5 31.5t31.5 12.5t31.5 -12.5t12.5 -31.5t-12.5 -31.5t-31.5 -12.5t-31.5 12.5t-12.5 31.5zM424 525q-13 13 -13 32t12.5 31.5t32 12.5t31.5 -12.5t12 -31.5t-12.5 -32t-31 -13t-31.5 13zM506 488q0 19 12.5 32t31.5 13t31.5 -12.5t12.5 -32t-12.5 -32 t-31.5 -12.5t-31.5 12.5t-12.5 31.5zM556 370q0 20 12 32t31.5 12t32 -12.5t12.5 -31.5t-12.5 -31.5t-32 -12.5t-31.5 12t-12 32zM559 204.5q-13 12.5 -13 32t13 32t31.5 12.5t31 -13t12.5 -32t-12.5 -31.5t-31 -12.5t-31.5 12.5zM473 138q0 19 12.5 31.5t31.5 12.5 t32 -12.5t13 -31.5t-13 -31.5t-32 -12.5t-31.5 12.5t-12.5 31.5zM352 85q0 19 12 31.5t32 12.5t32.5 -12.5t12.5 -31.5t-12.5 -31.5t-32.5 -12.5t-32 12.5t-12 31.5zM238 68q-13 13 -13 32t13 32t32 13t31.5 -13t12.5 -32t-12.5 -32t-31.5 -13t-32 13zM136 144 q-12 12 -12 31.5t12.5 32t31.5 12.5t31.5 -12.5t12.5 -31.5t-12.5 -31.5t-32 -12.5t-31.5 12zM72 292q0 19 12.5 32t31.5 13t31.5 -12.5t12.5 -32t-12.5 -31.5t-31.5 -12t-31.5 12t-12.5 31zM85 418q0 19 13 31.5t32 12.5t32 -12.5t13 -31.5t-13 -31.5t-32 -12.5t-32 12.5 t-13 31.5zM179.5 495.5q-12.5 12.5 -12.5 32t12.5 32t31.5 12.5t31.5 -12.5t12.5 -32t-12.5 -32t-31.5 -12.5t-31.5 12.5z" />
<glyph unicode="&#x25fc;" horiz-adv-x="510" d="M0 510h510v-510h-510v510z" />
<glyph unicode="&#xf6c3;" horiz-adv-x="417" d="M115 -243l85 192h91l-111 -192h-65z" />
<glyph unicode="&#xfb00;" horiz-adv-x="578" d="M564 635q-24 8 -51 8t-47.5 -22t-20.5 -68v-46h111v-64h-111v-443h-79v443h-170v-443h-79v443h-87v64h87v47q0 74 40.5 117t116 43t139.5 -35q40 35 102 35q23 0 49 -7v-72zM366 507v47q0 34 10 67q-47 22 -99 22q-81 0 -81 -90v-46h170z" />
<glyph unicode="&#xfb01;" horiz-adv-x="514" d="M445 507v-507h-79v443h-170v-443h-79v443h-87v64h87v47q0 74 40 117t112 43t140 -34v-73q-70 36 -136 36q-77 0 -77 -90v-46h249z" />
<glyph unicode="&#xfb02;" horiz-adv-x="510" d="M117 507v47q0 74 39.5 117t118.5 43t162 -49v-665h-78v627q-42 16 -81 16q-82 0 -82 -90v-46h112v-64h-112v-443h-79v443h-87v64h87z" />
<glyph unicode="&#xfb03;" horiz-adv-x="785" d="M694 507v-507h-79v443h-170v-443h-79v443h-170v-443h-79v443h-87v64h87v47q0 74 40.5 117t113.5 43t143 -35q40 35 107 35t137 -34v-73q-70 36 -136 36q-77 0 -77 -90v-46h249zM366 507v47q0 34 10 67q-47 22 -99 22q-81 0 -81 -90v-46h170z" />
<glyph unicode="&#xfb04;" horiz-adv-x="760" d="M117 507v47q0 74 40.5 117t113.5 43t143 -35q41 35 114.5 35t158.5 -49v-665h-79v627q-42 16 -80 16q-82 0 -82 -90v-46h111v-64h-111v-443h-79v443h-171v-443h-79v443h-87v64h87zM367 507v47q0 38 10 67q-49 22 -100 22q-81 0 -81 -90v-46h171z" />
<glyph horiz-adv-x="1666" d="M1341 227v187h199v-187h-199zM1341 454v188h199v-188h-199zM1103 0v642h198v-642h-198zM864 454v188h198v-188h-198zM625 0v642h198v-642h-198zM386 454v188h198v-188h-198zM147 0v642h198v-642h-198z" />
<glyph horiz-adv-x="519" d="M425 575v-143q46 48 121 48t126 -48l-55 -54q-31 37 -79.5 37t-80.5 -30.5t-32 -76.5v-308h-79v144q-44 -46 -121 -46t-128 49.5t-51 133.5t57 136.5t141 52.5q16 0 23 -3v-66q-5 1 -19 1q-54 0 -89 -33t-35 -87t32 -87t79.5 -33t79 31t31.5 77v305h-368v67h563v-67h-116 z" />
<glyph horiz-adv-x="583" d="M481 210q-58 0 -97.5 36.5t-39.5 97.5t45.5 104t120 43t127.5 -49t53 -149t-78.5 -175.5t-206 -75.5t-216.5 75.5t-124 191.5v65h66q49 0 62 20.5t13 74.5v106h-228v67h627v-67h-320v-117q0 -73 -25 -109t-88 -39q-4 -2 -16 -2q21 -83 89.5 -140t163.5 -57t152 52t57 136 q0 58 -28 93.5t-76 35.5t-71 -24.5t-23 -58t20 -53.5t47.5 -20t47.5 10v-61q-27 -11 -54 -11z" />
<glyph horiz-adv-x="304" d="M326 642v-67h-98v-234q0 -63 -32 -97.5t-93 -34.5q-41 0 -73 13v69q30 -14 61 -14q60 0 60 67v231h-173v67h348z" />
<glyph horiz-adv-x="363" d="M264 93q-87 0 -140.5 41.5t-53.5 111.5q0 52 31 83.5t86 42.5q-45 5 -78 33.5t-33 81t42 88.5h-140v67h407v-67h-174q-56 -30 -56 -89q0 -79 126 -79h48v-68h-59q-56 0 -88.5 -24.5t-32.5 -68t35.5 -65.5t85 -22t93 19t71.5 55l31 -55q-34 -39 -87.5 -62t-113.5 -23z" />
<glyph horiz-adv-x="574" d="M-22 642h619v-67h-198v-151h-174q-36 0 -60 -15t-24 -48.5t30 -49t105 -19.5q180 -5 180 -138q-1 -69 -55.5 -112t-154.5 -43t-183 44v77q89 -55 190 -55q57 0 90 23t33 62.5t-30 56.5t-100 20q-184 8 -184 132q0 64 45 98t115 34h99v84h-343v67zM470 384q15 15 37.5 15 t38 -15.5t15.5 -37.5t-15.5 -37t-38.5 -15t-37.5 15t-14.5 37.5t15 37.5zM227 -68h80l140 -165h-97z" />
<glyph horiz-adv-x="386" d="M427.5 138q-61.5 -39 -144 -39t-137 43t-54.5 124.5t77 120.5h-141v67h342v-67q-109 0 -154.5 -34.5t-45.5 -83.5t34.5 -77t91.5 -28t108 34.5t73 81.5l37 -49q-25 -54 -86.5 -93zM408 642v-67h-430v67h430z" />
<glyph horiz-adv-x="623" d="M645 575h-422q-62 -34 -62 -102q0 -42 29.5 -67t71.5 -25h30v-67h-38q-53 0 -81.5 -23.5t-28.5 -68t43 -72.5t109 -28q89 0 145 49.5t56 136.5q0 51 -28.5 80.5t-83.5 29.5q-27 0 -43 -7v65q17 7 55 7q87 0 133 -47.5t46 -126.5q0 -109 -79.5 -180.5t-191 -71.5t-176 45 t-64.5 123q0 53 31.5 87.5t81.5 39.5q-36 6 -65.5 38.5t-29.5 89.5t45 95h-150v67h667v-67z" />
<glyph horiz-adv-x="422" d="M545 451v-67h-268q72 -43 72 -141q0 -81 -54.5 -130.5t-144.5 -49.5q-66 0 -120 22v72q54 -28 112 -28t93.5 31.5t35.5 93t-46.5 96t-128.5 34.5v67h449zM444 642v-67h-466v67h466z" />
<glyph horiz-adv-x="538" d="M649 316v-64h-226q29 -35 29 -93t-46.5 -101t-127.5 -43t-137 50v-113h-76v226h70q17 -42 58 -70t85.5 -28t70 23t25.5 62q0 78 -118 86q-87 5 -134 31t-47 88.5t45.5 96.5t120.5 34h86v74h-349v67h582v-67h-154v-141h-160q-92 0 -92 -60q0 -29 26 -40q26 -13 102 -18 h367z" />
<glyph horiz-adv-x="455" d="M564 325v-67h-179q-7 -79 -64 -129t-142 -50.5t-157 35.5v74q69 -42 140 -42t107 36.5t36 93t-32.5 90.5t-83.5 34t-84 -14v67q32 13 79 13q82 0 133 -37t64 -104h183zM477 642v-67h-499v67h499z" />
<glyph horiz-adv-x="495" d="M186.5 127q48.5 -39 128 -39t142.5 38v-72q-62 -32 -145 -32q-114 0 -184.5 57.5t-70.5 156.5t69 160t178 62q16 0 24 -1v118h-350v67h539v-67h-111v-186q-32 5 -70 5q-89 0 -143.5 -40.5t-54.5 -114t48.5 -112.5zM494 -211h-97l-123 165h80z" />
<glyph horiz-adv-x="564" d="M586 575h-244v-129q75 -14 121 -62.5t46 -130t-62.5 -136.5t-164 -55t-164.5 55t-63 143t61.5 137t147.5 54v124h-286v67h608v-67zM388.5 163q40.5 37 40.5 97.5t-40 93.5t-103.5 33t-107 -32t-43.5 -93.5t40 -98.5t106.5 -37t107 37zM244 -6h80l140 -165h-97z" />
<glyph horiz-adv-x="521" d="M399 424h-174q-36 0 -60 -15t-24 -48.5t30 -49t105 -19.5q180 -5 180 -138q-1 -69 -55.5 -112t-154.5 -43t-183 44v77q89 -55 190 -55q57 0 90 23t33 62.5t-30 56.5t-100 20q-184 8 -184 132q0 64 45 98t115 34h99v84h-343v67h565v-67h-144v-151zM222 -68h80l140 -165 h-97z" />
<glyph horiz-adv-x="556" d="M266 277q42 21 101.5 21t96.5 -34.5t37 -95t-55 -104t-153.5 -43.5t-168.5 61.5t-70 159.5t69.5 162t184.5 65q22 0 45 -3v109h-375v67h600v-67h-146v-183q-62 10 -102 10q-91 0 -143.5 -44.5t-52.5 -114.5t46.5 -113.5t120.5 -43.5q53 0 88 23.5t35 64.5q0 27 -20 44 t-60 17t-78 -23v65zM482 -212h-97l-123 165h80z" />
<glyph horiz-adv-x="493" d="M515 642v-67h-106v-225q0 -86 -44.5 -131.5t-128.5 -45.5q-166 0 -166 177v225h-92v67h537zM331 348v227h-183v-227q0 -109 89 -109q94 0 94 109z" />
<glyph horiz-adv-x="381" d="M-22 575v67h425v-67h-425zM534 384h-213q-177 0 -177 -156q0 -74 36.5 -117t107.5 -43q17 0 23 1v-67q-16 -2 -30 -2q-100 0 -158 64t-58 164.5t63 162t184 61.5h222v-68z" />
<glyph horiz-adv-x="431" d="M361 507q0 -82 -62.5 -132.5t-178.5 -78.5q14 -59 61 -90t110 -31t123 31t95 80l40 -56q-47 -54 -112.5 -88t-143.5 -34q-105 0 -178.5 57.5t-86.5 176.5q132 28 194 66t62 98q0 34 -16.5 55t-49.5 21t-50 -19.5t-17 -46t12 -59.5h-77q-12 34 -12 64q0 52 39.5 89.5 t105.5 37.5t104 -40.5t38 -100.5z" />
<glyph horiz-adv-x="550" d="M-22 642h594v-67h-120v-167h-176q-68 0 -107 -35t-39 -99t35 -101t94 -37t94.5 33t37.5 85h75v-264h-78v133q-41 -52 -134.5 -52t-150.5 58t-57 145t59 143.5t165 56.5h104v101h-396v67zM611 -243h-97l-123 165h80z" />
<glyph horiz-adv-x="426" d="M437 105q-71 -41 -165.5 -41t-151.5 45.5t-57 108t35 96t92 40.5q-56 6 -89 36t-33 84q0 69 62 101h-152v67h310v-67h-1q-66 0 -103 -28t-37 -72.5t38 -66t98 -21.5h50v-67h-59q-61 0 -96 -25.5t-35 -68.5t36 -69t98 -26q142 0 235 132l42 -57q-46 -60 -117 -101z" />
<glyph horiz-adv-x="265" d="M115 395h266v-66h-240q-18 0 -25 -9t-7 -37t13 -67h-66q-28 56 -28 104q0 75 87 75zM-22 575v67h310v-67h-310z" />
<glyph horiz-adv-x="338" d="M248 176q-180 0 -180 199v200h-90v67h382v-67h-213v-201q0 -71 26 -102.5t78 -31.5t93.5 30.5t61.5 79.5l47 -43q-28 -55 -81 -93t-124 -38z" />
<glyph horiz-adv-x="616" d="M460 575v-138q45 47 122 47q116 0 170 -98l-60 -46q-35 80 -116 80q-49 0 -82.5 -31t-33.5 -79v-310h-79v238q-46 -58 -134.5 -58.5t-133.5 44.5t-45 147v204h-90v67h660v-67h-178zM147 575v-201q0 -71 25.5 -100.5t79.5 -29.5t91.5 36.5t37.5 101.5v193h-234z" />
<glyph horiz-adv-x="379" d="M272 81q-90 0 -153.5 57.5t-63.5 148.5t61.5 149.5t157.5 58.5q40 0 83 -10v-69q-40 13 -82 13t-74 -17l215 -211q22 21 48 58l45 -45q-93 -133 -237 -133zM160 379q-29 -37 -29 -96t41 -98.5t100.5 -39.5t102.5 25zM401 642v-67h-423v67h423z" />
<glyph horiz-adv-x="326" d="M421 347v-66h-234v-137h-70l-24 56q-27 60 -27 85t11.5 40t30.5 19v170q0 34 -10 49.5t-39 15.5t-53 -13v65q30 15 70 15q111 0 111 -119v-180h234z" />
<glyph horiz-adv-x="351" d="M461 347v-69h-270v-135h-68l-25 56q-27 64 -27 87q0 47 42 58v231h-135v67h396v-67h-183v-228h270z" />
<glyph horiz-adv-x="386" d="M408 575h-141q25 -38 25 -93q0 -118 -148 -164q13 -56 55 -91t98 -35t98.5 27t60.5 74l52 -42q-26 -52 -79.5 -89t-141 -37t-154 62.5t-82.5 179.5q80 12 121.5 44t41.5 79.5t-31 84.5h-205v67h430v-67z" />
<glyph horiz-adv-x="376" d="M333 -233h-97l-123 165h80zM31 344h67q122 0 122 96v135h-242v67h420v-67h-100v-142q0 -71 -44 -111.5t-118 -42.5h-11l212 -279h-95l-211 279v65z" />
<glyph horiz-adv-x="478" d="M-22 575v67h523v-67h-523zM295 0q-108 0 -174 74.5t-66 188.5q0 91 47 148.5t125 57.5q54 0 89 -24.5t45 -69.5q11 48 47 73t91 25q76 0 125 -54l-44 -48q-30 38 -77.5 38t-75.5 -31.5t-28 -95.5v-72h-78v74q0 119 -87 119q-44 0 -72.5 -36.5t-28.5 -113t44 -132 t129 -55.5q17 0 27 2v-65q-18 -3 -38 -3z" />
<glyph horiz-adv-x="798" d="M-22 575v67h842v-67h-842zM319 198q19 32 33 77.5t20 60.5q-55 64 -132 64q-53 0 -84 -35t-31 -89.5t31 -86.5t84.5 -32t78.5 41zM460 342q-15 -29 -27 -68t-15 -48q58 -69 136 -69q54 0 86.5 34t32.5 89t-32 87.5t-91 32.5t-90 -58zM557 91q-106 0 -172 73 q-49 -73 -140.5 -73t-145 50.5t-53.5 134.5t54 136.5t136 52.5q103 0 169 -68q51 67 144.5 67t148 -51t54.5 -134t-56 -135.5t-139 -52.5z" />
<glyph horiz-adv-x="339" d="M361 575h-383v67h383v-67zM308 396q-22 9 -66.5 9t-80 -34.5t-35.5 -90t39 -90.5t99 -35q100 0 167 98l37 -51q-30 -47 -84 -79t-135 -32t-141.5 51t-60.5 136.5t55.5 140t142.5 54.5q37 0 63 -8v-69z" />
<glyph horiz-adv-x="430" d="M157 256h-33l230 -256h-103l-221 253v70h99q83 0 129.5 38.5t46.5 99.5t-23.5 87.5t-61 26.5t-55 -21.5t-17.5 -53.5t15 -58h-77q-13 27 -13 64q0 57 39 97t110 40t116 -50.5t45 -122.5q0 -101 -67.5 -157.5t-158.5 -56.5z" />
<glyph horiz-adv-x="349" d="M76 371v204h-98v67h393v-67h-211l259 -254l9 14l38 -44q-26 -50 -77 -85t-116 -36q-92 0 -144.5 49.5t-52.5 151.5zM153 374q0 -70 33.5 -105t93 -35t108.5 50l-235 227v-137z" />
<glyph horiz-adv-x="390" d="M493 265h-197q-111 0 -170 9l184 -274h-95l-187 282v62h66q57 0 77.5 22.5t20.5 71.5v137h-214v67h434v-67h-142v-143q0 -63 -27 -99h250v-68z" />
<glyph horiz-adv-x="466" d="M549 247h-262q-67 0 -103.5 -28t-36.5 -75.5t43.5 -78t117.5 -30.5t138 18v-67q-69 -17 -131 -17q-117 0 -181.5 52.5t-64.5 127t62 119.5q-66 41 -66 115q0 48 34 74t88 26h176v92h-385v67h510v-67h-48v-157h-240q-56 0 -56 -45q0 -27 14 -46.5t33 -29.5q44 14 97 14 h261v-64z" />
<glyph horiz-adv-x="527" d="M425 575v-143q46 48 121 48t126 -48l-55 -54q-31 37 -79.5 37t-80.5 -30.5t-32 -76.5v-308h-79v144q-44 -46 -121 -46t-128 49.5t-51 133.5t57 136.5t141 52.5q16 0 23 -3v-66q-5 1 -19 1q-54 0 -89 -33t-35 -87t32 -87t79.5 -33t79 31t31.5 77v305h-368v67h563v-67h-116 zM154 13q22 0 38 -15.5t16 -37.5t-15.5 -37t-38 -15t-37.5 15t-15 37t15 37.5t37 15.5z" />
<glyph horiz-adv-x="581" d="M481 210q-58 0 -97.5 36.5t-39.5 97.5t45.5 104t120 43t127.5 -49t53 -149t-78.5 -175.5t-206 -75.5t-216.5 75.5t-124 191.5v65h66q49 0 62 20.5t13 74.5v106h-228v67h627v-67h-320v-117q0 -73 -25 -109t-88 -39q-4 -2 -16 -2q21 -83 89.5 -140t163.5 -57t152 52t57 136 q0 58 -28 93.5t-76 35.5t-71 -24.5t-23 -58t20 -53.5t47.5 -20t47.5 10v-61q-27 -11 -54 -11zM84 47q22 0 38 -15.5t16 -37.5t-15.5 -37t-38 -15t-37.5 15t-15 37t15 37.5t37 15.5z" />
<glyph horiz-adv-x="320" d="M342 642v-67h-114v-234q0 -63 -32 -97.5t-93 -34.5q-41 0 -73 13v69q30 -14 61 -14q60 0 60 67v231h-173v67h364zM129 83q22 0 38 -15.5t16 -37.5t-15.5 -37t-38.5 -15t-37.5 15t-14.5 37t15 37.5t37 15.5z" />
<glyph horiz-adv-x="423" d="M545 451v-67h-268q72 -43 72 -141q0 -81 -54.5 -130.5t-144.5 -49.5q-66 0 -120 22v72q54 -28 112 -28t93.5 31.5t35.5 93t-46.5 96t-128.5 34.5v67h449zM154 -33q22 0 38 -15.5t16 -37.5t-15.5 -37t-38 -15t-37.5 15t-15 37t15 37.5t37 15.5zM444 642v-67h-466v67h466z " />
<glyph horiz-adv-x="265" d="M91 5.5q-15 14.5 -15 37t15 38t37 15.5t38 -15.5t16 -37.5t-15.5 -37t-38 -15t-37.5 14.5zM115 395h266v-66h-240q-18 0 -25 -9t-7 -37t13 -67h-66q-28 56 -28 104q0 75 87 75zM-22 575v67h310v-67h-310z" />
<glyph horiz-adv-x="606" d="M460 575v-138q45 47 122 47q116 0 170 -98l-60 -46q-35 80 -116 80q-49 0 -82.5 -31t-33.5 -79v-310h-79v238q-46 -58 -134.5 -58.5t-133.5 44.5t-45 147v204h-90v67h660v-67h-178zM147 575v-201q0 -71 25.5 -100.5t79.5 -29.5t91.5 36.5t37.5 101.5v193h-234zM140 67 q22 0 38 -15.5t16 -37.5t-15.5 -37t-38 -15t-37.5 15t-15 37t15 37.5t37 15.5z" />
<glyph horiz-adv-x="382" d="M99.5 -46.5q-14.5 14.5 -14.5 37t15 38t37 15.5t38 -15.5t16 -37.5t-15.5 -37t-38.5 -15t-37.5 14.5zM408 575h-141q25 -38 25 -93q0 -118 -148 -164q13 -56 55 -91t98 -35t98.5 27t60.5 74l52 -42q-26 -52 -79.5 -89t-141 -37t-154 62.5t-82.5 179.5q80 12 121.5 44 t41.5 79.5t-31 84.5h-205v67h430v-67z" />
<glyph horiz-adv-x="665" d="M668 456l-221 -142q7 -16 48.5 -127t46.5 -123l-207 170q-23 -16 -208 -170l98 250q-14 8 -113 71t-112 71l265 -8q10 40 70 250l67 -250q140 8 266 8z" />
<glyph horiz-adv-x="512" d="M443 798q21 0 35.5 -14t14.5 -35t-14.5 -34.5t-35.5 -13.5t-34.5 13.5t-13.5 34.5t13.5 35t34.5 14zM405 575v-149h-168q-35 0 -59.5 -16t-24.5 -47t21 -49t55 -19l85 6q70 -1 107.5 -40t37.5 -102.5t-48.5 -108t-126.5 -44.5t-133 49v-115h-77v228h70q17 -42 56 -69.5 t83.5 -27.5t71 25t26.5 61.5t-21 56.5t-57 21l-85 -7q-61 2 -102.5 38.5t-41.5 96.5t44.5 95t114.5 35h93v82h-348v67h331q-51 53 -51 124.5t45 117.5t117 46q42 0 70 -14v-71q-28 14 -64 14t-62 -28.5t-26 -68t16 -71t38 -49.5h143v-67h-130z" />
<glyph horiz-adv-x="633" d="M655 575h-333v-140q45 35 102 35q77 0 121.5 -47t44.5 -123t-49 -123t-122 -47q-40 0 -60 8v66q18 -8 57.5 -8t67 27.5t27.5 76.5t-25 77t-68 28q-26 0 -48.5 -9t-33.5 -18t-33 -31.5t-32 -31.5q-45 -36 -113 -36h-10l213 -279h-95l-211 279v65h67q121 0 121 96v135h-265 v67h677v-67z" />
<glyph horiz-adv-x="640" d="M322 575v-156q44 55 123.5 55t124.5 -50t45 -128.5t-48.5 -130t-123.5 -51.5q-40 0 -67 10v67q30 -8 56 -8q49 0 76.5 31t27.5 81t-24.5 80.5t-65.5 30.5t-64.5 -24.5t-23.5 -65.5v-57h-71v55q0 13 1 19q-45 -52 -130 -54h-10l213 -279h-95l-211 279v65h67q121 0 121 96 v135h-265v67h684v-67h-340z" />
<glyph horiz-adv-x="530" d="M440 418h-240q-56 0 -56 -45q0 -26 14 -45t33 -28q42 15 97 15q84 0 126.5 -39.5t42.5 -94.5q0 -33 -10 -53h-77q14 20 14 50.5t-24.5 51t-81.5 20.5t-94 -30.5t-37 -74t28 -73t84 -32.5q36 18 75 18q64 0 103 -33.5t39 -93.5t-47.5 -100t-128.5 -40q-51 0 -104 15.5 t-88 41.5v79q40 -30 92.5 -50.5t99 -20.5t73 21.5t26.5 54.5q0 61 -74 61q-34 0 -59 -19q-98 6 -147.5 55t-49.5 121t63 119q-67 44 -67 114q0 48 34 74t88 26h176v92h-385v67h575v-67h-113v-157z" />
<glyph horiz-adv-x="530" d="M440 418h-240q-56 0 -56 -45q0 -49 44 -74q41 13 89 13q89 0 135 -38.5t46 -95.5q0 -33 -11 -56h-77q14 19 14 52t-26.5 53t-85 20t-92 -28t-33.5 -71t38 -72t95.5 -29.5t99.5 -21t66 -51t40 -70.5q25 -66 25 -139h-73q0 92 -39 154.5t-116 62.5q-34 0 -55 -18.5 t-21 -50.5t23.5 -49t50.5 -17t40 5v-64q-17 -5 -43 -5q-64 0 -106 34.5t-42 95.5t46 97q-49 16 -78 54.5t-29 88.5q0 71 60 116q-64 42 -64 114q0 48 34 74t88 26h176v92h-385v67h575v-67h-113v-157z" />
<glyph horiz-adv-x="485" d="M381 575v-157q-45 16 -121 16q-105 -2 -105 -66q0 -67 115 -67h60v-68h-62q-56 0 -87.5 -22t-31.5 -59t33.5 -55.5t86.5 -18.5q92 0 162 50v-74q-67 -41 -157.5 -41t-146.5 35.5t-56 98.5q0 48 29 80t81 39q-48 5 -76.5 32.5t-28.5 77.5t45.5 84t122.5 34q32 0 60 -3v84 h-326v67h529v-67h-126z" />
<glyph horiz-adv-x="504" d="M389 418h-199q-56 0 -56 -44.5t38 -70.5q50 21 108.5 21t85.5 -20t27 -49t-33.5 -64t-33.5 -45q0 -21 42.5 -21t91.5 29v-65q-47 -25 -99 -25q-111 0 -111 71q0 23 32 56t32 46q0 23 -34 23q-66 0 -106.5 -36.5t-40.5 -91.5t49.5 -94.5t145.5 -39.5q45 0 88 11v-63 q-48 -12 -94 -12q-120 0 -193.5 55t-73.5 142t63 139q-63 45 -63 113q0 48 34.5 74t87.5 26h134v92h-333v67h548v-67h-137v-157z" />
<glyph horiz-adv-x="266" d="M-22 642h310v-67h-116v-575h-78v192l-137 -105q-22 -17 -22 -41.5t39 -67.5l-49 -31q-33 19 -55 46t-22 57q0 42 54 81l192 144v300h-116v67z" />
<glyph horiz-adv-x="607" d="M628 642v-67h-120v-575h-78v132q-49 -71 -142 -71t-153 54t-74 161q145 26 145 96q0 27 -26.5 40.5t-70.5 13.5t-99 -13.5t-96 -35.5v72q39 19 95 30t98 11q92 0 134.5 -33.5t42.5 -83.5t-37 -87.5t-94 -55.5q11 -45 47 -72.5t95 -27.5t97 42.5t38 105.5v297h-452v67h650 z" />
<glyph horiz-adv-x="266" d="M-22 642h310v-67h-116v-575h-78v173l-200 -173h-109l309 260v315h-116v67z" />
<glyph d="M-193 0h119l131 -165h-95l-95 126l-96 -126h-95z" />
<glyph horiz-adv-x="194" d="M216 575h-238v67h238v-67zM11 375q49 -35 123.5 -35t149.5 43l19 -66q-80 -42 -161.5 -42t-130.5 28v72z" />
<glyph d="M-1 791q-30 14 -63 14t-53 -21t-20 -56q0 -55 50 -97h-85q-45 36 -45 100t40 104t106 40q42 0 70 -14v-70z" />
<glyph d="M-96 749q0 21 14 35t35 14t35.5 -14t14.5 -35t-14.5 -34.5t-35.5 -13.5t-35 13.5t-14 34.5zM-1 845q-26 14 -63 14t-63 -28.5t-26 -71.5t23 -79.5t47 -48.5h-87q-25 22 -43.5 58.5t-18.5 80.5q0 68 45 114t116 46q44 0 70 -14v-71z" />
<glyph horiz-adv-x="266" d="M288 642v-67h-116v-575h-78v575h-116v67h107q-34 38 -34 95.5t40 97.5t106 40q42 0 70 -14v-70q-30 14 -63 14t-53 -21t-20 -61.5t38 -80.5h119z" />
<glyph horiz-adv-x="266" d="M219 798q21 0 35.5 -14t14.5 -35t-14.5 -34.5t-35.5 -13.5t-35 13.5t-14 34.5t14 35t35 14zM288 642v-67h-116v-575h-78v575h-116v67h107q-51 53 -51 124.5t45 117.5t116 46q44 0 70 -14v-71q-26 14 -63 14t-63 -28.5t-26 -68t16 -71t38 -49.5h121z" />
<glyph d="M-72 798q0 65 36.5 106t102.5 41q48 0 74 -13v-71q-30 15 -65.5 15t-55.5 -23t-20 -66v-52l-72 22v41z" />
<glyph d="M-53 856q0 23 15.5 39t38.5 16t39 -16t16 -39t-16 -38t-39 -15t-38.5 15t-15.5 38z" />
<glyph d="M66 742.5q-12 11.5 -12 29t12 30t30 12.5t30.5 -12.5t12.5 -30t-12.5 -29t-30.5 -11.5t-30 11.5zM141 861q-30 15 -65.5 15t-55.5 -23t-20 -66v-52l-72 22v41q0 65 36.5 106t102.5 41q48 0 74 -13v-71z" />
<glyph horiz-adv-x="265" d="M316 818q-32 14 -65.5 14t-56.5 -29t-23 -80v-81h117v-67h-116v-575h-78v575h-116v67h114v101q0 49 -26.5 75t-69.5 26t-68 -25.5t-25 -75.5v-35h-78v37q0 84 48.5 126t122.5 42q106 0 148 -77q36 66 113 66q35 0 59 -14v-70z" />
<glyph horiz-adv-x="265" d="M281 846q23 0 39 -16t16 -39t-16 -38t-39 -15t-38.5 15t-15.5 38t15.5 39t38.5 16zM171 728v-86h116v-67h-115v-575h-78v575h-116v67h114v84q0 49 -26.5 75t-69.5 26t-68 -25.5t-25 -75.5v-18h-78v20q0 84 48.5 126t123 42t124.5 -42t50 -126z" />
<glyph horiz-adv-x="265" d="M276 798q21 0 35.5 -14t14.5 -35t-14.5 -34.5t-35.5 -13.5t-35 13.5t-14 34.5t14 35t35 14zM171 745v-103h117v-67h-116v-575h-78v575h-116v67h114v101q0 49 -26.5 75t-69.5 26t-68 -25.5t-25 -75.5v-35h-78v37q0 83 47 125.5t119 42.5q103 0 145 -71q31 88 127 88 q33 0 59 -14v-71q-28 14 -55 14q-45 0 -70.5 -31.5t-25.5 -82.5z" />
<glyph horiz-adv-x="265" d="M171 642h116v-67h-115v-575h-78v575h-116v67h114v32q0 69 -56 111t-169 42t-163.5 -33t-50.5 -88v-7h-78v9q0 88 77 138t217 50t221 -58.5t81 -166.5v-29z" />
<glyph horiz-adv-x="265" d="M315 818q-32 14 -65.5 14t-56.5 -29t-23 -80v-81h117v-67h-115v-575h-78v575h-116v67h114v32q0 69 -56 111t-169 42t-163.5 -33t-50.5 -88v-7h-78v9q0 88 77 138t205 50q198 0 272 -97q12 46 44 74.5t74.5 28.5t67.5 -14v-70z" />
<glyph horiz-adv-x="265" d="M281 846q23 0 39 -16t16 -39t-16 -38t-39 -15t-38.5 15t-15.5 38t15.5 39t38.5 16zM171 671v-29h116v-67h-115v-575h-78v575h-116v67h114v32q0 69 -56 111t-169 42t-163.5 -33t-50.5 -88v-7h-78v9q0 88 77 138t217 50t221 -58.5t81 -166.5z" />
<glyph horiz-adv-x="265" d="M277 798q21 0 35.5 -14t14.5 -35t-14.5 -34.5t-35.5 -13.5t-34.5 13.5t-13.5 34.5t13.5 35t34.5 14zM172 745v-103h115v-67h-115v-575h-78v575h-116v67h114v32q0 69 -56 111t-169 42t-163.5 -33t-50.5 -88v-7h-78v9q0 88 77 138t205 50q201 0 270 -103q4 65 41 101t97 36 q31 0 59 -14v-71q-30 14 -56 14q-45 0 -70.5 -31.5t-25.5 -82.5z" />
<glyph d="M-145.5 843q34.5 29 79.5 29t71 -12v-72q-30 15 -64 15t-53.5 -20.5t-19.5 -52.5t14.5 -59.5t31.5 -41.5h-60l-4 6h-28l-87 132q-34 52 -91 52q-20 0 -50 -6v68q36 6 54 6q50 0 84.5 -21t64.5 -69l17 -28q6 45 40.5 74z" />
<glyph d="M-116 787q0 23 15.5 39t38.5 16t39 -16t16 -39t-16 -38t-39 -15t-38.5 15t-15.5 38zM-349 887q51 0 87 -21.5t66 -68.5l107 -162h-86l-87 132q-33 52 -91 52q-20 0 -50 -6v68q36 6 54 6z" />
<glyph d="M-39 798q21 0 35.5 -14t14.5 -35t-14.5 -34.5t-35.5 -13.5t-35 13.5t-14 34.5t14 35t35 14zM7 845q-26 14 -63 14t-63 -28.5t-26 -71.5t23 -79.5t47 -48.5h-78l-3 4h-22l-87 132q-34 52 -91 52q-20 0 -50 -6v68q36 6 54 6q48 0 81 -19.5t64 -64.5q10 55 49.5 90.5 t89.5 35.5t75 -13v-71z" />
<glyph d="M-133 846.5q33 28.5 77 28.5t69 -14v-70q-32 14 -64.5 14t-52.5 -21t-20 -52q0 -33 25 -74q10 -14 25 -27h-48l-5 4h-62q-56 42 -94 61t-75 19t-64 -9v70q24 8 60 8t69 -16.5t77 -54.5l62 -55l-92 118q-44 56 -118 56q-30 0 -58 -7v68q18 6 61 6q107 0 168 -95l19 -30 q8 44 41 72.5z" />
<glyph d="M-94.5 822q15.5 16 38 16t39 -16t16.5 -39t-16 -38t-39.5 -15t-38.5 15t-15 38t15.5 39zM-361 899q107 0 168 -95l109 -169h-105q-56 42 -94 61t-75 19t-64 -9v70q24 8 60 8t69 -16.5t77 -54.5l62 -55l-92 118q-44 56 -118 56q-30 0 -58 -7v68q18 6 61 6z" />
<glyph d="M-65.5 784q13.5 14 35 14t35.5 -14t14 -35t-14 -34.5t-35.5 -13.5t-35 13.5t-13.5 34.5t13.5 35zM-283 696q-38 19 -75 19t-64 -9v70q24 8 60 8t69 -16.5t77 -54.5l62 -55l-92 118q-44 56 -118 56q-30 0 -58 -7v68q18 6 61 6q107 0 168 -95l5 -7q5 55 42.5 94t95.5 39 q40 0 66 -14v-71q-26 14 -63 14t-63 -28.5t-26 -68.5t20 -78q26 -39 50 -53h-51l-4 4h-68q-56 42 -94 61z" />
<glyph horiz-adv-x="266" d="M-35 802h54q153 0 153 -160h116v-67h-116v-575h-78v575h-116v67h116q-1 45 -18 69.5t-60 24.5h-55q-78 0 -119.5 36t-41.5 124h78q0 -52 20.5 -73t66.5 -21zM233 763q-23 0 -38.5 15t-15.5 38t15.5 39t38.5 16t39 -16t16 -39t-16 -38t-39 -15z" />
<glyph horiz-adv-x="266" d="M288 642v-67h-116v-575h-78v575h-116v67h109l-82 125q-34 52 -91 52q-20 0 -50 -6v68q36 6 54 6q50 0 84.5 -21t64.5 -69l17 -28q6 45 40.5 74t79.5 29t71 -12v-72q-30 15 -64 15t-53.5 -20.5t-19.5 -61t33 -79.5h117z" />
<glyph horiz-adv-x="266" d="M288 642v-67h-116v-575h-78v575h-116v67h107l-82 125q-33 52 -91 52q-20 0 -50 -6v68q36 6 54 6q51 0 87 -21.5t66 -68.5l102 -155h117zM203 734q-23 0 -38.5 15t-15.5 38t15.5 39t38.5 16t39 -16t16 -39t-16 -38t-39 -15z" />
<glyph horiz-adv-x="266" d="M227 798q21 0 35.5 -14t14.5 -35t-14.5 -34.5t-35.5 -13.5t-35 13.5t-14 34.5t14 35t35 14zM288 642v-67h-116v-575h-78v575h-116v67h105l-82 125q-34 52 -91 52q-20 0 -50 -6v68q36 6 54 6q48 0 81 -19.5t64 -64.5q10 55 49.5 90.5t89.5 35.5t75 -13v-71q-26 14 -63 14 t-63 -28.5t-26 -68t16 -71t38 -49.5h113z" />
<glyph horiz-adv-x="266" d="M179 642h109v-67h-116v-575h-78v575h-116v67h89q-50 38 -87.5 55.5t-73.5 17.5t-63 -9v70q24 8 60 8t69 -16.5t77 -54.5l62 -55l-92 118q-44 56 -118 56q-30 0 -58 -7v68q18 6 61 6q107 0 168 -95l19 -30q8 44 41 72.5t77 28.5t69 -14v-70q-32 14 -64.5 14t-52.5 -21 t-20 -52q0 -33 25 -74q2 -4 7.5 -9.5t5.5 -6.5z" />
<glyph horiz-adv-x="266" d="M288 642v-67h-116v-575h-78v575h-116v67h88q-50 38 -87.5 55.5t-73.5 17.5t-63 -9v70q24 8 60 8t69 -16.5t77 -54.5l62 -55l-92 118q-44 56 -118 56q-30 0 -58 -7v68q18 6 61 6q107 0 168 -95l104 -162h113zM247 745q-16 -15 -39.5 -15t-38.5 15t-15 38t15.5 39t38 16 t39 -16t16.5 -39t-16 -38z" />
<glyph horiz-adv-x="266" d="M198.5 784q13.5 14 35 14t35.5 -14t14 -35t-14 -34.5t-35.5 -13.5t-35 13.5t-13.5 34.5t13.5 35zM288 642v-67h-116v-575h-78v575h-116v67h88q-50 38 -87.5 55.5t-69.5 17.5t-68 -9v70q32 8 64.5 8t65.5 -16.5t77 -54.5l62 -55l-92 118q-44 56 -118 56q-30 0 -58 -7v68 q18 6 61 6q107 0 168 -95l5 -7q5 55 42.5 94t95.5 39q40 0 66 -14v-71q-28 14 -64 14t-62 -28.5t-26 -68.5t20 -78q19 -29 34 -42h106z" />
<glyph horiz-adv-x="751" d="M580 642h196v-67h-116v-575h-79l-1 325h-248q-39 0 -71 7q-57 -17 -93 -49t-36 -76.5t29.5 -70t77.5 -25.5t86 32.5t50 84.5h72v-228h-77v112q-14 -27 -55 -47t-85 -20q-80 0 -129.5 43.5t-49.5 107t35.5 105t92.5 63.5q-75 49 -75 135q0 59 46.5 104t119 45t120 -42.5 t47.5 -109t-58 -107.5h201v253zM333.5 557q-26.5 26 -64.5 26t-63 -25t-25 -60q0 -83 95 -103q84 29 84 104q0 32 -26.5 58z" />
<glyph horiz-adv-x="531" d="M647 325h-315q-39 0 -71 7q-57 -17 -93 -49t-36 -76.5t29.5 -70t77.5 -25.5t86 32.5t50 84.5h72v-228h-77v112q-14 -27 -55 -47t-85 -20q-80 0 -129.5 43.5t-49.5 107t35.5 105t92.5 63.5q-75 49 -75 135q0 59 46.5 104t119 45t120 -42.5t47.5 -109t-58 -107.5h268v-64z M333.5 557q-26.5 26 -64.5 26t-63 -25t-25 -60q0 -83 95 -103q84 29 84 104q0 32 -26.5 58z" />
<glyph horiz-adv-x="1082" d="M487 642h616v-67h-115v-575h-78v280h-210v-136h-68l-25 56q-27 64 -27 88t12 37h-260q-39 0 -71 7q-57 -17 -93 -49t-36 -76.5t29.5 -70t77.5 -25.5t86 32.5t50 84.5h72v-228h-77v112q-14 -27 -55 -47t-85 -20q-80 0 -129.5 43.5t-49.5 107t35.5 105t92.5 63.5 q-75 49 -75 135q0 59 46.5 104t119 45t120 -42.5t47.5 -109t-58 -107.5h243v186h-135v67zM333.5 557q-26.5 26 -64.5 26t-63 -25t-25 -60q0 -83 95 -103q84 29 84 104q0 32 -26.5 58zM910 346v229h-210v-229h210z" />
<glyph horiz-adv-x="858" d="M1104 575h-403v-228h251v-69h-251v-135h-69l-25 56q-27 64 -27 86.5t12 39.5h-260q-39 0 -71 7q-57 -17 -93 -49t-36 -76.5t29.5 -70t77.5 -25.5t86 32.5t50 84.5h72v-228h-77v112q-14 -27 -55 -47t-85 -20q-80 0 -129.5 43.5t-49.5 107t35.5 105t92.5 63.5 q-75 49 -75 135q0 59 46.5 104t119 45t120 -42.5t47.5 -109t-58 -107.5h244v186h-136v67h617v-67zM333.5 557q-26.5 26 -64.5 26t-63 -25t-25 -60q0 -83 95 -103q84 29 84 104q0 32 -26.5 58z" />
<glyph horiz-adv-x="1454" d="M1475 642v-67h-115v-575h-78v194q-51 -69 -162 -69q-72 0 -130 39.5t-88 113.5h-210v-135h-68l-25 56q-27 64 -27 87.5t12 38.5h-252q-39 0 -71 7q-57 -17 -93 -49t-36 -76.5t29.5 -70t77.5 -25.5t86 32.5t50 84.5h72v-228h-77v112q-14 -27 -55 -47t-85 -20 q-80 0 -129.5 43.5t-49.5 107t35.5 105t92.5 63.5q-75 49 -75 135q0 59 46.5 104t119 45t120 -42.5t47.5 -109t-58 -107.5h235v186h-135v67h996zM333.5 557q-26.5 26 -64.5 26t-63 -25t-25 -60q0 -83 95 -103q84 29 84 104q0 32 -26.5 58zM882 347q0 8 -3 20q80 12 121.5 44 t41.5 79.5t-31 84.5h-319v-228h190zM1282 334v241h-187q25 -38 25 -93q0 -118 -148 -164q12 -55 54 -90.5t106.5 -35.5t107 38.5t42.5 103.5z" />
<glyph horiz-adv-x="1096" d="M504 642h614v-67h-116v-575h-78v194q-50 -69 -162 -69q-84 0 -146.5 52t-85.5 148h-198q-39 0 -71 7q-57 -17 -93 -49t-36 -76.5t29.5 -70t77.5 -25.5t86 32.5t50 84.5h72v-228h-77v112q-14 -27 -55 -47t-85 -20q-80 0 -129.5 43.5t-49.5 107t35.5 105t92.5 63.5 q-75 49 -75 135q0 59 46.5 104t119 45t120 -42.5t47.5 -109t-58 -107.5h225q80 34 80 97q0 51 -30 89h-150v67zM333.5 557q-26.5 26 -64.5 26t-63 -25t-25 -60q0 -83 95 -103q84 29 84 104q0 32 -26.5 58zM924 334v241h-187q25 -38 25 -93q0 -118 -148 -164 q12 -55 54.5 -90.5t106.5 -35.5t106.5 38.5t42.5 103.5z" />
<glyph horiz-adv-x="1072" d="M1094 642v-67h-116v-575h-78v166q-52 -75 -160 -75q-80 0 -137.5 51.5t-57.5 139.5q0 15 4 43h-217q-39 0 -71 7q-57 -17 -93 -49t-36 -76.5t29.5 -70t77.5 -25.5t86 32.5t50 84.5h72v-228h-77v112q-14 -27 -55 -47t-85 -20q-80 0 -129.5 43.5t-49.5 107t35.5 105 t92.5 63.5q-75 49 -75 135q0 59 46.5 104t119 45t120 -42.5t47.5 -109t-58 -107.5h197q56 84 167 84q37 0 64 -8v-69q-27 9 -59 9q-53 0 -88.5 -34t-35.5 -90t36 -91t89 -35q70 0 110.5 47t40.5 111v262h-390v67h584zM333.5 557q-26.5 26 -64.5 26t-63 -25t-25 -60 q0 -83 95 -103q84 29 84 104q0 32 -26.5 58z" />
<glyph horiz-adv-x="722" d="M-30 642h811v-67h-132v-575h-78v424h-322q-91 0 -91 -58q0 -30 27 -44.5t93 -15.5q179 -2 179 -137q0 -67 -49.5 -109.5t-129.5 -42.5t-136 51v-116h-77v226h71q17 -42 57.5 -70t85.5 -28t71.5 25t26.5 65.5t-33 56t-105.5 15.5t-117 31.5t-44.5 91t47 93t123 33.5h324 v84h-601v67z" />
<glyph horiz-adv-x="513" d="M708 402h-459q-91 0 -91 -55q0 -28 25.5 -38.5t94.5 -11.5q179 -2 179 -135q0 -67 -49 -106t-129.5 -39t-136.5 51v-116h-77v226h71q17 -42 57.5 -70t86 -28t71.5 22t26 62t-32 54.5t-95 14.5q-173 0 -173 112q0 60 47 92t123 32h461v-67zM535 642v-67h-565v67h565z" />
<glyph horiz-adv-x="1108" d="M1130 642v-67h-115v-575h-78v194q-51 -69 -162 -69q-90 0 -155.5 59.5t-83.5 168.5q-20 28 -56 38.5t-100 10.5h-131q-91 0 -91 -55q0 -28 25.5 -38.5t94.5 -11.5q179 -2 179 -135q0 -67 -49 -106t-129.5 -39t-136.5 51v-116h-77v226h71q17 -42 57.5 -70t86 -28t71.5 22 t26 62t-32 54.5t-95 14.5q-173 0 -173 112q0 60 47 92t123 32h151q151 0 213 -82q86 35 86 99q0 52 -31 89h-696v67h1160zM937 334v241h-187q25 -38 25 -93q0 -118 -148 -164q12 -55 54 -90.5t106.5 -35.5t107 38.5t42.5 103.5z" />
<glyph horiz-adv-x="783" d="M804 575h-368v-143q46 48 122.5 48t127.5 -50t51 -134t-57 -136t-142 -52q-11 0 -23 2v67q12 -2 20 -2q54 0 89 33t35 87.5t-32 87t-79.5 32.5t-79.5 -30.5t-32 -76.5v-308h-78v148q-10 -12 -24 -21h1l-158 -110q-16 -12 -16 -26q0 -28 59 -79l-48 -36q-36 18 -66.5 49 t-30.5 66.5t45 65.5l71 48q-62 14 -98 60.5t-36 113.5q0 87 57.5 139t141.5 52q14 0 23 -3v-66q-5 1 -20 1q-54 0 -88.5 -32.5t-34.5 -87t31.5 -86.5t79 -32t79.5 31t32 77v303h-380v67h826v-67z" />
<glyph horiz-adv-x="642" d="M664 642v-67h-116v-575h-78v190q-23 -38 -64 -62l-172 -108q-19 -13 -19 -31q0 -38 46 -79l-51 -35q-81 56 -81 116q0 41 46 68l76 43q-67 9 -109 51.5t-42 108.5q0 87 78 125h-142v67h341v-67q-109 0 -154 -34.5t-45 -85t32.5 -77t85.5 -26.5q81 0 127.5 49.5 t46.5 113.5v248h-492v67h686z" />
<glyph horiz-adv-x="632" d="M654 575h-154v-117q76 -43 76 -153t-84 -181v-358h-76v157h-135q-18 0 -25 -9t-7 -36.5t12 -66.5h-65q-29 51 -29 93.5t21.5 62.5t65.5 20h162v92q-57 -22 -120 -22q-102 0 -166.5 45t-64.5 123q0 53 31.5 87.5t81.5 39.5q-36 6 -65.5 38.5t-29.5 89.5t45 95h-150v67h676 v-67zM427 575h-204q-62 -34 -62 -102q0 -42 29.5 -67t71.5 -25h30v-67h-38q-53 0 -81.5 -23.5t-28.5 -68t43 -72.5t109 -28q89 0 145 49.5t56 136.5q0 51 -28.5 80.5t-83.5 29.5q-27 0 -43 -7v65q17 7 41 7t44 -2v94z" />
<glyph horiz-adv-x="500" d="M409 575v-186q-35 5 -73 5t-75 -6.5t-70 -21t-52 -42t-19 -65.5q0 -65 54.5 -95t140.5 -30t148 38v-72q-25 -13 -64 -22v-301h-77v144h-130q-18 0 -25 -9t-7 -35.5t12 -65.5h-65q-29 51 -29 93q0 81 87 81h157v82h-8q-120 0 -197.5 48.5t-77.5 142.5t77.5 146.5 t189.5 53.5q17 0 24 -1v118h-352v67h544v-67h-113z" />
<glyph horiz-adv-x="585" d="M608 575h-262v-121q84 -13 137.5 -60.5t53.5 -113.5t-36.5 -111.5t-99.5 -68.5v-314h-76v145h-131q-18 0 -25 -9t-7 -36t13 -66h-66q-28 56 -28 100q0 75 87 75h157v89q-20 -2 -31 -2q-107 0 -176.5 51.5t-69.5 136t64 134t157 55.5v116h-291v67h630v-67zM412 180.5 q45 33.5 45 92.5t-47.5 90.5t-119 31.5t-117 -33t-45.5 -91t46.5 -91t119.5 -33t118 33.5z" />
<glyph horiz-adv-x="560" d="M462 408h-176q-68 0 -107 -35t-39 -99t35 -101t94 -37t94.5 33t37.5 85h75v-264h-78v133q-9 -12 -25 -23l-174 -118q-23 -16 -23 -43t41 -64l-51 -32q-34 22 -55 51t-21 58q0 43 56 78l76 44q-76 13 -121 68t-45 137t59 138.5t165 56.5h104v101h-406v67h604v-67h-120 v-167z" />
<glyph horiz-adv-x="521" d="M-22 642h565v-67h-115v-575h-79v211l-167 -30q-42 -8 -42 -48q0 -22 18 -67l-55 -13q-48 59 -48 113q0 59 74 73l214 38l-133 95q-22 15 -40 15q-40 0 -62 -75l-50 25q3 54 28 96.5t62 42.5t73 -27l128 -95v221h-371v67z" />
<glyph horiz-adv-x="811" d="M833 575h-368v-130q45 47 122 47t127.5 -50t50.5 -134.5t-57 -135.5t-141 -51q-18 0 -24 2v67q12 -2 20 -2q54 0 88.5 32.5t34.5 87.5t-31.5 87.5t-78.5 32.5t-79 -31.5t-32 -78.5v-318h-79v253q-12 -15 -28 -28l-151 -126q-22 -17 -22 -41.5t39 -68.5l-49 -31 q-33 19 -55 46.5t-22 57.5q0 41 54 80l71 52q-150 14 -150 197v184h-95v67h855v-67zM386 397v178h-234v-185q0 -71 26 -102.5t79.5 -31.5t91 38t37.5 103z" />
<glyph horiz-adv-x="623" d="M645 642v-67h-115v-575h-78v163q-19 -26 -53 -48l-156 -114q-19 -13 -19 -40t41 -64l-50 -31q-30 18 -53.5 47t-23.5 61q0 45 56 77l55 31q-79 9 -132.5 65t-53.5 143.5t61.5 146t157.5 58.5q40 0 83 -10v-69q-42 13 -83 13t-73 -17l209 -205q34 43 34 99v269h-474v67 h667zM168 379q-29 -37 -29 -96t39.5 -98.5t99.5 -39.5t102 28z" />
<glyph horiz-adv-x="703" d="M531 642h195v-67h-116v-575h-79v222l-203 -138q-21 -14 -21 -35q0 -31 54 -70l-51 -33q-38 19 -64.5 47.5t-26.5 63.5t44 65l177 120q-95 21 -170 52l-199 -124l-61 47l189 114q-108 69 -108 170q0 60 46 103.5t121.5 43.5t122.5 -44t47 -106q0 -89 -92 -155 q79 -29 195 -50v349zM325.5 557q-24.5 26 -66.5 26t-65.5 -25t-23.5 -61q0 -72 97 -123q83 52 83 122q0 35 -24.5 61z" />
<glyph horiz-adv-x="764" d="M786 642v-67h-116v-575h-78v257l-149 -53q-33 -13 -33 -44t33 -72l-58 -20q-26 22 -44 53t-18 58q0 57 67 78l176 58q-69 63 -155 63t-166 -57q-34 -37 -102 -40h-10l180 -281h-93l-180 282v62h66q57 0 77.5 22.5t20.5 71.5v137h-226v67h808zM282 575v-143q0 -11 -1 -17 q60 30 132 30q108 0 179 -67v197h-310z" />
<glyph horiz-adv-x="598" d="M470 418h-267q-56 0 -56 -45q0 -52 52 -80q54 19 123 19q113 0 172.5 -53t59.5 -124q0 -49 -11 -75h-75q13 39 13 66.5t-12 50.5l-124 -56q-23 -9 -23 -35t42 -70l-53 -24q-25 17 -48.5 48t-23.5 60q0 42 53 65l130 59q-43 23 -102 23q-91 0 -137 -44t-46 -111t57 -114 t147 -47q53 0 92 12v-65q-42 -11 -99 -11q-117 0 -196 65.5t-79 167.5t81 162q-72 46 -72 121q0 48 34 74t88 26h202v92h-414v67h643v-67h-151v-157z" />
<glyph horiz-adv-x="778" d="M800 575h-367v-142q45 47 121.5 47t127.5 -50t51 -134t-57 -136t-141 -52q-13 0 -23 2v67q10 -2 19 -2q54 0 89 33t35 87.5t-32 87t-79.5 32.5t-79 -30.5t-31.5 -76.5v-308h-79v147l-181 -192h-95l140 145q-73 5 -119 53.5t-46 130t57 134t142 52.5q14 0 23 -3v-66 q-5 1 -20 1q-54 0 -88.5 -32.5t-34.5 -87t31.5 -87.5t79 -33t79.5 31t32 77v305h-376v67h822v-67z" />
<glyph horiz-adv-x="783" d="M805 642v-67h-115v-575h-79v141q-51 -53 -308 -250h-118l202 157q-123 4 -206.5 73.5t-123.5 189.5v65h66q49 0 62 20t13 75v104h-220v67h827zM611 575h-335v-116q0 -75 -25.5 -110.5t-90.5 -37.5l-12 -1q21 -82 88.5 -138t162.5 -56t155.5 52t60.5 135q0 57 -30 91 t-78 34t-72 -24t-24 -57.5t19.5 -53t46 -19.5t49.5 10v-61q-27 -11 -54 -11q-57 0 -96.5 36.5t-39.5 97t45.5 103t114 42.5t115.5 -41v125z" />
<glyph horiz-adv-x="581" d="M-22 642h625v-67h-116v-575h-77v194l-254 -214h-110l364 313v282h-174v-234q0 -63 -32.5 -97.5t-93.5 -34.5q-41 0 -73 13v69q30 -14 61 -14q60 0 60 67v231h-180v67z" />
<glyph horiz-adv-x="647" d="M669 642v-67h-116v-575h-77v183l-259 -228h-106l160 141q-79 -5 -137 34.5t-58 115.5q0 52 31 83.5t85 42.5q-45 5 -77.5 33.5t-32.5 81t42 88.5h-146v67h691zM476 330v245h-259q-57 -31 -57 -89q0 -79 126 -79h48v-68h-59q-56 0 -88.5 -24.5t-32.5 -68t35.5 -65.5 t85.5 -22q84 0 142.5 51t58.5 120z" />
<glyph horiz-adv-x="574" d="M-22 642h619v-67h-195v-151h-174q-35 0 -59.5 -15t-24.5 -48.5t30 -49t106 -19.5q179 -5 179 -138q0 -53 -33.5 -91.5t-92.5 -54.5l113 -148h-95l-93 129l-94 -129h-95l111 145q-66 12 -113 38v77q87 -55 189 -55q57 0 90 23t33 62.5t-30 56.5t-100 20q-183 8 -183 132 q0 64 44.5 98t114.5 34h99v84h-346v67zM511 401q23 0 39 -16t16 -39t-16 -38t-39 -15t-38.5 15t-15.5 38t15.5 39t38.5 16z" />
<glyph horiz-adv-x="638" d="M660 642v-67h-116v-575h-78v178l-263 -223h-110l171 146q-74 5 -121 48t-47 113q0 87 78 125h-142v67h341v-67q-109 0 -154 -34.5t-45 -85t32.5 -77t85.5 -26.5q78 0 126 47t48 102v262h-488v67h682z" />
<glyph horiz-adv-x="638" d="M660 575h-153v-117q76 -43 76 -149q0 -88 -53 -152.5t-140 -88.5l115 -150h-95l-93 128l-94 -128h-95l110 144q-76 14 -121 56.5t-45 101t31.5 93t81.5 39.5q-36 6 -65.5 38.5t-29.5 89.5t45 95h-157v67h682v-67zM435 575h-205q-62 -34 -62 -102q0 -42 29.5 -67t71.5 -25 h30v-67h-38q-53 0 -81.5 -23.5t-28.5 -68t43 -72.5t109 -28q89 0 145 49.5t56 136.5q0 51 -28.5 80.5t-83.5 29.5q-27 0 -43 -7v65q17 7 41.5 7t44.5 -2v94z" />
<glyph horiz-adv-x="657" d="M-22 642h701v-67h-115v-575h-78v119l-257 -219h-109l366 311v173h-198q68 -40 68 -117.5t-54 -125.5t-145 -48q-65 0 -119 22v72q54 -28 112 -28t93 28t35 79q0 118 -174 118v67h382v124h-508v67z" />
<glyph horiz-adv-x="843" d="M865 642v-67h-116v-575h-78v106l-245 -233h-107l352 324v56h-240q30 -36 30 -94t-46.5 -101t-128 -43t-137.5 50v-113h-76v226h70q17 -42 58.5 -70t86 -28t70 23t25.5 62q0 78 -119 86q-86 5 -133.5 31t-47.5 88.5t46 96.5t121 34h88v74h-360v67h887zM671 317v258h-254 v-141l-2 1v-1h-160q-92 0 -92 -60q0 -29 25.5 -40.5t88.5 -16.5h394z" />
<glyph horiz-adv-x="687" d="M709 642v-67h-116v-575h-78v122l-245 -222h-108l353 313v61h-125q-8 -77 -65 -126t-144 -49t-153 35v74q67 -41 139.5 -41t108 35t35.5 91.5t-32.5 89.5t-85.5 33t-83 -14v67q33 13 80 13q82 0 133 -37t64 -104h128v234h-537v67h731z" />
<glyph horiz-adv-x="496" d="M407 575v-186q-35 5 -71 5q-89 0 -143.5 -40.5t-54.5 -114t48.5 -112.5t125.5 -39t145 38v-71q-37 -21 -98 -30l110 -142h-95l-92 128l-95 -128h-95l118 153q-71 22 -112 74t-41 128q0 97 69 158t178 62q16 0 24 -1v118h-350v67h540v-67h-111z" />
<glyph horiz-adv-x="564" d="M586 575h-244v-129q75 -14 121 -62.5t46 -121t-40 -122t-109 -68.5l115 -149h-95l-93 128l-94 -128h-95l112 147q-71 18 -113 68.5t-42 121.5q0 88 61.5 137t147.5 54v124h-286v67h608v-67zM388.5 163q40.5 37 40.5 97.5t-40 93.5t-103.5 33t-107 -32t-43.5 -93.5 t40 -98.5t106.5 -37t107 37z" />
<glyph horiz-adv-x="522" d="M292 227l-76 -6q-65 2 -109 38t-44 100t45 98t115 34h99v84h-344v67h566v-67h-144v-151h-174q-36 0 -60 -15t-24 -49t25 -52.5t67 -18.5l76 4q73 -1 110 -39.5t36.5 -95.5t-33.5 -95.5t-93 -54.5l113 -148h-94l-94 129l-93 -129h-95l110 146q-65 11 -113 37v77 q89 -55 190 -55q57 0 90 23t33 62q0 75 -85 77z" />
<glyph horiz-adv-x="557" d="M432 575v-183q-62 10 -102 10q-91 0 -143.5 -44.5t-52.5 -114.5t46.5 -113.5t120.5 -43.5q53 0 88 23.5t35 64.5q0 27 -20 44t-60 17t-78 -23v65q42 21 101.5 21t96.5 -34.5t37 -87.5t-35 -92.5t-96 -54.5l112 -147h-95l-93 128l-93 -128h-95l114 149q-75 21 -120.5 77.5 t-45.5 135.5q0 96 69.5 160t184.5 65q22 0 45 -3v109h-375v67h601v-67h-147z" />
<glyph horiz-adv-x="753" d="M775 642v-67h-116v-575h-78v194l-243 -215h-114l357 312v284h-162v-219q0 -86 -44.5 -131.5t-128.5 -45.5q-166 0 -166 178v218h-102v67h797zM341 354v221h-183v-221q0 -108 89 -108q94 0 94 108z" />
<glyph horiz-adv-x="565" d="M587 642v-67h-116v-575h-79v223l-276 -172l-42 58l295 184q-24 46 -66.5 74.5t-98.5 29.5q-75 0 -149 -40v73q59 35 150 35q118 0 187 -89v199h-414v67h609z" />
<glyph horiz-adv-x="643" d="M365 507q0 -82 -62.5 -132.5t-178.5 -78.5q28 -118 161 -118q76 0 131 51t55 146v267h194v-67h-116v-575h-78v194l-267 -239h-107l176 157q-96 3 -163 61t-78 169q132 28 194 66t62 98q0 34 -16.5 55t-49.5 21t-50.5 -19.5t-17.5 -44.5t13 -61h-77q-12 34 -12 64 q0 52 39.5 89.5t105.5 37.5t104 -40.5t38 -100.5z" />
<glyph horiz-adv-x="555" d="M-22 642h599v-67h-120v-167h-176q-68 0 -107 -35t-39 -99t35 -101t94 -37t94.5 33t37.5 85h75v-264h-78v133l-192 -179h-103l139 129q-86 8 -136 63.5t-50 140t59 141t165 56.5h104v101h-401v67z" />
<glyph horiz-adv-x="640" d="M662 642v-67h-116v-575h-78v166l-254 -211h-111l155 129q-87 4 -138 44t-51 99t36.5 94t90.5 40q-123 12 -123 113q0 69 62 101h-157v67h315v-67h-1q-66 0 -103 -28t-37 -72q0 -81 136 -81h51v-67h-59q-57 0 -94.5 -25t-37.5 -66.5t34.5 -64t97.5 -22.5q84 0 136 51.5 t52 115.5v326h194z" />
<glyph horiz-adv-x="504" d="M-22 642h548v-67h-115v-575h-79v280l-182 -206h-96l278 310h-195q-18 0 -25.5 -9t-7.5 -34t13 -70h-65q-29 54 -29 104q0 75 87 75h222v125h-354v67z" />
<glyph horiz-adv-x="558" d="M580 642v-67h-115v-575h-79v255l-243 -255h-102l184 196q-152 14 -152 197v182h-95v67h602zM386 399v176h-234v-183q0 -71 26 -102.5t79.5 -31.5t91 38t37.5 103z" />
<glyph horiz-adv-x="807" d="M829 575h-364v-137q45 47 122 47t127.5 -50t50.5 -134.5t-57 -136t-141 -51.5q-15 0 -24 3v66q12 -2 20 -2q54 0 88.5 33t34.5 87.5t-31.5 87t-79 32.5t-79 -31t-31.5 -78v-311h-79v255l-243 -255h-102l184 196q-152 14 -152 197v182h-95v67h851v-67zM386 399v176h-234 v-183q0 -71 26 -102.5t79.5 -31.5t91 38t37.5 103z" />
<glyph horiz-adv-x="624" d="M646 642v-67h-116v-575h-78v160l-248 -225h-108l165 149q-83 4 -140.5 60.5t-57.5 145t61.5 147t157.5 58.5q40 0 83 -10v-69q-42 13 -83 13t-73 -17l209 -205q34 43 34 99v269h-474v67h668zM168 379q-29 -37 -29 -96t39.5 -98.5t99.5 -39.5t102 28z" />
<glyph horiz-adv-x="565" d="M393 642h194v-67h-116v-575h-78v160l-226 -200h-110l336 297v68h-196v-137h-69l-25 56q-27 58 -27 84q0 49 43 60v126q0 34 -10.5 49.5t-39.5 15.5t-53 -13v65q30 15 70 15q111 0 111 -119v-136h196v251z" />
<glyph horiz-adv-x="578" d="M-22 642h622v-67h-116v-575h-78v172l-232 -212h-112l344 313v49h-209v-135h-69l-25 56q-27 64 -27 87q0 47 42 58v187h-140v67zM197 391h209v184h-209v-184z" />
<glyph horiz-adv-x="628" d="M202 228.5q42 -34.5 105.5 -34.5t106 38.5t42.5 103.5v239h-186q24 -39 24 -93q0 -117 -148 -163q14 -56 56 -90.5zM175 411.5q41 31.5 41 79.5t-30 84h-208v67h672v-67h-116v-575h-78v192l-262 -237h-113l194 176q-86 5 -146.5 67t-74.5 170q80 12 121 43.5z" />
<glyph horiz-adv-x="584" d="M606 642v-67h-116v-575h-78v161l-240 -226h-110l169 158q-74 6 -124 56.5t-50 132.5t55.5 136.5t141.5 54.5q37 0 64 -8v-69q-26 9 -59 9q-53 0 -88 -33.5t-35 -90t35.5 -91.5t88.5 -35q70 0 111 47t41 111v262h-434v67h628z" />
<glyph horiz-adv-x="696" d="M522 642h196v-67h-116v-575h-80v212l-256 -215l-62 45l235 195q-95 28 -162 58l-184 -131l-62 48l175 122q-106 69 -106 165q0 59 44.5 104t119 45t119.5 -43.5t45 -107.5q0 -84 -93 -151q82 -33 187 -58v354zM265 583q-39 0 -63 -24.5t-24 -60.5q0 -68 91 -120 q34 21 57.5 52t23.5 65.5t-23 61t-62 26.5z" />
<glyph horiz-adv-x="740" d="M762 642v-67h-116v-575h-78v269l-156 -147h-104l229 202q-58 54 -130.5 54t-147.5 -55q-36 -39 -104 -42h-11l181 -281h-93l-180 282v62h66q57 0 77 22.5t20 71.5v137h-237v67h784zM294 575v-143q0 -11 -1 -16q56 29 116 29q94 0 159 -65v195h-274z" />
<glyph horiz-adv-x="586" d="M476 418h-270q-56 0 -56 -45q0 -49 44 -74q50 21 117 21q102 0 166 -53.5t64 -147.5q0 -39 -10 -73h-74q11 27 11 74t-22 78l-133 -152h-93l173 194q-35 15 -84 15q-80 0 -124 -42.5t-44 -112.5t52.5 -115.5t150.5 -45.5q59 0 109 15v-65q-60 -14 -115 -14 q-123 0 -199 64t-76 166.5t75 161.5q-67 44 -67 116q0 48 34.5 74t88.5 26h204v92h-420v67h631v-67h-133v-157z" />
<glyph horiz-adv-x="778" d="M800 575h-367v-142q45 47 121.5 47t127.5 -50t51 -134t-57 -136t-141 -52q-13 0 -23 2v67q10 -2 19 -2q54 0 89 33t35 87.5t-32 87t-79.5 32.5t-79 -30.5t-31.5 -76.5v-308h-79v147l-181 -192h-95l140 145q-73 5 -119 53.5t-46 130t57 134t142 52.5q14 0 23 -3v-66 q-5 1 -20 1q-54 0 -88.5 -32.5t-34.5 -87t31.5 -87.5t79 -33t79.5 31t32 77v305h-376v67h822v-67zM284 -26q22 0 38 -15.5t16 -37.5t-15.5 -37t-38 -15t-37.5 14.5t-15 37t15 38t37 15.5z" />
<glyph horiz-adv-x="783" d="M805 642v-67h-115v-575h-79v141q-51 -53 -308 -250h-118l202 157q-123 4 -206.5 73.5t-123.5 189.5v65h66q49 0 62 20t13 75v104h-220v67h827zM611 575h-335v-116q0 -75 -25.5 -110.5t-90.5 -37.5l-12 -1q21 -82 88.5 -138t162.5 -56t155.5 52t60.5 135q0 57 -30 91 t-78 34t-72 -24t-24 -57.5t19.5 -53t46 -19.5t49.5 10v-61q-27 -11 -54 -11q-57 0 -96.5 36.5t-39.5 97t45.5 103t114 42.5t115.5 -41v125zM528 -28q22 0 38 -15.5t16 -37.5t-15.5 -37t-38 -15t-37.5 14.5t-15 37t15 38t37 15.5z" />
<glyph horiz-adv-x="581" d="M-22 642h625v-67h-116v-575h-77v194l-254 -214h-110l364 313v282h-174v-234q0 -63 -32.5 -97.5t-93.5 -34.5q-41 0 -73 13v69q30 -14 61 -14q60 0 60 67v231h-180v67zM309 -13q22 0 38 -15.5t16 -37.5t-15.5 -37t-38.5 -15t-37.5 15t-14.5 37t15 37.5t37 15.5z" />
<glyph horiz-adv-x="647" d="M669 642v-67h-116v-575h-77v183l-259 -228h-106l160 141q-79 -5 -137 34.5t-58 115.5q0 52 31 83.5t85 42.5q-45 5 -77.5 33.5t-32.5 81t42 88.5h-146v67h691zM476 330v245h-259q-57 -31 -57 -89q0 -79 126 -79h48v-68h-59q-56 0 -88.5 -24.5t-32.5 -68t35.5 -65.5 t85.5 -22q84 0 142.5 51t58.5 120zM390 -12q22 0 38 -15.5t16 -37.5t-15.5 -37t-38 -15t-37.5 14.5t-15 37t15 38t37 15.5z" />
<glyph horiz-adv-x="596" d="M-22 642h641v-67h-195v-151h-174q-35 0 -59.5 -15t-24.5 -48.5t30 -49t106 -19.5q179 -5 179 -138q0 -53 -33.5 -91.5t-92.5 -54.5l113 -148h-95l-93 129l-94 -129h-95l111 145q-66 12 -113 38v77q87 -55 189 -55q57 0 90 23t33 62.5t-30 56.5t-100 20q-183 8 -183 132 q0 64 44.5 98t114.5 34h99v84h-368v67zM533 401q23 0 39 -16t16 -39t-16 -38t-39 -15t-38.5 15t-15.5 38t15.5 39t38.5 16zM10 10q22 0 38 -15.5t16 -37.5t-15.5 -37t-38 -15t-37.5 14.5t-15 37t15 38t37 15.5z" />
<glyph horiz-adv-x="638" d="M660 642v-67h-116v-575h-78v178l-263 -223h-110l171 146q-74 5 -121 48t-47 113q0 87 78 125h-142v67h341v-67q-109 0 -154 -34.5t-45 -85t32.5 -77t85.5 -26.5q78 0 126 47t48 102v262h-488v67h682zM360 -28q22 0 38 -15.5t16 -37.5t-15.5 -37t-38 -15t-37.5 14.5 t-15 37t15 38t37 15.5z" />
<glyph horiz-adv-x="650" d="M672 575h-154v-116q77 -45 77 -150q0 -88 -53.5 -153t-140.5 -88l115 -150h-95l-93 128l-94 -128h-95l111 144q-76 14 -121.5 56.5t-45.5 101t31.5 93t81.5 39.5q-36 6 -65.5 38.5t-29.5 89.5t45 95h-166v67h692v-67zM446 575h-204q-62 -34 -62 -102q0 -42 29.5 -67 t70.5 -25h30v-67h-38q-52 0 -81 -24t-29 -68t43.5 -72t109.5 -28q89 0 145 49.5t56 136.5q0 51 -28.5 80.5t-83.5 29.5q-26 0 -44 -7v65q18 7 42 7t44 -2v94zM51 67q22 0 38 -15.5t16 -37.5t-15.5 -37t-38.5 -15t-37.5 15t-14.5 37t15 37.5t37 15.5z" />
<glyph horiz-adv-x="657" d="M-22 642h701v-67h-115v-575h-78v119l-257 -219h-109l366 311v173h-198q68 -40 68 -117.5t-54 -125.5t-145 -48q-65 0 -119 22v72q54 -28 112 -28t93 28t35 79q0 118 -174 118v67h382v124h-508v67zM404 -67q22 0 38 -15.5t16 -37.5t-15.5 -37t-38 -15t-37.5 15t-15 37 t15 37.5t37 15.5z" />
<glyph horiz-adv-x="843" d="M865 642v-67h-116v-575h-78v106l-245 -233h-107l352 324v56h-240q30 -36 30 -94t-46.5 -101t-128 -43t-137.5 50v-113h-76v226h70q17 -42 58.5 -70t86 -28t70 23t25.5 62q0 78 -119 86q-86 5 -133.5 31t-47.5 88.5t46 96.5t121 34h88v74h-360v67h887zM671 317v258h-254 v-141l-2 1v-1h-160q-92 0 -92 -60q0 -29 25.5 -40.5t88.5 -16.5h394zM611 -59q22 0 38 -15.5t16 -37.5t-15.5 -37t-38.5 -15t-37.5 15t-14.5 37t15 37.5t37 15.5z" />
<glyph horiz-adv-x="687" d="M709 642v-67h-116v-575h-78v122l-245 -222h-108l353 313v61h-125q-8 -77 -65 -126t-144 -49t-153 35v74q67 -41 139.5 -41t108 35t35.5 91.5t-32.5 89.5t-85.5 33t-83 -14v67q33 13 80 13q82 0 133 -37t64 -104h128v234h-537v67h731zM444 -59q22 0 38 -15.5t16 -37.5 t-15.5 -37t-38 -15t-37.5 15t-15 37t15 37.5t37 15.5z" />
<glyph horiz-adv-x="507" d="M418 575v-186q-35 5 -70 5q-89 0 -143.5 -40.5t-54.5 -114t48.5 -112.5t126.5 -39t143 38v-71q-37 -21 -97 -30l110 -142h-95l-93 128l-94 -128h-95l118 153q-72 22 -113 74.5t-41 127.5q0 97 69.5 158t178.5 62q16 0 24 -1v118h-360v67h549v-67h-111zM25 59 q22 0 38 -15.5t16 -37.5t-15.5 -37t-38.5 -15t-37.5 15t-14.5 37t15 37.5t37 15.5z" />
<glyph horiz-adv-x="578" d="M600 575h-245v-129q74 -14 121 -62.5t47 -121t-40 -122t-110 -68.5l115 -149h-95l-93 128l-94 -128h-95l113 147q-72 17 -114 68t-42 122q0 88 62 137t148 54v124h-300v67h622v-67zM402.5 163q40.5 37 40.5 97.5t-40 93.5t-103.5 33t-107 -32t-43.5 -94t39.5 -98.5 t106.5 -36.5t107.5 37zM27 90q22 0 38 -15.5t16 -37.5t-15.5 -37t-38.5 -15t-37.5 14.5t-14.5 37t15 38t37 15.5z" />
<glyph horiz-adv-x="543" d="M313 227l-76 -6q-65 2 -109 38t-44 100t45 98t115 34h99v84h-365v67h587v-67h-144v-151h-174q-36 0 -60 -15t-24 -49t25 -52.5t67 -18.5l76 4q73 -1 110 -39.5t36.5 -95.5t-33.5 -95.5t-93 -54.5l113 -148h-94l-94 129l-93 -129h-95l110 146q-65 11 -113 37v77 q89 -55 190 -55q57 0 90 23t33 62q0 75 -85 77zM1 12q22 0 38 -15.5t16 -37.5t-15.5 -37t-38.5 -15t-37.5 14.5t-14.5 37t15 38t37 15.5z" />
<glyph horiz-adv-x="572" d="M446 575v-183q-60 10 -101 10q-91 0 -143.5 -44t-52.5 -114.5t46.5 -114t120.5 -43.5q53 0 88 23.5t35 64.5q0 27 -20 44t-61 17t-77 -23v65q42 21 101.5 21t96.5 -34.5t37 -87.5t-35.5 -92.5t-96.5 -54.5l113 -147h-95l-93 128l-94 -128h-95l115 149q-75 21 -121 77.5 t-46 135.5q0 96 69.5 160t184.5 65q22 0 46 -3v109h-390v67h616v-67h-148zM28 57q22 0 38 -15.5t16 -37.5t-15.5 -37t-38 -15t-37.5 15t-15 37t15 37.5t37 15.5z" />
<glyph horiz-adv-x="753" d="M775 642v-67h-116v-575h-78v194l-243 -215h-114l357 312v284h-162v-219q0 -86 -44.5 -131.5t-128.5 -45.5q-166 0 -166 178v218h-102v67h797zM341 354v221h-183v-221q0 -108 89 -108q94 0 94 108zM468 -43q22 0 38 -15.5t16 -37.5t-15.5 -37t-38 -15t-37.5 15t-15 37 t15 37.5t37 15.5z" />
<glyph horiz-adv-x="565" d="M587 642v-67h-116v-575h-79v223l-276 -172l-42 58l295 184q-24 46 -66.5 74.5t-98.5 29.5q-75 0 -149 -40v73q59 35 150 35q118 0 187 -89v199h-414v67h609zM249 -1q22 0 38 -15.5t16 -37.5t-15.5 -37t-38.5 -15t-37.5 15t-14.5 37t15 37.5t37 15.5z" />
<glyph horiz-adv-x="643" d="M325 -114.5q-15 14.5 -15 37t15 38t37 15.5t38 -15.5t16 -37.5t-15.5 -37t-38 -15t-37.5 14.5zM365 507q0 -82 -62.5 -132.5t-178.5 -78.5q28 -118 161 -118q76 0 131 51t55 146v267h194v-67h-116v-575h-78v194l-267 -239h-107l176 157q-96 3 -163 61t-78 169 q132 28 194 66t62 98q0 34 -16.5 55t-49.5 21t-50.5 -19.5t-17.5 -44.5t13 -61h-77q-12 34 -12 64q0 52 39.5 89.5t105.5 37.5t104 -40.5t38 -100.5z" />
<glyph horiz-adv-x="555" d="M268 -112q0 22 15 37.5t37 15.5t38 -15.5t16 -37.5t-15.5 -37t-38 -15t-37.5 15t-15 37zM-22 642h599v-67h-120v-167h-176q-68 0 -107 -35t-39 -99t35 -101t94 -37t94.5 33t37.5 85h75v-264h-78v133l-192 -179h-103l139 129q-86 8 -136 63.5t-50 140t59 141t165 56.5h104 v101h-401v67z" />
<glyph horiz-adv-x="640" d="M662 642v-67h-116v-575h-78v166l-254 -211h-111l155 129q-87 4 -138 44t-51 99t36.5 94t90.5 40q-123 12 -123 113q0 69 62 101h-157v67h315v-67h-1q-66 0 -103 -28t-37 -72q0 -81 136 -81h51v-67h-59q-57 0 -94.5 -25t-37.5 -66.5t34.5 -64t97.5 -22.5q84 0 136 51.5 t52 115.5v326h194zM360 -43q22 0 38 -15.5t16 -37.5t-15.5 -37t-38 -15t-37.5 15t-15 37t15 37.5t37 15.5z" />
<glyph horiz-adv-x="504" d="M-22 642h548v-67h-115v-575h-79v280l-182 -206h-96l278 310h-195q-18 0 -25.5 -9t-7.5 -34t13 -70h-65q-29 54 -29 104q0 75 87 75h222v125h-354v67zM207 2q22 0 38 -15.5t16 -37.5t-15.5 -37t-38.5 -15t-37.5 14.5t-14.5 37t15 38t37 15.5z" />
<glyph horiz-adv-x="558" d="M580 642v-67h-115v-575h-79v255l-243 -255h-102l184 196q-152 14 -152 197v182h-95v67h602zM386 399v176h-234v-183q0 -71 26 -102.5t79.5 -31.5t91 38t37.5 103zM268 -12q22 0 38 -15.5t16 -37.5t-15.5 -37t-38 -15t-37.5 14.5t-15 37t15 38t37 15.5z" />
<glyph horiz-adv-x="807" d="M829 575h-364v-137q45 47 122 47t127.5 -50t50.5 -134.5t-57 -136t-141 -51.5q-15 0 -24 3v66q12 -2 20 -2q54 0 88.5 33t34.5 87.5t-31.5 87t-79 32.5t-79 -31t-31.5 -78v-311h-79v255l-243 -255h-102l184 196q-152 14 -152 197v182h-95v67h851v-67zM386 399v176h-234 v-183q0 -71 26 -102.5t79.5 -31.5t91 38t37.5 103zM268 -12q22 0 38 -15.5t16 -37.5t-15.5 -37t-38 -15t-37.5 14.5t-15 37t15 38t37 15.5z" />
<glyph horiz-adv-x="624" d="M646 642v-67h-116v-575h-78v160l-248 -225h-108l165 149q-83 4 -140.5 60.5t-57.5 145t61.5 147t157.5 58.5q40 0 83 -10v-69q-42 13 -83 13t-73 -17l209 -205q34 43 34 99v269h-474v67h668zM168 379q-29 -37 -29 -96t39.5 -98.5t99.5 -39.5t102 28zM356 -35 q22 0 38 -15.5t16 -37.5t-15.5 -37t-38 -15t-37.5 15t-15 37t15 37.5t37 15.5z" />
<glyph horiz-adv-x="565" d="M393 642h194v-67h-116v-575h-78v160l-226 -200h-110l336 297v68h-196v-137h-69l-25 56q-27 58 -27 84q0 49 43 60v126q0 34 -10.5 49.5t-39.5 15.5t-53 -13v65q30 15 70 15q111 0 111 -119v-136h196v251zM299 -20q22 0 38 -15.5t16 -37.5t-15.5 -37t-38.5 -15t-37.5 14.5 t-14.5 37t15 38t37 15.5z" />
<glyph horiz-adv-x="578" d="M-22 642h622v-67h-116v-575h-78v172l-232 -212h-112l344 313v49h-209v-135h-69l-25 56q-27 64 -27 87q0 47 42 58v187h-140v67zM197 391h209v184h-209v-184zM310 -20q22 0 38 -15.5t16 -37.5t-15.5 -37t-38 -15t-37.5 14.5t-15 37t15 38t37 15.5z" />
<glyph horiz-adv-x="628" d="M301 -118.5q-15 14.5 -15 37t15 38t37 15.5t38 -15.5t16 -37.5t-15.5 -37t-38 -15t-37.5 14.5zM202 228.5q42 -34.5 105.5 -34.5t106 38.5t42.5 103.5v239h-186q24 -39 24 -93q0 -117 -148 -163q14 -56 56 -90.5zM175 411.5q41 31.5 41 79.5t-30 84h-208v67h672v-67h-116 v-575h-78v192l-262 -237h-113l194 176q-86 5 -146.5 67t-74.5 170q80 12 121 43.5z" />
<glyph horiz-adv-x="584" d="M606 642v-67h-116v-575h-78v161l-240 -226h-110l169 158q-74 6 -124 56.5t-50 132.5t55.5 136.5t141.5 54.5q37 0 64 -8v-69q-26 9 -59 9q-53 0 -88 -33.5t-35 -90t35.5 -91.5t88.5 -35q70 0 111 47t41 111v262h-434v67h628zM324 -35q22 0 38 -15.5t16 -37.5t-15.5 -37 t-38 -15t-37.5 15t-15 37t15 37.5t37 15.5z" />
<glyph horiz-adv-x="533" d="M433 575v-142q45 47 120 47t126 -48l-54 -54q-32 37 -80.5 37t-80 -30.5t-31.5 -76.5v-308h-79v147l-181 -192h-95l140 145q-73 5 -119 53.5t-46 130t57 134t142 52.5q14 0 23 -3v-66q-5 1 -20 1q-54 0 -88.5 -32.5t-34.5 -87t31.5 -87.5t79 -33t79.5 31t32 77v305h-376 v67h577v-67h-122z" />
<glyph horiz-adv-x="570" d="M472 212q-57 0 -96.5 36.5t-39.5 97t45.5 103t111.5 42.5q87 0 138 -51.5t51 -133.5q0 -115 -109 -203l-268 -212h-118l202 157q-125 4 -208.5 73.5t-123.5 189.5v65h66q49 0 62 20t13 75v104h-220v67h614v-67h-316v-116q0 -75 -25.5 -110.5t-90.5 -37.5l-12 -1 q21 -82 88.5 -138t161.5 -56t152.5 52t58.5 135q0 58 -27.5 91.5t-75 33.5t-71.5 -24t-24 -57.5t19.5 -53t46 -19.5t49.5 10v-61q-27 -11 -54 -11z" />
<glyph horiz-adv-x="379" d="M455 332l38 -66l-337 -286h-110zM98 277q60 0 60 67v231h-180v67h423v-67h-165v-234q0 -63 -32.5 -97.5t-93.5 -34.5q-41 0 -73 13v69q30 -14 61 -14z" />
<glyph horiz-adv-x="409" d="M76 246q0 52 31 83.5t85 42.5q-45 5 -77.5 33.5t-32.5 81t42 88.5h-146v67h453v-67h-214q-57 -31 -57 -89q0 -79 126 -79h48v-68h-59q-56 0 -88.5 -24.5t-32.5 -68t35.5 -65.5t85.5 -22q74 0 133 46.5t86 104.5l41 -83l-314 -272h-110l160 141q-79 -5 -137 34.5 t-58 115.5z" />
<glyph horiz-adv-x="417" d="M96 262q0 87 78 125h-142v67h341v-67q-109 0 -154 -34.5t-45 -85t32.5 -77t90 -26.5t111.5 40t87 98l39 -71l-327 -276h-112l171 146q-74 4 -122 47t-48 114zM439 642v-67h-461v67h461z" />
<glyph horiz-adv-x="472" d="M104 451h539v-67h-355q68 -40 68 -117.5t-54 -125.5t-145 -48q-65 0 -119 22v72q54 -28 112 -28t93 28t35 79q0 118 -174 118v67zM120 -100l417 356l42 -57l-350 -299h-109zM494 642v-67h-516v67h516z" />
<glyph horiz-adv-x="607" d="M705 228l45 -58l-324 -297h-107zM713 253h-282q30 -36 30 -94t-46.5 -101t-128 -43t-137.5 50v-113h-76v226h70q17 -42 58.5 -70t86 -28t70 23t25.5 62q0 78 -119 86q-86 5 -133.5 31t-47.5 88.5t46 96.5t121 34h88v74h-360v67h652v-67h-213v-141l-2 1v-1h-160 q-92 0 -92 -60q0 -29 25.5 -40.5t88.5 -16.5h436v-64z" />
<glyph horiz-adv-x="504" d="M572 261l39 -55l-341 -306h-108zM573 274h-183q-8 -77 -65 -126t-144 -49t-153 35v74q67 -41 139.5 -41t108 35t35.5 91.5t-32.5 89.5t-85.5 33t-83 -14v67q33 13 80 13q82 0 133 -37t64 -104h186v-67zM526 642v-67h-548v67h548z" />
<glyph horiz-adv-x="496" d="M407 575v-186q-35 5 -71 5q-89 0 -143.5 -40.5t-54.5 -114t48.5 -112.5t125.5 -39t145 38v-71q-37 -21 -98 -30l110 -142h-95l-92 128l-95 -128h-95l118 153q-71 22 -112 74t-41 128q0 97 69 158t178 62q16 0 24 -1v118h-350v67h540v-67h-111zM244 -185h80l140 -165h-97z " />
<glyph horiz-adv-x="564" d="M586 575h-244v-129q75 -14 121 -62.5t46 -121t-40 -122t-109 -68.5l115 -149h-95l-93 128l-94 -128h-95l112 147q-71 18 -113 68.5t-42 121.5q0 88 61.5 137t147.5 54v124h-286v67h608v-67zM388.5 163q40.5 37 40.5 97.5t-40 93.5t-103.5 33t-107 -32t-43.5 -93.5 t40 -98.5t106.5 -37t107 37zM251 -145h80l140 -165h-97z" />
<glyph horiz-adv-x="522" d="M292 227l-76 -6q-65 2 -109 38t-44 100t45 98t115 34h99v84h-344v67h566v-67h-144v-151h-174q-36 0 -60 -15t-24 -49t25 -52.5t67 -18.5l76 4q73 -1 110 -39.5t36.5 -95.5t-33.5 -95.5t-93 -54.5l113 -148h-94l-94 129l-93 -129h-95l110 146q-65 11 -113 37v77 q89 -55 190 -55q57 0 90 23t33 62q0 75 -85 77zM214 -208h80l140 -165h-97z" />
<glyph horiz-adv-x="557" d="M432 575v-183q-62 10 -102 10q-91 0 -143.5 -44.5t-52.5 -114.5t46.5 -113.5t120.5 -43.5q53 0 88 23.5t35 64.5q0 27 -20 44t-60 17t-78 -23v65q42 21 101.5 21t96.5 -34.5t37 -87.5t-35 -92.5t-96 -54.5l112 -147h-95l-93 128l-93 -128h-95l114 149q-75 21 -120.5 77.5 t-45.5 135.5q0 96 69.5 160t184.5 65q22 0 45 -3v109h-375v67h601v-67h-147zM255 -186h80l140 -165h-97z" />
<glyph horiz-adv-x="503" d="M591 309l36 -67l-299 -263h-114zM409 575v-219q0 -86 -44.5 -131.5t-128.5 -45.5q-166 0 -166 178v218h-102v67h557v-67h-116zM148 575v-221q0 -108 89 -108q94 0 94 108v221h-183z" />
<glyph horiz-adv-x="357" d="M55 430q59 35 149 35t155.5 -54.5t83.5 -150.5l1 -4l-328 -205l-42 58l293 181q-54 104 -163 107q-75 0 -149 -40v73zM379 642v-67h-401v67h401z" />
<glyph horiz-adv-x="436" d="M365 507q0 -82 -62.5 -132.5t-178.5 -78.5q28 -118 159.5 -118t213.5 128l53 -55l-338 -296h-105l176 157q-99 1 -169.5 59t-81.5 171q132 28 194 66t62 98q0 34 -16.5 55t-49.5 21t-50.5 -19.5t-17.5 -44.5t13 -61h-77q-12 34 -12 64q0 52 39.5 89.5t105.5 37.5 t104 -40.5t38 -100.5z" />
<glyph horiz-adv-x="555" d="M-22 642h599v-67h-120v-167h-176q-68 0 -107 -35t-39 -99t35 -101t94 -37t94.5 33t37.5 85h75v-264h-78v133l-192 -179h-103l139 129q-86 8 -136 63.5t-50 140t59 141t165 56.5h104v101h-401v67zM499 -289h-97l-123 165h80z" />
<glyph horiz-adv-x="442" d="M69 233q0 53 36.5 88t90.5 40q-123 12 -123 113q0 69 62 101h-157v67h315v-67h-1q-66 0 -103 -28t-37 -72q0 -81 136 -81h51v-67h-59q-57 0 -94.5 -25t-37.5 -66.5t34.5 -64t97.5 -22.5q121 0 236 150l50 -58l-345 -286h-114l160 129q-91 2 -144.5 41.5t-53.5 107.5z" />
<glyph horiz-adv-x="279" d="M137 384q-18 0 -25.5 -9t-7.5 -34t13 -70h-65q-29 54 -29 104q0 75 87 75h326v-62l7 -9l-293 -305h-96l299 310h-216zM301 642v-67h-323v67h323z" />
<glyph horiz-adv-x="335" d="M73 393v182h-95v67h379v-67h-205v-183q0 -71 26 -102.5t80 -31.5q87 0 158 120l39 -52l-312 -326h-102l185 196q-153 13 -153 197z" />
<glyph horiz-adv-x="603" d="M465 575v-137q45 47 122 47q116 0 170 -99l-60 -46q-35 80 -116 80q-49 0 -82.5 -30.5t-33.5 -78.5v-311h-79v255l-243 -255h-102l184 196q-152 14 -152 197v182h-95v67h647v-67h-160zM152 575v-183q0 -71 26 -102.5t79.5 -31.5t91 38t37.5 103v176h-234z" />
<glyph horiz-adv-x="374" d="M120.5 143.5q-57.5 56.5 -57.5 145.5t61.5 147.5t157.5 58.5q40 0 83 -10v-69q-42 13 -83 13t-73 -17l208 -204q22 26 40 61l42 -68l-295 -266h-108l166 149q-84 3 -141.5 59.5zM168 379q-29 -37 -29 -96t39.5 -98.5t97.5 -39.5t102 29zM396 642v-67h-418v67h418z" />
<glyph horiz-adv-x="370" d="M197 391h302v-66l-326 -365h-108l340 365h-208v-137h-69l-25 56q-27 58 -27 84q0 49 43 60v126q0 34 -10.5 49.5t-39.5 15.5t-53 -13v65q30 15 70 15q111 0 111 -119v-136z" />
<glyph horiz-adv-x="384" d="M197 391h309v-69l-321 -362h-110l332 362h-210v-135h-69l-25 56q-27 64 -27 87q0 47 42 58v187h-140v67h428v-67h-209v-184z" />
<glyph horiz-adv-x="383" d="M405 575h-135q24 -39 24 -93q0 -117 -148 -163q14 -56 56 -90.5t100 -34.5q94 0 168 103l36 -59l-312 -283h-113l194 176q-86 5 -146.5 67t-74.5 170q80 12 121 43.5t41 79.5t-30 84h-208v67h427v-67z" />
<glyph horiz-adv-x="360" d="M382 575h-404v67h404v-67zM259 405q-53 0 -88 -33.5t-35 -90t35.5 -91.5t89 -35t96.5 31t86 92l44 -58l-308 -285h-109l171 158q-79 3 -131.5 54t-52.5 134t55.5 137.5t141.5 54.5q37 0 64 -8v-69q-26 9 -59 9z" />
<glyph horiz-adv-x="528" d="M294 575v-143q0 -11 -1 -16q56 29 116 29q131 0 212 -129l-43 -43l-2 3l-164 -154h-104l228 202q-56 54 -129 54t-148 -55q-36 -39 -104 -42h-11l181 -281h-93l-180 282v62h66q57 0 77 22.5t20 71.5v137h-237v67h784v-67h-468z" />
<glyph horiz-adv-x="533" d="M433 575v-142q45 47 120 47t126 -48l-54 -54q-32 37 -80.5 37t-80 -30.5t-31.5 -76.5v-308h-79v147l-181 -192h-95l140 145q-73 5 -119 53.5t-46 130t57 134t142 52.5q14 0 23 -3v-66q-5 1 -20 1q-54 0 -88.5 -32.5t-34.5 -87t31.5 -87.5t79 -33t79.5 31t32 77v305h-376 v67h577v-67h-122zM287 -75q22 0 38 -15.5t16 -37.5t-15.5 -37t-38.5 -15t-37.5 15t-14.5 37t15 37.5t37 15.5z" />
<glyph horiz-adv-x="570" d="M472 212q-57 0 -96.5 36.5t-39.5 97t45.5 103t111.5 42.5q87 0 138 -51.5t51 -133.5q0 -115 -109 -203l-268 -212h-118l202 157q-125 4 -208.5 73.5t-123.5 189.5v65h66q49 0 62 20t13 75v104h-220v67h614v-67h-316v-116q0 -75 -25.5 -110.5t-90.5 -37.5l-12 -1 q21 -82 88.5 -138t161.5 -56t152.5 52t58.5 135q0 58 -27.5 91.5t-75 33.5t-71.5 -24t-24 -57.5t19.5 -53t46 -19.5t49.5 10v-61q-27 -11 -54 -11zM535 -71q22 0 38 -15.5t16 -37.5t-15.5 -37t-38.5 -15t-37.5 15t-14.5 37t15 37.5t37 15.5z" />
<glyph horiz-adv-x="379" d="M389 32q22 0 38 -15.5t16 -37.5t-15.5 -37t-38.5 -15t-37.5 14.5t-14.5 37t15 38t37 15.5zM455 332l38 -66l-337 -286h-110zM98 277q60 0 60 67v231h-180v67h423v-67h-165v-234q0 -63 -32.5 -97.5t-93.5 -34.5q-41 0 -73 13v69q30 -14 61 -14z" />
<glyph horiz-adv-x="409" d="M442 3q22 0 38 -15.5t16 -37.5t-15.5 -37t-38 -15t-37.5 15t-15 37t15 37.5t37 15.5zM76 246q0 52 31 83.5t85 42.5q-45 5 -77.5 33.5t-32.5 81t42 88.5h-146v67h453v-67h-214q-57 -31 -57 -89q0 -79 126 -79h48v-68h-59q-56 0 -88.5 -24.5t-32.5 -68t35.5 -65.5 t85.5 -22q74 0 133 46.5t86 104.5l41 -83l-314 -272h-110l160 141q-79 -5 -137 34.5t-58 115.5z" />
<glyph horiz-adv-x="574" d="M-22 642h619v-67h-198v-151h-174q-36 0 -60 -15t-24 -48.5t30 -49t105 -19.5q180 -5 180 -138q-1 -54 -35 -92.5t-95 -54.5l129 -162h-95l-95 126l-96 -126h-95l125 157q-76 10 -136 41v77q89 -55 190 -55q57 0 90 23t33 62.5t-30 56.5t-100 20q-184 8 -184 132 q0 64 45 98t115 34h99v84h-343v67zM470 384q15 15 37.5 15t38 -15.5t15.5 -37.5t-15.5 -37t-38.5 -15t-37.5 15t-14.5 37.5t15 37.5zM275 -186h80l140 -165h-97zM189 -183q22 0 38 -15.5t16 -37.5t-15.5 -37t-38.5 -15t-37.5 15t-14.5 37t15 37.5t37 15.5z" />
<glyph horiz-adv-x="417" d="M442 13q22 0 38 -15.5t16 -37.5t-15.5 -37t-38 -15t-37.5 15t-15 37t15 37.5t37 15.5zM96 262q0 87 78 125h-142v67h341v-67q-109 0 -154 -34.5t-45 -85t32.5 -77t90 -26.5t111.5 40t87 98l39 -71l-327 -276h-112l171 146q-74 4 -122 47t-48 114zM439 642v-67h-461v67 h461z" />
<glyph horiz-adv-x="631" d="M653 575h-153v-117q76 -43 76 -149q0 -88 -53 -152.5t-140 -88.5l130 -163h-95l-95 126l-96 -126h-95l122 154q-85 9 -137 53t-52 113q0 53 31.5 87.5t81.5 39.5q-36 6 -65.5 38.5t-29.5 89.5t45 95h-150v67h675v-67zM427 575h-204q-62 -34 -62 -102q0 -42 29.5 -67 t71.5 -25h30v-67h-38q-53 0 -81.5 -23.5t-28.5 -68t43 -72.5t109 -28q89 0 145 49.5t56 136.5q0 51 -28.5 80.5t-83.5 29.5q-27 0 -43 -7v65q17 7 41 7t44 -2v94zM329 -130h80l140 -165h-97zM245 -126q22 0 38 -15.5t16 -37.5t-15.5 -37t-38.5 -15t-37.5 14.5t-14.5 37 t15 38t37 15.5z" />
<glyph horiz-adv-x="472" d="M104 451h539v-67h-355q68 -40 68 -117.5t-54 -125.5t-145 -48q-65 0 -119 22v72q54 -28 112 -28t93 28t35 79q0 118 -174 118v67zM120 -100l417 356l42 -57l-350 -299h-109zM512 -7q22 0 38 -15.5t16 -37.5t-15.5 -37t-38 -15t-37.5 15t-15 37t15 37.5t37 15.5zM494 642 v-67h-516v67h516z" />
<glyph horiz-adv-x="607" d="M677 -45q22 0 38 -15.5t16 -37.5t-15.5 -37t-38.5 -15t-37.5 15t-14.5 37t15 37.5t37 15.5zM705 228l45 -58l-324 -297h-107zM713 253h-282q30 -36 30 -94t-46.5 -101t-128 -43t-137.5 50v-113h-76v226h70q17 -42 58.5 -70t86 -28t70 23t25.5 62q0 78 -119 86 q-86 5 -133.5 31t-47.5 88.5t46 96.5t121 34h88v74h-360v67h652v-67h-213v-141l-2 1v-1h-160q-92 0 -92 -60q0 -29 25.5 -40.5t88.5 -16.5h436v-64z" />
<glyph horiz-adv-x="504" d="M528 -7q22 0 38 -15.5t16 -37.5t-15.5 -37t-38 -15t-37.5 15t-15 37t15 37.5t37 15.5zM572 261l39 -55l-341 -306h-108zM573 274h-183q-8 -77 -65 -126t-144 -49t-153 35v74q67 -41 139.5 -41t108 35t35.5 91.5t-32.5 89.5t-85.5 33t-83 -14v67q33 13 80 13q82 0 133 -37 t64 -104h186v-67zM526 642v-67h-548v67h548z" />
<glyph horiz-adv-x="512" d="M422 575v-186q-33 5 -70 5q-89 0 -143.5 -40.5t-54.5 -114t48.5 -112.5t125.5 -39t145 38v-71q-39 -21 -98 -30l110 -142h-95l-93 128l-94 -128h-95l118 153q-71 22 -112 74t-41 128q0 97 69 158t178 62q16 0 24 -1v118h-366v67h556v-67h-112zM260 -185h80l140 -165h-97z M25 57q22 0 38 -15.5t16 -37.5t-15.5 -37t-38.5 -15t-37.5 15t-14.5 37t15 37.5t37 15.5z" />
<glyph horiz-adv-x="586" d="M608 575h-244v-129q74 -14 120.5 -62.5t46.5 -121t-40 -122t-109 -68.5l115 -149h-95l-93 128l-94 -128h-95l113 147q-72 17 -114 68t-42 122q0 88 61 137t148 54v124h-308v67h630v-67zM410.5 163q40.5 37 40.5 97.5t-40 93.5t-103.5 33t-107 -31.5t-43.5 -93.5t40 -99 t106.5 -37t107 37zM273 -145h80l140 -165h-97zM28 87q22 0 38 -15.5t16 -37.5t-15.5 -37t-38 -15t-37.5 15t-15 37t15 37.5t37 15.5z" />
<glyph horiz-adv-x="547" d="M317 227l-75 -6q-65 2 -109 38t-44 100t44.5 98t114.5 34h99v84h-369v67h591v-67h-144v-151h-174q-35 0 -59.5 -15t-24.5 -49t25 -52.5t67 -18.5l76 4q73 -1 110 -39.5t36.5 -95.5t-33.5 -95.5t-92 -54.5l113 -148h-95l-93 129l-94 -129h-95l111 145q-66 12 -113 38v77 q87 -55 189 -55q57 0 90 23t33 62q0 75 -85 77zM240 -208h80l140 -165h-97zM7 11q22 0 38 -15.5t16 -37.5t-15.5 -37t-38.5 -15t-37.5 15t-14.5 37t15 37.5t37 15.5z" />
<glyph horiz-adv-x="580" d="M455 575v-183q-62 10 -102 10q-91 0 -143.5 -44.5t-52.5 -114t47 -113.5t120 -44q53 0 88 23.5t35 64.5q0 27 -19.5 44t-60 17t-78.5 -23v65q42 21 101.5 21t96.5 -34.5t37 -87.5t-35 -92.5t-96 -54.5l113 -147h-95l-93 128l-94 -128h-95l114 149q-75 21 -120.5 77.5 t-45.5 135.5q0 96 69.5 160t184.5 65q23 0 45 -3v109h-398v67h624v-67h-147zM278 -186h80l140 -165h-97zM39 51q22 0 38 -15.5t16 -37.5t-15.5 -37t-38.5 -15t-37.5 15t-14.5 37t15 37.5t37 15.5z" />
<glyph horiz-adv-x="503" d="M550 11q22 0 38 -15.5t16 -37.5t-15.5 -37t-38 -15t-37.5 15t-15 37t15 37.5t37 15.5zM591 309l36 -67l-299 -263h-114zM409 575v-219q0 -86 -44.5 -131.5t-128.5 -45.5q-166 0 -166 178v218h-102v67h557v-67h-116zM148 575v-221q0 -108 89 -108q94 0 94 108v221h-183z " />
<glyph horiz-adv-x="357" d="M356 61q22 0 38 -15.5t16 -37.5t-15.5 -37t-38 -15t-37.5 15t-15 37t15 37.5t37 15.5zM55 430q59 35 149 35t155.5 -54.5t83.5 -150.5l1 -4l-328 -205l-42 58l293 181q-54 104 -163 107q-75 0 -149 -40v73zM379 642v-67h-401v67h401z" />
<glyph horiz-adv-x="436" d="M417 -46q0 22 15 37.5t37 15.5t38 -15.5t16 -37.5t-15.5 -37t-38.5 -15t-37.5 15t-14.5 37zM365 507q0 -82 -62.5 -132.5t-178.5 -78.5q28 -118 159.5 -118t213.5 128l53 -55l-338 -296h-105l176 157q-99 1 -169.5 59t-81.5 171q132 28 194 66t62 98q0 34 -16.5 55 t-49.5 21t-50.5 -19.5t-17.5 -44.5t13 -61h-77q-12 34 -12 64q0 52 39.5 89.5t105.5 37.5t104 -40.5t38 -100.5z" />
<glyph horiz-adv-x="555" d="M130 -182q0 22 15 37.5t37 15.5t38 -15.5t16 -37.5t-15.5 -37t-38 -15t-37.5 15t-15 37zM-22 642h599v-67h-120v-167h-176q-68 0 -107 -35t-39 -99t35 -101t94 -37t94.5 33t37.5 85h75v-264h-78v133l-192 -179h-103l139 129q-86 8 -136 63.5t-50 140t59 141t165 56.5h104 v101h-401v67zM509 -289h-97l-123 165h80z" />
<glyph horiz-adv-x="580" d="M455 575v-183q-62 10 -102 10q-91 0 -143.5 -44.5t-52.5 -114t47 -113.5t120 -44q53 0 88 23.5t35 64.5q0 27 -19.5 44t-60 17t-78.5 -23v65q42 21 101.5 21t96.5 -34.5t37 -87.5t-35 -92.5t-96 -54.5l113 -147h-95l-93 128l-94 -128h-95l114 149q-75 21 -120.5 77.5 t-45.5 135.5q0 96 69.5 160t184.5 65q23 0 45 -3v109h-398v67h624v-67h-147zM278 -186h80l140 -165h-97zM29 56q22 0 38 -15.5t16 -37.5t-15.5 -37t-38.5 -15t-37.5 14.5t-14.5 37t15 38t37 15.5z" />
<glyph horiz-adv-x="279" d="M295 41q22 0 38 -15.5t16 -37.5t-15.5 -37t-38.5 -15t-37.5 15t-14.5 37t15 37.5t37 15.5zM137 384q-18 0 -25.5 -9t-7.5 -34t13 -70h-65q-29 54 -29 104q0 75 87 75h326v-62l7 -9l-293 -305h-96l299 310h-216zM301 642v-67h-323v67h323z" />
<glyph horiz-adv-x="335" d="M347 43q22 0 38 -15.5t16 -37.5t-15.5 -37t-38.5 -15t-37.5 15t-14.5 37t15 37.5t37 15.5zM73 393v182h-95v67h379v-67h-205v-183q0 -71 26 -102.5t80 -31.5q87 0 158 120l39 -52l-312 -326h-102l185 196q-153 13 -153 197z" />
<glyph horiz-adv-x="603" d="M465 575v-137q45 47 122 47q116 0 170 -99l-60 -46q-35 80 -116 80q-49 0 -82.5 -30.5t-33.5 -78.5v-311h-79v255l-243 -255h-102l184 196q-152 14 -152 197v182h-95v67h647v-67h-160zM152 575v-183q0 -71 26 -102.5t79.5 -31.5t91 38t37.5 103v176h-234zM261 -54 q22 0 38 -15.5t16 -37.5t-15.5 -37t-38.5 -15t-37.5 14.5t-14.5 37t15 38t37 15.5z" />
<glyph horiz-adv-x="374" d="M434 -17q22 0 38 -15.5t16 -37.5t-15.5 -37t-38 -15t-37.5 15t-15 37t15 37.5t37 15.5zM120.5 143.5q-57.5 56.5 -57.5 145.5t61.5 147.5t157.5 58.5q40 0 83 -10v-69q-42 13 -83 13t-73 -17l208 -204q22 26 40 61l42 -68l-295 -266h-108l166 149q-84 3 -141.5 59.5z M168 379q-29 -37 -29 -96t39.5 -98.5t97.5 -39.5t102 29zM396 642v-67h-418v67h418z" />
<glyph horiz-adv-x="370" d="M197 391h302v-66l-326 -365h-108l340 365h-208v-137h-69l-25 56q-27 58 -27 84q0 49 43 60v126q0 34 -10.5 49.5t-39.5 15.5t-53 -13v65q30 15 70 15q111 0 111 -119v-136zM395 13q22 0 38 -15.5t16 -37.5t-15.5 -37t-38.5 -15t-37.5 15t-14.5 37t15 37.5t37 15.5z" />
<glyph horiz-adv-x="384" d="M197 391h309v-69l-321 -362h-110l332 362h-210v-135h-69l-25 56q-27 64 -27 87q0 47 42 58v187h-140v67h428v-67h-209v-184zM411 15q22 0 38 -15.5t16 -37.5t-15.5 -37t-38.5 -15t-37.5 15t-14.5 37t15 37.5t37 15.5z" />
<glyph horiz-adv-x="383" d="M395 -80.5q-15 14.5 -15 37t15 38t37 15.5t38 -15.5t16 -37.5t-15.5 -37t-38 -15t-37.5 14.5zM405 575h-135q24 -39 24 -93q0 -117 -148 -163q14 -56 56 -90.5t100 -34.5q94 0 168 103l36 -59l-312 -283h-113l194 176q-86 5 -146.5 67t-74.5 170q80 12 121 43.5t41 79.5 t-30 84h-208v67h427v-67z" />
<glyph horiz-adv-x="360" d="M359 -48q0 22 15 37.5t37 15.5t38 -15.5t16 -37.5t-15.5 -37t-38.5 -15t-37.5 15t-14.5 37zM382 575h-404v67h404v-67zM259 405q-53 0 -88 -33.5t-35 -90t35.5 -91.5t89 -35t96.5 31t86 92l44 -58l-308 -285h-109l171 158q-79 3 -131.5 54t-52.5 134t55.5 137.5 t141.5 54.5q37 0 64 -8v-69q-26 9 -59 9z" />
<glyph horiz-adv-x="1281" d="M1302 575h-368v-143q46 48 122.5 48t127.5 -50t51 -134t-57 -136t-142 -52q-11 0 -23 2v67q10 -2 20 -2q53 0 88 33t35 87.5t-31.5 87t-79 32.5t-79.5 -30.5t-32 -76.5v-308h-79v144q-44 -46 -121 -46t-128 49.5t-51 125t39 125.5q-26 17 -65.5 17t-71.5 -30.5t-32 -76.5 v-308h-79v144q-44 -46 -121 -46t-128 49.5t-51 133.5t57 136.5t141 52.5q16 0 23 -3v-66q-5 1 -19 1q-54 0 -89 -33t-35 -87t32 -87t79.5 -33t79 31t31.5 77v305h-368v67h1324v-67zM855 270v305h-430v-143q46 48 113 48t116 -33q44 23 99 23q15 0 23 -3v-66q-5 1 -19 1 q-54 0 -89 -33t-35 -87t32 -87t79.5 -33t79 31t31.5 77z" />
<glyph horiz-adv-x="1355" d="M1377 642v-67h-115v-575h-79v180q-46 -47 -117.5 -47t-120.5 46t-49 121t49 120.5t120 45.5q25 0 48 -5v-65q-16 5 -38 5q-43 0 -72.5 -29t-29.5 -75t28.5 -73.5t73.5 -27.5t76.5 30.5t31.5 79.5v269h-309v-142q0 -71 -44.5 -111t-118.5 -43l-12 -1l220 -278h-97 l-215 279v49q-1 38 -22.5 62.5t-61 24.5t-69 -30.5t-29.5 -76.5v-308h-79v144q-44 -46 -121 -46t-128 49.5t-51 133.5t57 136.5t141 52.5q16 0 23 -3v-66q-5 1 -19 1q-54 0 -89 -33t-35 -87t32 -87t79.5 -33t79 31t31.5 77v305h-368v67h1399zM796 441v134h-371v-140 q40 45 102 45t104 -37.5t49 -98.5q116 3 116 97z" />
<glyph horiz-adv-x="1131" d="M1154 642v-67h-116v-575h-79v183q-54 -86 -182 -89q-81 0 -134 44t-53 124.5t76 119.5h-82q-28 33 -70 33t-65.5 -29.5t-23.5 -77.5v-308h-79v144q-44 -46 -121 -46t-128 49.5t-51 133.5t57 136.5t141 52.5q16 0 23 -3v-66q-5 1 -19 1q-54 0 -89 -33t-35 -87t32 -87 t79.5 -33t79 31t31.5 77v305h-368v67h1176zM959 322v253h-534v-136q35 41 93 41t99 -30h250v-68q-109 0 -154.5 -34.5t-45.5 -85t33 -77t86 -26.5q81 0 127 49.5t46 113.5z" />
<glyph horiz-adv-x="1165" d="M1187 642v-67h-116v-575h-78v384h-201q72 -43 72 -141q0 -81 -54.5 -130.5t-144.5 -49.5q-66 0 -120 22v72q54 -28 112 -28t93.5 31.5t35.5 92t-43 95t-120 36.5l-6 -6l-5 6h-1v1q-30 30 -76 30t-78 -30.5t-32 -76.5v-308h-79v144q-44 -46 -121 -46t-128 49.5t-51 133.5 t57 136.5t141 52.5q16 0 23 -3v-66q-5 1 -19 1q-54 0 -89 -33t-35 -87t32 -87t79.5 -33t79 31t31.5 77v305h-368v67h1209zM993 451v124h-568v-143q46 48 110.5 48t111.5 -29h346z" />
<glyph horiz-adv-x="1009" d="M921 575v-186q-32 5 -70 5q-89 0 -143.5 -40.5t-54.5 -114t48.5 -112.5t128 -39t142.5 38v-72q-62 -32 -145 -32q-114 0 -184.5 57.5t-70.5 158.5q0 80 49 138q-33 39 -82.5 39t-81.5 -30.5t-32 -76.5v-308h-79v144q-44 -46 -121 -46t-128 49.5t-51 133.5t57 136.5 t141 52.5q16 0 23 -3v-66q-5 1 -19 1q-54 0 -89 -33t-35 -87t32 -87t79.5 -33t79 31t31.5 77v305h-368v67h1054v-67h-111zM425 575v-143q46 48 124.5 48t129.5 -57q62 35 140 35q16 0 24 -1v118h-418z" />
<glyph horiz-adv-x="1288" d="M1310 642v-67h-116v-575h-78v575h-162v-225q0 -86 -44.5 -131.5t-128.5 -45.5q-166 0 -166 177v30q-30 35 -78 35t-80 -30.5t-32 -76.5v-308h-79v144q-44 -46 -121 -46t-128 49.5t-51 133.5t57 136.5t141 52.5q16 0 23 -3v-66q-5 1 -19 1q-54 0 -89 -33t-35 -87t32 -87 t79.5 -33t79 31t31.5 77v305h-368v67h1332zM425 575v-143q46 48 117 48q37 0 73 -13v108h-190zM876 348v227h-183v-227q0 -109 89 -109q94 0 94 109z" />
<glyph horiz-adv-x="907" d="M929 575h-400v-179q47 49 134.5 49t144.5 -59t57 -153t-57.5 -154t-147.5 -60q-18 0 -27 3v67q12 -2 24 -2q59 0 94 38t35 107.5t-38.5 109t-92 39.5t-90 -31.5t-36.5 -78.5v-271h-78v381h-76q-180 0 -180 -160q0 -71 36.5 -111t107.5 -40q12 0 22 2v-68q-14 -2 -29 -2 q-99 0 -158 58.5t-59 163t72 156.5q-17 -1 -53 -1h-60v69h377v127h-473v67h951v-67z" />
<glyph horiz-adv-x="1218" d="M1046 642h192v-67h-114v-575h-78v205q-19 -36 -71.5 -66.5t-118.5 -30.5q-97 0 -167.5 59t-82.5 175h1q-17 73 -82 73q-43 0 -71.5 -30.5t-28.5 -76.5v-308h-79v144q-44 -46 -121 -46t-128 49.5t-51 133.5t57 136.5t141 52.5q16 0 23 -3v-66q-5 1 -19 1q-54 0 -89 -33 t-35 -87t32 -87t79.5 -33t79 31t31.5 77v305h-368v67h593v-67h-146v-140q40 45 102.5 45t100.5 -33t50 -88q94 26 139.5 61t45.5 86q0 33 -17 54.5t-50 21.5t-50 -19.5t-17 -41t2 -31t5.5 -18t3.5 -9.5h-77q-11 40 -11 58q0 52 40 89.5t105.5 37.5t103.5 -40.5t38 -100.5 q0 -82 -62.5 -132.5t-178.5 -78.5q14 -59 56 -90t112 -31t125 50t55 144v273z" />
<glyph horiz-adv-x="1048" d="M926 424h-174q-36 0 -60 -15t-24 -48.5t30 -49t105 -19.5q180 -5 180 -138q-1 -69 -55.5 -112t-154.5 -43t-183 44v77q89 -55 190 -55q57 0 90 23t33 62.5t-30 56.5t-100 20q-184 8 -184 132q0 19 5 39q-26 17 -65.5 17t-71.5 -30.5t-32 -76.5v-308h-79v144 q-44 -46 -121 -46t-128 49.5t-51 133.5t57 136.5t141 52.5q16 0 23 -3v-66q-5 1 -19 1q-54 0 -89 -33t-35 -87t32 -87t79.5 -33t79 31t31.5 77v305h-368v67h1092v-67h-144v-151zM425 575v-143q46 48 117 48q51 0 93 -22q43 33 114 33h99v84h-423z" />
<glyph horiz-adv-x="1091" d="M1113 642v-67h-115v-575h-79v238q-46 -61 -133 -62q-180 0 -180 199v14q-28 26 -72.5 26t-76.5 -30.5t-32 -76.5v-308h-79v144q-44 -46 -121 -46t-128 49.5t-51 133.5t57 136.5t141 52.5q16 0 23 -3v-66q-5 1 -19 1q-54 0 -89 -33t-35 -87t32 -87t79.5 -33t79 31t31.5 77 v305h-368v67h1135zM425 575v-143q46 48 117 48q35 0 64 -10v105h-181zM919 382v193h-234v-201q0 -71 26 -102.5t79.5 -31.5t91 38.5t37.5 103.5z" />
<glyph horiz-adv-x="1329" d="M1351 575h-353v-138q45 47 122 47t127.5 -50t50.5 -134t-57 -135.5t-141 -51.5q-18 0 -24 2v67q12 -2 20 -2q54 0 88.5 32.5t34.5 87.5t-31.5 87.5t-78.5 32.5t-79 -31.5t-32 -78.5v-310h-79v238q-46 -58 -134.5 -58.5t-133.5 44.5t-45 147v18q-28 26 -72.5 26 t-76.5 -30.5t-32 -76.5v-308h-79v144q-44 -46 -121 -46t-128 49.5t-51 133.5t57 136.5t141 52.5q16 0 23 -3v-66q-5 1 -19 1q-54 0 -89 -33t-35 -87t32 -87t79.5 -33t79 31t31.5 77v305h-368v67h1373v-67zM425 575v-143q46 48 117 48q35 0 64 -10v105h-181zM919 382v193 h-234v-201q0 -71 25.5 -100.5t79.5 -29.5t91.5 36.5t37.5 101.5z" />
<glyph horiz-adv-x="1084" d="M1106 642v-67h-115v-575h-78v280h-210v-136h-68l-25 56q-27 64 -27 87q0 45 42 56v43l-8 -8q-31 37 -79.5 37t-80.5 -30.5t-32 -76.5v-308h-79v144q-44 -46 -121 -46t-128 49.5t-51 133.5t57 136.5t141 52.5q16 0 23 -3v-66q-5 1 -19 1q-54 0 -89 -33t-35 -87t32 -87 t79.5 -33t79 31t31.5 77v305h-368v67h1128zM425 575v-143q46 48 117 48q44 0 83 -17v112h-200zM913 346v229h-210v-229h210z" />
<glyph horiz-adv-x="1174" d="M1196 642v-67h-115v-575h-78v194q-51 -69 -162 -69q-92 0 -158 62.5t-82 175.5q-21 52 -76 52q-43 0 -71.5 -30.5t-28.5 -76.5v-308h-79v144q-44 -46 -121 -46t-128 49.5t-51 133.5t57 136.5t141 52.5q16 0 23 -3v-66q-5 1 -19 1q-54 0 -89 -33t-35 -87t32 -87t79.5 -33 t79 31t31.5 77v305h-368v67h1218zM425 575v-140q40 45 109 45q48 0 84 -25.5t53 -69.5q92 33 92 101q0 52 -31 89h-307zM1003 334v241h-187q25 -38 25 -93q0 -118 -148 -164q12 -55 54 -90.5t106.5 -35.5t107 38.5t42.5 103.5z" />
<glyph horiz-adv-x="1261" d="M1283 642v-67h-116v-575h-79v396q-26 13 -54 13q-108 0 -108 -127v-72h-78v74q0 119 -87 119q-44 0 -72.5 -36.5t-28.5 -113t44 -132t129 -55.5q17 0 27 2v-65q-18 -3 -38 -3q-108 0 -174 74.5t-66 188.5q0 70 29 122q-30 30 -76 30t-78 -30.5t-32 -76.5v-308h-79v144 q-44 -46 -121 -46t-128 49.5t-51 133.5t57 136.5t141 52.5q16 0 23 -3v-66q-5 1 -19 1q-54 0 -89 -33t-35 -87t32 -87t79.5 -33t79 31t31.5 77v305h-368v67h1305zM1088 575h-663v-143q46 48 117 48t119 -39q40 28 93.5 28t88.5 -24.5t45 -69.5q23 98 140 98q32 0 60 -11v113 z" />
<glyph horiz-adv-x="1093" d="M1116 642v-67h-116v-575h-78v166q-52 -75 -160 -75q-80 0 -137.5 51.5t-57.5 139.5q0 64 34 112q-27 21 -69 21t-74 -30.5t-32 -76.5v-308h-79v144q-44 -46 -121 -46t-128 49.5t-51 133.5t57 136.5t141 52.5q15 0 23 -3v-66q-5 1 -19 1q-54 0 -89 -33t-35 -87t32 -87 t79.5 -33t79 31t31.5 77v305h-368v67h1137zM922 313v262h-496v-143q46 48 114.5 48t116.5 -35q47 28 96 28t75 -8v-69q-26 9 -59 9q-53 0 -88 -33.5t-35 -90t35.5 -91.5t88.5 -35q70 0 111 47t41 111z" />
<glyph horiz-adv-x="1220" d="M1048 642h195v-67h-116v-575h-79v642zM660 442l12 -10l-55 -54q-31 37 -79.5 37t-80.5 -30.5t-32 -76.5v-308h-79v144q-44 -46 -121 -46t-128 49.5t-51 133.5t57 136.5t141 52.5q16 0 23 -3v-66q-5 1 -19 1q-54 0 -89 -33t-35 -87t32 -87t79.5 -33t79 31t31.5 77v305 h-368v67h563v-67h-116v-143q46 48 117 48q50 0 90 -20q-6 22 -6 46q0 57 39 97t110 40t116 -50.5t45 -122.5q0 -101 -67.5 -157.5t-158.5 -56.5h-33l230 -256h-103l-221 253v70h99q83 0 129.5 38.5t46.5 99.5t-23.5 87.5t-61 26.5t-55 -21.5t-17.5 -53.5t15 -58h-56z" />
<glyph horiz-adv-x="1230" d="M1252 642v-67h-115v-575h-78v265h-168q-111 0 -170 9l184 -274h-95l-187 282v51q-6 41 -32 61.5t-67.5 20.5t-70 -30.5t-28.5 -76.5v-308h-79v144q-44 -46 -121 -46t-128 49.5t-51 133.5t57 136.5t141 52.5q16 0 23 -3v-66q-5 1 -19 1q-54 0 -89 -33t-35 -87t32 -87 t79.5 -33t79 31t31.5 77v305h-368v67h1274zM425 575v-140q40 45 104 45t109.5 -32.5t61.5 -103.5q50 2 68.5 25t18.5 69v137h-362zM1059 333v242h-194v-143q0 -63 -27 -99h221z" />
<glyph horiz-adv-x="1350" d="M1373 642v-67h-116v-575h-79v137q-77 -95 -219 -95q-93 0 -167 44t-121 118q-30 -72 -99.5 -117t-168.5 -45q-125 0 -214 75.5t-124 191.5v65h66q49 0 62 20.5t13 74.5v106h-228v67h1395zM285 575v-117q0 -73 -25 -109t-88 -39q-4 -2 -16 -2q21 -83 89.5 -140t163.5 -57 t152 52t57 136q0 58 -28 93.5t-76 35.5t-71 -24.5t-23 -58t20 -53.5t47.5 -20t47.5 10v-61q-27 -11 -54 -11q-58 0 -97.5 36.5t-39.5 97.5t45.5 104t110.5 43t112 -29.5t67 -87.5h10q49 0 62.5 20.5t13.5 74.5v106h-480zM1178 575h-335v-117q0 -75 -25.5 -110.5t-90.5 -38.5 l-13 -1q21 -82 89.5 -139.5t162.5 -57.5t155 54.5t61 137.5q0 57 -30 91t-78.5 34t-72 -24.5t-23.5 -58t20 -53.5t47.5 -20t47.5 10v-61q-27 -11 -53 -11q-58 0 -97.5 36.5t-39.5 97.5t45.5 104t114 43t115.5 -40v124z" />
<glyph horiz-adv-x="1140" d="M1162 642v-67h-116v-575h-78v384h-95q-177 0 -177 -156q0 -74 36.5 -117t107.5 -43q17 0 23 1v-67q-16 -2 -30 -2q-75 0 -127.5 37t-74.5 101q-81 -96 -228 -96q-125 0 -214 75.5t-124 191.5v65h66q49 0 62 20.5t13 74.5v106h-228v67h1184zM968 452v123h-683v-117 q0 -73 -25 -109t-88 -39q-4 -2 -16 -2q21 -83 89.5 -140t163.5 -57t152 52t57 136q0 58 -28 93.5t-76 35.5t-71 -24.5t-23 -58t20 -53.5t47.5 -20t47.5 10v-61q-27 -11 -54 -11q-58 0 -97.5 36.5t-39.5 97.5t45.5 104t109 43t109.5 -27t67 -79q65 67 189 67h104z" />
<glyph horiz-adv-x="1143" d="M1165 642v-67h-115v-575h-78v280h-210v-136h-68l-25 55q-31 -70 -100 -113.5t-166 -43.5q-125 0 -214 75.5t-124 191.5v65h66q49 0 62 20.5t13 74.5v106h-228v67h1187zM481 210q-58 0 -97.5 36.5t-39.5 97.5t45.5 104t113 43t117 -34.5t64.5 -100.5v219h-399v-117 q0 -73 -25 -109t-88 -39q-4 -2 -16 -2q21 -83 89.5 -140t163.5 -57t152 52t57 136q0 58 -28 93.5t-76 35.5t-71 -24.5t-23 -58t20 -53.5t47.5 -20t47.5 10v-61q-27 -11 -54 -11zM972 346v229h-210v-229h210z" />
<glyph horiz-adv-x="1186" d="M1208 642v-67h-115v-575h-78v194q-51 -69 -162 -69t-179 85q-28 -75 -99 -121.5t-172 -46.5q-125 0 -214 75.5t-124 191.5v65h66q49 0 62 20.5t13 74.5v106h-228v67h1230zM481 210q-58 0 -97.5 36.5t-39.5 97.5t45.5 104t109.5 43t110.5 -27.5t66.5 -81.5q99 34 99 104 q0 52 -31 89h-459v-117q0 -73 -25 -109t-88 -39q-4 -2 -16 -2q21 -83 89.5 -140t163.5 -57t152 52t57 136q0 58 -28 93.5t-76 35.5t-71 -24.5t-23 -58t20 -53.5t47.5 -20t47.5 10v-61q-27 -11 -54 -11zM1015 334v241h-187q25 -38 25 -93q0 -118 -148 -164q12 -55 54 -90.5 t106.5 -35.5t107 38.5t42.5 103.5z" />
<glyph horiz-adv-x="1146" d="M1168 642v-67h-116v-575h-78v166q-52 -75 -158 -75t-163 78q-35 -58 -99.5 -92.5t-150.5 -34.5q-125 0 -214 75.5t-124 191.5v65h66q49 0 62 20.5t13 74.5v106h-228v67h1190zM974 313v262h-689v-117q0 -73 -25 -109t-88 -39q-4 -2 -16 -2q21 -83 89.5 -140t163.5 -57 t152 52t57 136q0 58 -28 93.5t-76 35.5t-71 -24.5t-23 -58t20 -53.5t47.5 -20t47.5 10v-61q-27 -11 -54 -11q-58 0 -97.5 36.5t-39.5 97.5t45.5 104t113.5 43q112 0 161 -83q57 65 153 65q37 0 63 -8v-69q-26 9 -59 9q-53 0 -88 -33.5t-35 -90t35.5 -91.5t88.5 -35 q70 0 111 47t41 111z" />
<glyph horiz-adv-x="1285" d="M1112 642h195v-67h-116v-575h-79v642zM690 506q0 57 39 97t110 40t116 -50.5t45 -122.5q0 -101 -67.5 -157.5t-158.5 -56.5h-33l230 -256h-103l-191 219q-27 -78 -98.5 -127.5t-175.5 -49.5q-125 0 -214 75.5t-124 191.5v65h66q49 0 62 20.5t13 74.5v106h-228v67h627v-67 h-320v-117q0 -73 -25 -109t-88 -39q-4 -2 -16 -2q21 -83 89.5 -140t163.5 -57t152 52t57 136q0 58 -28 93.5t-76 35.5t-71 -24.5t-23 -58t20 -53.5t47.5 -20t47.5 10v-61q-27 -11 -54 -11q-58 0 -97.5 36.5t-39.5 97.5t45.5 104t117 43t123.5 -43t59 -125h57 q83 0 129.5 38.5t46.5 99.5t-23.5 87.5t-61 26.5t-55 -21.5t-17.5 -53.5t15 -58h-77q-13 27 -13 64z" />
<glyph horiz-adv-x="878" d="M900 642v-67h-116v-575h-77v575h-175v-234q0 -63 -32 -97.5t-93 -34.5q-41 0 -73 13v69q30 -14 61 -14q60 0 60 67v231h-227v-234q0 -63 -32 -97.5t-93 -34.5q-41 0 -73 13v69q30 -14 61 -14q60 0 60 67v231h-173v67h922z" />
<glyph horiz-adv-x="932" d="M955 642v-67h-116v-575h-77v186q-30 -40 -85.5 -66.5t-132 -26.5t-130 41.5t-53.5 111.5q0 52 31 83.5t86 42.5q-45 5 -78 33.5t-33 81t42 88.5h-181v-234q0 -63 -32 -97.5t-93 -34.5q-41 0 -73 13v69q30 -14 61 -14q60 0 60 67v231h-173v67h977zM762 330v245h-260 q-56 -30 -56 -89q0 -79 126 -79h48v-68h-59q-56 0 -88.5 -24.5t-32.5 -68t35.5 -65.5t85.5 -22q84 0 142.5 51t58.5 120z" />
<glyph horiz-adv-x="962" d="M984 642v-67h-116v-575h-78v384h-201q72 -43 72 -141q0 -81 -54.5 -130.5t-144.5 -49.5q-66 0 -120 22v72q54 -28 112 -28t93.5 31.5t35.5 93t-46.5 96t-128.5 34.5v67h382v124h-562v-234q0 -63 -32 -97.5t-93 -34.5q-41 0 -73 13v69q30 -14 61 -14q60 0 60 67v231h-173 v67h1006z" />
<glyph horiz-adv-x="1054" d="M1076 642v-67h-116v-575h-78v575h-162v-225q0 -86 -44.5 -131.5t-128.5 -45.5q-166 0 -166 177v225h-153v-234q0 -63 -32 -97.5t-93 -34.5q-41 0 -73 13v69q30 -14 61 -14q60 0 60 67v231h-173v67h1098zM642 348v227h-183v-227q0 -109 89 -109q94 0 94 109z" />
<glyph horiz-adv-x="856" d="M758 408h-176q-68 0 -107 -35t-39 -99t35 -101t94 -37t94.5 33t37.5 85h75v-264h-78v133q-41 -52 -134.5 -52t-150.5 58t-57 145t59 143.5t165 56.5h104v101h-452v-234q0 -63 -32 -97.5t-93 -34.5q-41 0 -73 13v69q30 -14 61 -14q60 0 60 67v231h-173v67h900v-67h-120 v-167z" />
<glyph horiz-adv-x="915" d="M937 642v-67h-115v-575h-78v157q-25 -39 -75.5 -66t-116.5 -27q-95 0 -151.5 45.5t-56.5 108t35 96t92 40.5q-56 6 -89 36t-33 84q0 69 62 101h-183v-234q0 -63 -32 -97.5t-93 -34.5q-41 0 -73 13v69q30 -14 61 -14q60 0 60 67v231h-173v67h591v-67h-1q-66 0 -103 -28 t-37 -72.5t38 -66t98 -21.5h50v-67h-59q-61 0 -96 -25.5t-35 -68.5t35.5 -69t96.5 -26q84 0 136 51.5t52 115.5v344h193z" />
<glyph horiz-adv-x="900" d="M923 642v-67h-116v-575h-78v163q-27 -36 -74 -59t-105 -23q-87 0 -148.5 57.5t-61.5 148.5t61.5 149.5t157.5 58.5q40 0 83 -10v-69q-40 13 -82 13t-74 -17l209 -205q34 43 34 99v269h-501v-234q0 -63 -32 -97.5t-93 -34.5q-41 0 -73 13v69q30 -14 61 -14q60 0 60 67v231 h-173v67h945zM445 379q-29 -37 -29 -96t39.5 -98.5t100.5 -39.5t101 28z" />
<glyph horiz-adv-x="845" d="M674 642h194v-67h-116v-575h-78v281h-196v-137h-70l-24 56q-27 60 -27 85t11.5 40t30.5 19v170q0 34 -10 49.5t-29.5 15.5t-33.5 -3v-1h-5q-13 -3 -24 -9v9h-69v-234q0 -63 -32 -97.5t-93 -34.5q-41 0 -73 13v69q30 -14 61 -14q60 0 60 67v231h-173v67h348v-1q22 5 41 5 q111 0 111 -119v-180h196v295z" />
<glyph horiz-adv-x="861" d="M882 642v-67h-115v-575h-78v280h-210v-136h-68l-25 56q-27 64 -27 87q0 45 42 56v232h-173v-234q0 -63 -32 -97.5t-93 -34.5q-41 0 -73 13v69q30 -14 61 -14q60 0 60 67v231h-173v67h904zM689 346v229h-210v-229h210z" />
<glyph horiz-adv-x="936" d="M958 642v-67h-115v-575h-78v194q-51 -69 -162 -69q-93 0 -159.5 63.5t-81.5 178.5q80 12 121.5 44t41.5 79.5t-31 84.5h-266v-234q0 -63 -32 -97.5t-93 -34.5q-41 0 -73 13v69q30 -14 61 -14q60 0 60 67v231h-173v67h980zM765 334v241h-187q25 -38 25 -93 q0 -118 -148 -164q12 -55 54 -90.5t106.5 -35.5t107 38.5t42.5 103.5z" />
<glyph horiz-adv-x="1033" d="M1054 642v-67h-116v-575h-79v396q-26 13 -54 13q-108 0 -108 -127v-72h-78v74q0 119 -87 119q-44 0 -72.5 -36.5t-28.5 -113t44 -132t129 -55.5q17 0 27 2v-65q-18 -3 -38 -3q-108 0 -174 74.5t-66 188.5q0 91 47 148.5t125 57.5q54 0 89 -24.5t45 -69.5q23 98 140 98 q33 0 60 -11v113h-631v-234q0 -63 -32 -97.5t-93 -34.5q-41 0 -73 13v69q30 -14 61 -14q60 0 60 67v231h-173v67h1076z" />
<glyph horiz-adv-x="880" d="M902 642v-67h-116v-575h-78v166q-52 -75 -160 -75q-80 0 -137.5 51.5t-57.5 136.5t55.5 139.5t142.5 54.5q37 0 63 -8v-69q-25 9 -59 9q-53 0 -88 -33.5t-35 -90t35.5 -91.5t88.5 -35q70 0 111 47t41 111v262h-480v-234q0 -63 -32 -97.5t-93 -34.5q-41 0 -73 13v69 q30 -14 61 -14q60 0 60 67v231h-173v67h924z" />
<glyph horiz-adv-x="962" d="M983 642v-67h-115v-575h-78v265h-168q-111 0 -170 9l184 -274h-95l-187 282v62h66q57 0 77.5 22.5t20.5 71.5v137h-290v-234q0 -63 -32 -97.5t-93 -34.5q-41 0 -73 13v69q30 -14 61 -14q60 0 60 67v231h-173v67h1005zM790 333v242h-194v-143q0 -63 -27 -99h221z" />
<glyph horiz-adv-x="914" d="M936 642v-67h-115v-575h-78v280h-210v-136h-68l-10 23q-76 -74 -191 -74q-87 0 -140.5 41.5t-53.5 111.5q0 52 31 83.5t86 42.5q-45 5 -78 33.5t-33 81t42 88.5h-140v67h958zM329 339h-59q-56 0 -88.5 -24.5t-32.5 -68t35.5 -65.5t85.5 -22q102 0 159 68q-16 41 -16 62 t11.5 35t30.5 19v232h-244q-56 -30 -56 -89q0 -79 126 -79h48v-68zM743 346v229h-210v-229h210z" />
<glyph horiz-adv-x="980" d="M1001 642v-67h-115v-575h-78v194q-51 -69 -156 -69t-170 68q-86 -100 -218 -100q-87 0 -140.5 41.5t-53.5 111.5q0 52 31 83.5t86 42.5q-45 5 -78 33.5t-33 81t42 88.5h-140v67h1023zM329 339h-59q-56 0 -88.5 -24.5t-32.5 -68t35.5 -65.5t85.5 -22q103 0 175 83 q-31 55 -40 125q80 12 121.5 44t41.5 79.5t-31 84.5h-326q-56 -30 -56 -89q0 -79 126 -79h48v-68zM808 334v241h-187q25 -38 25 -93q0 -118 -148 -164q12 -55 54 -90.5t106.5 -35.5t107 38.5t42.5 103.5z" />
<glyph horiz-adv-x="998" d="M1020 642v-67h-116v-575h-78v188q-24 -38 -70.5 -63t-107.5 -25q-122 -2 -170 80q-76 -81 -192 -81q-85 0 -139.5 43t-54.5 124.5t77 120.5h-141v67h342v-67q-109 0 -154.5 -34.5t-45.5 -83.5t34.5 -77t86 -28t95.5 24t71 60v14q0 86 77 125h-112v67h312v-67 q-109 0 -154.5 -34.5t-45.5 -85t32.5 -77t85.5 -26.5q81 0 127.5 49.5t46.5 113.5v248h-848v67h1042z" />
<glyph horiz-adv-x="1027" d="M1049 575h-153v-117q76 -43 76 -150.5t-79.5 -179t-200.5 -71.5q-82 0 -141.5 30t-80.5 85q-73 -73 -184 -73q-85 0 -139.5 43t-54.5 124.5t77 120.5h-141v67h342v-67q-109 0 -154.5 -34.5t-45.5 -83.5t34.5 -77t88.5 -28t101 28.5t71 67.5q10 39 39 63t70 29 q-36 6 -65.5 38.5t-29.5 89.5t45 95h-546v67h1071v-67zM823 575h-204q-62 -34 -62 -102q0 -42 29.5 -67t71.5 -25h30v-67h-38q-53 0 -81.5 -23.5t-28.5 -68t43 -72.5t109 -28q89 0 145 49.5t56 136.5q0 51 -28.5 80.5t-83.5 29.5q-27 0 -43 -7v65q17 7 41 7t44 -2v94z" />
<glyph horiz-adv-x="947" d="M969 642v-67h-115v-575h-78v280h-210v-136h-68l-17 38q-76 -83 -195 -83q-85 0 -139.5 43t-54.5 124.5t77 120.5h-141v67h342v-67q-109 0 -154.5 -34.5t-45.5 -83.5t34.5 -77t85.5 -28t94 23t71 58q-9 31 -9 48t11.5 31t30.5 19v232h-510v67h991zM776 346v229h-210v-229 h210z" />
<glyph horiz-adv-x="1008" d="M1030 642v-67h-115v-575h-78v194q-51 -69 -160.5 -69t-176.5 81q-32 -46 -88 -76.5t-133.5 -30.5t-132 43t-54.5 124.5t77 120.5h-141v67h342v-67q-109 0 -154.5 -34.5t-45.5 -83.5t34.5 -77t88 -28t99.5 27.5t73 67.5q-24 49 -31 108q80 12 121.5 44t41.5 79.5t-31 84.5 h-588v67h1052zM837 334v241h-187q25 -38 25 -93q0 -118 -148 -164q12 -55 54 -90.5t106.5 -35.5t107 38.5t42.5 103.5z" />
<glyph horiz-adv-x="1188" d="M1215 642v-67h-120v-575h-78v132q-49 -71 -142 -71t-153 54t-74 161q145 26 145 96q0 27 -26.5 40.5t-81 13.5t-129.5 -26q20 -40 20 -91q0 -109 -79.5 -180.5t-191 -71.5t-176 45t-64.5 123q0 53 31.5 87.5t81.5 39.5q-36 6 -65.5 38.5t-29.5 89.5t45 95h-150v67h1237z M292 314h-38q-53 0 -81.5 -23.5t-28.5 -68t43 -72.5t109 -28q89 0 145 49.5t56 136.5q0 51 -28.5 80.5t-83.5 29.5q-27 0 -43 -7v65q17 7 41 7t44 -2v94h-204q-62 -34 -62 -102q0 -42 29.5 -67t71.5 -25h30v-67zM1017 278v297h-517v-117q3 -1 9 -5q85 37 181 37t138.5 -33.5 t42.5 -83.5t-37 -87.5t-94 -55.5q11 -45 47 -72.5t95 -27.5t97 42.5t38 105.5z" />
<glyph horiz-adv-x="654" d="M676 575h-137v-116q76 -42 76 -141t-77 -168v-454h-77v167q-50 -80 -160 -80q-81 0 -138 47.5t-57 133.5t78 132q-54 22 -85 60t-31 86.5t33 80.5t80 38q-37 6 -66 36t-29 86t45 92h-153v67h698v-67zM461 7v94q-63 -29 -136 -29h-8q-60 0 -96 -29t-36 -82.5t34 -83.5 t97 -30t104 47.5t41 112.5zM466 575h-240q-62 -32 -62 -98q0 -42 29 -63t72 -21h30v-67h-38q-51 0 -80.5 -22.5t-29.5 -58.5q0 -50 49.5 -78.5t134.5 -28.5t145 48t60 124q0 50 -28.5 79t-83.5 29q-27 0 -43 -7v65q17 7 41 7t44 -2v94z" />
<glyph horiz-adv-x="1207" d="M1229 575h-368v-143q46 48 122.5 48t127.5 -50t51 -134t-57 -136t-142 -52q-11 0 -23 2v67q10 -2 20 -2q53 0 88 33t35 87.5t-31.5 87t-79 32.5t-79.5 -30.5t-32 -76.5v-308h-79v144q-44 -46 -121 -46t-128 49.5t-51 130.5q0 59 29 106h-234q72 -43 72 -141 q0 -81 -54.5 -130.5t-144.5 -49.5q-66 0 -120 22v72q54 -28 112 -28t93.5 31.5t35.5 93t-46.5 96t-128.5 34.5v67h449v-28q56 47 135 47q15 0 23 -3v-66q-5 1 -19 1q-54 0 -89 -33t-35 -87t32 -87t79.5 -33t79 31t31.5 77v305h-804v67h1251v-67z" />
<glyph horiz-adv-x="1050" d="M1072 642v-67h-116v-575h-78v384h-201q72 -43 72 -141q0 -81 -54.5 -130.5t-144.5 -49.5q-66 0 -120 22v72q54 -28 112 -28t93.5 31.5t35.5 93t-46.5 96t-128.5 34.5h-219q72 -43 72 -141q0 -81 -54.5 -130.5t-144.5 -49.5q-66 0 -120 22v72q54 -28 112 -28t93.5 31.5 t35.5 93t-46.5 96t-128.5 34.5v67h782v124h-900v67h1094z" />
<glyph horiz-adv-x="1169" d="M1192 642v-67h-116v-575h-79v252h-163q29 -35 29 -93t-46.5 -101t-127.5 -43t-137 50v-113h-76v226h70q17 -42 58 -70t85.5 -28t70 23t25.5 62q0 78 -118 86q-87 5 -134 31t-47 90v12h-209q72 -43 72 -141q0 -81 -54.5 -130.5t-144.5 -49.5q-66 0 -120 22v72 q54 -28 112 -28t93.5 31.5t35.5 93t-46.5 96t-128.5 34.5v67h418q44 50 138 50h86v74h-760v67h1214zM997 316v259h-180v-141h-160q-92 0 -92 -60q0 -29 25 -40q27 -13 103 -18h304z" />
<glyph horiz-adv-x="907" d="M818 575v-186q-32 5 -70 5q-89 0 -143.5 -40.5t-54.5 -114t48.5 -112.5t128 -39t142.5 38v-72q-62 -32 -145 -32q-114 0 -184.5 57.5t-70.5 151t57 153.5h-249q72 -43 72 -141q0 -81 -54.5 -130.5t-144.5 -49.5q-66 0 -120 22v72q54 -28 112 -28t93.5 31.5t35.5 93 t-46.5 96t-128.5 34.5v67h554q37 7 59.5 7t30.5 -1v118h-762v67h951v-67h-111z" />
<glyph horiz-adv-x="931" d="M809 424h-174q-36 0 -60 -15t-24 -48.5t30 -49t105 -19.5q180 -5 180 -138q-1 -69 -55.5 -112t-154.5 -43t-183 44v77q89 -55 190 -55q57 0 90 23t33 62.5t-30 56.5t-100 20q-184 8 -184 132q0 9 2 25h-197q72 -43 72 -141q0 -81 -54.5 -130.5t-144.5 -49.5 q-66 0 -120 22v72q54 -28 112 -28t93.5 31.5t35.5 93t-46.5 96t-128.5 34.5v67h414q43 40 122 40h99v84h-753v67h975v-67h-144v-151z" />
<glyph horiz-adv-x="1010" d="M1032 642v-67h-116v-575h-78v384h-95q-177 0 -177 -156q0 -74 36.5 -117t107.5 -43q17 0 23 1v-67q-16 -2 -30 -2q-100 0 -158 64t-58 163t57 158h-267q72 -42 72 -139q0 -81 -54.5 -131t-144.5 -50q-67 0 -120 23v71q54 -28 112 -28t93.5 31.5t35.5 93t-46.5 95.5 t-128.5 34v67h742v123h-860v67h1054z" />
<glyph horiz-adv-x="978" d="M880 408h-176q-68 0 -107 -35t-39 -99t35 -101t94 -37t94.5 33t37.5 85h75v-264h-78v133q-41 -52 -134.5 -52t-150.5 58t-57 143q0 65 31 112h-220q72 -43 72 -141q0 -81 -54.5 -130.5t-144.5 -49.5q-66 0 -120 22v72q54 -28 112 -28t93.5 31.5t35.5 93t-46.5 96 t-128.5 34.5v67h449v-17q58 40 145 40h104v101h-816v67h1014v-67h-120v-167z" />
<glyph horiz-adv-x="1042" d="M1064 642v-67h-116v-575h-78v163q-27 -36 -74 -59t-105 -23q-87 0 -148.5 57.5t-61.5 148.5q0 53 22 97h-226q72 -43 72 -141q0 -81 -54.5 -130.5t-144.5 -49.5q-66 0 -120 22v72q54 -28 112 -28t93.5 31.5t35.5 93t-46.5 96t-128.5 34.5v67h449v-12q62 56 155 56 q40 0 83 -10v-69q-40 13 -82 13t-74 -17l209 -205q34 43 34 99v269h-892v67h1086zM586 379q-29 -37 -29 -96t39.5 -98.5t100.5 -39.5t101 28z" />
<glyph horiz-adv-x="999" d="M1020 642v-67h-115v-575h-78v280h-210v-136h-68l-25 56q-27 64 -27 87q0 45 42 56v41h-262q72 -43 72 -141q0 -81 -54.5 -130.5t-144.5 -49.5q-66 0 -120 22v72q54 -28 112 -28t93.5 31.5t35.5 93t-46.5 96t-128.5 34.5v67h443v124h-561v67h1042zM827 346v229h-210v-229 h210z" />
</font>
</defs>
</svg>
