<?xml version="1.0" standalone="no"?>
<!DOCTYPE svg PUBLIC "-//W3C//DTD SVG 1.1//EN" "http://www.w3.org/Graphics/SVG/1.1/DTD/svg11.dtd" >
<svg xmlns="http://www.w3.org/2000/svg" xmlns:xlink="http://www.w3.org/1999/xlink" version="1.1">
<metadata></metadata>
<defs>
<font id="hindsemibold" horiz-adv-x="275" >
<font-face units-per-em="1000" ascent="800" descent="-200" />
<missing-glyph horiz-adv-x="248" />
<glyph horiz-adv-x="0" />
<glyph horiz-adv-x="0" />
<glyph unicode="&#xd;" horiz-adv-x="333" />
<glyph unicode=" "  horiz-adv-x="248" />
<glyph unicode="&#x09;" horiz-adv-x="248" />
<glyph unicode="&#xa0;" horiz-adv-x="248" />
<glyph unicode="!" d="M79.5 14.5q-22.5 22.5 -22.5 56t22.5 56.5t56 23t56.5 -23t23 -56.5t-23 -56t-56.5 -22.5t-56 22.5zM80 224v450h115v-450h-115z" />
<glyph unicode="&#x22;" horiz-adv-x="352" d="M208 429v252h103v-252h-103zM42 429v252h102v-252h-102z" />
<glyph unicode="#" horiz-adv-x="739" d="M691 415h-125l-35 -162h119v-93h-138l-34 -160h-104l34 160h-153l-34 -160h-103l34 160h-104v93h123l35 162h-116v96h136l34 162h104l-34 -162h153l34 162h103l-34 -162h105v-96zM428 253l34 162h-153l-34 -162h153z" />
<glyph unicode="$" horiz-adv-x="510" d="M277 569q-47 0 -73.5 -21t-26.5 -54q0 -36 37 -60q29 -20 74.5 -40.5t70.5 -34.5t53 -37q57 -47 57 -129t-49.5 -133.5t-133.5 -63.5v-111h-101v110q-83 8 -139 40v129q86 -62 188 -62q46 0 74 22.5t28 60.5q0 32 -26 53q-27 22 -49 31.5t-42 18.5q-92 38 -135 83 t-43 120.5t52 125.5t141 60v110h102v-112q58 -8 101 -29v-122q-75 45 -160 45z" />
<glyph unicode="%" horiz-adv-x="925" d="M645 226.5q-23 -23.5 -23 -56t23 -56t55.5 -23.5t56 23.5t23.5 56t-23.5 56t-56 23.5t-55.5 -23.5zM168.5 581.5q-23.5 -23.5 -23.5 -56t23.5 -56t56 -23.5t56 23.5t23.5 56t-23.5 56t-56 23.5t-56 -23.5zM47 525q0 74 52 126t126 52t126 -52t52 -125.5t-52.5 -126 t-126 -52.5t-125.5 52t-52 126zM523 170q0 74 52 126t125.5 52t126 -52t52.5 -126t-52.5 -126t-126 -52t-125.5 52t-52 126zM219 -1l371 692h111l-372 -692h-110z" />
<glyph unicode="&#x26;" horiz-adv-x="727" d="M522 47q-82 -55 -200.5 -55t-192 54t-73.5 135q0 61 36 103t114 68q-79 85 -79 163.5t57.5 126t150.5 47.5t150 -49.5t57 -132.5q0 -59 -34.5 -104.5t-114.5 -83.5l125 -122q21 38 23 91h110q-3 -94 -53 -167q93 -91 126 -121h-152q-13 12 -50 47zM396.5 564.5 q-23.5 23.5 -62 23.5t-61.5 -20t-23 -57q0 -47 76 -125q94 48 94 115q0 40 -23.5 63.5zM201.5 241.5q-22.5 -23.5 -22.5 -60.5t42 -62t106.5 -25t116.5 28l-167 161q-53 -18 -75.5 -41.5z" />
<glyph unicode="'" horiz-adv-x="186" d="M42 429v252h102v-252h-102z" />
<glyph unicode="(" horiz-adv-x="328" d="M214 -196q-162 203 -162 457.5t156 445.5h127q-75 -95 -115.5 -217t-40.5 -232.5t42 -232t123 -221.5h-130z" />
<glyph unicode=")" horiz-adv-x="328" d="M120 707q156 -193 156 -446t-163 -457h-129q80 100 122 221.5t42 232t-40 232.5t-115 217h127z" />
<glyph unicode="*" horiz-adv-x="470" d="M305 451h-4q20 -13 35 -34l57 -79l-79 -57l-57 78q-15 23 -21 42q-6 -19 -22 -41l-58 -79l-79 57l58 79q16 20 34 33h-3q-22 0 -45 8l-93 30l31 93l92 -30q24 -8 43 -22q-8 21 -8 48v97h98v-97q0 -27 -8 -48q16 13 43 22l93 30l30 -93l-92 -30q-24 -7 -45 -7z" />
<glyph unicode="+" horiz-adv-x="576" d="M526 393v-108h-184v-183h-111v183h-181v108h181v185h111v-185h184z" />
<glyph unicode="," horiz-adv-x="268" d="M-7 -126l98 247h139l-133 -247h-104z" />
<glyph unicode="-" horiz-adv-x="353" d="M50 214v101h254v-101h-254z" />
<glyph unicode="." horiz-adv-x="223" d="M34 70q0 32 23 54.5t55 22.5t54.5 -22.5t22.5 -54.5t-22.5 -55t-54.5 -23t-55 23t-23 55z" />
<glyph unicode="/" horiz-adv-x="441" d="M-5 -103l361 810h125l-362 -810h-124z" />
<glyph unicode="0" horiz-adv-x="546" d="M161 330q0 -110 29.5 -169.5t82.5 -59.5t82.5 59t29.5 170t-30.5 169t-82 58t-81.5 -58.5t-30 -168.5zM99 84q-61 92 -61 246.5t61 245t173.5 90.5t174 -90.5t61.5 -245t-60.5 -246.5t-174 -92t-174.5 92z" />
<glyph unicode="1" horiz-adv-x="358" d="M292 654v-654h-119v524l-160 -97v125l173 102h106z" />
<glyph unicode="2" horiz-adv-x="498" d="M460 103v-103h-427v96q117 83 202 177.5t85 170.5q0 50 -29 78t-84 28q-83 0 -159 -62v117q33 25 82 41t98 16q96 0 156.5 -52.5t60.5 -147.5q0 -178 -246 -359h261z" />
<glyph unicode="3" horiz-adv-x="476" d="M200 662q103 0 161.5 -50t58.5 -128q0 -113 -103 -154q56 -14 87 -52.5t31 -97.5q0 -82 -60.5 -133.5t-165.5 -51.5t-176 33v117q78 -42 164 -42q54 0 84.5 25.5t30.5 65.5q0 87 -141 87h-38v101h38q53 0 89 23t36 65q0 84 -103 84q-68 0 -136 -42v113q68 37 143 37z" />
<glyph unicode="4" horiz-adv-x="554" d="M532 250v-103h-86v-147h-120v147h-291v103l218 405h193v-405h86zM326 250v329l-172 -329h172z" />
<glyph unicode="5" horiz-adv-x="504" d="M192 552v-144q29 6 56 6q105 0 162.5 -54t57.5 -150.5t-66 -156.5t-177 -60t-181 35v115q66 -40 153 -40q147 0 147 113q0 44 -31.5 69t-98.5 25t-140 -34v379h352v-103h-234z" />
<glyph unicode="6" horiz-adv-x="533" d="M364 560q-80 0 -130 -54t-64 -139q60 55 144.5 55t137 -57t52.5 -154.5t-60 -162t-170 -64.5t-171 85.5t-61 228.5q0 166 87 268.5t227 102.5q54 0 98 -16v-113q-39 20 -90 20zM202.5 133.5q31.5 -41.5 78 -41.5t73 32.5t26.5 84t-26 80.5t-71 29q-65 0 -118 -55 q6 -88 37.5 -129.5z" />
<glyph unicode="7" horiz-adv-x="469" d="M17 655h435v-104l-260 -551h-128l261 551h-308v104z" />
<glyph unicode="8" horiz-adv-x="541" d="M500 178q0 -84 -65 -135.5t-167 -51.5t-164.5 49t-62.5 133q0 110 103 155q-93 47 -93 141t62.5 144.5t156.5 50.5t156 -48t62 -143t-90 -142q102 -40 102 -153zM344 540.5q-23 25.5 -72.5 25.5t-74 -26.5t-24.5 -68t28 -65.5t69.5 -24t69 24t27.5 66.5t-23 68z M189 114.5q27 -25.5 80.5 -25.5t81.5 27t28 66t-28.5 66t-81.5 26.5t-80 -29t-27 -67t27 -64z" />
<glyph unicode="9" horiz-adv-x="522" d="M172 102q164 0 188 178q-45 -50 -133.5 -50t-144.5 57.5t-56 153t59 159t167 63.5t170 -83.5t62 -221.5q0 -179 -79.5 -272.5t-221.5 -93.5q-65 0 -117 19v115q52 -24 106 -24zM253 330q69 0 111 53q-4 84 -33.5 127.5t-77.5 43.5t-75.5 -30t-27.5 -81.5t28 -82t75 -30.5 z" />
<glyph unicode=":" horiz-adv-x="267" d="M57 76q0 32 22 54.5t54 22.5t54.5 -22.5t22.5 -54.5t-22.5 -54t-54.5 -22t-54 22t-22 54zM57 404q0 32 22 54.5t54 22.5t54.5 -22.5t22.5 -54.5t-22.5 -54.5t-54.5 -22.5t-54 22.5t-22 54.5z" />
<glyph unicode=";" horiz-adv-x="268" d="M-7 -126l98 247h139l-133 -247h-104zM72 404q0 32 22 54.5t54 22.5t55 -22.5t23 -54.5t-23 -54.5t-55 -22.5t-54 22.5t-22 54.5z" />
<glyph unicode="&#x3c;" horiz-adv-x="565" d="M50 283v115l469 182v-121q-320 -105 -348 -118q26 -12 348 -120v-120z" />
<glyph unicode="=" horiz-adv-x="576" d="M50 181v101h476v-101h-476zM50 399v100h476v-100h-476z" />
<glyph unicode="&#x3e;" horiz-adv-x="565" d="M516 398v-115l-469 -182v120q318 106 347 120q-22 11 -347 118v121z" />
<glyph unicode="?" horiz-adv-x="456" d="M131.5 14.5q-22.5 22.5 -22.5 56t22.5 56.5t56 23t56.5 -23t23 -56.5t-23 -56t-56.5 -22.5t-56 22.5zM58 649q63 33 156 33t151 -49t58 -134q0 -45 -18 -81t-45 -57q-54 -41 -113 -45l-2 -92h-111l-3 157q169 0 169 106q0 42 -26 67t-86.5 25t-129.5 -45v115z" />
<glyph unicode="@" horiz-adv-x="950" d="M448 -198q-186 0 -293 114t-107 283q0 125 62.5 229t168 162.5t230.5 58.5q166 0 283.5 -103.5t117.5 -273.5q0 -117 -57.5 -190.5t-135.5 -73.5q-108 0 -139 101q-46 -101 -151 -101q-78 0 -123.5 57.5t-45.5 150t59 155t140.5 62.5t120.5 -69q2 22 4 66h98 q-16 -149 -16 -222q0 -106 57 -106q38 0 63 44t25 118q0 140 -85.5 213t-227 73t-241 -104.5t-99.5 -246t84.5 -220t207.5 -78.5q102 0 192 45l-4 -105q-81 -39 -188 -39zM569 199q0 29 2 43q-7 50 -32 76t-67.5 26t-74 -38.5t-31.5 -94.5t26.5 -85t64 -29t69 26.5 t43.5 75.5z" />
<glyph unicode="A" horiz-adv-x="674" d="M511 0l-48 153h-255l-48 -153h-132l228 674h163l228 -674h-136zM241 256h190q-83 273 -95 324q-8 -43 -95 -324z" />
<glyph unicode="B" horiz-adv-x="592" d="M70 674h239q108 0 168 -51t60 -132q0 -55 -30 -95.5t-77 -53.5q54 -13 89 -52.5t35 -113.5t-56 -125t-155 -51h-273v674zM196 571v-181h76q68 0 102 27t34 67.5t-28.5 63.5t-86.5 23h-97zM196 103h108q121 0 121 92q0 94 -126 94h-103v-186z" />
<glyph unicode="C" horiz-adv-x="609" d="M393 567q-92 0 -153.5 -62.5t-61.5 -167.5t61.5 -167t158.5 -62t164 50v-126q-62 -40 -174 -40q-150 0 -247.5 94.5t-97.5 249t96.5 251t248.5 96.5q111 0 173 -37v-123q-76 44 -168 44z" />
<glyph unicode="D" horiz-adv-x="675" d="M70 674h220q151 0 247 -93t96 -241.5t-93 -244t-250 -95.5h-220v674zM199 105h89q106 0 161 65.5t55 169t-58.5 166t-159.5 62.5h-87v-463z" />
<glyph unicode="E" horiz-adv-x="528" d="M197 103h275v-103h-402v674h398v-103h-271v-183h241v-102h-241v-183z" />
<glyph unicode="F" horiz-adv-x="499" d="M465 571h-268v-199h234v-103h-234v-269h-127v674h395v-103z" />
<glyph unicode="G" horiz-adv-x="693" d="M630 393v-324h-1l1 -11q-92 -66 -230 -66q-160 0 -258.5 93t-98.5 251t101.5 254t256.5 96q115 0 197 -43v-129q-92 55 -194 55t-164 -63t-62 -169t60.5 -167.5t166.5 -61.5q52 0 101 18v159h-124v108h248z" />
<glyph unicode="H" horiz-adv-x="670" d="M473 674h127v-674h-127v283h-277v-283h-126v674h126v-282h277v282z" />
<glyph unicode="I" horiz-adv-x="282" d="M78 0v674h126v-674h-126z" />
<glyph unicode="J" horiz-adv-x="379" d="M110 110q77 0 77 82v481h126v-481q0 -95 -48 -144t-132 -49q-63 0 -103 21v114q38 -24 80 -24z" />
<glyph unicode="K" horiz-adv-x="628" d="M356 336l251 -336h-159l-242 334l233 340h151zM70 0v674h126v-674h-126z" />
<glyph unicode="L" horiz-adv-x="484" d="M196 112h263v-112h-389v674h126v-562z" />
<glyph unicode="M" horiz-adv-x="880" d="M58 0l54 674h144q123 -328 140.5 -379t35.5 -112q31 104 86 246l94 245h144l66 -674h-126l-24 263l-18 236q-27 -76 -180 -489h-86l-92 253l-79 233q0 -62 -33 -496h-126z" />
<glyph unicode="N" horiz-adv-x="688" d="M70 0v674h143q204 -355 234.5 -412t52.5 -107q-8 83 -8 238v281h127v-674h-144l-164 280q-78 132 -126 242q11 -95 11 -241v-281h-126z" />
<glyph unicode="O" horiz-adv-x="723" d="M227 508q-49 -62 -49 -168.5t50 -168.5t134.5 -62t133.5 61.5t49 168.5t-49 169t-134.5 62t-134.5 -62zM130 88q-87 95 -87 251.5t86.5 251.5t232.5 95t232 -94.5t86 -251.5t-86.5 -252t-231.5 -95t-232 95z" />
<glyph unicode="P" horiz-adv-x="556" d="M70 674h211q114 0 182.5 -62t68.5 -162t-70.5 -160.5t-177.5 -60.5h-88v-229h-126v674zM196 331h89q56 4 87.5 38t31.5 83t-33 83.5t-90 35.5h-85v-240z" />
<glyph unicode="Q" horiz-adv-x="729" d="M362 -7q-145 0 -232 95t-87 251.5t86.5 251.5t232.5 95t232 -94.5t86 -252.5q0 -110 -44 -191t-124 -121l205 -119l-142 -55l-198 140h-15zM227 508q-49 -62 -49 -168.5t50 -168.5t134.5 -62t133.5 61.5t49 168.5t-49 169t-134.5 62t-134.5 -62z" />
<glyph unicode="R" horiz-adv-x="589" d="M196 246v-246h-126v674h208q115 0 180.5 -58t65.5 -155q-1 -72 -35 -121.5t-93 -73.5l173 -266h-151l-153 246h-69zM196 570v-220h84q58 0 87 29.5t29 82t-30.5 80.5t-87.5 28h-82z" />
<glyph unicode="S" horiz-adv-x="518" d="M285 569q-47 0 -73.5 -21t-26.5 -54t28.5 -54.5t77 -43.5t73.5 -35.5t54 -37.5q59 -48 59 -136t-64.5 -141.5t-174 -53.5t-184.5 43v129q86 -62 188 -62q46 0 74 22.5t28 60.5q0 18 -7 32t-29 28q-42 28 -95 49q-37 17 -60 30.5t-50 36.5q-54 46 -54 130t63.5 136 t163.5 52t169 -33v-122q-75 45 -160 45z" />
<glyph unicode="T" horiz-adv-x="520" d="M495 674v-104h-171v-570h-127v570h-171v104h469z" />
<glyph unicode="U" horiz-adv-x="659" d="M467 258v416h126v-415q0 -131 -70.5 -199.5t-192 -68.5t-193 67.5t-71.5 193.5v422h126v-421q0 -77 38 -111.5t99 -34.5q138 0 138 151z" />
<glyph unicode="V" horiz-adv-x="651" d="M625 674l-230 -674h-144l-226 674h137q134 -433 163 -560q24 112 81 292l84 268h135z" />
<glyph unicode="W" horiz-adv-x="958" d="M431 664h102l69 -239l80 -290q25 139 62 291l61 248h128l-172 -674h-146q-112 391 -132 473q-14 -72 -133 -473h-145l-180 674h133q86 -341 127 -537q33 129 146 527z" />
<glyph unicode="X" horiz-adv-x="644" d="M318 453l125 221h153l-204 -333l221 -341h-150l-143 233q-15 -29 -71.5 -122.5t-65.5 -110.5h-151l214 341l-204 333h147z" />
<glyph unicode="Y" horiz-adv-x="624" d="M374 0h-126v246l-230 428h147q121 -262 145 -327q9 37 103 229l46 98h147l-232 -424v-250z" />
<glyph unicode="Z" horiz-adv-x="601" d="M531 674v-93l-323 -478h336v-103h-487v96l322 475h-317v103h469z" />
<glyph unicode="[" horiz-adv-x="343" d="M332 602h-147v-687h147v-106h-262v898h262v-105z" />
<glyph unicode="\" horiz-adv-x="441" d="M85 707l361 -810h-125l-362 810h126z" />
<glyph unicode="]" horiz-adv-x="343" d="M273 707v-898h-262v106h147v687h-147v105h262z" />
<glyph unicode="^" horiz-adv-x="480" d="M442 332h-114l-88 169l-89 -169h-113l147 262h111z" />
<glyph unicode="_" horiz-adv-x="552" d="M23 -141v101h506v-101h-506z" />
<glyph unicode="`" horiz-adv-x="470" d="M253 798l91 -169h-101l-116 169h126z" />
<glyph unicode="a" horiz-adv-x="507" d="M242 516q206 0 206 -192v-324h-119v61q-35 -65 -132 -65q-72 0 -114.5 42t-42.5 110t54 109t156 41h74v31q0 42 -22 64t-75 22q-81 0 -149 -45v111q57 35 164 35zM324 218h-62q-47 0 -72 -19.5t-25 -49.5q0 -64 74 -64q40 0 62.5 23.5t22.5 61.5v48z" />
<glyph unicode="b" horiz-adv-x="595" d="M187 707v-277q53 84 150 84t158.5 -70.5t61.5 -184.5t-58.5 -190t-158.5 -76t-153 85v-78h-121v707h121zM223 137.5q36 -41.5 89 -41.5t88 43t35 115.5t-35.5 115t-86 42.5t-88.5 -38.5t-38 -116.5t36 -119.5z" />
<glyph unicode="c" horiz-adv-x="470" d="M204.5 136q41.5 -44 108 -44t119.5 34v-104q-53 -31 -132 -31q-117 0 -189.5 74t-72 186t72 188t195.5 76q74 0 126 -28v-106q-50 32 -117 32t-110 -44t-44 -117q2 -72 43.5 -116z" />
<glyph unicode="d" horiz-adv-x="594" d="M409 707h120v-707h-120v79q-52 -86 -153 -86t-159.5 76t-58.5 190t61.5 184.5t159 70.5t150.5 -85v278zM196 139q35 -43 88 -43t89 41.5t36 119.5t-38 116.5t-88.5 38.5t-86 -42.5t-35.5 -115t35 -115.5z" />
<glyph unicode="e" horiz-adv-x="529" d="M299 -5q-121 0 -191 72t-70 189.5t66 186.5t165 69t157 -60t58 -175q0 -28 -7 -72h-318q13 -55 54.5 -84t112.5 -29t126 40v-104q-53 -33 -153 -33zM370 295v15q-2 49 -26.5 78.5t-69.5 29.5t-76.5 -31.5t-40.5 -91.5h213z" />
<glyph unicode="f" horiz-adv-x="340" d="M297 618q-73 0 -73 -82v-29h101v-90h-101v-417h-120v417h-74v90h74v30q0 85 47 133t130 48q38 0 66 -9v-101q-26 10 -50 10z" />
<glyph unicode="g" horiz-adv-x="571" d="M392 507h120v-461q0 -120 -69.5 -180.5t-173 -60.5t-178.5 36v122q68 -48 163 -48q138 0 138 132v44q-46 -75 -137.5 -75t-152 62.5t-60.5 177t57.5 186t152 71.5t140.5 -79v73zM198 151.5q31 -37.5 79.5 -37.5t81.5 38.5t33 110t-32 109.5t-82.5 38t-80.5 -40.5 t-30 -110.5t31 -107.5z" />
<glyph unicode="h" horiz-adv-x="565" d="M185 707v-286q41 92 155 92q74 0 119.5 -46.5t45.5 -134.5v-332h-120v311q0 48 -24.5 75t-65.5 27t-75.5 -33t-34.5 -108v-272h-120v707h120z" />
<glyph unicode="i" horiz-adv-x="260" d="M79 607q-21 21 -21 51.5t21 51.5t51 21t51 -21t21 -51.5t-21 -51.5t-51 -21t-51 21zM70 0v507h120v-507h-120z" />
<glyph unicode="j" horiz-adv-x="257" d="M80 607q-21 21 -21 51.5t21 51.5t51.5 21t51.5 -21t21 -51.5t-21 -51.5t-51.5 -21t-51.5 21zM19 -101q53 0 53 69v539h120v-541q0 -75 -41 -119t-117 -44q-36 0 -76 16v95q35 -15 61 -15z" />
<glyph unicode="k" horiz-adv-x="522" d="M185 0h-120v695h120v-426l179 238h140l-186 -242l190 -265h-141l-182 262v-262z" />
<glyph unicode="l" horiz-adv-x="260" d="M70 0v707h120v-707h-120z" />
<glyph unicode="m" horiz-adv-x="843" d="M185 507v-80q43 86 148.5 86t138.5 -96q20 46 60 71t91 25q77 0 119 -46.5t42 -132.5v-334h-121v311q0 102 -78 102q-39 0 -69.5 -34t-30.5 -107v-272h-121v311q0 102 -78 102q-39 0 -70 -34t-31 -107v-272h-120v507h120z" />
<glyph unicode="n" horiz-adv-x="565" d="M185 507v-87q43 93 156 93q76 0 120 -46t44 -130v-337h-120v312q0 50 -24 75.5t-68 25.5t-76 -36.5t-32 -104.5v-272h-120v507h120z" />
<glyph unicode="o" horiz-adv-x="565" d="M373 370.5q-29 46.5 -88.5 46.5t-90 -47t-30.5 -117.5t31 -117.5t89 -47t88 46t30 118t-29 118.5zM462.5 66q-64.5 -74 -180 -74t-180 72t-64.5 186t67 189.5t180.5 75.5t177.5 -73.5t64 -187.5t-64.5 -188z" />
<glyph unicode="p" horiz-adv-x="594" d="M185 507v-78q54 85 154 85t158.5 -71t58.5 -186t-58.5 -189.5t-159.5 -74.5t-153 83v-267h-120v698h120zM222 138q37 -42 90 -42t87 41.5t34 116.5t-34 116.5t-86 41.5t-90 -39t-38 -116t37 -119z" />
<glyph unicode="q" horiz-adv-x="594" d="M409 507h120v-698h-120v269q-52 -85 -152.5 -85t-159.5 74.5t-59 189.5t59.5 186t158.5 71t153 -85v78zM196.5 138.5q35.5 -42.5 87.5 -42.5t88.5 42t36.5 119t-37.5 116t-89 39t-86.5 -42.5t-35 -115.5t35.5 -115.5z" />
<glyph unicode="r" horiz-adv-x="353" d="M185 507v-90q35 94 128 94q21 0 34 -3v-116q-23 10 -51 10q-49 0 -80 -40t-31 -100v-262h-121l1 507h120z" />
<glyph unicode="s" horiz-adv-x="427" d="M243 415q-31 0 -48.5 -13.5t-17.5 -34.5q0 -17 9 -26t15 -14t17 -11q27 -13 41 -19q69 -29 103 -64.5t34 -86.5q0 -71 -51 -111t-140.5 -40t-147.5 31v110q67 -45 145 -45q33 0 51.5 12.5t18.5 30t-6 28t-23 20.5q-22 13 -44.5 22.5t-24 10.5t-4.5 2t-5 2 q-111 50 -111 144q0 70 53 110t131.5 40t129.5 -22v-106q-50 30 -125 30z" />
<glyph unicode="t" horiz-adv-x="379" d="M211 417v-258q0 -32 17 -48.5t51 -16.5t66 21v-103q-35 -17 -90 -17q-164 0 -164 166v256h-76v90h76v122h120v-122h126v-90h-126z" />
<glyph unicode="u" horiz-adv-x="565" d="M379 507h121v-507h-121v83q-40 -88 -156 -88q-77 0 -120 44t-43 125v343h120v-315q0 -48 23.5 -73t70 -25t76 35t29.5 106v272z" />
<glyph unicode="v" horiz-adv-x="524" d="M196 0l-183 507h126q111 -356 122 -413q10 56 57 198l70 215h124l-186 -507h-130z" />
<glyph unicode="w" horiz-adv-x="801" d="M173 0l-160 507h125q86 -313 100 -392q10 61 58 225l49 167h109q94 -320 107 -393q10 59 59 226l48 167h120l-161 -507h-130q-82 303 -97 379q-15 -77 -97 -379h-130z" />
<glyph unicode="x" horiz-adv-x="508" d="M318 255l170 -255h-133l-100 170l-104 -170h-132l177 256l-166 251h135l95 -165l100 165h134z" />
<glyph unicode="y" horiz-adv-x="517" d="M93 -189q-29 0 -50 5v99q16 -4 34 -4q91 0 129 99l-200 497h133q114 -314 126 -359q3 11 117 359h126l-183 -493q-76 -203 -232 -203z" />
<glyph unicode="z" horiz-adv-x="469" d="M415 507v-84l-236 -326h249v-97h-386v89l235 322h-226v96h364z" />
<glyph unicode="{" horiz-adv-x="363" d="M342 591q-15 9 -35.5 9t-36 -18t-15.5 -40t7.5 -66t7.5 -70q0 -59 -33 -99.5t-85 -48.5q52 -8 85 -49.5t33 -100.5q0 -26 -7.5 -69.5t-7.5 -66t15 -40t36 -17.5t36 9v-113q-31 -11 -59 -11q-64 0 -106 47.5t-42 121.5q0 24 8 65t8 60q0 41 -22.5 71t-63.5 34h-22v117 q11 0 22 1q40 2 63 32.5t23 71.5q0 18 -8 59.5t-8 65.5q0 74 42 121t106 47q30 0 59 -10v-113z" />
<glyph unicode="|" horiz-adv-x="260" d="M73 -194v889h114v-889h-114z" />
<glyph unicode="}" horiz-adv-x="363" d="M79 714q64 0 106 -47t42 -121q0 -24 -7.5 -65.5t-7.5 -59.5q0 -41 22.5 -71.5t63.5 -32.5q10 -1 22 -1v-117h-22q-41 -4 -63.5 -34t-22.5 -71q0 -19 7.5 -60t7.5 -65q0 -74 -42 -121.5t-106 -47.5q-27 0 -58 11v113q15 -9 35.5 -9t36 17.5t15.5 40t-7.5 66t-7.5 69.5 q0 59 33 100.5t85 49.5q-52 8 -85 48.5t-33 99.5q0 26 7.5 70t7.5 66t-15.5 40t-36 18t-35.5 -9v113q29 10 58 10z" />
<glyph unicode="~" horiz-adv-x="633" d="M440 191q-54 0 -120.5 29t-97.5 29q-60 0 -108 -62l-83 67q31 44 74.5 74t98 30t121 -29t95.5 -29t51.5 15t45.5 44l84 -66q-67 -102 -161 -102z" />
<glyph unicode="&#xa1;" d="M80 -165v450h115v-450h-115zM79.5 382q-22.5 23 -22.5 56.5t22.5 56t56 22.5t56.5 -22.5t23 -56t-23 -56.5t-56.5 -23t-56 23z" />
<glyph unicode="&#xa2;" horiz-adv-x="468" d="M428 382q-50 30 -114.5 30t-109 -43.5t-45.5 -116.5q2 -72 44.5 -115.5t107 -43.5t117.5 31v-104q-36 -18 -79 -24v-107h-101v107q-96 16 -154 86.5t-57.5 168.5t56.5 169t155 89v109h101v-107q41 -6 79 -25v-104z" />
<glyph unicode="&#xa3;" horiz-adv-x="533" d="M498 103v-103h-447v100q47 24 65 59t18 91q0 18 -1 27h-81v89h70q-5 38 -5 65q0 109 57 169t166 60q74 0 126 -30v-115q-48 31 -103 31q-115 0 -115 -117q0 -19 4 -63h172v-89h-162q1 -9 1 -27q0 -104 -68 -147h303z" />
<glyph unicode="&#xa4;" horiz-adv-x="561" d="M193 399q-35 -36 -35 -87.5t35 -87.5t88 -36t87.5 36t34.5 87.5t-34.5 87.5t-87.5 36t-88 -36zM89 193q-32 53 -32 118t32 116l-59 59l72 69l59 -58q53 33 119 33t120 -31l58 56l72 -69l-58 -58q32 -51 32 -116t-34 -118l60 -58l-72 -70l-60 58q-53 -31 -118.5 -31 t-118.5 31l-59 -58l-72 70z" />
<glyph unicode="&#xa5;" horiz-adv-x="616" d="M546 361v-78h-159l-18 -31v-42h177v-78h-177v-132h-126v132h-175v78h175v42l-17 31h-158v78h114l-164 294h147l140 -275l146 275h146l-166 -294h115z" />
<glyph unicode="&#xa6;" horiz-adv-x="260" d="M187 -140h-114v335h114v-335zM187 368h-114v335h114v-335z" />
<glyph unicode="&#xa7;" horiz-adv-x="566" d="M296 570q-48 0 -73 -17.5t-25 -48.5q0 -28 27 -47q22 -15 65.5 -35.5t78 -38t63 -38t50 -58.5t21.5 -96.5t-41 -106.5q34 -42 34 -97q0 -85 -63 -132.5t-173.5 -47.5t-183.5 43v129q84 -62 187 -62t103 69q0 32 -29.5 53.5t-134.5 67.5q-70 31 -108.5 75.5t-38.5 111 t44 117.5q-33 40 -33 91q0 83 61.5 130.5t159.5 47.5t168 -33v-122q-73 45 -159 45zM194 345q-17 -24 -17 -55t29 -54t91 -50t71 -32q14 21 14 40.5t-3 30t-11.5 20t-15 16t-23 16t-25 14t-33 16.5t-33.5 17q-24 12 -44 21z" />
<glyph unicode="&#xa8;" horiz-adv-x="470" d="M305.5 665q-20.5 20 -20.5 49.5t20.5 49.5t51 20t50.5 -20t20 -49.5t-20 -49.5t-50.5 -20t-51 20zM63 665q-20 20 -20 49.5t20 49.5t50.5 20t50.5 -20t20 -49.5t-20 -49.5t-50.5 -20t-50.5 20z" />
<glyph unicode="&#xa9;" horiz-adv-x="767" d="M345.5 268q25.5 -26 67 -26t77.5 25v-84q-36 -21 -91 -21q-76 0 -126.5 49t-50 125.5t49 126.5t131.5 50q48 0 87 -21v-83q-34 22 -75.5 22t-68.5 -25.5t-28 -69.5q2 -42 27.5 -68zM198.5 522q-74.5 -75 -74.5 -186t74.5 -185.5t185 -74.5t185.5 75t75 185.5t-75 185.5 t-185.5 75t-185 -75zM139.5 93.5q-101.5 101.5 -101.5 244t102 244t244 101.5t243.5 -102t101.5 -244t-101.5 -243.5t-244 -101.5t-244 101.5z" />
<glyph unicode="&#xaa;" horiz-adv-x="381" d="M39 798q52 29 140 29t130 -39.5t42 -121.5v-274h-99v53q-34 -56 -112 -56q-62 0 -97.5 34.5t-35.5 92.5t46 93t132 35h63v25q0 36 -19 54.5t-64 18.5q-70 0 -126 -37v93zM248 576h-50q-41 0 -63 -16t-22 -43q0 -53 63 -53q32 0 52 19.5t20 49.5v43z" />
<glyph unicode="&#xab;" horiz-adv-x="549" d="M512 415l-146 -162l146 -162h-127l-152 162l152 162h127zM305 415l-146 -162l146 -162h-127l-152 162l152 162h127z" />
<glyph unicode="&#xac;" horiz-adv-x="583" d="M541 145h-103v172h-400v99h503v-271z" />
<glyph unicode="&#xad;" horiz-adv-x="353" d="M50 214v101h254v-101h-254z" />
<glyph unicode="&#xae;" horiz-adv-x="476" d="M238 787q99 0 163.5 -64.5t64.5 -163.5t-64.5 -162.5t-163.5 -63.5t-163.5 63.5t-64.5 163t64.5 163.5t163.5 64zM239 387q78 0 124.5 47.5t46.5 125t-46.5 125.5t-124.5 48t-125 -48t-47 -125.5t47 -125t125 -47.5zM168 681h67q87 0 87 -72q0 -46 -37 -64l58 -92h-61 l-49 83h-15v-83h-50v228zM218 639v-62h24q28 0 28 32q0 30 -32 30h-20z" />
<glyph unicode="&#xaf;" horiz-adv-x="470" d="M399 667h-328v83h328v-83z" />
<glyph unicode="&#xb0;" horiz-adv-x="408" d="M117 509q0 -36 25.5 -62t61.5 -26t61 26t25 62t-25.5 61.5t-61.5 25.5t-61 -25.5t-25 -61.5zM30 508q0 73 50.5 123.5t124 50.5t123.5 -50t50 -123t-51 -123t-124 -50t-123 49.5t-50 122.5z" />
<glyph unicode="&#xb1;" horiz-adv-x="576" d="M342 429h184v-101h-184v-151h-111v151h-181v101h181v150h111v-150zM50 29v101h476v-101h-476z" />
<glyph unicode="&#xb2;" horiz-adv-x="365" d="M40 392v66q77 57 128.5 116.5t51.5 107.5q0 61 -67 61q-49 0 -102 -39v91q53 33 116 33t105 -36t42 -99q0 -116 -158 -224h173v-77h-289z" />
<glyph unicode="&#xb3;" horiz-adv-x="343" d="M107 647h18q35 0 57.5 13.5t22.5 38.5q0 49 -60 49q-49 0 -95 -33v86q46 27 108 27t101 -33.5t39 -79t-21.5 -71.5t-58.5 -34q38 -3 64 -30t26 -76t-40 -82.5t-112 -33.5t-121 26v81q56 -29 100 -29q80 0 80 52.5t-90 52.5h-18v76z" />
<glyph unicode="&#xb4;" horiz-adv-x="470" d="M127 629l91 169h126l-116 -169h-101z" />
<glyph unicode="&#xb5;" horiz-adv-x="570" d="M385 507h120v-507h-120v67q-34 -72 -115 -72q-46 0 -85 22v-197h-120v687h120v-315q0 -47 29 -72.5t72 -25.5q99 0 99 141v272z" />
<glyph unicode="&#xb6;" horiz-adv-x="574" d="M506 674v-822h-96l1 822h95zM310 674v-822h-96v474q-95 0 -146.5 50.5t-51.5 123t53 123.5t158 51h83z" />
<glyph unicode="&#xb7;" horiz-adv-x="254" d="M50 278q0 32 23 54.5t55 22.5t54.5 -22.5t22.5 -54.5t-22.5 -55t-54.5 -23t-55 23t-23 55z" />
<glyph unicode="&#xb8;" horiz-adv-x="470" d="M301 -51q18 -27 18 -79.5t-43 -91.5t-126 -40v78q79 3 79 67q0 29 -25 66h97z" />
<glyph unicode="&#xb9;" horiz-adv-x="268" d="M210 824v-432h-88v335l-112 -61v85l128 73h72z" />
<glyph unicode="&#xba;" horiz-adv-x="417" d="M207 747q-47 0 -72 -40t-25 -100t26 -99.5t73.5 -39.5t72 38.5t24.5 98.5q0 142 -99 142zM359 449q-54 -63 -151 -63t-150.5 61t-53.5 157.5t56 160.5t151 64t148.5 -62t53.5 -158.5t-54 -159.5z" />
<glyph unicode="&#xbb;" horiz-adv-x="550" d="M371 415l151 -162l-151 -162h-127l146 162l-146 162h127zM164 415l151 -162l-151 -162h-127l146 162l-146 162h127z" />
<glyph unicode="&#xbf;" horiz-adv-x="456" d="M371 439q0 -33 -22.5 -56t-56 -23t-56.5 23t-23 56t23 56t56.5 23t56 -23t22.5 -56zM423 -140q-66 -32 -158.5 -32t-149.5 48.5t-57 134.5q0 45 17.5 81t45.5 57q54 41 112 45l2 92h112l2 -157q-169 0 -169 -106q0 -42 26 -67.5t86 -25.5t131 46v-116z" />
<glyph unicode="&#xc0;" horiz-adv-x="674" d="M511 0l-48 153h-255l-48 -153h-132l228 674h163l228 -674h-136zM241 256h190q-83 273 -95 324q-8 -43 -95 -324zM386 723h-101l-116 169h126z" />
<glyph unicode="&#xc1;" horiz-adv-x="674" d="M511 0l-48 153h-255l-48 -153h-132l228 674h163l228 -674h-136zM241 256h190q-83 273 -95 324q-8 -43 -95 -324zM514 892l-116 -169h-101l91 169h126z" />
<glyph unicode="&#xc2;" horiz-adv-x="674" d="M511 0l-48 153h-255l-48 -153h-132l228 674h163l228 -674h-136zM241 256h190q-83 273 -95 324q-8 -43 -95 -324zM339 822l-81 -99h-117l145 169h106l145 -169h-117z" />
<glyph unicode="&#xc3;" horiz-adv-x="674" d="M511 0l-48 153h-255l-48 -153h-132l228 674h163l228 -674h-136zM241 256h190q-83 273 -95 324q-8 -43 -95 -324zM404 747q-30 0 -69 19t-58.5 19t-34.5 -9.5t-33 -34.5l-57 53q16 33 45.5 55.5t64.5 22.5t76 -19t60 -19q43 0 64 43l64 -51q-39 -79 -122 -79z" />
<glyph unicode="&#xc4;" horiz-adv-x="674" d="M511 0l-48 153h-255l-48 -153h-132l228 674h163l228 -674h-136zM241 256h190q-83 273 -95 324q-8 -43 -95 -324zM272 759q-20 -20 -50.5 -20t-50.5 20t-20 49.5t20 49.5t50.5 20t50.5 -20t20 -49.5t-20 -49.5zM515 759q-20 -20 -50.5 -20t-51 20t-20.5 49.5t20.5 49.5 t51 20t50.5 -20t20 -49.5t-20 -49.5z" />
<glyph unicode="&#xc5;" horiz-adv-x="674" d="M511 0l-48 153h-255l-48 -153h-132l228 674h163l228 -674h-136zM241 256h190q-83 273 -95 324q-8 -43 -95 -324zM341 712q-52 0 -88.5 36.5t-36.5 88.5t36.5 88.5t88.5 36.5t88.5 -36.5t36.5 -88.5t-36.5 -88.5t-88.5 -36.5zM341 894q-23 0 -38 -16.5t-15 -38.5t15 -38.5 t38 -16.5t38 16.5t15 38.5t-15 38.5t-38 16.5z" />
<glyph unicode="&#xc6;" horiz-adv-x="917" d="M586 103h275v-103h-398v153h-235l-81 -153h-133l347 674h496v-103h-271v-183h241v-102h-241v-183zM463 256v355q-47 -110 -165 -326l-15 -29h180z" />
<glyph unicode="&#xc7;" horiz-adv-x="609" d="M393 567q-92 0 -153.5 -62.5t-61.5 -167.5t61.5 -167t158.5 -62t164 50v-126q-62 -40 -174 -40q-150 0 -247.5 94.5t-97.5 249t96.5 251t248.5 96.5q111 0 173 -37v-123q-76 44 -168 44zM421 -51q18 -27 18 -79.5t-43 -91.5t-126 -40v78q79 3 79 67q0 29 -25 66h97z" />
<glyph unicode="&#xc8;" horiz-adv-x="528" d="M197 103h275v-103h-402v674h398v-103h-271v-183h241v-102h-241v-183zM336 723h-101l-116 169h126z" />
<glyph unicode="&#xc9;" horiz-adv-x="528" d="M197 103h275v-103h-402v674h398v-103h-271v-183h241v-102h-241v-183zM448 892l-116 -169h-101l91 169h126z" />
<glyph unicode="&#xca;" horiz-adv-x="528" d="M197 103h275v-103h-402v674h398v-103h-271v-183h241v-102h-241v-183zM273 822l-81 -99h-117l145 169h106l145 -169h-117z" />
<glyph unicode="&#xcb;" horiz-adv-x="528" d="M197 103h275v-103h-402v674h398v-103h-271v-183h241v-102h-241v-183zM200 757q-20 -20 -50.5 -20t-50.5 20t-20 49.5t20 49.5t50.5 20t50.5 -20t20 -49.5t-20 -49.5zM443 757q-20 -20 -50.5 -20t-51 20t-20.5 49.5t20.5 49.5t51 20t50.5 -20t20 -49.5t-20 -49.5z" />
<glyph unicode="&#xcc;" horiz-adv-x="282" d="M96 892l91 -169h-101l-116 169h126zM78 0v674h126v-674h-126z" />
<glyph unicode="&#xcd;" horiz-adv-x="282" d="M94 723l91 169h126l-116 -169h-101zM78 0v674h126v-674h-126z" />
<glyph unicode="&#xce;" horiz-adv-x="282" d="M78 0v674h126v-674h-126zM90 892h106l145 -169h-117l-81 99l-81 -99h-117z" />
<glyph unicode="&#xcf;" horiz-adv-x="282" d="M216.5 758q-20.5 20 -20.5 49.5t20.5 49.5t51 20t50.5 -20t20 -49.5t-20 -49.5t-50.5 -20t-51 20zM-26 758q-20 20 -20 49.5t20 49.5t50.5 20t50.5 -20t20 -49.5t-20 -49.5t-50.5 -20t-50.5 20zM78 0v674h126v-674h-126z" />
<glyph unicode="&#xd0;" horiz-adv-x="742" d="M137 674h220q151 0 247 -93t96 -242t-92.5 -244t-250.5 -95h-220v282h-73v103h73v289zM266 105h89q106 0 161.5 65.5t55.5 169t-59 166t-160 62.5h-87v-183h152v-103h-152v-177z" />
<glyph unicode="&#xd1;" horiz-adv-x="688" d="M415 747q-31 0 -69 19t-58 19t-35 -9.5t-33 -34.5l-57 53q16 33 45.5 55.5t64.5 22.5t76 -19t60 -19q43 0 64 43l64 -51q-39 -79 -122 -79zM70 0v674h143q204 -355 234.5 -412t52.5 -107q-8 83 -8 238v281h127v-674h-144l-164 280q-78 132 -126 242q11 -95 11 -241v-281 h-126z" />
<glyph unicode="&#xd2;" horiz-adv-x="723" d="M330 892l91 -169h-101l-116 169h126zM227 508q-49 -62 -49 -168.5t50 -168.5t134.5 -62t133.5 61.5t49 168.5t-49 169t-134.5 62t-134.5 -62zM130 88q-87 95 -87 251.5t86.5 251.5t232.5 95t232 -94.5t86 -251.5t-86.5 -252t-231.5 -95t-232 95z" />
<glyph unicode="&#xd3;" horiz-adv-x="723" d="M227 508q-49 -62 -49 -168.5t50 -168.5t134.5 -62t133.5 61.5t49 168.5t-49 169t-134.5 62t-134.5 -62zM130 88q-87 95 -87 251.5t86.5 251.5t232.5 95t232 -94.5t86 -251.5t-86.5 -252t-231.5 -95t-232 95zM316 723l91 169h126l-116 -169h-101z" />
<glyph unicode="&#xd4;" horiz-adv-x="723" d="M314 892h106l145 -169h-117l-81 99l-81 -99h-117zM130 88q-87 95 -87 251.5t86.5 251.5t232.5 95t232 -94.5t86 -251.5t-86.5 -252t-231.5 -95t-232 95zM227 508q-49 -62 -49 -168.5t50 -168.5t134.5 -62t133.5 61.5t49 168.5t-49 169t-134.5 62t-134.5 -62z" />
<glyph unicode="&#xd5;" horiz-adv-x="723" d="M427 747q-31 0 -69 19t-58 19t-35 -9.5t-33 -34.5l-57 53q16 33 45.5 55.5t64.5 22.5t76 -19t60 -19q43 0 64 43l64 -51q-39 -79 -122 -79zM227 508q-49 -62 -49 -168.5t50 -168.5t134.5 -62t133.5 61.5t49 168.5t-49 169t-134.5 62t-134.5 -62zM130 88q-87 95 -87 251.5 t86.5 251.5t232.5 95t232 -94.5t86 -251.5t-86.5 -252t-231.5 -95t-232 95z" />
<glyph unicode="&#xd6;" horiz-adv-x="723" d="M227 508q-49 -62 -49 -168.5t50 -168.5t134.5 -62t133.5 61.5t49 168.5t-49 169t-134.5 62t-134.5 -62zM130 88q-87 95 -87 251.5t86.5 251.5t232.5 95t232 -94.5t86 -251.5t-86.5 -252t-231.5 -95t-232 95zM438.5 759q-20.5 20 -20.5 49.5t20.5 49.5t51 20t50.5 -20 t20 -49.5t-20 -49.5t-50.5 -20t-51 20zM196 759q-20 20 -20 49.5t20 49.5t50.5 20t50.5 -20t20 -49.5t-20 -49.5t-50.5 -20t-50.5 20z" />
<glyph unicode="&#xd7;" horiz-adv-x="515" d="M465 469l-130 -130l130 -130l-77 -76l-130 129l-129 -128l-78 78l128 128l-131 131l77 77l131 -131l130 130z" />
<glyph unicode="&#xd8;" horiz-adv-x="699" d="M599 580q77 -92 77 -244.5t-86.5 -247.5t-231.5 -95q-94 0 -164 41l-31 -42h-123l78 105q-79 93 -79 246t86.5 248t231.5 95q94 0 167 -42l30 41h123zM357 576q-87 0 -137.5 -63.5t-50.5 -173.5q0 -79 27 -136l258 347q-41 26 -97 26zM358 103q87 0 137.5 63.5 t50.5 172.5q0 78 -26 135l-256 -346q38 -25 94 -25z" />
<glyph unicode="&#xd9;" horiz-adv-x="659" d="M295 892l91 -169h-101l-116 169h126zM467 258v416h126v-415q0 -131 -70.5 -199.5t-192 -68.5t-193 67.5t-71.5 193.5v422h126v-421q0 -77 38 -111.5t99 -34.5q138 0 138 151z" />
<glyph unicode="&#xda;" horiz-adv-x="659" d="M467 258v416h126v-415q0 -131 -70.5 -199.5t-192 -68.5t-193 67.5t-71.5 193.5v422h126v-421q0 -77 38 -111.5t99 -34.5q138 0 138 151zM292 723l91 169h126l-116 -169h-101z" />
<glyph unicode="&#xdb;" horiz-adv-x="659" d="M276 892h106l145 -169h-117l-81 99l-81 -99h-117zM467 258v416h126v-415q0 -131 -70.5 -199.5t-192 -68.5t-193 67.5t-71.5 193.5v422h126v-421q0 -77 38 -111.5t99 -34.5q138 0 138 151z" />
<glyph unicode="&#xdc;" horiz-adv-x="659" d="M467 258v416h126v-415q0 -131 -70.5 -199.5t-192 -68.5t-193 67.5t-71.5 193.5v422h126v-421q0 -77 38 -111.5t99 -34.5q138 0 138 151zM403.5 758q-20.5 20 -20.5 49.5t20.5 49.5t51 20t50.5 -20t20 -49.5t-20 -49.5t-50.5 -20t-51 20zM161 758q-20 20 -20 49.5t20 49.5 t50.5 20t50.5 -20t20 -49.5t-20 -49.5t-50.5 -20t-50.5 20z" />
<glyph unicode="&#xdd;" horiz-adv-x="624" d="M374 0h-126v246l-230 428h147q121 -262 145 -327q9 37 103 229l46 98h147l-232 -424v-250zM494 892l-116 -169h-101l91 169h126z" />
<glyph unicode="&#xde;" horiz-adv-x="553" d="M196 559h82q116 0 183.5 -62t67.5 -162t-69.5 -160t-178.5 -60h-85v-115h-126v674h126v-115zM196 217h79q63 0 94.5 33t31.5 84.5t-31 86.5t-99 35h-75v-239z" />
<glyph unicode="&#xdf;" horiz-adv-x="576" d="M272 117q45 -28 86 -28t61 16t20 43t-23 51.5t-50.5 41t-50.5 46t-23 67t33 86t33 78t-20 47.5t-56 18q-98 0 -98 -102v-481h-118v474q0 105 55.5 160.5t151.5 55.5t151.5 -48.5t55.5 -115.5q0 -41 -16 -72t-31.5 -52.5t-15.5 -37.5t21.5 -35t46.5 -37.5t46.5 -56 t21.5 -84.5q0 -71 -47.5 -115t-124 -44t-109.5 19v106z" />
<glyph unicode="&#xe0;" horiz-adv-x="507" d="M242 516q206 0 206 -192v-324h-119v61q-35 -65 -132 -65q-72 0 -114.5 42t-42.5 110t54 109t156 41h74v31q0 42 -22 64t-75 22q-81 0 -149 -45v111q57 35 164 35zM324 218h-62q-47 0 -72 -19.5t-25 -49.5q0 -64 74 -64q40 0 62.5 23.5t22.5 61.5v48zM313 556h-101 l-116 169h126z" />
<glyph unicode="&#xe1;" horiz-adv-x="507" d="M242 516q206 0 206 -192v-324h-119v61q-35 -65 -132 -65q-72 0 -114.5 42t-42.5 110t54 109t156 41h74v31q0 42 -22 64t-75 22q-81 0 -149 -45v111q57 35 164 35zM324 218h-62q-47 0 -72 -19.5t-25 -49.5q0 -64 74 -64q40 0 62.5 23.5t22.5 61.5v48zM422 725l-116 -169 h-101l91 169h126z" />
<glyph unicode="&#xe2;" horiz-adv-x="507" d="M242 516q206 0 206 -192v-324h-119v61q-35 -65 -132 -65q-72 0 -114.5 42t-42.5 110t54 109t156 41h74v31q0 42 -22 64t-75 22q-81 0 -149 -45v111q57 35 164 35zM324 218h-62q-47 0 -72 -19.5t-25 -49.5q0 -64 74 -64q40 0 62.5 23.5t22.5 61.5v48zM255 655l-81 -99 h-117l145 169h106l145 -169h-117z" />
<glyph unicode="&#xe3;" horiz-adv-x="507" d="M242 516q206 0 206 -192v-324h-119v61q-35 -65 -132 -65q-72 0 -114.5 42t-42.5 110t54 109t156 41h74v31q0 42 -22 64t-75 22q-81 0 -149 -45v111q57 35 164 35zM324 218h-62q-47 0 -72 -19.5t-25 -49.5q0 -64 74 -64q40 0 62.5 23.5t22.5 61.5v48zM319 580 q-31 0 -69 19t-58 19t-35 -9.5t-33 -34.5l-57 53q16 33 45.5 55.5t64.5 22.5t76 -19t60 -19q43 0 64 43l64 -51q-39 -79 -122 -79z" />
<glyph unicode="&#xe4;" horiz-adv-x="507" d="M242 516q206 0 206 -192v-324h-119v61q-35 -65 -132 -65q-72 0 -114.5 42t-42.5 110t54 109t156 41h74v31q0 42 -22 64t-75 22q-81 0 -149 -45v111q57 35 164 35zM324 218h-62q-47 0 -72 -19.5t-25 -49.5q0 -64 74 -64q40 0 62.5 23.5t22.5 61.5v48zM189 590 q-20 -20 -50.5 -20t-50.5 20t-20 49.5t20 49.5t50.5 20t50.5 -20t20 -49.5t-20 -49.5zM432 590q-20 -20 -50.5 -20t-51 20t-20.5 49.5t20.5 49.5t51 20t50.5 -20t20 -49.5t-20 -49.5z" />
<glyph unicode="&#xe5;" horiz-adv-x="507" d="M242 516q206 0 206 -192v-324h-119v61q-35 -65 -132 -65q-72 0 -114.5 42t-42.5 110t54 109t156 41h74v31q0 42 -22 64t-75 22q-81 0 -149 -45v111q57 35 164 35zM324 218h-62q-47 0 -72 -19.5t-25 -49.5q0 -64 74 -64q40 0 62.5 23.5t22.5 61.5v48zM258 545 q-52 0 -88.5 36.5t-36.5 88.5t36.5 88.5t88.5 36.5t88.5 -36.5t36.5 -88.5t-36.5 -88.5t-88.5 -36.5zM258 727q-23 0 -38 -16.5t-15 -38.5t15 -38.5t38 -16.5t38 16.5t15 38.5t-15 38.5t-38 16.5z" />
<glyph unicode="&#xe6;" horiz-adv-x="812" d="M504 121.5q42 -29.5 111 -29.5t124 40v-104q-54 -33 -147 -33q-60 0 -114.5 25t-83.5 72q-18 -41 -62.5 -68.5t-120 -27.5t-121 39.5t-45.5 110t54.5 111.5t156.5 41h73v31q0 42 -22 64t-75 22q-83 0 -149 -45v111q60 35 157 35q119 0 155 -81q52 77 158 77t162.5 -60 t56.5 -177q0 -26 -7 -70h-316q13 -54 55 -83.5zM658 295v14q-2 51 -26.5 80t-68 29t-76 -31.5t-41.5 -91.5h212zM329 173v44h-57q-49 0 -75.5 -18t-26.5 -50q0 -63 74 -63q38 0 61.5 23.5t23.5 63.5z" />
<glyph unicode="&#xe7;" horiz-adv-x="470" d="M340 -51q18 -27 18 -79.5t-43 -91.5t-126 -40v78q79 3 79 67q0 29 -25 66h97zM204.5 136q41.5 -44 108 -44t119.5 34v-104q-53 -31 -132 -31q-117 0 -189.5 74t-72 186t72 188t195.5 76q74 0 126 -28v-106q-50 32 -117 32t-110 -44t-44 -117q2 -72 43.5 -116z" />
<glyph unicode="&#xe8;" horiz-adv-x="529" d="M299 -5q-121 0 -191 72t-70 189.5t66 186.5t165 69t157 -60t58 -175q0 -28 -7 -72h-318q13 -55 54.5 -84t112.5 -29t126 40v-104q-53 -33 -153 -33zM370 295v15q-2 49 -26.5 78.5t-69.5 29.5t-76.5 -31.5t-40.5 -91.5h213zM329 556h-101l-116 169h126z" />
<glyph unicode="&#xe9;" horiz-adv-x="529" d="M299 -5q-121 0 -191 72t-70 189.5t66 186.5t165 69t157 -60t58 -175q0 -28 -7 -72h-318q13 -55 54.5 -84t112.5 -29t126 40v-104q-53 -33 -153 -33zM370 295v15q-2 49 -26.5 78.5t-69.5 29.5t-76.5 -31.5t-40.5 -91.5h213zM452 725l-116 -169h-101l91 169h126z" />
<glyph unicode="&#xea;" horiz-adv-x="529" d="M299 -5q-121 0 -191 72t-70 189.5t66 186.5t165 69t157 -60t58 -175q0 -28 -7 -72h-318q13 -55 54.5 -84t112.5 -29t126 40v-104q-53 -33 -153 -33zM370 295v15q-2 49 -26.5 78.5t-69.5 29.5t-76.5 -31.5t-40.5 -91.5h213zM274 655l-81 -99h-117l145 169h106l145 -169 h-117z" />
<glyph unicode="&#xeb;" horiz-adv-x="529" d="M299 -5q-121 0 -191 72t-70 189.5t66 186.5t165 69t157 -60t58 -175q0 -28 -7 -72h-318q13 -55 54.5 -84t112.5 -29t126 40v-104q-53 -33 -153 -33zM370 295v15q-2 49 -26.5 78.5t-69.5 29.5t-76.5 -31.5t-40.5 -91.5h213zM212 591q-20 -20 -50.5 -20t-50.5 20t-20 49.5 t20 49.5t50.5 20t50.5 -20t20 -49.5t-20 -49.5zM455 591q-20 -20 -50.5 -20t-51 20t-20.5 49.5t20.5 49.5t51 20t50.5 -20t20 -49.5t-20 -49.5z" />
<glyph unicode="&#xec;" horiz-adv-x="260" d="M81 725l91 -169h-101l-116 169h126zM70 0v507h120v-507h-120z" />
<glyph unicode="&#xed;" horiz-adv-x="260" d="M86 556l91 169h126l-116 -169h-101zM70 0v507h120v-507h-120z" />
<glyph unicode="&#xee;" horiz-adv-x="260" d="M70 0v507h120v-507h-120zM78 725h106l145 -169h-117l-81 99l-81 -99h-117z" />
<glyph unicode="&#xef;" horiz-adv-x="260" d="M201.5 592q-20.5 20 -20.5 49.5t20.5 49.5t51 20t50.5 -20t20 -49.5t-20 -49.5t-50.5 -20t-51 20zM-41 592q-20 20 -20 49.5t20 49.5t50.5 20t50.5 -20t20 -49.5t-20 -49.5t-50.5 -20t-50.5 20zM70 0v507h120v-507h-120z" />
<glyph unicode="&#xf0;" horiz-adv-x="542" d="M397 569q98 -132 98 -277.5t-60.5 -223.5t-168.5 -78t-169 62.5t-61 152.5t55.5 144.5t140 54.5t140.5 -56q-14 91 -72 173l-141 -71v74l98 49q-50 53 -128 101h161q32 -21 64 -53l117 58v-73zM261 99q103 0 114 144q-49 57 -117 57q-45 0 -71.5 -27.5t-26.5 -74 t27.5 -73t73.5 -26.5z" />
<glyph unicode="&#xf1;" horiz-adv-x="565" d="M185 507v-87q43 93 156 93q76 0 120 -46t44 -130v-337h-120v312q0 50 -24 75.5t-68 25.5t-76 -36.5t-32 -104.5v-272h-120v507h120zM352 580q-30 0 -69 19t-58.5 19t-34.5 -9.5t-33 -34.5l-57 53q16 33 45.5 55.5t64.5 22.5t76 -19t60 -19q43 0 64 43l64 -51 q-39 -79 -122 -79z" />
<glyph unicode="&#xf2;" horiz-adv-x="565" d="M249 725l91 -169h-101l-116 169h126zM373 370.5q-29 46.5 -88.5 46.5t-90 -47t-30.5 -117.5t31 -117.5t89 -47t88 46t30 118t-29 118.5zM462.5 66q-64.5 -74 -180 -74t-180 72t-64.5 186t67 189.5t180.5 75.5t177.5 -73.5t64 -187.5t-64.5 -188z" />
<glyph unicode="&#xf3;" horiz-adv-x="565" d="M373 370.5q-29 46.5 -88.5 46.5t-90 -47t-30.5 -117.5t31 -117.5t89 -47t88 46t30 118t-29 118.5zM462.5 66q-64.5 -74 -180 -74t-180 72t-64.5 186t67 189.5t180.5 75.5t177.5 -73.5t64 -187.5t-64.5 -188zM244 556l91 169h126l-116 -169h-101z" />
<glyph unicode="&#xf4;" horiz-adv-x="565" d="M233 724h106l145 -169h-117l-81 99l-81 -99h-117zM462.5 66q-64.5 -74 -180 -74t-180 72t-64.5 186t67 189.5t180.5 75.5t177.5 -73.5t64 -187.5t-64.5 -188zM373 370.5q-29 46.5 -88.5 46.5t-90 -47t-30.5 -117.5t31 -117.5t89 -47t88 46t30 118t-29 118.5z" />
<glyph unicode="&#xf5;" horiz-adv-x="565" d="M351 580q-31 0 -69 19t-58 19t-35 -9.5t-33 -34.5l-57 53q16 33 45.5 55.5t64.5 22.5t76 -19t60 -19q43 0 64 43l64 -51q-39 -79 -122 -79zM373 370.5q-29 46.5 -88.5 46.5t-90 -47t-30.5 -117.5t31 -117.5t89 -47t88 46t30 118t-29 118.5zM462.5 66q-64.5 -74 -180 -74 t-180 72t-64.5 186t67 189.5t180.5 75.5t177.5 -73.5t64 -187.5t-64.5 -188z" />
<glyph unicode="&#xf6;" horiz-adv-x="565" d="M373 370.5q-29 46.5 -88.5 46.5t-90 -47t-30.5 -117.5t31 -117.5t89 -47t88 46t30 118t-29 118.5zM462.5 66q-64.5 -74 -180 -74t-180 72t-64.5 186t67 189.5t180.5 75.5t177.5 -73.5t64 -187.5t-64.5 -188zM363.5 591q-20.5 20 -20.5 49.5t20.5 49.5t51 20t50.5 -20 t20 -49.5t-20 -49.5t-50.5 -20t-51 20zM121 591q-20 20 -20 49.5t20 49.5t50.5 20t50.5 -20t20 -49.5t-20 -49.5t-50.5 -20t-50.5 20z" />
<glyph unicode="&#xf7;" horiz-adv-x="576" d="M218 163q0 27 19.5 47t47 20t47.5 -20t20 -47t-20 -47t-47.5 -20t-47 20t-19.5 47zM50 286v108h476v-108h-476zM218 517q0 27 19.5 47t47 20t47.5 -20t20 -47t-20 -47t-47.5 -20t-47 20t-19.5 47z" />
<glyph unicode="&#xf8;" horiz-adv-x="562" d="M474 435q58 -72 58 -183.5t-64.5 -185.5t-180.5 -74q-69 0 -119 26l-19 -26h-106l58 79q-58 70 -58 181t67 187t177 76q69 0 119 -26l19 26h107zM287 429q-64 0 -98 -50.5t-34 -126.5q0 -48 15 -87l181 249q-25 15 -64 15zM288 76q65 0 98.5 49t33.5 114.5t-14 103.5 l-182 -249q27 -18 64 -18z" />
<glyph unicode="&#xf9;" horiz-adv-x="565" d="M379 507h121v-507h-121v83q-40 -88 -156 -88q-77 0 -120 44t-43 125v343h120v-315q0 -48 23.5 -73t70 -25t76 35t29.5 106v272zM333 555h-101l-116 169h126z" />
<glyph unicode="&#xfa;" horiz-adv-x="565" d="M379 507h121v-507h-121v83q-40 -88 -156 -88q-77 0 -120 44t-43 125v343h120v-315q0 -48 23.5 -73t70 -25t76 35t29.5 106v272zM456 725l-116 -169h-101l91 169h126z" />
<glyph unicode="&#xfb;" horiz-adv-x="565" d="M379 507h121v-507h-121v83q-40 -88 -156 -88q-77 0 -120 44t-43 125v343h120v-315q0 -48 23.5 -73t70 -25t76 35t29.5 106v272zM281 655l-81 -99h-117l145 169h106l145 -169h-117z" />
<glyph unicode="&#xfc;" horiz-adv-x="565" d="M379 507h121v-507h-121v83q-40 -88 -156 -88q-77 0 -120 44t-43 125v343h120v-315q0 -48 23.5 -73t70 -25t76 35t29.5 106v272zM210 591q-20 -20 -50.5 -20t-50.5 20t-20 49.5t20 49.5t50.5 20t50.5 -20t20 -49.5t-20 -49.5zM453 591q-20 -20 -50.5 -20t-51 20 t-20.5 49.5t20.5 49.5t51 20t50.5 -20t20 -49.5t-20 -49.5z" />
<glyph unicode="&#xfd;" horiz-adv-x="517" d="M93 -189q-29 0 -50 5v99q16 -4 34 -4q91 0 129 99l-200 497h133q114 -314 126 -359q3 11 117 359h126l-183 -493q-76 -203 -232 -203zM224 556l91 169h126l-116 -169h-101z" />
<glyph unicode="&#xfe;" horiz-adv-x="594" d="M185 707v-278q54 85 154 85t158.5 -71t58.5 -186t-58.5 -189.5t-159.5 -74.5t-153 83v-267h-120v898h120zM222 138q37 -42 90 -42t87 41.5t34 116.5t-34 116.5t-86 41.5t-90 -39t-38 -116t37 -119z" />
<glyph unicode="&#xff;" horiz-adv-x="517" d="M93 -189q-29 0 -50 5v99q16 -4 34 -4q91 0 129 99l-200 497h133q114 -314 126 -359q3 11 117 359h126l-183 -493q-76 -203 -232 -203zM96 591q-20 20 -20 49.5t20 49.5t50.5 20t50.5 -20t20 -49.5t-20 -49.5t-50.5 -20t-50.5 20zM338.5 591q-20.5 20 -20.5 49.5 t20.5 49.5t51 20t50.5 -20t20 -49.5t-20 -49.5t-50.5 -20t-51 20z" />
<glyph unicode="&#x100;" horiz-adv-x="674" d="M511 0l-48 153h-255l-48 -153h-132l228 674h163l228 -674h-136zM241 256h190q-83 273 -95 324q-8 -43 -95 -324zM505 850v-83h-328v83h328z" />
<glyph unicode="&#x101;" horiz-adv-x="507" d="M242 516q206 0 206 -192v-324h-119v61q-35 -65 -132 -65q-72 0 -114.5 42t-42.5 110t54 109t156 41h74v31q0 42 -22 64t-75 22q-81 0 -149 -45v111q57 35 164 35zM324 218h-62q-47 0 -72 -19.5t-25 -49.5q0 -64 74 -64q40 0 62.5 23.5t22.5 61.5v48zM418 682v-83h-328v83 h328z" />
<glyph unicode="&#x102;" horiz-adv-x="674" d="M511 0l-48 153h-255l-48 -153h-132l228 674h163l228 -674h-136zM241 256h190q-83 273 -95 324q-8 -43 -95 -324zM427 892h94q0 -86 -49.5 -129.5t-135.5 -43.5t-135.5 44t-49.5 129h94q0 -43 23.5 -68.5t67.5 -25.5t67.5 25.5t23.5 68.5z" />
<glyph unicode="&#x103;" horiz-adv-x="507" d="M242 516q206 0 206 -192v-324h-119v61q-35 -65 -132 -65q-72 0 -114.5 42t-42.5 110t54 109t156 41h74v31q0 42 -22 64t-75 22q-81 0 -149 -45v111q57 35 164 35zM324 218h-62q-47 0 -72 -19.5t-25 -49.5q0 -64 74 -64q40 0 62.5 23.5t22.5 61.5v48zM345 724h94 q0 -86 -49.5 -129.5t-135.5 -43.5t-135.5 44t-49.5 129h94q0 -43 23.5 -68.5t67.5 -25.5t67.5 25.5t23.5 68.5z" />
<glyph unicode="&#x104;" horiz-adv-x="667" d="M527 -128q0 -44 51 -44q41 0 80 27v-85q-40 -23 -101.5 -23t-94.5 32t-33 82q0 78 77 144l-46 148h-255l-48 -153h-133l229 674h163l227 -674q-116 -67 -116 -128zM237 256h191q-83 273 -95 324q-8 -41 -96 -324z" />
<glyph unicode="&#x105;" horiz-adv-x="504" d="M448 324v-324q-116 -66 -116 -128q0 -44 51 -44q39 0 80 27v-85q-40 -23 -101.5 -23t-94.5 32t-33 82q0 85 95 151v50q-41 -66 -132 -66q-73 0 -115 41t-42 110t54.5 110t156.5 41h73v31q0 42 -22 64t-75 22q-83 0 -149 -45v111q60 35 164 35q206 0 206 -192zM324 217 h-57q-49 0 -75.5 -18t-26.5 -50q0 -63 74 -63q39 0 62 23t23 59v49z" />
<glyph unicode="&#x106;" horiz-adv-x="609" d="M314 723l91 169h126l-116 -169h-101zM393 567q-92 0 -153.5 -62.5t-61.5 -167.5t61.5 -167t158.5 -62t164 50v-126q-62 -40 -174 -40q-150 0 -247.5 94.5t-97.5 249t96.5 251t248.5 96.5q111 0 173 -37v-123q-76 44 -168 44z" />
<glyph unicode="&#x107;" horiz-adv-x="470" d="M204.5 136q41.5 -44 108 -44t119.5 34v-104q-53 -31 -132 -31q-117 0 -189.5 74t-72 186t72 188t195.5 76q74 0 126 -28v-106q-50 32 -117 32t-110 -44t-44 -117q2 -72 43.5 -116zM246 555l91 169h126l-116 -169h-101z" />
<glyph unicode="&#x108;" horiz-adv-x="609" d="M301 892h106l145 -169h-117l-81 99l-81 -99h-117zM393 567q-92 0 -153.5 -62.5t-61.5 -167.5t61.5 -167t158.5 -62t164 50v-126q-62 -40 -174 -40q-150 0 -247.5 94.5t-97.5 249t96.5 251t248.5 96.5q111 0 173 -37v-123q-76 44 -168 44z" />
<glyph unicode="&#x109;" horiz-adv-x="470" d="M217 725h106l145 -169h-117l-81 99l-81 -99h-117zM432 381q-50 32 -117 32t-110 -44t-44 -117q2 -72 43.5 -116t108 -44t119.5 34v-104q-53 -31 -132 -31q-117 0 -189.5 74t-72 186t72 188t195.5 76q74 0 126 -28v-106z" />
<glyph unicode="&#x10a;" horiz-adv-x="609" d="M393 567q-92 0 -153.5 -62.5t-61.5 -167.5t61.5 -167t158.5 -62t164 50v-126q-62 -40 -174 -40q-150 0 -247.5 94.5t-97.5 249t96.5 251t248.5 96.5q111 0 173 -37v-123q-76 44 -168 44zM323 760q-20 20 -20 49.5t20 49.5t50.5 20t50.5 -20t20 -49.5t-20 -49.5t-50.5 -20 t-50.5 20z" />
<glyph unicode="&#x10b;" horiz-adv-x="470" d="M241 592q-20 20 -20 49.5t20 49.5t50.5 20t50.5 -20t20 -49.5t-20 -49.5t-50.5 -20t-50.5 20zM204.5 136q41.5 -44 108 -44t119.5 34v-104q-53 -31 -132 -31q-117 0 -189.5 74t-72 186t72 188t195.5 76q74 0 126 -28v-106q-50 32 -117 32t-110 -44t-44 -117 q2 -72 43.5 -116z" />
<glyph unicode="&#x10c;" horiz-adv-x="609" d="M420 723h-106l-145 169h117l81 -99l81 99h117zM393 567q-92 0 -153.5 -62.5t-61.5 -167.5t61.5 -167t158.5 -62t164 50v-126q-62 -40 -174 -40q-150 0 -247.5 94.5t-97.5 249t96.5 251t248.5 96.5q111 0 173 -37v-123q-76 44 -168 44z" />
<glyph unicode="&#x10d;" horiz-adv-x="470" d="M328 556h-106l-145 169h117l81 -99l81 99h117zM432 381q-50 32 -117 32t-110 -44t-44 -117q2 -72 43.5 -116t108 -44t119.5 34v-104q-53 -31 -132 -31q-117 0 -189.5 74t-72 186t72 188t195.5 76q74 0 126 -28v-106z" />
<glyph unicode="&#x10e;" horiz-adv-x="675" d="M70 674h220q151 0 247 -93t96 -241.5t-93 -244t-250 -95.5h-220v674zM199 105h89q106 0 161 65.5t55 169t-58.5 166t-159.5 62.5h-87v-463zM368 723h-106l-145 169h117l81 -99l81 99h117z" />
<glyph unicode="&#x10f;" horiz-adv-x="713" d="M657 708h129l-115 -204h-90zM409 707h120v-707h-120v79q-52 -86 -153 -86t-159.5 76t-58.5 190t61.5 184.5t159 70.5t150.5 -85v278zM196 139q35 -43 88 -43t89 41.5t36 119.5t-38 116.5t-88.5 38.5t-86 -42.5t-35.5 -115t35 -115.5z" />
<glyph unicode="&#x110;" horiz-adv-x="742" d="M137 674h220q151 0 247 -93t96 -242t-92.5 -244t-250.5 -95h-220v282h-73v103h73v289zM266 105h89q106 0 161.5 65.5t55.5 169t-59 166t-160 62.5h-87v-183h152v-103h-152v-177z" />
<glyph unicode="&#x111;" horiz-adv-x="594" d="M592 645v-72h-63v-573h-120v79q-52 -86 -153 -86t-159.5 76t-58.5 190t61.5 184.5t159 70.5t150.5 -85v144h-167v72h167v62h120v-62h63zM196 139q35 -43 88 -43t89 41.5t36 119.5t-38 116.5t-88.5 38.5t-86 -42.5t-35.5 -115t35 -115.5z" />
<glyph unicode="&#x112;" horiz-adv-x="528" d="M197 103h275v-103h-402v674h398v-103h-271v-183h241v-102h-241v-183zM433 852v-83h-328v83h328z" />
<glyph unicode="&#x113;" horiz-adv-x="529" d="M299 -5q-121 0 -191 72t-70 189.5t66 186.5t165 69t157 -60t58 -175q0 -28 -7 -72h-318q13 -55 54.5 -84t112.5 -29t126 40v-104q-53 -33 -153 -33zM370 295v15q-2 49 -26.5 78.5t-69.5 29.5t-76.5 -31.5t-40.5 -91.5h213zM436 682v-83h-328v83h328z" />
<glyph unicode="&#x114;" horiz-adv-x="528" d="M197 103h275v-103h-402v674h398v-103h-271v-183h241v-102h-241v-183zM369 892h94q0 -86 -49.5 -129.5t-135.5 -43.5t-135.5 44t-49.5 129h94q0 -43 23.5 -68.5t67.5 -25.5t67.5 25.5t23.5 68.5z" />
<glyph unicode="&#x115;" horiz-adv-x="529" d="M299 -5q-121 0 -191 72t-70 189.5t66 186.5t165 69t157 -60t58 -175q0 -28 -7 -72h-318q13 -55 54.5 -84t112.5 -29t126 40v-104q-53 -33 -153 -33zM370 295v15q-2 49 -26.5 78.5t-69.5 29.5t-76.5 -31.5t-40.5 -91.5h213zM363 725h94q0 -86 -49.5 -129.5t-135.5 -43.5 t-135.5 44t-49.5 129h94q0 -43 23.5 -68.5t67.5 -25.5t67.5 25.5t23.5 68.5z" />
<glyph unicode="&#x116;" horiz-adv-x="528" d="M197 103h275v-103h-402v674h398v-103h-271v-183h241v-102h-241v-183zM329 759q-20 -20 -50.5 -20t-50.5 20t-20 49.5t20 49.5t50.5 20t50.5 -20t20 -49.5t-20 -49.5z" />
<glyph unicode="&#x117;" horiz-adv-x="529" d="M299 -5q-121 0 -191 72t-70 189.5t66 186.5t165 69t157 -60t58 -175q0 -28 -7 -72h-318q13 -55 54.5 -84t112.5 -29t126 40v-104q-53 -33 -153 -33zM370 295v15q-2 49 -26.5 78.5t-69.5 29.5t-76.5 -31.5t-40.5 -91.5h213zM331 592q-20 -20 -50.5 -20t-50.5 20t-20 49.5 t20 49.5t50.5 20t50.5 -20t20 -49.5t-20 -49.5z" />
<glyph unicode="&#x118;" horiz-adv-x="528" d="M472 0h-34q-116 -67 -116 -128q0 -44 52 -44q39 0 80 27v-85q-41 -23 -102.5 -23t-94.5 32t-33 82q0 77 79 139h-233v674h398v-103h-271v-183h241v-102h-241v-183h275v-103z" />
<glyph unicode="&#x119;" horiz-adv-x="529" d="M431 -215q-41 -23 -102.5 -23t-94.5 32t-33 82q0 65 59 121q-104 12 -163 81.5t-59 182.5t66 182t165 69t157 -60t58 -175q0 -28 -7 -72h-318q13 -55 54.5 -84t112.5 -29t126 40v-104q-20 -12 -48 -20q-105 -63 -105 -121q0 -44 52 -44q39 0 80 27v-85zM370 295v15 q-2 49 -26.5 78.5t-69.5 29.5t-76.5 -31.5t-40.5 -91.5h213z" />
<glyph unicode="&#x11a;" horiz-adv-x="528" d="M197 286v-183h275v-103h-402v674h398v-103h-271v-183h241v-102h-241zM329 723h-106l-145 169h117l81 -99l81 99h117z" />
<glyph unicode="&#x11b;" horiz-adv-x="529" d="M299 -5q-121 0 -191 72t-70 189.5t66 186.5t165 69t157 -60t58 -175q0 -28 -7 -72h-318q13 -55 54.5 -84t112.5 -29t126 40v-104q-53 -33 -153 -33zM370 295v15q-2 49 -26.5 78.5t-69.5 29.5t-76.5 -31.5t-40.5 -91.5h213zM326 556h-106l-145 169h117l81 -99l81 99h117z " />
<glyph unicode="&#x11c;" horiz-adv-x="693" d="M630 393v-324h-1l1 -11q-92 -66 -230 -66q-160 0 -258.5 93t-98.5 251t101.5 254t256.5 96q115 0 197 -43v-129q-92 55 -194 55t-164 -63t-62 -169t60.5 -167.5t166.5 -61.5q52 0 101 18v159h-124v108h248zM378 822l-81 -99h-117l145 169h106l145 -169h-117z" />
<glyph unicode="&#x11d;" horiz-adv-x="571" d="M392 507h120v-461q0 -120 -69.5 -180.5t-173 -60.5t-178.5 36v122q68 -48 163 -48q138 0 138 132v44q-46 -75 -137.5 -75t-152 62.5t-60.5 177t57.5 186t152 71.5t140.5 -79v73zM198 151.5q31 -37.5 79.5 -37.5t81.5 38.5t33 110t-32 109.5t-82.5 38t-80.5 -40.5 t-30 -110.5t31 -107.5zM297 655l-81 -99h-117l145 169h106l145 -169h-117z" />
<glyph unicode="&#x11e;" horiz-adv-x="693" d="M630 393v-324h-1l1 -11q-92 -66 -230 -66q-160 0 -258.5 93t-98.5 251t101.5 254t256.5 96q115 0 197 -43v-129q-92 55 -194 55t-164 -63t-62 -169t60.5 -167.5t166.5 -61.5q52 0 101 18v159h-124v108h248zM465 892h94q0 -86 -49.5 -129.5t-135.5 -43.5t-135.5 44 t-49.5 129h94q0 -43 23.5 -68.5t67.5 -25.5t67.5 25.5t23.5 68.5z" />
<glyph unicode="&#x11f;" horiz-adv-x="571" d="M392 507h120v-461q0 -120 -69.5 -180.5t-173 -60.5t-178.5 36v122q68 -48 163 -48q138 0 138 132v44q-46 -75 -137.5 -75t-152 62.5t-60.5 177t57.5 186t152 71.5t140.5 -79v73zM198 151.5q31 -37.5 79.5 -37.5t81.5 38.5t33 110t-32 109.5t-82.5 38t-80.5 -40.5 t-30 -110.5t31 -107.5zM395 725h94q0 -86 -49.5 -129.5t-135.5 -43.5t-135.5 44t-49.5 129h94q0 -43 23.5 -68.5t67.5 -25.5t67.5 25.5t23.5 68.5z" />
<glyph unicode="&#x120;" horiz-adv-x="693" d="M630 393v-324h-1l1 -11q-92 -66 -230 -66q-160 0 -258.5 93t-98.5 251t101.5 254t256.5 96q115 0 197 -43v-129q-92 55 -194 55t-164 -63t-62 -169t60.5 -167.5t166.5 -61.5q52 0 101 18v159h-124v108h248zM432 759q-20 -20 -50.5 -20t-50.5 20t-20 49.5t20 49.5t50.5 20 t50.5 -20t20 -49.5t-20 -49.5z" />
<glyph unicode="&#x121;" horiz-adv-x="571" d="M392 507h120v-461q0 -120 -69.5 -180.5t-173 -60.5t-178.5 36v122q68 -48 163 -48q138 0 138 132v44q-46 -75 -137.5 -75t-152 62.5t-60.5 177t57.5 186t152 71.5t140.5 -79v73zM198 151.5q31 -37.5 79.5 -37.5t81.5 38.5t33 110t-32 109.5t-82.5 38t-80.5 -40.5 t-30 -110.5t31 -107.5zM365 592q-20 -20 -50.5 -20t-50.5 20t-20 49.5t20 49.5t50.5 20t50.5 -20t20 -49.5t-20 -49.5z" />
<glyph unicode="&#x122;" horiz-adv-x="693" d="M630 393v-324h-1l1 -11q-92 -66 -230 -66q-160 0 -258.5 93t-98.5 251t101.5 254t256.5 96q115 0 197 -43v-129q-92 55 -194 55t-164 -63t-62 -169t60.5 -167.5t166.5 -61.5q52 0 101 18v159h-124v108h248zM235 -255l76 204h129l-115 -204h-90z" />
<glyph unicode="&#x123;" horiz-adv-x="571" d="M392 507h120v-461q0 -120 -69.5 -180.5t-173 -60.5t-178.5 36v122q68 -48 163 -48q138 0 138 132v44q-46 -75 -137.5 -75t-152 62.5t-60.5 177t57.5 186t152 71.5t140.5 -79v73zM198 151.5q31 -37.5 79.5 -37.5t81.5 38.5t33 110t-32 109.5t-82.5 38t-80.5 -40.5 t-30 -110.5t31 -107.5zM458 760l-76 -204h-128l114 204h90z" />
<glyph unicode="&#x124;" horiz-adv-x="670" d="M473 674h127v-674h-127v283h-277v-283h-126v674h126v-282h277v282zM335 822l-81 -99h-117l145 169h106l145 -169h-117z" />
<glyph unicode="&#x125;" horiz-adv-x="565" d="M185 707v-286q41 92 155 92q74 0 119.5 -46.5t45.5 -134.5v-332h-120v311q0 48 -24.5 75t-65.5 27t-75.5 -33t-34.5 -108v-272h-120v707h120zM208 756l-81 99l-81 -99h-117l145 169h106l145 -169h-117z" />
<glyph unicode="&#x126;" horiz-adv-x="760" d="M720 574v-72h-74v-502h-127v283h-278v-283h-126v502h-74v72h74v100h126v-100h278v100h127v-100h74zM519 392v110h-278v-110h278z" />
<glyph unicode="&#x127;" horiz-adv-x="565" d="M185 573v-152q41 92 155 92q74 0 119.5 -46.5t45.5 -134.5v-332h-120v311q0 48 -24.5 75t-65.5 27t-75.5 -33t-34.5 -108v-272h-120v573h-63v72h63v62h120v-62h165v-72h-165z" />
<glyph unicode="&#x128;" horiz-adv-x="282" d="M202 746q-30 0 -68.5 19t-58.5 19t-35 -9.5t-33 -34.5l-57 53q16 33 45.5 55.5t64.5 22.5t76 -19t60 -19q43 0 64 43l64 -51q-39 -79 -122 -79zM78 0v674h126v-674h-126z" />
<glyph unicode="&#x129;" horiz-adv-x="260" d="M194 578q-30 0 -69 19t-58.5 19t-34.5 -9.5t-33 -34.5l-57 53q16 33 45.5 55.5t64.5 22.5t76 -19t60 -19q43 0 64 43l64 -51q-39 -79 -122 -79zM70 0v507h120v-507h-120z" />
<glyph unicode="&#x12a;" horiz-adv-x="282" d="M305 766h-328v83h328v-83zM78 0v674h126v-674h-126z" />
<glyph unicode="&#x12b;" horiz-adv-x="260" d="M294 599h-328v83h328v-83zM70 0v507h120v-507h-120z" />
<glyph unicode="&#x12c;" horiz-adv-x="282" d="M78 0v674h126v-674h-126zM-42 892h94q0 -43 23.5 -68.5t67.5 -25.5t67.5 25.5t23.5 68.5h94q0 -86 -49.5 -129.5t-135.5 -43.5t-135.5 44t-49.5 129z" />
<glyph unicode="&#x12d;" horiz-adv-x="260" d="M70 0v507h120v-507h-120zM-55 725h94q0 -43 23.5 -68.5t67.5 -25.5t67.5 25.5t23.5 68.5h94q0 -86 -49.5 -129.5t-135.5 -43.5t-135.5 44t-49.5 129z" />
<glyph unicode="&#x12e;" horiz-adv-x="282" d="M204 674v-674q-116 -67 -116 -128q0 -44 52 -44q40 0 80 27v-85q-41 -23 -102.5 -23t-94.5 32t-33 82q0 79 88 146v667h126z" />
<glyph unicode="&#x12f;" horiz-adv-x="260" d="M190 507v-507q-116 -67 -116 -128q0 -44 52 -44q39 0 80 27v-85q-41 -23 -102.5 -23t-94.5 32t-33 82q0 85 94 150v496h120zM130 586q-30 0 -51 21t-21 51.5t21 51.5t51 21t51 -21t21 -51.5t-21 -51.5t-51 -21z" />
<glyph unicode="&#x130;" horiz-adv-x="282" d="M92 759q-20 20 -20 49.5t20 49.5t50.5 20t50.5 -20t20 -49.5t-20 -49.5t-50.5 -20t-50.5 20zM78 0v674h126v-674h-126z" />
<glyph unicode="&#x131;" horiz-adv-x="260" d="M70 0v507h120v-507h-120z" />
<glyph unicode="&#x132;" horiz-adv-x="631" d="M362 110q77 0 77 82v481h126v-481q0 -95 -48 -144t-132 -49q-63 0 -103 21v114q38 -24 80 -24zM78 0v674h126v-674h-126z" />
<glyph unicode="&#x133;" horiz-adv-x="504" d="M327 607q-21 21 -21 51.5t21 51.5t51.5 21t51.5 -21t21 -51.5t-21 -51.5t-51.5 -21t-51.5 21zM266 -101q53 0 53 69v539h120v-541q0 -75 -41 -119t-117 -44q-36 0 -76 16v95q35 -15 61 -15zM78 607q-21 21 -21 51.5t21 51.5t51 21t51 -21t21 -51.5t-21 -51.5t-51 -21 t-51 21zM69 0v507h120v-507h-120z" />
<glyph unicode="&#x134;" horiz-adv-x="394" d="M199 892h106l145 -169h-117l-81 99l-81 -99h-117zM110 110q77 0 77 82v481h126v-481q0 -95 -48 -144t-132 -49q-63 0 -103 21v114q38 -24 80 -24z" />
<glyph unicode="&#x135;" horiz-adv-x="257" d="M19 -101q53 0 53 69v539h120v-541q0 -75 -41 -119t-117 -44q-36 0 -76 16v95q35 -15 61 -15zM80 725h106l145 -169h-117l-81 99l-81 -99h-117z" />
<glyph unicode="&#x136;" horiz-adv-x="628" d="M356 336l251 -336h-159l-242 334l233 340h151zM180 -255l76 204h129l-115 -204h-90zM196 674v-674h-126v674h126z" />
<glyph unicode="&#x137;" horiz-adv-x="522" d="M185 0h-120v695h120v-426l179 238h140l-186 -242l190 -265h-141l-182 262v-262zM136 -255l76 204h129l-114 -204h-91z" />
<glyph unicode="&#x138;" horiz-adv-x="522" d="M185 0h-120v507h120v-238l179 238h140l-186 -242l190 -265h-141l-182 262v-262z" />
<glyph unicode="&#x139;" horiz-adv-x="484" d="M196 674v-562h263v-112h-389v674h126zM473 892l-116 -169h-101l91 169h126z" />
<glyph unicode="&#x13a;" horiz-adv-x="260" d="M70 0v707h120v-707h-120zM78 756l91 169h126l-116 -169h-101z" />
<glyph unicode="&#x13b;" horiz-adv-x="484" d="M196 112h263v-112h-389v674h126v-562zM139 -255l76 204h129l-115 -204h-90z" />
<glyph unicode="&#x13c;" horiz-adv-x="260" d="M-12 -255l76 204h129l-114 -204h-91zM70 0v707h120v-707h-120z" />
<glyph unicode="&#x13d;" horiz-adv-x="484" d="M196 674v-562h263v-112h-389v674h126zM472 700l-114 -204h-91l76 204h129z" />
<glyph unicode="&#x13e;" horiz-adv-x="269" d="M252 505l76 203h128l-114 -203h-90zM70 0v707h120v-707h-120z" />
<glyph unicode="&#x13f;" horiz-adv-x="498" d="M196 112h263v-112h-389v674h126v-562zM362 311q-31 0 -52 21t-21 51.5t21 51.5t52 21t52 -21t21 -51.5t-21 -51.5t-52 -21z" />
<glyph unicode="&#x140;" horiz-adv-x="456" d="M281 367q0 30 21 51t52.5 21t52.5 -21t21 -51t-21 -51t-52.5 -21t-52.5 21t-21 51zM65 0v707h120v-707h-120z" />
<glyph unicode="&#x141;" horiz-adv-x="539" d="M241 112h263v-112h-390v219l-75 -45v105l75 45v350h127v-273l158 95v-105l-158 -95v-184z" />
<glyph unicode="&#x142;" horiz-adv-x="322" d="M222 0h-120v278l-74 -51v105l74 51v324h120v-241l83 57v-105l-83 -57v-361z" />
<glyph unicode="&#x143;" horiz-adv-x="688" d="M70 0v674h143q204 -355 234.5 -412t52.5 -107q-8 83 -8 238v281h127v-674h-144l-164 280q-78 132 -126 242q11 -95 11 -241v-281h-126zM311 723l91 169h126l-116 -169h-101z" />
<glyph unicode="&#x144;" horiz-adv-x="565" d="M185 507v-87q43 93 156 93q76 0 120 -46t44 -130v-337h-120v312q0 50 -24 75.5t-68 25.5t-76 -36.5t-32 -104.5v-272h-120v507h120zM478 725l-116 -169h-101l91 169h126z" />
<glyph unicode="&#x145;" horiz-adv-x="688" d="M70 0v674h143q204 -355 234.5 -412t52.5 -107q-8 83 -8 238v281h127v-674h-144l-164 280q-78 132 -126 242q11 -95 11 -241v-281h-126zM212 -255l76 204h129l-114 -204h-91z" />
<glyph unicode="&#x146;" horiz-adv-x="565" d="M185 507v-87q43 93 156 93q76 0 120 -46t44 -130v-337h-120v312q0 50 -24 75.5t-68 25.5t-76 -36.5t-32 -104.5v-272h-120v507h120zM149 -255l76 204h129l-115 -204h-90z" />
<glyph unicode="&#x147;" horiz-adv-x="688" d="M406 723h-106l-145 169h117l81 -99l81 99h117zM70 0v674h143q204 -355 234.5 -412t52.5 -107q-8 83 -8 238v281h127v-674h-144l-164 280q-78 132 -126 242q11 -95 11 -241v-281h-126z" />
<glyph unicode="&#x148;" horiz-adv-x="565" d="M185 507v-87q43 93 156 93q76 0 120 -46t44 -130v-337h-120v312q0 50 -24 75.5t-68 25.5t-76 -36.5t-32 -104.5v-272h-120v507h120zM348 556h-106l-145 169h117l81 -99l81 99h117z" />
<glyph unicode="&#x149;" horiz-adv-x="633" d="M254 507v-87q43 93 156 93q76 0 120 -46t44 -130v-337h-120v312q0 50 -24 75.5t-68 25.5t-76 -36.5t-32 -104.5v-272h-120v507h120zM59 694h116l-110 -208h-86z" />
<glyph unicode="&#x14a;" horiz-adv-x="688" d="M492 674h127v-679q0 -95 -48.5 -144t-123.5 -49t-112 21v114q38 -24 80 -24q77 0 77 82v5h-17l-164 280q-78 132 -126 242q11 -95 11 -241v-281h-126v674h143q204 -355 234.5 -412t52.5 -107q-8 83 -8 238v281z" />
<glyph unicode="&#x14b;" horiz-adv-x="565" d="M505 224h1v-258q0 -75 -41.5 -119t-117.5 -44q-36 0 -76 16v95q37 -15 61 -15q53 0 53 69v344q0 50 -24 75.5t-68 25.5t-76 -36.5t-32 -104.5v-272h-120v507h120v-87q43 93 156 93q76 0 120 -46t44 -130v-113z" />
<glyph unicode="&#x14c;" horiz-adv-x="723" d="M227 508q-49 -62 -49 -168.5t50 -168.5t134.5 -62t133.5 61.5t49 168.5t-49 169t-134.5 62t-134.5 -62zM130 88q-87 95 -87 251.5t86.5 251.5t232.5 95t232 -94.5t86 -251.5t-86.5 -252t-231.5 -95t-232 95zM525 766h-328v83h328v-83z" />
<glyph unicode="&#x14d;" horiz-adv-x="565" d="M373 370.5q-29 46.5 -88.5 46.5t-90 -47t-30.5 -117.5t31 -117.5t89 -47t88 46t30 118t-29 118.5zM462.5 66q-64.5 -74 -180 -74t-180 72t-64.5 186t67 189.5t180.5 75.5t177.5 -73.5t64 -187.5t-64.5 -188zM448 599h-328v83h328v-83z" />
<glyph unicode="&#x14e;" horiz-adv-x="723" d="M130 88q-87 95 -87 251.5t86.5 251.5t232.5 95t232 -94.5t86 -251.5t-86.5 -252t-231.5 -95t-232 95zM227 508q-49 -62 -49 -168.5t50 -168.5t134.5 -62t133.5 61.5t49 168.5t-49 169t-134.5 62t-134.5 -62zM186 892h94q0 -43 23.5 -68.5t67.5 -25.5t67.5 25.5t23.5 68.5 h94q0 -86 -49.5 -129.5t-135.5 -43.5t-135.5 44t-49.5 129z" />
<glyph unicode="&#x14f;" horiz-adv-x="565" d="M462.5 66q-64.5 -74 -180 -74t-180 72t-64.5 186t67 189.5t180.5 75.5t177.5 -73.5t64 -187.5t-64.5 -188zM373 370.5q-29 46.5 -88.5 46.5t-90 -47t-30.5 -117.5t31 -117.5t89 -47t88 46t30 118t-29 118.5zM105 725h94q0 -43 23.5 -68.5t67.5 -25.5t67.5 25.5t23.5 68.5 h94q0 -86 -49.5 -129.5t-135.5 -43.5t-135.5 44t-49.5 129z" />
<glyph unicode="&#x150;" horiz-adv-x="723" d="M227 508q-49 -62 -49 -168.5t50 -168.5t134.5 -62t133.5 61.5t49 168.5t-49 169t-134.5 62t-134.5 -62zM130 88q-87 95 -87 251.5t86.5 251.5t232.5 95t232 -94.5t86 -251.5t-86.5 -252t-231.5 -95t-232 95zM239 723l90 169h117l-117 -169h-90zM414 723l97 169h126 l-132 -169h-91z" />
<glyph unicode="&#x151;" horiz-adv-x="565" d="M373 370.5q-29 46.5 -88.5 46.5t-90 -47t-30.5 -117.5t31 -117.5t89 -47t88 46t30 118t-29 118.5zM462.5 66q-64.5 -74 -180 -74t-180 72t-64.5 186t67 189.5t180.5 75.5t177.5 -73.5t64 -187.5t-64.5 -188zM167 556l90 169h117l-117 -169h-90zM342 556l97 169h126 l-132 -169h-91z" />
<glyph unicode="&#x152;" horiz-adv-x="994" d="M656 103h282v-103h-403v58q-76 -65 -178 -65q-145 0 -229.5 94.5t-84.5 251.5t84.5 252t228.5 95q104 0 179 -64v52h399v-103h-278v-183h248v-102h-248v-183zM225.5 170.5q47.5 -61.5 132 -61.5t131 61.5t46.5 169t-47 169t-131.5 61.5t-131.5 -62t-47 -169t47.5 -168.5z " />
<glyph unicode="&#x153;" horiz-adv-x="884" d="M659 -5q-125 0 -198 83q-65 -86 -181 -86t-179 72t-63 186t65.5 189.5t177.5 75.5t178 -82q67 79 169.5 79t159 -60t56.5 -177q0 -32 -6 -70h-318q13 -54 55.5 -83.5t111 -29.5t125.5 40v-104q-55 -33 -153 -33zM194 135q30 -47 87.5 -47t87.5 46t30 118t-29 118.5 t-88.5 46.5t-88.5 -46.5t-29 -117.5t30 -118zM730 295v21q-3 48 -27.5 75t-68 27t-75.5 -31t-41 -92h212z" />
<glyph unicode="&#x154;" horiz-adv-x="589" d="M196 246v-246h-126v674h208q115 0 180.5 -58t65.5 -155q-1 -72 -35 -121.5t-93 -73.5l173 -266h-151l-153 246h-69zM196 570v-220h84q58 0 87 29.5t29 82t-30.5 80.5t-87.5 28h-82zM452 892l-116 -169h-101l91 169h126z" />
<glyph unicode="&#x155;" horiz-adv-x="353" d="M185 507v-90q35 94 128 94q21 0 34 -3v-116q-23 10 -51 10q-49 0 -80 -40t-31 -100v-262h-121l1 507h120zM380 725l-116 -169h-101l91 169h126z" />
<glyph unicode="&#x156;" horiz-adv-x="589" d="M196 246v-246h-126v674h208q115 0 180.5 -58t65.5 -155q-1 -72 -35 -121.5t-93 -73.5l173 -266h-151l-153 246h-69zM196 570v-220h84q58 0 87 29.5t29 82t-30.5 80.5t-87.5 28h-82zM162 -255l76 204h129l-115 -204h-90z" />
<glyph unicode="&#x157;" horiz-adv-x="353" d="M185 507v-90q35 94 128 94q21 0 34 -3v-116q-23 10 -51 10q-49 0 -80 -40t-31 -100v-262h-121l1 507h120zM-20 -255l76 204h129l-115 -204h-90z" />
<glyph unicode="&#x158;" horiz-adv-x="589" d="M196 246v-246h-126v674h208q115 0 180.5 -58t65.5 -155q-1 -72 -35 -121.5t-93 -73.5l173 -266h-151l-153 246h-69zM196 570v-220h84q58 0 87 29.5t29 82t-30.5 80.5t-87.5 28h-82zM355 723h-106l-145 169h117l81 -99l81 99h117z" />
<glyph unicode="&#x159;" horiz-adv-x="353" d="M185 507v-90q35 94 128 94q21 0 34 -3v-116q-23 10 -51 10q-49 0 -80 -40t-31 -100v-262h-121l1 507h120zM261 556h-106l-145 169h117l81 -99l81 99h117z" />
<glyph unicode="&#x15a;" horiz-adv-x="518" d="M285 569q-47 0 -73.5 -21t-26.5 -54t28.5 -54.5t77 -43.5t73.5 -35.5t54 -37.5q59 -48 59 -136t-64.5 -141.5t-174 -53.5t-184.5 43v129q86 -62 188 -62q46 0 74 22.5t28 60.5q0 18 -7 32t-29 28q-42 28 -95 49q-37 17 -60 30.5t-50 36.5q-54 46 -54 130t63.5 136 t163.5 52t169 -33v-122q-75 45 -160 45zM219 723l91 169h126l-116 -169h-101z" />
<glyph unicode="&#x15b;" horiz-adv-x="427" d="M243 415q-31 0 -48.5 -13.5t-17.5 -34.5q0 -17 9 -26t15 -14t17 -11q27 -13 41 -19q69 -29 103 -64.5t34 -86.5q0 -71 -51 -111t-140.5 -40t-147.5 31v110q67 -45 145 -45q33 0 51.5 12.5t18.5 30t-6 28t-23 20.5q-22 13 -44.5 22.5t-24 10.5t-4.5 2t-5 2 q-111 50 -111 144q0 70 53 110t131.5 40t129.5 -22v-106q-50 30 -125 30zM184 556l91 169h126l-116 -169h-101z" />
<glyph unicode="&#x15c;" horiz-adv-x="518" d="M213 892h106l145 -169h-117l-81 99l-81 -99h-117zM285 569q-47 0 -73.5 -21t-26.5 -54t28.5 -54.5t77 -43.5t73.5 -35.5t54 -37.5q59 -48 59 -136t-64.5 -141.5t-174 -53.5t-184.5 43v129q86 -62 188 -62q46 0 74 22.5t28 60.5q0 18 -7 32t-29 28q-42 28 -95 49 q-37 17 -60 30.5t-50 36.5q-54 46 -54 130t63.5 136t163.5 52t169 -33v-122q-75 45 -160 45z" />
<glyph unicode="&#x15d;" horiz-adv-x="427" d="M181 725h106l145 -169h-117l-81 99l-81 -99h-117zM243 415q-31 0 -48.5 -13.5t-17.5 -34.5q0 -17 9 -26t15 -14t17 -11q27 -13 41 -19q69 -29 103 -64.5t34 -86.5q0 -71 -51 -111t-140.5 -40t-147.5 31v110q67 -45 145 -45q33 0 51.5 12.5t18.5 30t-6 28t-23 20.5 q-22 13 -44.5 22.5t-24 10.5t-4.5 2t-5 2q-111 50 -111 144q0 70 53 110t131.5 40t129.5 -22v-106q-50 30 -125 30z" />
<glyph unicode="&#x15e;" horiz-adv-x="518" d="M312 -51q18 -27 18 -79.5t-43 -91.5t-126 -40v78q79 3 79 67q0 29 -25 66h97zM285 569q-47 0 -73.5 -21t-26.5 -54t28.5 -54.5t77 -43.5t73.5 -35.5t54 -37.5q59 -48 59 -136t-64.5 -141.5t-174 -53.5t-184.5 43v129q86 -62 188 -62q46 0 74 22.5t28 60.5q0 18 -7 32 t-29 28q-42 28 -95 49q-37 17 -60 30.5t-50 36.5q-54 46 -54 130t63.5 136t163.5 52t169 -33v-122q-75 45 -160 45z" />
<glyph unicode="&#x15f;" horiz-adv-x="427" d="M273 -51q18 -27 18 -79.5t-43 -91.5t-126 -40v78q79 3 79 67q0 29 -25 66h97zM243 415q-31 0 -48.5 -13.5t-17.5 -34.5q0 -17 9 -26t15 -14t17 -11q27 -13 41 -19q69 -29 103 -64.5t34 -86.5q0 -71 -51 -111t-140.5 -40t-147.5 31v110q67 -45 145 -45q33 0 51.5 12.5 t18.5 30t-6 28t-23 20.5q-22 13 -44.5 22.5t-24 10.5t-4.5 2t-5 2q-111 50 -111 144q0 70 53 110t131.5 40t129.5 -22v-106q-50 30 -125 30z" />
<glyph unicode="&#x160;" horiz-adv-x="518" d="M318 723h-106l-145 169h117l81 -99l81 99h117zM285 569q-47 0 -73.5 -21t-26.5 -54t28.5 -54.5t77 -43.5t73.5 -35.5t54 -37.5q59 -48 59 -136t-64.5 -141.5t-174 -53.5t-184.5 43v129q86 -62 188 -62q46 0 74 22.5t28 60.5q0 18 -7 32t-29 28q-42 28 -95 49 q-37 17 -60 30.5t-50 36.5q-54 46 -54 130t63.5 136t163.5 52t169 -33v-122q-75 45 -160 45z" />
<glyph unicode="&#x161;" horiz-adv-x="427" d="M289 556h-106l-145 169h117l81 -99l81 99h117zM243 415q-31 0 -48.5 -13.5t-17.5 -34.5q0 -17 9 -26t15 -14t17 -11q27 -13 41 -19q69 -29 103 -64.5t34 -86.5q0 -71 -51 -111t-140.5 -40t-147.5 31v110q67 -45 145 -45q33 0 51.5 12.5t18.5 30t-6 28t-23 20.5 q-22 13 -44.5 22.5t-24 10.5t-4.5 2t-5 2q-111 50 -111 144q0 70 53 110t131.5 40t129.5 -22v-106q-50 30 -125 30z" />
<glyph unicode="&#x162;" horiz-adv-x="520" d="M495 674v-104h-171v-570h-127v570h-171v104h469zM115 -255l77 204h128l-114 -204h-91z" />
<glyph unicode="&#x163;" horiz-adv-x="379" d="M211 417v-258q0 -32 17 -48.5t51 -16.5t66 21v-103q-35 -17 -90 -17q-164 0 -164 166v256h-76v90h76v122h120v-122h126v-90h-126zM74 -255l76 204h129l-114 -204h-91z" />
<glyph unicode="&#x164;" horiz-adv-x="520" d="M495 674v-104h-171v-570h-127v570h-171v104h469zM314 723h-106l-145 169h117l81 -99l81 99h117z" />
<glyph unicode="&#x165;" horiz-adv-x="379" d="M341 784h129l-114 -204h-91zM211 417v-258q0 -32 17 -48.5t51 -16.5t66 21v-103q-35 -17 -90 -17q-164 0 -164 166v256h-76v90h76v122h120v-122h126v-90h-126z" />
<glyph unicode="&#x166;" horiz-adv-x="520" d="M495 570h-171v-194h113v-94h-113v-282h-127v282h-113v94h113v194h-171v104h469v-104z" />
<glyph unicode="&#x167;" horiz-adv-x="407" d="M225 236v-77q0 -32 17 -48.5t51 -16.5t66 21v-103q-35 -17 -90 -17q-164 0 -164 166v75h-76v85h76v99h-76v87h76v122h120v-122h126v-87h-126v-99h127v-85h-127z" />
<glyph unicode="&#x168;" horiz-adv-x="659" d="M402 746q-30 0 -69 19t-58.5 19t-34.5 -9.5t-33 -34.5l-57 53q16 33 45.5 55.5t64.5 22.5t76 -19t60 -19q43 0 64 43l64 -51q-39 -79 -122 -79zM467 258v416h126v-415q0 -131 -70.5 -199.5t-192 -68.5t-193 67.5t-71.5 193.5v422h126v-421q0 -77 38 -111.5t99 -34.5 q138 0 138 151z" />
<glyph unicode="&#x169;" horiz-adv-x="565" d="M379 507h121v-507h-121v83q-40 -88 -156 -88q-77 0 -120 44t-43 125v343h120v-315q0 -48 23.5 -73t70 -25t76 35t29.5 106v272zM350 577q-30 0 -69 19t-58.5 19t-34.5 -9.5t-33 -34.5l-57 53q16 33 45.5 55.5t64.5 22.5t76 -19t60 -19q43 0 64 43l64 -51 q-39 -79 -122 -79z" />
<glyph unicode="&#x16a;" horiz-adv-x="659" d="M500 766h-328v83h328v-83zM467 258v416h126v-415q0 -131 -70.5 -199.5t-192 -68.5t-193 67.5t-71.5 193.5v422h126v-421q0 -77 38 -111.5t99 -34.5q138 0 138 151z" />
<glyph unicode="&#x16b;" horiz-adv-x="565" d="M379 507h121v-507h-121v83q-40 -88 -156 -88q-77 0 -120 44t-43 125v343h120v-315q0 -48 23.5 -73t70 -25t76 35t29.5 106v272zM443 682v-83h-328v83h328z" />
<glyph unicode="&#x16c;" horiz-adv-x="659" d="M467 258v416h126v-415q0 -131 -70.5 -199.5t-192 -68.5t-193 67.5t-71.5 193.5v422h126v-421q0 -77 38 -111.5t99 -34.5q138 0 138 151zM143 892h94q0 -43 23.5 -68.5t67.5 -25.5t67.5 25.5t23.5 68.5h94q0 -86 -49.5 -129.5t-135.5 -43.5t-135.5 44t-49.5 129z" />
<glyph unicode="&#x16d;" horiz-adv-x="565" d="M379 507h121v-507h-121v83q-40 -88 -156 -88q-77 0 -120 44t-43 125v343h120v-315q0 -48 23.5 -73t70 -25t76 35t29.5 106v272zM376 725h94q0 -86 -49.5 -129.5t-135.5 -43.5t-135.5 44t-49.5 129h94q0 -43 23.5 -68.5t67.5 -25.5t67.5 25.5t23.5 68.5z" />
<glyph unicode="&#x16e;" horiz-adv-x="659" d="M467 258v416h126v-415q0 -131 -70.5 -199.5t-192 -68.5t-193 67.5t-71.5 193.5v422h126v-421q0 -77 38 -111.5t99 -34.5q138 0 138 151zM279 839q0 -22 15 -38.5t38 -16.5t38 16.5t15 38.5t-15 38.5t-38 16.5t-38 -16.5t-15 -38.5zM207 837q0 52 36.5 88.5t88.5 36.5 t88.5 -36.5t36.5 -88.5t-36.5 -88.5t-88.5 -36.5t-88.5 36.5t-36.5 88.5z" />
<glyph unicode="&#x16f;" horiz-adv-x="565" d="M379 507h121v-507h-121v83q-40 -88 -156 -88q-77 0 -120 44t-43 125v343h120v-315q0 -48 23.5 -73t70 -25t76 35t29.5 106v272zM285 545q-52 0 -88.5 36.5t-36.5 88.5t36.5 88.5t88.5 36.5t88.5 -36.5t36.5 -88.5t-36.5 -88.5t-88.5 -36.5zM285 727q-23 0 -38 -16.5 t-15 -38.5t15 -38.5t38 -16.5t38 16.5t15 38.5t-15 38.5t-38 16.5z" />
<glyph unicode="&#x170;" horiz-adv-x="659" d="M198 723l90 169h117l-117 -169h-90zM373 723l97 169h126l-132 -169h-91zM467 258v416h126v-415q0 -131 -70.5 -199.5t-192 -68.5t-193 67.5t-71.5 193.5v422h126v-421q0 -77 38 -111.5t99 -34.5q138 0 138 151z" />
<glyph unicode="&#x171;" horiz-adv-x="565" d="M379 235v272h121v-507h-121v83q-40 -88 -156 -88q-77 0 -120 44t-43 125v343h120v-315q0 -48 23.5 -73t70 -25t76 35t29.5 106zM361 725l-117 -169h-90l90 169h117zM420 556h-91l97 169h126z" />
<glyph unicode="&#x172;" horiz-adv-x="659" d="M467 674h126v-415q0 -99 -41.5 -163t-116.5 -89q-114 -67 -114 -127q0 -44 52 -44q39 0 80 27v-85q-41 -23 -102.5 -23t-94.5 32t-33 82q0 67 62 124q-102 12 -160.5 78.5t-58.5 180.5v422h126v-421q0 -77 38 -111.5t99 -34.5q138 0 138 151v416z" />
<glyph unicode="&#x173;" horiz-adv-x="565" d="M500 507v-507q-116 -67 -116 -128q0 -44 52 -44q40 0 80 27v-85q-41 -23 -102.5 -23t-94.5 32t-33 82q0 82 93 150v72q-40 -88 -156 -88q-77 0 -120 44t-43 125v343h120v-315q0 -48 23.5 -73t70 -25t76 35t29.5 106v272h121z" />
<glyph unicode="&#x174;" horiz-adv-x="958" d="M433 892h106l145 -169h-117l-81 99l-81 -99h-117zM431 664h102l69 -239l80 -290q25 139 62 291l61 248h128l-172 -674h-146q-112 391 -132 473q-14 -72 -133 -473h-145l-180 674h133q86 -341 127 -537q33 129 146 527z" />
<glyph unicode="&#x175;" horiz-adv-x="801" d="M349 725h106l145 -169h-117l-81 99l-81 -99h-117zM173 0l-160 507h125q86 -313 100 -392q10 61 58 225l49 167h109q94 -320 107 -393q10 59 59 226l48 167h120l-161 -507h-130q-82 303 -97 379q-15 -77 -97 -379h-130z" />
<glyph unicode="&#x176;" horiz-adv-x="624" d="M374 0h-126v246l-230 428h147q121 -262 145 -327q9 37 103 229l46 98h147l-232 -424v-250zM312 822l-81 -99h-117l145 169h106l145 -169h-117z" />
<glyph unicode="&#x177;" horiz-adv-x="517" d="M93 -189q-29 0 -50 5v99q16 -4 34 -4q91 0 129 99l-200 497h133q114 -314 126 -359q3 11 117 359h126l-183 -493q-76 -203 -232 -203zM207 725h106l145 -169h-117l-81 99l-81 -99h-117z" />
<glyph unicode="&#x178;" horiz-adv-x="624" d="M374 0h-126v246l-230 428h147q121 -262 145 -327q9 37 103 229l46 98h147l-232 -424v-250zM246 758q-20 -20 -50.5 -20t-50.5 20t-20 49.5t20 49.5t50.5 20t50.5 -20t20 -49.5t-20 -49.5zM489 758q-20 -20 -50.5 -20t-51 20t-20.5 49.5t20.5 49.5t51 20t50.5 -20 t20 -49.5t-20 -49.5z" />
<glyph unicode="&#x179;" horiz-adv-x="601" d="M531 674v-93l-323 -478h336v-103h-487v96l322 475h-317v103h469zM269 723l91 169h126l-116 -169h-101z" />
<glyph unicode="&#x17a;" horiz-adv-x="469" d="M415 507v-84l-236 -326h249v-97h-386v89l235 322h-226v96h364zM200 556l91 169h126l-116 -169h-101z" />
<glyph unicode="&#x17b;" horiz-adv-x="601" d="M264 759q-20 20 -20 49.5t20 49.5t50.5 20t50.5 -20t20 -49.5t-20 -49.5t-50.5 -20t-50.5 20zM531 674v-93l-323 -478h336v-103h-487v96l322 475h-317v103h469z" />
<glyph unicode="&#x17c;" horiz-adv-x="469" d="M197 591q-20 20 -20 49.5t20 49.5t50.5 20t50.5 -20t20 -49.5t-20 -49.5t-50.5 -20t-50.5 20zM415 507v-84l-236 -326h249v-97h-386v89l235 322h-226v96h364z" />
<glyph unicode="&#x17d;" horiz-adv-x="601" d="M359 723h-106l-145 169h117l81 -99l81 99h117zM531 674v-93l-323 -478h336v-103h-487v96l322 475h-317v103h469z" />
<glyph unicode="&#x17e;" horiz-adv-x="469" d="M306 556h-106l-145 169h117l81 -99l81 99h117zM415 507v-84l-236 -326h249v-97h-386v89l235 322h-226v96h364z" />
<glyph unicode="&#x17f;" horiz-adv-x="281" d="M261 670q-73 0 -73 -82v-588h-120v588q0 85 47 133t130 48q41 0 66 -8v-101q-26 10 -50 10z" />
<glyph unicode="&#x192;" horiz-adv-x="473" d="M384 680q49 0 78 -10v-100q-28 10 -57 10q-73 0 -90 -109l-15 -91h97v-90h-111l-56 -346q-15 -94 -61.5 -147t-126.5 -53q-55 0 -86 13v100q31 -14 68.5 -14t57 27t28.5 83l55 337h-91v90h106l16 100q32 200 188 200z" />
<glyph unicode="&#x218;" horiz-adv-x="518" d="M125 -255l76 204h129l-114 -204h-91zM285 569q-47 0 -73.5 -21t-26.5 -54t28.5 -54.5t77 -43.5t73.5 -35.5t54 -37.5q59 -48 59 -136t-64.5 -141.5t-174 -53.5t-184.5 43v129q86 -62 188 -62q46 0 74 22.5t28 60.5q0 18 -7 32t-29 28q-42 28 -95 49q-37 17 -60 30.5 t-50 36.5q-54 46 -54 130t63.5 136t163.5 52t169 -33v-122q-75 45 -160 45z" />
<glyph unicode="&#x219;" horiz-adv-x="427" d="M243 415q-31 0 -48.5 -13.5t-17.5 -34.5q0 -17 9 -26t15 -14t17 -11q27 -13 41 -19q69 -29 103 -64.5t34 -86.5q0 -71 -51 -111t-140.5 -40t-147.5 31v110q67 -45 145 -45q33 0 51.5 12.5t18.5 30t-6 28t-23 20.5q-22 13 -44.5 22.5t-24 10.5t-4.5 2t-5 2 q-111 50 -111 144q0 70 53 110t131.5 40t129.5 -22v-106q-50 30 -125 30zM82 -255l76 204h129l-115 -204h-90z" />
<glyph unicode="&#x21a;" horiz-adv-x="520" d="M495 674v-104h-171v-570h-127v570h-171v104h469zM118 -255l77 204h128l-114 -204h-91z" />
<glyph unicode="&#x21b;" horiz-adv-x="379" d="M211 417v-258q0 -32 17 -48.5t51 -16.5t66 21v-103q-35 -17 -90 -17q-164 0 -164 166v256h-76v90h76v122h120v-122h126v-90h-126zM110 -255l76 204h128l-114 -204h-90z" />
<glyph unicode="&#x237;" horiz-adv-x="257" d="M19 -101q53 0 53 69v539h120v-541q0 -75 -41 -119t-117 -44q-36 0 -76 16v95q35 -15 61 -15z" />
<glyph unicode="&#x2bc;" horiz-adv-x="229" d="M19 447l95 247h137l-130 -247h-102z" />
<glyph unicode="&#x2c6;" horiz-adv-x="470" d="M182 798h106l145 -169h-117l-81 99l-81 -99h-117z" />
<glyph unicode="&#x2c7;" horiz-adv-x="470" d="M288 629h-106l-145 169h117l81 -99l81 99h117z" />
<glyph unicode="&#x2c9;" horiz-adv-x="470" d="M399 667h-328v83h328v-83z" />
<glyph unicode="&#x2d8;" horiz-adv-x="470" d="M50 798h94q0 -43 23.5 -68.5t67.5 -25.5t67.5 25.5t23.5 68.5h94q0 -86 -49.5 -129.5t-135.5 -43.5t-135.5 44t-49.5 129z" />
<glyph unicode="&#x2d9;" horiz-adv-x="470" d="M184 666q-20 20 -20 49.5t20 49.5t50.5 20t50.5 -20t20 -49.5t-20 -49.5t-50.5 -20t-50.5 20z" />
<glyph unicode="&#x2da;" horiz-adv-x="470" d="M182 716q0 -22 15 -38.5t38 -16.5t38 16.5t15 38.5t-15 38.5t-38 16.5t-38 -16.5t-15 -38.5zM110 714q0 52 36.5 88.5t88.5 36.5t88.5 -36.5t36.5 -88.5t-36.5 -88.5t-88.5 -36.5t-88.5 36.5t-36.5 88.5z" />
<glyph unicode="&#x2db;" horiz-adv-x="470" d="M350 -217q-41 -23 -102.5 -23t-94.5 32t-33 80.5t31.5 90.5t67 65.5t73.5 38.5l42 -54q-116 -67 -116 -128q0 -44 52 -44q40 0 80 27v-85z" />
<glyph unicode="&#x2dc;" horiz-adv-x="470" d="M303 635q-31 0 -69 19t-58 19t-35 -9.5t-33 -34.5l-57 53q16 33 45.5 55.5t64.5 22.5t76 -19t60 -19q43 0 64 43l64 -51q-39 -79 -122 -79z" />
<glyph unicode="&#x2dd;" horiz-adv-x="470" d="M36 629l90 169h117l-117 -169h-90zM211 629l97 169h126l-132 -169h-91z" />
<glyph unicode="&#x3c0;" horiz-adv-x="597" d="M584 507v-90h-86v-417h-120v417h-150v-220q0 -110 -45.5 -153.5t-142.5 -43.5v100q38 0 53 17.5t15 68.5v231h-86v90h562z" />
<glyph unicode="&#x901;" horiz-adv-x="0" d="M-201 967q0 26 18 44.5t44.5 18.5t45 -18.5t18.5 -44.5t-18.5 -44.5t-45 -18.5t-44.5 18.5t-18 44.5zM13 782.5q-62 -47.5 -154.5 -47.5t-152 45.5t-59.5 131.5h114q0 -40 27.5 -65.5t73.5 -25.5t72.5 25.5t26.5 65.5h114q0 -82 -62 -129.5z" />
<glyph unicode="&#x902;" horiz-adv-x="0" d="M-209 805q0 30 20 50.5t50.5 20.5t51.5 -20.5t21 -50.5t-21 -50.5t-51.5 -20.5t-50.5 20.5t-20 50.5z" />
<glyph unicode="&#x903;" horiz-adv-x="290" d="M77 154q0 30 20.5 51t51 21t51 -21t20.5 -51t-20.5 -50.5t-51 -20.5t-51 20.5t-20.5 50.5zM77 484q0 30 20.5 51t51 21t51 -21t20.5 -51t-20.5 -50.5t-51 -20.5t-51 20.5t-20.5 50.5z" />
<glyph unicode="&#x905;" horiz-adv-x="686" d="M713 660v-95h-106v-565h-118v243h-119v-13q0 -78 -53.5 -126.5t-155.5 -48.5q-71 0 -131 23v109q65 -33 117 -33q110 0 110 92q0 78 -107 78h-38v100h31q92 0 92 71q0 68 -79 68q-52 0 -102 -24v106q49 19 109 19q91 0 140.5 -41.5t49.5 -113.5q0 -52 -26.5 -87 t-73.5 -48q43 -6 76 -35h160v226h-82v95h306z" />
<glyph unicode="&#x906;" horiz-adv-x="959" d="M986 660v-95h-106v-565h-117v565h-156v-565h-118v243h-119v-13q0 -78 -53.5 -126.5t-155.5 -48.5q-71 0 -131 23v109q65 -33 117 -33q110 0 110 92q0 78 -107 78h-38v100h31q92 0 92 71q0 68 -79 68q-52 0 -102 -24v106q49 19 109 19q91 0 140.5 -41.5t49.5 -113.5 q0 -52 -26.5 -87t-73.5 -48q43 -6 76 -35h160v226h-82v95h579z" />
<glyph unicode="&#x907;" horiz-adv-x="511" d="M432 565v-154h-186q-66 0 -66 -46q0 -24 21.5 -34.5t70.5 -12.5q108 -2 158.5 -40t50.5 -110.5t-50.5 -119.5t-127.5 -47t-131 34v-102h-116v243h108q14 -38 48 -62t71.5 -24t59.5 19.5t22 49.5q0 57 -98 60q-206 4 -206 140q0 72 52.5 109.5t134.5 37.5h67v59h-342v95 h565v-95h-106z" />
<glyph unicode="&#x908;" horiz-adv-x="511" d="M425 565v-154h-179q-66 0 -66 -46q0 -24 21.5 -34.5t70.5 -12.5q108 -2 158.5 -40t50.5 -110.5t-50.5 -119.5t-127.5 -47t-131 34v-102h-116v243h108q14 -38 48 -62t71.5 -24t59.5 19.5t22 49.5q0 57 -98 60q-206 4 -206 140q0 72 52.5 109.5t134.5 37.5h60v59h-335v95 h308q-32 42 -32 96q0 73 48 115t115.5 42t108.5 -20v-108q-39 25 -78.5 25t-56.5 -18t-17 -54t33 -78h136v-95h-113z" />
<glyph unicode="&#x909;" horiz-adv-x="451" d="M478 660v-95h-127q29 -37 29 -88.5t-32.5 -85.5t-89.5 -44q71 -6 113.5 -45t42.5 -104q0 -87 -63.5 -135.5t-177.5 -48.5q-79 0 -143 23v108q63 -33 136 -33q130 0 130 96q0 41 -35 65t-107 24h-43v100h37q56 0 85 20.5t29 66t-36 81.5h-253v95h505z" />
<glyph unicode="&#x90a;" horiz-adv-x="713" d="M740 660v-95h-389q29 -37 29 -88.5t-32.5 -85.5t-89.5 -44q57 -5 97 -32q15 47 53.5 75t94.5 28q89 0 138.5 -52t49.5 -141t-52 -146.5t-145 -57.5q-16 0 -29 3v94q7 -2 17 -2q92 0 92 110q0 43 -20 70t-58 27t-60 -34.5t-22 -86.5v-4q0 -87 -63.5 -135.5t-177.5 -48.5 q-79 0 -143 23v108q63 -33 136 -33q130 0 130 96q0 41 -35 65t-107 24h-43v100h37q56 0 85 20.5t29 66t-36 81.5h-253v95h767z" />
<glyph unicode="&#x90b;" horiz-adv-x="877" d="M491 565v-190l106 61v62h111v-88q0 -83 74 -83h25v-94h-45q-88 0 -88 -61q0 -23 18 -36t46 -13q60 0 98 25v-98q-36 -21 -103 -21t-120 34t-53 101q0 44 26 75t70 44q-30 17 -46 52l-119 -67v-268h-119v209l-306 -177v114l188 106q-8 57 -33.5 89.5t-82.5 32.5 q-39 0 -77 -17v105q37 15 87 15q165 0 198 -173l26 15v246h-399v95h931v-95h-413z" />
<glyph unicode="&#x90c;" horiz-adv-x="800" d="M707 565v-389q-55 -1 -83.5 -21.5t-28.5 -52.5t21 -48.5t66 -16.5t88 21v-93q-46 -19 -104 -19q-84 0 -136 38.5t-52 110.5q0 46 29 82.5t81 50.5v151q-30 10 -56 10q-97 0 -97 -111v-67h-118v69q0 98 -75 98q-36 0 -58 -28.5t-22 -95.5t40.5 -111.5t121.5 -44.5 q26 0 45 4v-96q-23 -5 -58 -5q-121 0 -193 73t-72 191q0 95 49 153t134 58q59 0 98.5 -25.5t48.5 -65.5q26 97 149 97q31 0 63 -12v95h-615v95h854v-95h-120z" />
<glyph unicode="&#x90d;" horiz-adv-x="569" d="M596 660v-95h-80v-130q0 -79 -46 -121.5t-121 -42.5q-36 0 -58 6v93q20 -5 36 -5q38 0 55.5 19t17.5 60v121h-210v-303q0 -67 42 -100t119.5 -33t146.5 32v-106q-74 -27 -159 -27q-121 0 -193.5 58t-72.5 176v303h-100v95h623zM397 912h114q0 -82 -59 -129.5t-151 -47.5 t-148.5 45t-56.5 132h114q0 -41 24.5 -66t69.5 -25t69 25t24 66z" />
<glyph unicode="&#x90e;" horiz-adv-x="569" d="M596 660v-95h-80v-130q0 -79 -46 -121.5t-121 -42.5q-36 0 -58 6v93q20 -5 36 -5q38 0 55.5 19t17.5 60v121h-210v-303q0 -67 42 -100t119.5 -33t146.5 32v-106q-74 -27 -159 -27q-121 0 -193.5 58t-72.5 176v303h-100v95h427q-2 39 -15 56t-48 17h-38q-103 0 -145 44 q-42 43 -42 127h118q0 -45 18 -60.5t64 -15.5h36q167 0 169 -168h79z" />
<glyph unicode="&#x90f;" horiz-adv-x="569" d="M596 660v-95h-80v-130q0 -79 -46 -121.5t-121 -42.5q-36 0 -58 6v93q20 -5 36 -5q38 0 55.5 19t17.5 60v121h-210v-303q0 -67 42 -100t119.5 -33t146.5 32v-106q-74 -27 -159 -27q-121 0 -193.5 58t-72.5 176v303h-100v95h623z" />
<glyph unicode="&#x910;" horiz-adv-x="569" d="M596 660v-95h-80v-130q0 -79 -46 -121.5t-121 -42.5q-36 0 -58 6v93q20 -5 36 -5q38 0 55.5 19t17.5 60v121h-210v-303q0 -67 42 -100t119.5 -33t146.5 32v-106q-74 -27 -159 -27q-121 0 -193.5 58t-72.5 176v303h-100v95h415l-73 108q-29 46 -81 46q-28 0 -59 -9v99 q42 7 68 7q109 -1 167 -91l104 -160h82z" />
<glyph unicode="&#x911;" horiz-adv-x="961" d="M987 660v-95h-106v-565h-117v565h-157v-565h-118v243h-119v-13q0 -78 -53.5 -126.5t-155.5 -48.5q-71 0 -131 23v109q65 -33 117 -33q110 0 110 92q0 78 -107 78h-38v100h31q92 0 92 71q0 68 -79 68q-52 0 -102 -24v106q49 19 109 19q91 0 140.5 -41.5t49.5 -113.5 q0 -52 -26.5 -87t-73.5 -48q43 -6 76 -35h160v226h-82v95h580zM790 912h114q0 -82 -59 -129.5t-151 -47.5t-148.5 45t-56.5 132h114q0 -41 24.5 -66t69.5 -25t69 25t24 66z" />
<glyph unicode="&#x912;" horiz-adv-x="961" d="M988 660v-95h-106v-565h-117v565h-158v-565h-118v243h-119v-13q0 -78 -53.5 -126.5t-155.5 -48.5q-71 0 -131 23v109q65 -33 117 -33q110 0 110 92q0 78 -107 78h-38v100h31q92 0 92 71q0 68 -79 68q-52 0 -102 -24v106q49 19 109 19q91 0 140.5 -41.5t49.5 -113.5 q0 -52 -26.5 -87t-73.5 -48q43 -6 76 -35h160v226h-82v95h358q-2 39 -15 56t-48 17h-38q-103 0 -146 44q-41 43 -41 127h118q0 -45 18 -60.5t64 -15.5h36q167 0 169 -168h106z" />
<glyph unicode="&#x913;" horiz-adv-x="961" d="M985 660v-95h-106v-565h-117v565h-155v-565h-118v243h-119v-13q0 -78 -53.5 -126.5t-155.5 -48.5q-71 0 -131 23v109q65 -33 117 -33q110 0 110 92q0 78 -107 78h-38v100h31q92 0 92 71q0 68 -79 68q-52 0 -102 -24v106q49 19 109 19q91 0 140.5 -41.5t49.5 -113.5 q0 -52 -26.5 -87t-73.5 -48q43 -6 76 -35h160v226h-82v95h348l-73 108q-29 46 -81 46q-27 0 -59 -9v99q42 7 68 7q109 -1 167 -91l104 -160h104z" />
<glyph unicode="&#x914;" horiz-adv-x="961" d="M988 660v-95h-106v-565h-117v565h-158v-565h-118v243h-119v-13q0 -78 -53.5 -126.5t-155.5 -48.5q-71 0 -131 23v109q65 -33 117 -33q110 0 110 92q0 78 -107 78h-38v100h31q92 0 92 71q0 68 -79 68q-52 0 -102 -24v106q49 19 109 19q91 0 140.5 -41.5t49.5 -113.5 q0 -52 -26.5 -87t-73.5 -48q43 -6 76 -35h160v226h-82v95h326q-98 62 -170 62q-30 0 -57 -8v89q32 8 70 8t80 -22q48 -25 134 -102l-92 112q-52 63 -124 63q-36 0 -68 -9v91q27 8 75 8q118 0 187 -112l112 -180h108z" />
<glyph unicode="&#x915;" horiz-adv-x="795" d="M822 565h-366v-123q46 43 110 43q87 0 140 -53t53 -140.5t-60.5 -141.5t-152.5 -54q-16 0 -23 1v95q6 -1 18 -1q45 0 72.5 28.5t27.5 72t-25.5 71.5t-66.5 28t-67 -27.5t-26 -70.5v-293h-118v128q-45 -42 -110 -42q-86 0 -139.5 53t-53.5 140.5t60.5 141.5t152.5 54 q15 0 23 -1v-95q-6 1 -18 1q-45 0 -72.5 -28.5t-27.5 -72t25.5 -71.5t66.5 -28t67 27.5t26 70.5v287h-365v95h849v-95z" />
<glyph unicode="&#x916;" horiz-adv-x="818" d="M845 660v-95h-106v-565h-118v149q-42 -33 -111 -33t-120 50.5t-51 129.5t53 129t132 50q17 0 35 -4v-88q-5 2 -20 2q-40 0 -64.5 -26t-24.5 -66t24 -64t61.5 -24t61.5 22.5t24 64.5v273h-295v-131q0 -69 -38 -112q-43 -48 -117 -55l209 -267h-142l-204 265v93h72 q103 0 103 84v123h-236v95h872z" />
<glyph unicode="&#x917;" horiz-adv-x="581" d="M-27 660h635v-95h-106v-565h-116v565h-135v-221q0 -69 -37.5 -104t-91 -35t-92.5 14v95q25 -13 54 -13q50 0 50 53v211h-161v95z" />
<glyph unicode="&#x918;" horiz-adv-x="640" d="M667 660v-95h-106v-565h-117v157q-26 -37 -77.5 -58t-109.5 -21q-91 0 -150 43.5t-59 118.5q0 57 38 92.5t104 43.5q-59 2 -95 30.5t-36 76.5t34 82h-120v95h694zM444 337v228h-227q-40 -29 -40 -71q0 -68 103 -68h43v-99h-52q-49 0 -77 -21t-28 -57t29 -54.5t74 -18.5 q77 0 126 43.5t49 117.5z" />
<glyph unicode="&#x919;" horiz-adv-x="624" d="M-27 660h678v-95h-231v-153h-196q-63 0 -63 -48q0 -28 28.5 -38t94.5 -11q192 -3 192 -148q-1 -73 -61 -120t-170.5 -47t-198.5 48v110q100 -61 206 -61q51 0 79 17.5t28 48t-26 42t-101.5 13t-131 35t-55.5 107t52 110t127 36.5h80v59h-331v95zM535 422q28 0 48 -20 t20 -48t-20 -47.5t-48 -19.5t-47.5 19.5t-19.5 47.5t19.5 48t47.5 20z" />
<glyph unicode="&#x91a;" horiz-adv-x="650" d="M677 660v-95h-106v-565h-116v176q-54 -81 -182 -82q-85 0 -137 46t-52 120.5t64 109.5h-125v97h352v-97q-178 0 -178 -100q0 -39 27.5 -60t75.5 -21q71 0 113 44t42 92v240h-482v95h704z" />
<glyph unicode="&#x91b;" horiz-adv-x="647" d="M674 565h-144v-97q75 -49 75 -151q0 -119 -86.5 -192t-220.5 -73q-104 0 -174.5 45.5t-70.5 125.5q0 55 35 88.5t96 38.5q-53 3 -85.5 37.5t-32.5 87.5t37 90h-130v95h701v-95zM419 498v67h-188q-48 -35 -48 -89q0 -35 23 -57t60 -22h34v-98h-37q-92 0 -92 -71 q0 -37 36 -58t92 -21q84 0 135.5 43t51.5 117q0 44 -24.5 69t-60.5 25t-53 -6v94q22 7 66 7h5z" />
<glyph unicode="&#x91c;" horiz-adv-x="655" d="M-27 660h710v-95h-107v-565h-118v362h-164q64 -40 64 -124t-55.5 -132t-136 -48t-136.5 22v104q49 -26 102.5 -26t83.5 24.5t30 73.5t-40 77.5t-115 28.5v97h367v106h-485v95z" />
<glyph unicode="&#x91d;" horiz-adv-x="773" d="M800 660v-95h-106v-565h-118v238h-113q13 -29 13 -68q0 -72 -49.5 -117.5t-126 -45.5t-132.5 37v-94h-116v233h107q17 -39 51.5 -62.5t71.5 -23.5t57.5 17.5t20.5 49.5q0 63 -99 66q-197 4 -197 135q0 72 52 108t135 36h68v56h-346v95h827zM266 329h310v236h-140v-151 h-179q-74 0 -74 -44q0 -22 20 -30.5t63 -10.5z" />
<glyph unicode="&#x91e;" horiz-adv-x="684" d="M711 660v-95h-106v-565h-118v243h-81q-11 -79 -70 -127.5t-153 -52.5q-86 0 -156 36v107q71 -42 137.5 -42t96 30.5t29.5 79t-28 77t-73.5 28.5t-87.5 -17v99q37 15 106.5 15t122.5 -36.5t70 -101.5h87v227h-514v95h738z" />
<glyph unicode="&#x91f;" horiz-adv-x="510" d="M435 565v-196q-27 6 -85 6q-86 0 -134 -35t-48 -97t45 -95.5t119 -33.5q38 0 79 12t66 28v-106q-64 -34 -153 -34q-127 0 -201 61.5t-74 163t68.5 165t185.5 65.5h16v96h-346v95h564v-95h-102z" />
<glyph unicode="&#x920;" horiz-adv-x="571" d="M598 565h-231v-105q74 -19 118 -69t44 -133.5t-65.5 -140.5t-175.5 -57.5t-177.5 56t-67.5 148.5t59.5 143t147.5 60v98h-277v95h625v-95zM377 183.5q33 30.5 33 83t-33.5 80.5t-88.5 28.5t-91 -27t-36 -81t35.5 -84t91.5 -30.5t89 30.5z" />
<glyph unicode="&#x921;" horiz-adv-x="529" d="M420 565v-153h-196q-63 0 -63 -48q0 -28 28.5 -38t94.5 -11q192 -3 192 -148q-1 -73 -61 -120t-170.5 -47t-198.5 48v110q100 -61 206 -61q51 0 79 17.5t28 48t-26 42t-101.5 13t-131 35t-55.5 107t52 110t127 36.5h80v59h-331v95h583v-95h-136z" />
<glyph unicode="&#x922;" horiz-adv-x="561" d="M266 291q46 22 107.5 22t103.5 -36t42 -103t-59 -113.5t-167 -46.5t-181 66t-73 171.5t76 165.5t197 62h23v86h-362v95h615v-95h-136v-188q-55 10 -102 10q-84 0 -138 -35.5t-54 -99t41 -104t105 -40.5q44 0 73 18.5t29 45.5q0 55 -63 55q-43 0 -77 -22v86z" />
<glyph unicode="&#x923;" horiz-adv-x="750" d="M777 660v-95h-106v-565h-117v565h-134v-212q0 -93 -50 -141.5t-140 -48.5q-185 0 -185 188v214h-72v95h804zM304 344v221h-142v-221q0 -82 70 -82q72 0 72 82z" />
<glyph unicode="&#x924;" horiz-adv-x="600" d="M627 660v-95h-106v-565h-117v369h-80q-153 0 -153 -133q0 -64 30 -100t90 -36q13 0 19 1v-98q-22 -2 -36 -2q-103 0 -162 65.5t-59 170t67.5 167t197.5 62.5h86v99h-431v95h654z" />
<glyph unicode="&#x925;" horiz-adv-x="661" d="M391 507q0 -149 -233 -215q15 -45 52 -69.5t96 -24.5t108.5 39t49.5 121v302h217v-95h-99v-565h-118v171q-20 -31 -69 -52.5t-107 -21.5q-104 0 -180 69.5t-85 190.5q137 33 197 66t60 87q0 27 -13 44t-39 17t-39.5 -16.5t-13.5 -40t12 -57.5h-112q-12 33 -12 66 q0 62 44 103.5t119.5 41.5t120 -43.5t44.5 -117.5z" />
<glyph unicode="&#x926;" horiz-adv-x="568" d="M-27 660h622v-95h-115v-172h-196q-59 0 -93 -31t-34 -84.5t30 -84t79.5 -30.5t81 27.5t37.5 78.5h114v-279h-116v128q-18 -25 -57 -39t-77 -14q-96 0 -154.5 60t-58.5 152t63 151t179 59h84v78h-389v95z" />
<glyph unicode="&#x927;" horiz-adv-x="640" d="M667 660v-95h-106v-565h-117v144q-28 -36 -76.5 -56.5t-105.5 -20.5q-94 0 -154 45t-60 120q0 58 39.5 91.5t106.5 39.5q-63 3 -99 31.5t-36 86t51 84.5h-137v95h319v-95h-2q-55 0 -84 -21.5t-29 -60.5q0 -71 107 -71h44v-99h-53q-108 0 -108 -72q0 -36 29 -56t78 -20 q77 0 123.5 42t46.5 112v341h223z" />
<glyph unicode="&#x928;" horiz-adv-x="514" d="M-27 660h568v-95h-106v-565h-118v321h-144q-18 0 -26 -9.5t-8 -36t10 -68.5h-94q-32 57 -32 121q0 40 25.5 63.5t75.5 23.5h193v150h-344v95z" />
<glyph unicode="&#x929;" horiz-adv-x="514" d="M-27 660h568v-95h-106v-565h-118v321h-144q-18 0 -26 -9.5t-8 -36t10 -68.5h-94q-32 57 -32 121q0 40 25.5 63.5t75.5 23.5h193v150h-344v95zM140 123q28 0 48 -19.5t20 -48t-20 -48t-48 -19.5t-47.5 19.5t-19.5 47.5t19.5 48t47.5 20z" />
<glyph unicode="&#x92a;" horiz-adv-x="568" d="M595 660v-95h-106v-565h-118v221q-46 -48 -123 -48q-185 0 -185 202v190h-90v95h622zM371 378v187h-190v-194q0 -55 21.5 -79.5t65.5 -24.5t73.5 29.5t29.5 81.5z" />
<glyph unicode="&#x92b;" horiz-adv-x="824" d="M851 565h-362v-114q46 43 124 43t127.5 -54t49.5 -142.5t-59.5 -140.5t-150.5 -52q-17 0 -24 1v96q10 -2 17 -2q47 0 73.5 26.5t26.5 72.5t-24 73.5t-64.5 27.5t-68 -27t-27.5 -72v-301h-118v221q-47 -47 -123 -47q-185 0 -185 200v191h-90v95h878v-95zM371 378v187h-190 v-194q0 -55 21.5 -79t65.5 -24t73.5 29t29.5 81z" />
<glyph unicode="&#x92c;" horiz-adv-x="626" d="M653 660v-95h-106v-565h-118v143q-63 -66 -159 -66t-161.5 60t-65.5 153t62.5 154t164.5 61q46 0 81 -9v-102q-32 11 -68 11t-57 -10l184 -161q19 28 19 63v268h-456v95h680zM180 358q-20 -29 -20 -76.5t33.5 -80t83.5 -32.5t89 23z" />
<glyph unicode="&#x92d;" horiz-adv-x="577" d="M383 366v294h221v-95h-106v-565h-115v272h-169v-130h-102l-32 69q-27 57 -27 89q0 50 45 61v153q0 54 -46 54q-29 0 -55 -14v92q34 19 80 19q137 0 137 -135v-164h169z" />
<glyph unicode="&#x92e;" horiz-adv-x="580" d="M386 565h-177v-202h177v202zM-27 565v95h634v-95h-106v-565h-115v268h-177v-127h-100l-32 71q-28 63 -28 91q0 43 44 54v208h-120z" />
<glyph unicode="&#x92f;" horiz-adv-x="631" d="M214.5 242q34.5 -26 91 -26t93 35t36.5 101v213h-152q23 -34 23 -88q0 -122 -138 -166q12 -43 46.5 -69zM282 113q-97 0 -166.5 68.5t-84.5 190.5q159 25 159 110q0 51 -30 83h-187v95h685v-95h-106v-565h-117v179q-20 -30 -61 -48t-92 -18z" />
<glyph unicode="&#x930;" horiz-adv-x="401" d="M34 358h72q103 0 103 83v124h-236v95h455v-95h-102v-131q0 -69 -37.5 -112.5t-104.5 -51.5q-6 -2 -14 -2l208 -268h-141l-203 265v93z" />
<glyph unicode="&#x931;" horiz-adv-x="401" d="M34 358h72q103 0 103 83v124h-236v95h455v-95h-102v-131q0 -69 -37.5 -112.5t-104.5 -51.5q-6 -2 -14 -2l208 -268h-141l-203 265v93zM-35 23q0 28 19.5 47.5t47.5 19.5t48 -19.5t20 -47.5t-20 -47.5t-48 -19.5t-47.5 19.5t-19.5 47.5z" />
<glyph unicode="&#x932;" horiz-adv-x="751" d="M778 660v-95h-106v-565h-119v386q-15 3 -31 3q-49 0 -73 -26.5t-24 -84.5v-67h-118v69q0 98 -69 98q-36 0 -58 -28.5t-22 -95.5t40.5 -111.5t122.5 -44.5q24 0 37 2v-96q-26 -3 -51 -3q-121 0 -193 73t-72 191q0 95 49 153t135 58q58 0 94.5 -25t45.5 -66q26 97 149 97 q18 0 38 -5v88h-580v95h805z" />
<glyph unicode="&#x933;" horiz-adv-x="801" d="M828 565h-211v-90q67 -17 107.5 -67t40.5 -121q0 -89 -60 -143.5t-152.5 -54.5t-162.5 64q-51 -64 -143.5 -64t-151.5 54t-59 142.5t58.5 144t149.5 55.5t159 -61q43 45 102 55v86h-532v95h855v-95zM248 183q57 0 86 90q4 14 10 35.5t9 31.5q-49 51 -106 51 q-43 0 -67.5 -29.5t-24.5 -76t24.5 -74.5t68.5 -28zM646 287q0 46 -25.5 74t-70.5 28q-63 0 -92 -90q-5 -17 -16 -62q50 -54 110 -54q43 0 68.5 29t25.5 75z" />
<glyph unicode="&#x934;" horiz-adv-x="801" d="M828 565h-211v-90q67 -17 107.5 -67t40.5 -121q0 -89 -60 -143.5t-152.5 -54.5t-162.5 64q-51 -64 -143.5 -64t-151.5 54t-59 142.5t58.5 144t149.5 55.5t159 -61q43 45 102 55v86h-532v95h855v-95zM248 183q57 0 86 90q4 14 10 35.5t9 31.5q-49 51 -106 51 q-43 0 -67.5 -29.5t-24.5 -76t24.5 -74.5t68.5 -28zM646 287q0 46 -25.5 74t-70.5 28q-63 0 -92 -90q-5 -17 -16 -62q50 -54 110 -54q43 0 68.5 29t25.5 75zM218 10q28 0 48 -19.5t20 -47.5t-19.5 -47.5t-48 -19.5t-48 19.5t-19.5 47.5t19.5 47.5t47.5 19.5z" />
<glyph unicode="&#x935;" horiz-adv-x="592" d="M619 660v-95h-106v-565h-118v144q-56 -56 -145 -56t-149.5 53.5t-60.5 144t59 149t154 58.5q38 0 68 -8v-102q-34 9 -59 9q-45 0 -74.5 -27.5t-29.5 -76t30 -77.5t81 -29t88.5 34.5t37.5 82.5v266h-422v95h646z" />
<glyph unicode="&#x936;" horiz-adv-x="700" d="M503 660h224v-95h-106v-565h-118v660zM63 510q0 64 46 109t127 45t132.5 -53.5t51.5 -135.5q0 -111 -75 -170.5t-175 -59.5h-2l234 -245h-151l-221 241v99h107q79 0 123 35.5t44 100.5q0 90 -71 90q-28 0 -42.5 -19t-14.5 -47t16 -60h-113q-16 32 -16 70z" />
<glyph unicode="&#x937;" horiz-adv-x="599" d="M626 660v-95h-106v-565h-116v217q-54 -49 -141 -49t-142 51.5t-55 154.5v191h-93v95h653zM179 371q0 -55 29.5 -82.5t80.5 -27.5t86 38l-196 195v-123zM404 361v204h-200z" />
<glyph unicode="&#x938;" horiz-adv-x="664" d="M691 660v-95h-106v-565h-117v251h-157q-78 0 -141 9l185 -260h-141l-191 274v84h69q94 0 94 84v123h-213v95h718zM468 346v219h-165v-125q0 -56 -23 -94h188z" />
<glyph unicode="&#x939;" horiz-adv-x="543" d="M467 408h-250q-44 0 -44 -34t34 -58q43 10 89 10q87 0 139.5 -42t52.5 -103q0 -36 -10 -57h-115q12 19 12 46.5t-21.5 43.5t-69.5 16t-79 -23t-31 -61.5t36.5 -64t102 -25.5t145.5 19v-97q-78 -17 -139 -17q-127 0 -194.5 56.5t-67.5 133t65 126.5q-69 40 -69 111 q0 54 39.5 83t102.5 29h156v65h-378v95h597v-95h-103v-157z" />
<glyph unicode="&#x93c;" horiz-adv-x="0" d="M-348 -131q0 28 19.5 48t48 20t48 -19.5t19.5 -48t-20 -48t-48 -19.5t-47.5 19.5t-19.5 47.5z" />
<glyph unicode="&#x93d;" horiz-adv-x="534" d="M433.5 47.5q-55.5 -50.5 -169.5 -50.5t-216 58v122q45 -30 107 -51.5t113 -21.5t75.5 19.5t24.5 50t-32.5 60t-79 57.5t-93 59.5t-79 75.5t-32.5 101.5t43.5 95t121.5 37.5h240v-107h-227q-51 0 -51 -41q0 -25 32 -52t77.5 -54.5t91 -59t77.5 -76.5t32 -96 q0 -76 -55.5 -126.5z" />
<glyph unicode="&#x93e;" d="M-27 565v95h329v-95h-106v-565h-117v565h-106z" />
<glyph unicode="&#x93f;" d="M463.5 793q-105.5 26 -161.5 26q-106 0 -106 -92v-67h106v-95h-106v-565h-117v565h-106v95h106v69q0 85 55.5 137t148.5 52t181 -22.5t202 -66.5v-106q-97 44 -202.5 70z" />
<glyph unicode="&#x940;" d="M195 660h107v-95h-106v-565h-117v565h-106v95h105v69q0 41 -22.5 63.5t-60.5 22.5q-79 0 -79 -86v-22h-118v26q0 90 56 136t141.5 46t142.5 -45.5t57 -135.5v-74z" />
<glyph unicode="&#x941;" horiz-adv-x="0" d="M-158 -194q37 0 57.5 16.5t20.5 42t-18 39t-55 13.5t-98 -29v102q60 21 105 21q86 0 133 -39t47 -106.5t-50.5 -112t-133 -44.5t-158 35.5t-125.5 78.5v130q51 -54 128.5 -100.5t146.5 -46.5z" />
<glyph unicode="&#x942;" horiz-adv-x="0" d="M-142 -277q-74 0 -121.5 38t-47.5 104.5t46 108.5t116 42t122 -29.5t81 -76.5q58 -92 58 -199h-109q0 86 -39.5 148t-104.5 62q-26 0 -42 -14.5t-16 -38.5t19 -39.5t44.5 -15.5t47.5 9v-90q-24 -9 -54 -9z" />
<glyph unicode="&#x943;" horiz-adv-x="0" d="M-287 -261q-48 42 -48 105t38 101t101 45v21h117v-107h-49q-93 0 -93 -62q0 -25 17.5 -40t57.5 -15t78 25v-91q-41 -24 -95 -24q-76 0 -124 42z" />
<glyph unicode="&#x945;" horiz-adv-x="0" d="M10 782.5q-59 -47.5 -150.5 -47.5t-148 45t-56.5 132h114q0 -41 24 -66t69.5 -25t69 25t23.5 66h114q0 -82 -59 -129.5z" />
<glyph unicode="&#x946;" horiz-adv-x="0" d="M-284 828h36q169 0 169 -172h-117q-1 41 -14.5 59t-48.5 18h-38q-103 0 -145 44q-42 43 -42 127h118q0 -45 18 -60.5t64 -15.5z" />
<glyph unicode="&#x947;" horiz-adv-x="0" d="M-360 814q-28 0 -59 -9v99q42 7 68 7q109 -1 167 -91l109 -167h-126l-78 115q-29 46 -81 46z" />
<glyph unicode="&#x948;" horiz-adv-x="0" d="M-399 722q-30 0 -57 -8v89q32 8 70 8t80 -22q48 -25 134 -102l-92 112q-52 63 -124 63q-36 0 -68 -9v91q27 8 75 8q118 0 187 -112l116 -187h-140q-108 69 -181 69z" />
<glyph unicode="&#x949;" d="M281 782.5q-59 -47.5 -150.5 -47.5t-148 45t-56.5 132h114q0 -41 24 -66t69.5 -25t69 25t23.5 66h114q0 -82 -59 -129.5zM-27 565v95h329v-95h-106v-565h-117v565h-106z" />
<glyph unicode="&#x94a;" horiz-adv-x="274" d="M301 660v-95h-106v-565h-116v565h-106v95h106q-2 39 -15 56t-48 17h-38q-103 0 -146 44q-41 43 -41 127h118q0 -45 18 -60.5t64 -15.5h36q167 0 169 -168h105z" />
<glyph unicode="&#x94b;" horiz-adv-x="274" d="M301 660v-95h-106v-565h-116v565h-106v95h96l-73 108q-29 46 -81 46q-27 0 -59 -9v99q42 7 68 7q109 -1 167 -91l104 -160h106z" />
<glyph unicode="&#x94c;" d="M302 660v-95h-106v-565h-117v565h-106v95h74q-98 62 -170 62q-30 0 -57 -8v89q32 8 70 8t80 -22q48 -25 134 -102l-92 112q-52 63 -124 63q-36 0 -68 -9v91q27 8 75 8q118 0 187 -112l112 -180h108z" />
<glyph unicode="&#x94d;" horiz-adv-x="0" d="M73 -238h-141l-121 172h119z" />
<glyph unicode="&#x950;" horiz-adv-x="1236" d="M849 560q-62 -47 -155 -47t-152 45t-59 132h114q0 -41 27.5 -66.5t73.5 -25.5t72.5 25.5t26.5 66.5h114q0 -83 -62 -130zM653 700q-18 18 -18 44.5t18 45t44.5 18.5t45 -18.5t18.5 -45t-18.5 -44.5t-45 -18t-44.5 18zM613 54q-85 0 -126 74q-18 -55 -73.5 -92t-129.5 -37 q-102 0 -181 43v110q88 -54 177 -54q47 0 75.5 24.5t28.5 65.5q0 75 -105 75h-71v95h32q58 0 84 25.5t26 62t-22 58t-60 21.5q-79 0 -140 -45v100q60 42 149.5 42t140 -45.5t50.5 -118.5q0 -44 -21.5 -78t-56.5 -50q68 -7 110 -74q34 -58 54.5 -75t46.5 -17t51 25t49 61.5 t47.5 74.5t35 55t34.5 45t42 41q48 34 100 34q87 0 139.5 -60.5t52.5 -158.5t-55.5 -166.5t-148.5 -68.5q-53 0 -97 18v102q35 -23 83 -23t75 37t27 92.5t-18 87t-50.5 31.5t-62 -36t-124.5 -186q-72 -115 -168 -115z" />
<glyph unicode="&#x951;" horiz-adv-x="0" d="M-180 951h94v-245h-94v245z" />
<glyph unicode="&#x952;" horiz-adv-x="0" d="M-69 -232h-465v90h465v-90z" />
<glyph unicode="&#x953;" horiz-adv-x="0" d="M-306 893l73 60l157 -189l-72 -60z" />
<glyph unicode="&#x954;" horiz-adv-x="0" d="M-51 953l72 -60l-157 -189l-73 60z" />
<glyph unicode="&#x958;" horiz-adv-x="795" d="M822 565h-366v-123q46 43 110 43q87 0 140 -53t53 -140.5t-60.5 -141.5t-152.5 -54q-16 0 -23 1v95q6 -1 18 -1q45 0 72.5 28.5t27.5 72t-25.5 71.5t-66.5 28t-67 -27.5t-26 -70.5v-293h-118v128q-45 -42 -110 -42q-86 0 -139.5 53t-53.5 140.5t60.5 141.5t152.5 54 q15 0 23 -1v-95q-6 1 -18 1q-45 0 -72.5 -28.5t-27.5 -72t25.5 -71.5t66.5 -28t67 27.5t26 70.5v287h-365v95h849v-95zM119.5 0q19.5 20 48 20t48 -20t19.5 -48t-20 -47.5t-48 -19.5t-47.5 19.5t-19.5 47.5t19.5 48z" />
<glyph unicode="&#x959;" horiz-adv-x="818" d="M845 660v-95h-106v-565h-118v149q-42 -33 -111 -33t-120 50.5t-51 129.5t53 129t132 50q17 0 35 -4v-88q-5 2 -20 2q-40 0 -64.5 -26t-24.5 -66t24 -64t61.5 -24t61.5 22.5t24 64.5v273h-295v-131q0 -69 -38 -112q-43 -48 -117 -55l209 -267h-142l-204 265v93h72 q103 0 103 84v123h-236v95h872zM39.5 -4q19.5 20 48 20t48 -20t19.5 -48t-20 -47.5t-48 -19.5t-47.5 19.5t-19.5 47.5t19.5 48z" />
<glyph unicode="&#x95a;" horiz-adv-x="581" d="M-27 660h635v-95h-106v-565h-116v565h-135v-221q0 -69 -37.5 -104t-91 -35t-92.5 14v95q25 -13 54 -13q50 0 50 53v211h-161v95zM103.5 70q19.5 20 48 20t48 -20t19.5 -48t-20 -47.5t-48 -19.5t-47.5 19.5t-19.5 47.5t19.5 48z" />
<glyph unicode="&#x95b;" horiz-adv-x="655" d="M-27 660h710v-95h-107v-565h-118v362h-164q64 -40 64 -124t-55.5 -132t-136 -48t-136.5 22v104q49 -26 102.5 -26t83.5 24.5t30 73.5t-40 77.5t-115 28.5v97h367v106h-485v95zM166 -16q28 0 48 -20t20 -48t-20 -47.5t-48 -19.5t-47.5 19.5t-19.5 47.5t19.5 48t47.5 20z " />
<glyph unicode="&#x95c;" horiz-adv-x="529" d="M420 565v-153h-196q-63 0 -63 -48q0 -28 28.5 -38t94.5 -11q192 -3 192 -148q-1 -73 -61 -120t-170.5 -47t-198.5 48v110q100 -61 206 -61q51 0 79 17.5t28 48t-26 42t-101.5 13t-131 35t-55.5 107t52 110t127 36.5h80v59h-331v95h583v-95h-136zM246 -66q28 0 48 -20 t20 -48t-20 -47.5t-48 -19.5t-47.5 19.5t-19.5 47.5t19.5 48t47.5 20z" />
<glyph unicode="&#x95d;" horiz-adv-x="561" d="M266 291q46 22 107.5 22t103.5 -36t42 -103t-59 -113.5t-167 -46.5t-181 66t-73 171.5t76 165.5t197 62h23v86h-362v95h615v-95h-136v-188q-55 10 -102 10q-84 0 -138 -35.5t-54 -99t41 -104t105 -40.5q44 0 73 18.5t29 45.5q0 55 -63 55q-43 0 -77 -22v86zM224 -131 q0 28 19.5 48t48 20t48 -19.5t19.5 -48t-20 -48t-48 -19.5t-47.5 19.5t-19.5 47.5z" />
<glyph unicode="&#x95e;" horiz-adv-x="824" d="M851 565h-362v-114q46 43 124 43t127.5 -54t49.5 -142.5t-59.5 -140.5t-150.5 -52q-17 0 -24 1v96q10 -2 17 -2q47 0 73.5 26.5t26.5 72.5t-24 73.5t-64.5 27.5t-68 -27t-27.5 -72v-301h-118v221q-47 -47 -123 -47q-185 0 -185 200v191h-90v95h878v-95zM371 378v187h-190 v-194q0 -55 21.5 -79t65.5 -24t73.5 29t29.5 81zM95.5 70q19.5 20 48 20t48 -20t19.5 -48t-20 -47.5t-48 -19.5t-47.5 19.5t-19.5 47.5t19.5 48z" />
<glyph unicode="&#x95f;" horiz-adv-x="631" d="M77 -16q0 28 19.5 48t47.5 20t48 -20t20 -48t-20 -47.5t-48 -19.5t-47.5 19.5t-19.5 47.5zM214.5 242q34.5 -26 91 -26t93 35t36.5 101v213h-152q23 -34 23 -88q0 -122 -138 -166q12 -43 46.5 -69zM282 113q-97 0 -166.5 68.5t-84.5 190.5q159 25 159 110q0 51 -30 83 h-187v95h685v-95h-106v-565h-117v179q-20 -30 -61 -48t-92 -18z" />
<glyph unicode="&#x960;" horiz-adv-x="773" d="M455 565v-204l82 42v82h112v-50q0 -44 14 -79t31 -54q44 -50 46 -101q2 -77 -43 -114t-125 -37q-24 0 -47 4l1 101q18 -5 34 -5q67 -2 67 57q0 16 -9.5 30.5t-25.5 33.5t-25 34l-112 -57v-248h-115v208l-287 -145v117l173 84q-10 56 -38 84.5t-79 28.5q-29 0 -60 -12v105 q35 10 71 10q164 0 199 -171l21 11v245h-367v95h827v-95h-345z" />
<glyph unicode="&#x961;" horiz-adv-x="820" d="M709 565v-254q0 -40 -17.5 -73.5t-39.5 -52.5q-56 -50 -56 -87q0 -22 17.5 -34.5t46.5 -12.5h46v-95h-70q-27 0 -42 -15.5t-15 -39.5t16.5 -41.5t50 -17.5t94.5 26v-103q-46 -19 -100 -19q-80 0 -130.5 43.5t-50.5 113t60 107.5q-40 33 -40 87q0 48 39 87l34 34 q39 39 39 93v102h-54q-53 0 -76 -26.5t-23 -89.5v-68h-117v68q0 118 -79 118q-42 0 -67.5 -33t-25.5 -94q0 -167 163 -199l-2 -98q-130 22 -204.5 98t-74.5 201q0 96 54.5 157.5t153 61.5t141.5 -66q40 64 152 64h59v58h-615v95h839v-95h-106z" />
<glyph unicode="&#x964;" horiz-adv-x="426" d="M194 0v660h118v-660h-118z" />
<glyph unicode="&#x965;" horiz-adv-x="663" d="M431 0v660h118v-660h-118zM194 0v660h118v-660h-118z" />
<glyph unicode="&#x966;" horiz-adv-x="544" d="M160 330q0 -110 29.5 -169.5t82.5 -59.5t82.5 59t29.5 170t-30.5 169t-82 58t-81.5 -58.5t-30 -168.5zM98 84q-61 92 -61 246.5t61 245t173.5 90.5t174 -90.5t61.5 -245t-60.5 -246.5t-174 -92t-174.5 92z" />
<glyph unicode="&#x967;" horiz-adv-x="390" d="M321 654v-654h-120v524l-159 -97v125l172 102h107z" />
<glyph unicode="&#x968;" horiz-adv-x="512" d="M469 103v-103h-427v96q117 83 202 177.5t85 170.5q0 50 -29.5 78t-84.5 28q-81 0 -159 -62v117q33 25 82.5 41t97.5 16q96 0 157 -52.5t61 -147.5q0 -177 -246 -359h261z" />
<glyph unicode="&#x969;" horiz-adv-x="492" d="M214 662q103 0 162 -50.5t59 -127.5q0 -113 -103 -154q56 -14 87 -52.5t31 -97.5q0 -82 -61 -133.5t-166.5 -51.5t-174.5 33v117q76 -42 163 -42q55 0 85.5 25.5t30.5 65.5q0 87 -142 87h-38v101h38q54 0 90 23t36 65q0 84 -103 84q-69 0 -137 -42v113q68 37 143 37z" />
<glyph unicode="&#x96a;" horiz-adv-x="575" d="M540 250v-103h-86v-147h-120v147h-291v103l218 405h193v-405h86zM334 250v329l-172 -329h172z" />
<glyph unicode="&#x96b;" horiz-adv-x="520" d="M202 552v-144q29 6 56 6q105 0 162.5 -54t57.5 -150.5t-66 -156.5t-177 -60t-181 35v115q66 -40 153 -40q147 0 147 113q0 44 -31.5 69t-98.5 25t-140 -34v379h352v-103h-234z" />
<glyph unicode="&#x96c;" horiz-adv-x="545" d="M368 560q-78 0 -127 -53.5t-64 -137.5q58 53 142 53t136.5 -57.5t52.5 -154.5t-60.5 -161.5t-162.5 -64.5q-118 0 -178 84.5t-60 226.5q0 166 86.5 270t226.5 104q53 0 99 -16v-113q-40 20 -91 20zM206.5 133.5q31.5 -41.5 78.5 -41.5t73 33t26 84t-26 80t-71 29 q-67 0 -116 -52q4 -91 35.5 -132.5z" />
<glyph unicode="&#x96d;" horiz-adv-x="494" d="M30 655h434v-104l-260 -551h-127l261 551h-308v104z" />
<glyph unicode="&#x96e;" horiz-adv-x="543" d="M501 177q0 -84 -65 -135t-167 -51t-164.5 49t-62.5 132q0 111 102 156q-92 45 -92 139t62.5 145.5t156.5 51.5t156 -48.5t62 -143.5t-90 -141q102 -42 102 -154zM344.5 540.5q-22.5 25.5 -72 25.5t-74 -27t-24.5 -68.5t28 -65t69.5 -23.5t68.5 24t27 66.5t-22.5 68z M190 114.5q27 -25.5 80.5 -25.5t81.5 26.5t28 66t-28 66t-82 27.5q-53 -1 -80 -30t-27 -67t27 -63.5z" />
<glyph unicode="&#x96f;" horiz-adv-x="538" d="M192 102q84 0 128.5 43.5t56.5 133.5q-47 -49 -134.5 -49t-143.5 57t-56 152t58.5 159.5t166 64.5t170.5 -83.5t63 -221.5q0 -179 -78 -272.5t-220 -93.5q-65 0 -117 19v115q54 -24 106 -24zM271 330q66 0 109 53q-4 84 -34 127.5t-77.5 43.5t-74.5 -31t-27 -82t28 -81 t76 -30z" />
<glyph unicode="&#x970;" horiz-adv-x="476" d="M183 369.5q-23 -23.5 -23 -56t23 -56t56 -23.5t56 23.5t23 56t-23 56t-56 23.5t-56 -23.5zM113.5 187.5q-52.5 52.5 -52.5 126t52 125.5t126 52t126 -52t52 -125.5t-52.5 -126t-125.5 -52.5t-125.5 52.5z" />
<glyph unicode="&#x97d;" horiz-adv-x="595" d="M111 668q67 36 159.5 36t147 -46.5t54.5 -129.5q0 -47 -26 -91.5t-56.5 -75.5t-56.5 -77.5t-26 -96.5v-187h-115v197q0 57 24.5 108t53.5 81q79 80 79 129q0 39 -24 62.5t-71 23.5q-72 0 -143 -48v115z" />
<glyph unicode="&#x1e80;" horiz-adv-x="958" d="M431 664h102l69 -239l80 -290q25 139 62 291l61 248h128l-172 -674h-146q-112 391 -132 473q-14 -72 -133 -473h-145l-180 674h133q86 -341 127 -537q33 129 146 527zM438 892l91 -169h-101l-116 169h126z" />
<glyph unicode="&#x1e81;" horiz-adv-x="801" d="M173 0l-160 507h125q86 -313 100 -392q10 61 58 225l49 167h109q94 -320 107 -393q10 59 59 226l48 167h120l-161 -507h-130q-82 303 -97 379q-15 -77 -97 -379h-130zM356 725l91 -169h-101l-116 169h126z" />
<glyph unicode="&#x1e82;" horiz-adv-x="958" d="M444 723l91 169h126l-116 -169h-101zM431 664h102l69 -239l80 -290q25 139 62 291l61 248h128l-172 -674h-146q-112 391 -132 473q-14 -72 -133 -473h-145l-180 674h133q86 -341 127 -537q33 129 146 527z" />
<glyph unicode="&#x1e83;" horiz-adv-x="801" d="M358 556l91 169h126l-116 -169h-101zM173 0l-160 507h125q86 -313 100 -392q10 61 58 225l49 167h109q94 -320 107 -393q10 59 59 226l48 167h120l-161 -507h-130q-82 303 -97 379q-15 -77 -97 -379h-130z" />
<glyph unicode="&#x1e84;" horiz-adv-x="958" d="M311 758q-20 20 -20 49.5t20 49.5t50.5 20t50.5 -20t20 -49.5t-20 -49.5t-50.5 -20t-50.5 20zM553.5 758q-20.5 20 -20.5 49.5t20.5 49.5t51 20t50.5 -20t20 -49.5t-20 -49.5t-50.5 -20t-51 20zM431 664h102l69 -239l80 -290q25 139 62 291l61 248h128l-172 -674h-146 q-112 391 -132 473q-14 -72 -133 -473h-145l-180 674h133q86 -341 127 -537q33 129 146 527z" />
<glyph unicode="&#x1e85;" horiz-adv-x="801" d="M228 591q-20 20 -20 49.5t20 49.5t50.5 20t50.5 -20t20 -49.5t-20 -49.5t-50.5 -20t-50.5 20zM470.5 591q-20.5 20 -20.5 49.5t20.5 49.5t51 20t50.5 -20t20 -49.5t-20 -49.5t-50.5 -20t-51 20zM173 0l-160 507h125q86 -313 100 -392q10 61 58 225l49 167h109 q94 -320 107 -393q10 59 59 226l48 167h120l-161 -507h-130q-82 303 -97 379q-15 -77 -97 -379h-130z" />
<glyph unicode="&#x1ef2;" horiz-adv-x="624" d="M374 0h-126v246l-230 428h147q121 -262 145 -327q9 37 103 229l46 98h147l-232 -424v-250zM369 723h-101l-116 169h126z" />
<glyph unicode="&#x1ef3;" horiz-adv-x="517" d="M93 -189q-29 0 -50 5v99q16 -4 34 -4q91 0 129 99l-200 497h133q114 -314 126 -359q3 11 117 359h126l-183 -493q-76 -203 -232 -203zM224 725l91 -169h-101l-116 169h126z" />
<glyph unicode="&#x200b;" horiz-adv-x="0" />
<glyph unicode="&#x200c;" horiz-adv-x="0" d="M24 -230h-47v1041h47v-1041z" />
<glyph unicode="&#x200d;" horiz-adv-x="0" d="M24 -230h-47v865l-69 -73l-33 33l93 93l-95 95l33 33l95 -95l96 95l32 -32l-96 -96l96 -95l-33 -33l-72 75v-865z" />
<glyph unicode="&#x2013;" horiz-adv-x="549" d="M50 223v92h450v-92h-450z" />
<glyph unicode="&#x2014;" horiz-adv-x="831" d="M50 226v92h731v-92h-731z" />
<glyph unicode="&#x2018;" horiz-adv-x="234" d="M252 694l-94 -247h-137l130 247h101z" />
<glyph unicode="&#x2019;" horiz-adv-x="234" d="M22 447l94 247h137l-129 -247h-102z" />
<glyph unicode="&#x201a;" horiz-adv-x="234" d="M-4 -126l95 247h137l-130 -247h-102z" />
<glyph unicode="&#x201c;" horiz-adv-x="403" d="M422 694l-91 -247h-127l120 247h98zM253 694l-97 -247h-135l134 247h98z" />
<glyph unicode="&#x201d;" horiz-adv-x="403" d="M22 447l91 247h126l-119 -247h-98zM191 447l97 247h135l-134 -247h-98z" />
<glyph unicode="&#x201e;" horiz-adv-x="403" d="M0 -126l91 247h126l-119 -247h-98zM169 -126l96 247h135l-133 -247h-98z" />
<glyph unicode="&#x2020;" horiz-adv-x="546" d="M511 516v-100h-186v-416h-108v416h-182v100h182v158h108v-158h186z" />
<glyph unicode="&#x2021;" horiz-adv-x="567" d="M522 416h-186v-154h186v-100h-186v-162h-108v162h-183v100h183v154h-183v100h183v158h108v-158h186v-100z" />
<glyph unicode="&#x2022;" horiz-adv-x="434" d="M85 356q0 57 37.5 95t94 38t95 -38.5t38.5 -94.5t-38 -94.5t-94.5 -38.5t-94.5 38t-38 95z" />
<glyph unicode="&#x2026;" horiz-adv-x="855" d="M649 70q0 32 23 54.5t55 22.5t54.5 -22.5t22.5 -54.5t-22.5 -55t-54.5 -23t-55 23t-23 55zM350 70q0 32 23 54.5t55 22.5t54.5 -22.5t22.5 -54.5t-22.5 -55t-54.5 -23t-55 23t-23 55zM51 70q0 32 23 54.5t55 22.5t54.5 -22.5t22.5 -54.5t-22.5 -55t-54.5 -23t-55 23 t-23 55z" />
<glyph unicode="&#x2030;" horiz-adv-x="1336" d="M1064 226.5q-23 -23.5 -23 -56t23 -56t55.5 -23.5t56 23.5t23.5 56t-23.5 56t-56 23.5t-55.5 -23.5zM942 170q0 74 52 126t126 52t126 -52t52 -126t-52 -126t-126 -52t-126 52t-52 126zM643.5 226.5q-23.5 -23.5 -23.5 -56t23.5 -56t56 -23.5t56 23.5t23.5 56t-23.5 56 t-56 23.5t-56 -23.5zM167 581.5q-23 -23.5 -23 -56t23 -56t56 -23.5t56 23.5t23 56t-23 56t-56 23.5t-56 -23.5zM97.5 399.5q-52.5 52.5 -52.5 126t52 125.5t126 52t126 -52t52 -125.5t-52.5 -126t-125.5 -52.5t-125.5 52.5zM521 170q0 74 52.5 126t125.5 52t125.5 -52 t52.5 -126t-52.5 -126t-125.5 -52t-125.5 52t-52.5 126zM217 -1l371 692h111l-372 -692h-110z" />
<glyph unicode="&#x2039;" horiz-adv-x="344" d="M306 415l-146 -162l146 -162h-127l-152 162l152 162h127z" />
<glyph unicode="&#x203a;" horiz-adv-x="343" d="M165 415l152 -162l-152 -162h-127l146 162l-146 162h127z" />
<glyph unicode="&#x2044;" horiz-adv-x="282" d="M231 498l-163 -284h-57l163 284h57z" />
<glyph unicode="&#x2074;" horiz-adv-x="398" d="M365 558v-71h-57v-94h-82v94h-191v71l144 267h129v-267h57zM226 558v210l-111 -210h111z" />
<glyph unicode="&#x20ac;" horiz-adv-x="610" d="M443 548q-119 0 -167 -106h187v-78h-208q-3 -21 -3 -38.5t2 -39.5h209v-77h-189q22 -51 65 -78t109 -27t122 40v-121q-59 -31 -154 -31t-170.5 58.5t-105.5 158.5h-95v77h81q-1 12 -1 31t2 47h-82v78h96q29 104 106 162t172 58t151 -32v-121q-53 39 -127 39z" />
<glyph unicode="&#x20b9;" horiz-adv-x="552" d="M508 581h-156q34 -34 46 -78h110v-93h-103q-10 -76 -61.5 -122t-139.5 -54l195 -234h-152l-185 233v97h91q112 0 130 80h-221v93h216q-29 78 -127 78h-89v93h446v-93z" />
<glyph unicode="&#x2122;" horiz-adv-x="731" d="M7 603v71h250v-71h-84v-272h-81v272h-85zM617 582q-10 -47 -39 -123l-46 -123h-72q-66 186 -81 246q5 -50 0 -123l-9 -128h-80l28 343h91l71 -190q10 -32 15 -56q15 52 90 246h91l32 -343h-80q-13 168 -13 195t2 56z" />
<glyph unicode="&#x2126;" horiz-adv-x="786" d="M738 104v-104h-300v104q66 15 99 80t33 165.5t-46 160.5t-130.5 60t-130.5 -60.5t-46 -159.5t33.5 -164.5t97.5 -81.5v-104h-300v104h139q-105 83 -105 239t83.5 249.5t228.5 93.5t228 -93t83 -250t-106 -239h139z" />
<glyph unicode="&#x2202;" horiz-adv-x="538" d="M490 285q0 -138 -61 -216t-168.5 -78t-165.5 63.5t-58 160t60.5 155.5t137.5 59t127 -40q-28 85 -95.5 159.5t-150.5 125.5h167q88 -64 147.5 -174.5t59.5 -214.5zM186.5 130q26.5 -31 76 -31t81.5 44.5t34 133.5q-45 48 -115 48q-45 0 -74 -31t-29 -82t26.5 -82z" />
<glyph unicode="&#x2206;" horiz-adv-x="657" d="M624 0h-590v88l215 586h163l212 -586v-88zM168 103h321l-160 478z" />
<glyph unicode="&#x220f;" horiz-adv-x="627" d="M559 674v-854h-127v745h-215v-540q0 -210 -172 -210q-37 0 -69 12v111q24 -13 54 -13q60 0 60 96v653h469z" />
<glyph unicode="&#x2211;" horiz-adv-x="468" d="M488 674v-104h-323l156 -326l-157 -340h324v-104h-458v104l159 340l-159 326v104h458z" />
<glyph unicode="&#x2212;" horiz-adv-x="576" d="M50 286v107h476v-107h-476z" />
<glyph unicode="&#x2215;" horiz-adv-x="680" d="M441 498l-163 -284h-57l163 284h57z" />
<glyph unicode="&#x2219;" horiz-adv-x="288" d="M66 337q0 32 23 55t55 23t55 -23t23 -55t-23 -55t-55 -23t-55 23t-23 55z" />
<glyph unicode="&#x221a;" horiz-adv-x="798" d="M259 446q117 -343 135 -402q31 -100 35 -125q22 114 67 263q96 309 221 721h127l-342 -1096h-148l-197 543h-128l24 96h206z" />
<glyph unicode="&#x221e;" horiz-adv-x="832" d="M656.5 288q20.5 20 20.5 55t-21 57t-58 22q-60 0 -117 -81q22 -23 36 -36q40 -37 79.5 -37t60 20zM227 171q-87 0 -133.5 44.5t-46.5 123.5t50 127t134 48q58 0 100.5 -26.5t84.5 -74.5q84 103 189 103q85 0 132.5 -45t47.5 -123t-50.5 -126.5t-133.5 -48.5 q-101 0 -186 100q-25 -30 -46 -48.5t-59.5 -36t-82.5 -17.5zM153 343q0 -35 22 -56.5t60 -21.5q61 0 115 80q-20 22 -34 35.5t-36.5 26t-53 12.5t-52 -20.5t-21.5 -55.5z" />
<glyph unicode="&#x2248;" horiz-adv-x="600" d="M414 363q-50 0 -112 28t-92 28q-56 0 -101 -59l-77 62q69 97 156 97q57 0 119.5 -28t87.5 -28q50 0 92 56l78 -61q-63 -95 -151 -95zM414 161q-50 0 -112 27.5t-92 27.5q-57 0 -101 -58l-77 62q70 96 156 96q57 0 119.5 -27.5t87.5 -27.5q50 0 92 56l78 -62 q-62 -94 -151 -94z" />
<glyph unicode="&#x2260;" horiz-adv-x="576" d="M526 402h-176l-57 -123h233v-98h-278l-38 -83h-68l38 83h-130v98h176l57 123h-233v97h278l38 83h67l-38 -83h131v-97z" />
<glyph unicode="&#x2264;" horiz-adv-x="571" d="M521 581v-106l-407 -62l407 -62v-106l-476 91v155zM45 97v98h476v-98h-476z" />
<glyph unicode="&#x2265;" horiz-adv-x="571" d="M50 581l476 -90v-155l-476 -91v106l407 62l-407 62v106zM50 97v98h476v-98h-476z" />
<glyph unicode="&#x25ca;" horiz-adv-x="589" d="M358 674l193 -337l-193 -337h-130l-190 337l190 337h130zM395 279l33 58q-106 187 -134 242q-29 -62 -99 -184l-32 -58q109 -197 131 -242q29 62 101 184z" />
<glyph unicode="&#x25cc;" horiz-adv-x="701" d="M285 571q0 19 12.5 31.5t31.5 12.5t31.5 -12.5t12.5 -31.5t-12.5 -31.5t-31.5 -12.5t-31.5 12.5t-12.5 31.5zM424 525q-13 13 -13 32t12.5 31.5t32 12.5t31.5 -12.5t12 -31.5t-12.5 -32t-31 -13t-31.5 13zM506 488q0 19 12.5 32t31.5 13t31.5 -12.5t12.5 -32t-12.5 -32 t-31.5 -12.5t-31.5 12.5t-12.5 31.5zM556 370q0 20 12 32t31.5 12t32 -12.5t12.5 -31.5t-12.5 -31.5t-32 -12.5t-31.5 12t-12 32zM559 204.5q-13 12.5 -13 32t13 32t31.5 12.5t31 -13t12.5 -32t-12.5 -31.5t-31 -12.5t-31.5 12.5zM473 138q0 19 12.5 31.5t31.5 12.5 t32 -12.5t13 -31.5t-13 -31.5t-32 -12.5t-31.5 12.5t-12.5 31.5zM352 85q0 19 12 31.5t32 12.5t32.5 -12.5t12.5 -31.5t-12.5 -31.5t-32.5 -12.5t-32 12.5t-12 31.5zM238 68q-13 13 -13 32t13 32t32 13t31.5 -13t12.5 -32t-12.5 -32t-31.5 -13t-32 13zM136 144 q-12 12 -12 31.5t12.5 32t31.5 12.5t31.5 -12.5t12.5 -31.5t-12.5 -31.5t-32 -12.5t-31.5 12zM72 292q0 19 12.5 32t31.5 13t31.5 -12.5t12.5 -32t-12.5 -31.5t-31.5 -12t-31.5 12t-12.5 31zM85 418q0 19 13 31.5t32 12.5t32 -12.5t13 -31.5t-13 -31.5t-32 -12.5t-32 12.5 t-13 31.5zM179.5 495.5q-12.5 12.5 -12.5 32t12.5 32t31.5 12.5t31.5 -12.5t12.5 -32t-12.5 -32t-31.5 -12.5t-31.5 12.5z" />
<glyph unicode="&#x25fc;" horiz-adv-x="505" d="M0 505h505v-505h-505v505z" />
<glyph unicode="&#xf6c3;" horiz-adv-x="458" d="M130 -255l76 204h129l-115 -204h-90z" />
<glyph unicode="&#xfb00;" horiz-adv-x="614" d="M571 618q-73 0 -73 -82v-29h102v-90h-102v-417h-119v417h-155v-417h-120v417h-74v90h74v30q0 85 47.5 133t131 48t157.5 -35q44 35 115 35q38 0 66 -9v-101q-26 10 -50 10zM379 507v30q0 34 8 64q-48 17 -86.5 17t-57.5 -18.5t-19 -63.5v-29h155z" />
<glyph unicode="&#xfb01;" horiz-adv-x="552" d="M499 507v-507h-120v417h-155v-417h-120v417h-74v90h74v30q0 85 47 133t132.5 48t168.5 -39v-101q-85 40 -154 40q-37 0 -55.5 -18.5t-18.5 -63.5v-29h275z" />
<glyph unicode="&#xfb02;" horiz-adv-x="562" d="M104 507v30q0 85 47 133t138.5 48t207.5 -58v-660h-121v607q-39 11 -75.5 11t-56.5 -17.5t-20 -64.5v-29h101v-90h-101v-417h-120v417h-74v90h74z" />
<glyph unicode="&#xfb03;" horiz-adv-x="900" d="M773 507v-507h-120v417h-155v-417h-119v417h-155v-417h-120v417h-74v90h74v30q0 85 47.5 133t131 48t157.5 -35q44 35 123 35t164 -39v-101q-87 40 -154 40q-37 0 -56 -18.5t-19 -63.5v-29h275zM379 507v30q0 34 8 64q-48 17 -86.5 17t-57.5 -18.5t-19 -63.5v-29h155z " />
<glyph unicode="&#xfb04;" horiz-adv-x="836" d="M104 507v30q0 85 47.5 133t131 48t157.5 -35q46 35 117 35q100 0 214 -58v-660h-120v607q-39 11 -75.5 11t-56.5 -17.5t-20 -64.5v-29h101v-90h-101v-417h-120v417h-155v-417h-120v417h-74v90h74zM379 507v30q0 34 8 64q-48 17 -86.5 17t-57.5 -18.5t-19 -63.5v-29h155z " />
<glyph horiz-adv-x="1708" d="M1375 233v193h204v-193h-204zM1375 467v193h204v-193h-204zM1130 0v660h204v-660h-204zM884 467v193h204v-193h-204zM639 0v660h203v-660h-203zM393 467v193h204v-193h-204zM147 0v660h204v-660h-204z" />
<glyph horiz-adv-x="536" d="M456 565v-123q46 43 110 43q91 0 144 -58l-83 -85q-22 49 -80 49q-39 0 -65 -27.5t-26 -70.5v-293h-118v128q-45 -42 -110 -42q-86 0 -139.5 53t-53.5 140.5t60.5 141.5t152.5 54q15 0 23 -1v-95q-6 1 -18 1q-45 0 -72.5 -28.5t-27.5 -72t25.5 -71.5t66.5 -28t67 27.5 t26 70.5v287h-365v95h590v-95h-107z" />
<glyph horiz-adv-x="611" d="M489 210q-59 0 -99 38.5t-40 101t48.5 106.5t134 44t141 -55.5t55.5 -143.5q0 -119 -92 -196t-224 -77t-223.5 72.5t-136.5 194.5v93h67q40 0 54.5 18t14.5 62v97h-216v95h665v-95h-333v-120q0 -60 -21 -96q-26 -43 -96 -52q22 -74 86.5 -120t150 -46t141.5 45t56 124 q0 51 -24.5 81.5t-71.5 30.5q-30 0 -48.5 -18t-18.5 -44t15.5 -40.5t33.5 -14.5t32 6v-82q-24 -9 -51 -9z" />
<glyph horiz-adv-x="317" d="M344 660v-95h-93v-221q0 -69 -37.5 -104t-91 -35t-92.5 14v95q25 -13 54 -13q50 0 50 53v211h-161v95h371z" />
<glyph horiz-adv-x="354" d="M257 78q-91 0 -150 43.5t-59 118.5q0 57 38 92.5t104 43.5q-59 2 -95 30.5t-36 76.5t34 82h-120v95h408v-95h-164q-40 -29 -40 -71q0 -68 103 -68h43v-99h-52q-49 0 -77 -21t-28 -57t29 -54.5t74 -18.5q101 0 151 75l36 -87q-73 -86 -199 -86z" />
<glyph horiz-adv-x="624" d="M-27 660h678v-95h-231v-153h-196q-63 0 -63 -48q0 -28 28.5 -38t94.5 -11q192 -3 192 -148q-1 -73 -61 -120t-170.5 -47t-198.5 48v110q100 -61 206 -61q51 0 79 17.5t28 48t-26 42t-101.5 13t-131 35t-55.5 107t52 110t127 36.5h80v59h-331v95zM535 422q28 0 48 -20 t20 -48t-20 -47.5t-48 -19.5t-47.5 19.5t-19.5 47.5t19.5 48t47.5 20zM213 -66h119l143 -172h-141z" />
<glyph horiz-adv-x="413" d="M455.5 145q-70.5 -51 -165.5 -51t-150.5 43t-55.5 119t65 114h-126v97h352v-97q-178 0 -178 -100q0 -37 28.5 -59t85.5 -22t108.5 39.5t74.5 98.5l54 -62q-22 -69 -92.5 -120zM440 660v-95h-467v95h467z" />
<glyph horiz-adv-x="644" d="M671 565h-440q-48 -35 -48 -89q0 -35 23 -57t60 -22h34v-98h-37q-92 0 -92 -71q0 -37 36 -58t92 -21q84 0 135.5 43t51.5 117q0 44 -24.5 69t-60.5 25t-53 -6v94q22 7 66 7q88 0 139.5 -48.5t51.5 -132.5q0 -119 -86.5 -192t-220.5 -73q-104 0 -174.5 45.5t-70.5 125.5 q0 55 35 88.5t96 38.5q-53 3 -85.5 37.5t-32.5 87.5t37 90h-130v95h698v-95z" />
<glyph horiz-adv-x="421" d="M564 459v-97h-270q64 -40 64 -124t-55.5 -132t-136 -48t-136.5 22v104q49 -26 102.5 -26t83.5 24.5t30 73.5t-40 77.5t-115 28.5v97h473zM448 660v-95h-475v95h475z" />
<glyph horiz-adv-x="532" d="M672 329v-91h-209q13 -29 13 -68q0 -72 -49.5 -117.5t-126 -45.5t-132.5 37v-94h-116v233h107q17 -39 51.5 -62.5t71.5 -23.5t57.5 17.5t20.5 49.5q0 63 -99 66q-197 4 -197 135q0 72 52 108t135 36h68v56h-346v95h586v-95h-123v-151h-179q-74 0 -74 -44q0 -22 20 -30.5 t63 -10.5h406z" />
<glyph horiz-adv-x="469" d="M593 338v-95h-187q-11 -79 -70 -127.5t-153 -52.5q-86 0 -156 36v107q71 -42 137.5 -42t96 30.5t29.5 79t-28 77t-73.5 28.5t-87.5 -17v99q37 15 106.5 15t122.5 -36.5t70 -101.5h193zM496 660v-95h-523v95h523z" />
<glyph horiz-adv-x="510" d="M524 -224h-141l-121 172h119zM435 565v-196q-27 6 -85 6q-86 0 -134 -35t-48 -97t45 -95.5t119 -33.5q38 0 79 12t66 28v-106q-64 -34 -153 -34q-127 0 -201 61.5t-74 163t68.5 165t185.5 65.5h16v96h-346v95h564v-95h-102z" />
<glyph horiz-adv-x="571" d="M598 565h-231v-105q74 -19 118 -69t44 -133.5t-65.5 -140.5t-175.5 -57.5t-177.5 56t-67.5 148.5t59.5 143t147.5 60v98h-277v95h625v-95zM377 183.5q33 30.5 33 83t-33.5 80.5t-88.5 28.5t-91 -27t-36 -81t35.5 -84t91.5 -30.5t89 30.5zM232 -7h119l143 -172h-141z" />
<glyph horiz-adv-x="529" d="M420 565v-153h-196q-63 0 -63 -48q0 -28 28.5 -38t94.5 -11q192 -3 192 -148q-1 -73 -61 -120t-170.5 -47t-198.5 48v110q100 -61 206 -61q51 0 79 17.5t28 48t-26 42t-101.5 13t-131 35t-55.5 107t52 110t127 36.5h80v59h-331v95h583v-95h-136zM205 -66h119l143 -172 h-141z" />
<glyph horiz-adv-x="561" d="M507 -224h-141l-121 172h119zM266 291q46 22 107.5 22t103.5 -36t42 -103t-59 -113.5t-167 -46.5t-181 66t-73 171.5t76 165.5t197 62h23v86h-362v95h615v-95h-136v-188q-55 10 -102 10q-84 0 -138 -35.5t-54 -99t41 -104t105 -40.5q44 0 73 18.5t29 45.5q0 55 -63 55 q-43 0 -77 -22v86z" />
<glyph horiz-adv-x="489" d="M515 660v-95h-95v-212q0 -93 -50 -141.5t-140 -48.5q-185 0 -185 188v214h-72v95h542zM304 344v221h-142v-221q0 -82 70 -82q72 0 72 82z" />
<glyph horiz-adv-x="390" d="M-27 565v95h444v-95h-444zM542 369h-218q-153 0 -153 -133q0 -64 30 -100t90 -36q13 0 19 1v-98q-22 -2 -36 -2q-103 0 -162 65.5t-59 170t67.5 167t197.5 62.5h224v-97z" />
<glyph horiz-adv-x="454" d="M391 507q0 -149 -233 -215q15 -45 58.5 -69.5t98.5 -24.5q127 0 216 112l56 -81q-121 -132 -272 -132q-117 0 -197.5 65t-94.5 195q137 33 197 66t60 87q0 27 -13 44t-39 17t-39.5 -16.5t-13.5 -40t12 -57.5h-112q-12 33 -12 66q0 62 44 103.5t119.5 41.5t120 -43.5 t44.5 -117.5z" />
<glyph horiz-adv-x="568" d="M-27 660h622v-95h-115v-172h-196q-59 0 -93 -31t-34 -84.5t30 -84t79.5 -30.5t81 27.5t37.5 78.5h114v-279h-116v128q-18 -25 -57 -39t-77 -14q-96 0 -154.5 60t-58.5 152t63 151t179 59h84v78h-389v95zM646 -248h-141l-121 172h119z" />
<glyph horiz-adv-x="424" d="M440 105.5q-75 -38.5 -171.5 -38.5t-158.5 45t-62 120q0 58 39.5 91.5t106.5 39.5q-63 3 -99 31.5t-36 86t51 84.5h-137v95h319v-95h-2q-55 0 -84 -21.5t-29 -60.5q0 -71 107 -71h44v-99h-53q-108 0 -108 -72q0 -36 30.5 -56t92.5 -20t116 31.5t107 98.5l47 -89 q-45 -62 -120 -100.5z" />
<glyph horiz-adv-x="297" d="M124 415h286v-94h-237q-18 0 -26 -9.5t-8 -36t10 -68.5h-94q-32 57 -32 121q0 40 25.5 63.5t75.5 23.5zM-27 565v95h351v-95h-351z" />
<glyph horiz-adv-x="346" d="M249 172q-186 0 -186 203v190h-90v95h400v-95h-192v-194q0 -55 21.5 -79.5t67 -24.5t84 27.5t58.5 71.5l61 -58q-32 -61 -90 -98.5t-134 -37.5z" />
<glyph horiz-adv-x="636" d="M489 565v-115q46 44 119 44q122 0 176 -112l-91 -62q-12 36 -39 58t-67.5 22t-69 -27t-28.5 -72v-301h-118v221q-47 -47 -123 -47q-185 0 -185 200v191h-90v95h690v-95h-174zM181 565v-194q0 -55 21.5 -79t65.5 -24t73.5 29t29.5 81v187h-190z" />
<glyph horiz-adv-x="389" d="M425.5 119q-64.5 -42 -156.5 -42t-159 59t-67 153t62.5 155t164.5 61q46 0 81 -9v-102q-32 11 -68 11t-57 -10l190 -167q23 23 46 60l65 -57q-37 -70 -101.5 -112zM180 358q-20 -29 -20 -76.5t34.5 -80t85 -32.5t88.5 22zM416 660v-95h-443v95h443z" />
<glyph horiz-adv-x="346" d="M441 366v-94h-227v-130h-102l-32 69q-27 57 -27 89q0 50 45 61v153q0 54 -46 54q-29 0 -55 -14v92q34 19 80 19q137 0 137 -135v-164h227z" />
<glyph horiz-adv-x="352" d="M471 366v-103h-262v-125h-100l-32 71q-28 64 -28 91q0 49 44 60v205h-120v95h407v-95h-171v-199h262z" />
<glyph horiz-adv-x="383" d="M410 565h-127q23 -34 23 -88q0 -122 -138 -166q28 -95 139 -95q52 0 94.5 28.5t64.5 75.5l62 -67q-24 -56 -87 -98t-148 -42q-104 0 -174 66.5t-88 192.5q159 25 159 110q0 51 -30 83h-187v95h437v-95z" />
<glyph horiz-adv-x="401" d="M34 358h72q103 0 103 83v124h-236v95h455v-95h-102v-131q0 -69 -37.5 -112.5t-104.5 -51.5q-6 -2 -14 -2l208 -268h-141l-203 265v93zM382 -238h-141l-121 172h119z" />
<glyph horiz-adv-x="501" d="M-27 565v95h555v-95h-555zM307 1q-121 0 -193 73t-72 191q0 95 49 153t135 58q58 0 94.5 -25t45.5 -66q26 97 148 97q93 0 146 -69l-59 -69q-10 17 -32.5 31t-48.5 14q-95 0 -95 -111v-67h-118v69q0 98 -69 98q-36 0 -58 -28.5t-22 -95.5t40.5 -111.5t122.5 -44.5 q24 0 37 2v-96q-26 -3 -51 -3z" />
<glyph horiz-adv-x="801" d="M-27 565v95h855v-95h-855zM248 183q57 0 86 90q4 14 10 35.5t9 31.5q-49 51 -106 51q-43 0 -67.5 -29.5t-24.5 -76t24.5 -74.5t68.5 -28zM550 389q-63 0 -92 -90q-5 -17 -16 -62q50 -54 110 -54q43 0 68.5 29t25.5 75t-25.5 74t-70.5 28zM705 143.5 q-60 -54.5 -152.5 -54.5t-162.5 64q-51 -64 -143.5 -64t-151.5 54t-59 142.5t58.5 144t149.5 55.5t159 -61q56 59 149.5 59t153 -54.5t59.5 -142.5t-60 -142.5z" />
<glyph horiz-adv-x="353" d="M380 565h-407v95h407v-95zM321 383q-26 9 -64.5 9t-68.5 -29.5t-30 -76t32.5 -75.5t83.5 -29q92 0 158 101l56 -69q-77 -126 -227 -126q-95 0 -158 53t-63 144t59 149.5t154 58.5q38 0 68 -8v-102z" />
<glyph horiz-adv-x="468" d="M170 245h-2l234 -245h-151l-221 241v99h107q79 0 123 35.5t44 100.5q0 90 -71 90q-28 0 -42.5 -19t-14.5 -47t16 -60h-113q-16 32 -16 70q0 64 46 109t127 45t132.5 -53.5t51.5 -135.5q0 -111 -75 -170.5t-175 -59.5z" />
<glyph horiz-adv-x="368" d="M272 168q-94 0 -150 51.5t-56 154.5v191h-93v95h422v-95h-191l224 -229q6 7 18 23l49 -67q-86 -124 -223 -124zM179 371q0 -55 29.5 -82.5t80 -27.5t93.5 31l-203 203v-124z" />
<glyph horiz-adv-x="418" d="M531 251h-220q-78 0 -141 9l185 -260h-141l-191 274v84h69q94 0 94 84v123h-213v95h472v-95h-142v-125q0 -56 -23 -94h251v-95z" />
<glyph horiz-adv-x="488" d="M573 230h-280q-57 0 -88 -22.5t-31 -62t36.5 -64.5t102 -25t145.5 19v-97q-78 -17 -139 -17q-126 0 -194 56t-68 133.5t66 125.5q-70 41 -70 112q0 54 39.5 83t102.5 29h156v65h-378v95h542v-95h-48v-157h-250q-44 0 -44 -34q0 -37 36 -59q39 9 87 9h277v-94z" />
<glyph horiz-adv-x="564" d="M456 565v-123q46 43 110 43q91 0 144 -58l-83 -85q-22 49 -80 49q-39 0 -65 -27.5t-26 -70.5v-293h-118v128q-45 -42 -110 -42q-86 0 -139.5 53t-53.5 140.5t60.5 141.5t152.5 54q15 0 23 -1v-95q-6 1 -18 1q-45 0 -72.5 -28.5t-27.5 -72t25.5 -71.5t66.5 -28t67 27.5 t26 70.5v287h-365v95h590v-95h-107zM119.5 0q19.5 20 48 20t48 -20t19.5 -48t-20 -47.5t-48 -19.5t-47.5 19.5t-19.5 47.5t19.5 48z" />
<glyph horiz-adv-x="611" d="M489 210q-59 0 -99 38.5t-40 101t48.5 106.5t134 44t141 -55.5t55.5 -143.5q0 -119 -92 -196t-224 -77t-223.5 72.5t-136.5 194.5v93h67q40 0 54.5 18t14.5 62v97h-216v95h665v-95h-333v-120q0 -60 -21 -96q-26 -43 -96 -52q22 -74 86.5 -120t150 -46t141.5 45t56 124 q0 51 -24.5 81.5t-71.5 30.5q-30 0 -48.5 -18t-18.5 -44t15.5 -40.5t33.5 -14.5t32 6v-82q-24 -9 -51 -9zM49.5 19q19.5 20 48 20t48 -19.5t19.5 -48t-20 -48t-48 -19.5t-47.5 19.5t-19.5 47.5t19.5 48z" />
<glyph horiz-adv-x="321" d="M348 660v-95h-97v-221q0 -69 -37.5 -104t-91 -35t-92.5 14v95q25 -13 54 -13q50 0 50 53v211h-161v95h375zM103.5 70q19.5 20 48 20t48 -20t19.5 -48t-20 -47.5t-48 -19.5t-47.5 19.5t-19.5 47.5t19.5 48z" />
<glyph horiz-adv-x="435" d="M564 459v-97h-270q64 -40 64 -124t-55.5 -132t-136 -48t-136.5 22v104q49 -26 102.5 -26t83.5 24.5t30 73.5t-40 77.5t-115 28.5v97h473zM166 -16q28 0 48 -20t20 -48t-20 -47.5t-48 -19.5t-47.5 19.5t-19.5 47.5t19.5 48t47.5 20zM448 660v-95h-475v95h475z" />
<glyph horiz-adv-x="297" d="M73 55q0 28 19.5 48t47.5 20t48 -19.5t20 -48t-20 -48t-48 -19.5t-47.5 19.5t-19.5 47.5zM124 415h286v-94h-237q-18 0 -26 -9.5t-8 -36t10 -68.5h-94q-32 57 -32 121q0 40 25.5 63.5t75.5 23.5zM-27 565v95h351v-95h-351z" />
<glyph horiz-adv-x="621" d="M489 565v-115q46 44 119 44q122 0 176 -112l-91 -62q-12 36 -39 58t-67.5 22t-69 -27t-28.5 -72v-301h-118v221q-47 -47 -123 -47q-185 0 -185 200v191h-90v95h690v-95h-174zM181 565v-194q0 -55 21.5 -79t65.5 -24t73.5 29t29.5 81v187h-190zM95.5 70q19.5 20 48 20 t48 -20t19.5 -48t-20 -47.5t-48 -19.5t-47.5 19.5t-19.5 47.5t19.5 48z" />
<glyph horiz-adv-x="378" d="M77 -16q0 28 19.5 48t47.5 20t48 -20t20 -48t-20 -47.5t-48 -19.5t-47.5 19.5t-19.5 47.5zM410 565h-127q23 -34 23 -88q0 -122 -138 -166q28 -95 139 -95q52 0 94.5 28.5t64.5 75.5l62 -67q-24 -56 -87 -98t-148 -42q-104 0 -174 66.5t-88 192.5q159 25 159 110 q0 51 -30 83h-187v95h437v-95z" />
<glyph horiz-adv-x="648" d="M680 466l-229 -147q32 -77 99 -259l-214 177q-28 -20 -215 -177l100 259q-176 113 -231 147l273 -9q57 210 73 259l69 -259q25 2 137 5.5t138 3.5z" />
<glyph horiz-adv-x="523" d="M417 764q0 23 15.5 38.5t38.5 15.5t39 -15.5t16 -38.5t-16 -38.5t-39 -15.5t-38.5 15.5t-15.5 38.5zM442 565v-150h-1l1 -3h-196q-26 0 -44.5 -12t-18.5 -34.5t14.5 -36.5t39.5 -15l88 4q78 -4 118.5 -45t40.5 -111t-52 -115.5t-128 -45.5t-129 34v-102h-116v243h108 q14 -38 46.5 -62t70.5 -24t61 20.5t23 49.5q0 58 -56 64l-88 -6q-69 3 -114.5 43t-45.5 106t52 103t127 37h82v58h-352v95h325q-51 62 -51 140t53 128t135 50q59 0 103 -21v-108q-32 22 -73.5 22t-69.5 -28t-28 -69q0 -62 49 -114h134v-95h-108z" />
<glyph horiz-adv-x="657" d="M684 565h-349v-122q54 33 109 33q83 0 129 -49t46 -129.5t-51.5 -130t-130.5 -49.5q-45 0 -70 11v93q20 -10 54.5 -10t57.5 22.5t23 61.5t-20 62t-50 23t-54 -9.5t-35 -17t-36.5 -29.5t-29.5 -25q-39 -31 -90 -32h-8l208 -268h-141l-203 265v93h72q103 0 103 83v124h-245 v95h711v-95z" />
<glyph horiz-adv-x="679" d="M335 565v-132q48 56 134.5 56t138.5 -55.5t52 -141.5t-53 -142t-135 -56q-45 0 -72 10v100q27 -8 60.5 -8t58 25t24.5 68.5t-21 69t-56 25.5t-56 -21t-21 -59v-50h-98v60q-40 -43 -103 -46h-9l208 -268h-141l-203 265v93h72q103 0 103 83v124h-245v95h733v-95h-371z" />
<glyph horiz-adv-x="541" d="M467 408h-250q-44 0 -44 -33.5t31 -55.5q42 11 92 11q92 0 141 -42.5t49 -103.5q0 -26 -8 -45h-115q10 15 10 39.5t-20.5 40t-68 15.5t-79 -25t-31.5 -60q0 -86 97 -89q31 18 73 18q77 0 120.5 -40t43.5 -106t-50.5 -112.5t-144.5 -46.5q-119 0 -211 55v114 q44 -29 104 -50.5t103 -21.5t64.5 17t21.5 43t-17 40t-44 14t-51 -18h-20q-86 3 -146 48.5t-60 129t64 134.5q-68 40 -68 110q0 54 39.5 83t102.5 29h156v65h-378v95h597v-95h-103v-157z" />
<glyph horiz-adv-x="543" d="M467 408h-250q-44 0 -44 -34t33 -58q37 10 86 10q90 0 143 -41.5t53 -103.5q0 -36 -10 -57h-115q12 19 12 47t-22.5 43.5t-70.5 15.5t-78 -22.5t-30 -59t30.5 -60.5t87.5 -27q58 0 103.5 -19t73.5 -48.5t47 -69.5q32 -72 32 -162h-109q0 87 -38 146t-109 59 q-27 0 -43.5 -14t-16.5 -38t19 -39t46 -15t46 8v-90q-23 -9 -54 -9q-74 0 -121.5 37.5t-47.5 110.5q0 50 35 90q-47 20 -72.5 58.5t-25.5 85.5q0 76 64 125q-68 43 -68 111q0 54 39.5 83t102.5 29h156v65h-378v95h597v-95h-103v-157z" />
<glyph horiz-adv-x="483" d="M399 565v-162q-53 20 -110 20q-111 0 -111 -54t101 -54h66v-99h-72q-106 0 -106 -63q0 -60 115 -60q89 0 162 53v-107q-26 -16 -71 -28t-91 -12q-99 0 -166 38t-67 109q0 54 35 85.5t98 35.5q-60 3 -92.5 31.5t-32.5 82t48 87t130 33.5q17 0 47 -2v66h-309v95h537v-95 h-111z" />
<glyph horiz-adv-x="552" d="M450 408h-228q-44 0 -44 -34t34 -58q48 14 108.5 14t95 -24t34.5 -58.5t-33.5 -76.5t-33.5 -54q0 -20 37 -20q57 0 103 31v-87q-48 -28 -129 -28q-49 0 -84.5 22t-35.5 65q0 25 32 64.5t32 50.5q0 23 -33 23q-61 0 -100.5 -39t-39.5 -100t57.5 -107.5t163.5 -46.5 q43 0 69 6v-88q-35 -7 -76 -7q-137 0 -234 65.5t-97 187.5q0 104 81 166q-71 41 -71 113q0 54 39.5 83t102.5 29h134v65h-361v95h606v-95h-129v-157z" />
<glyph d="M-27 660h329v-95h-106v-565h-117v146l-129 -88q-20 -12 -20 -38.5t41 -67.5l-68 -42q-40 22 -67.5 55t-27.5 75t57 80l214 141v304h-106v95z" />
<glyph horiz-adv-x="636" d="M662 660v-95h-119v-565h-117v112q-19 -29 -58.5 -47.5t-89.5 -18.5q-95 0 -159 59t-78 177q149 32 149 93q0 19 -19.5 30.5t-58.5 11.5t-104.5 -15.5t-113.5 -36.5v99q46 19 111.5 31t111.5 12q188 0 188 -133q0 -50 -36 -88.5t-92 -56.5q24 -80 119 -80q60 0 95 37 t35 101v278h-453v95h689z" />
<glyph d="M-27 660h329v-95h-106v-565h-117v153l-170 -153h-151l321 282v283h-106v95z" />
<glyph horiz-adv-x="0" d="M-215 0h152l159 -186h-142l-93 122l-93 -122h-142z" />
<glyph horiz-adv-x="193" d="M220 565h-247v95h247v-95zM8 390q49 -32 125 -32t154 45l26 -94q-83 -45 -181 -45q-68 0 -124 27v99z" />
<glyph horiz-adv-x="0" d="M30 789q-44 21 -77 21t-54 -19.5t-21 -52.5q0 -49 43 -90h-120q-18 16 -30.5 48t-12.5 60q0 73 48 115t115.5 42t108.5 -20v-104z" />
<glyph horiz-adv-x="0" d="M-90 764q0 23 15.5 38.5t38.5 15.5t38.5 -15.5t15.5 -38.5t-15.5 -38.5t-39 -15.5t-38.5 15.5t-15 38.5zM30 849q-32 22 -73.5 22t-69.5 -28t-28 -64.5t15 -66.5q24 -51 49 -64h-122q-62 68 -62 149t53 131t135 50q59 0 103 -21v-108z" />
<glyph d="M310 789q-44 21 -77 21t-54 -19.5t-21 -56t32 -74.5h112v-95h-106v-565h-117v565h-106v95h97q-32 42 -32 96q0 73 48 115t115.5 42t108.5 -20v-104z" />
<glyph d="M186 764q0 23 15.5 38.5t38.5 15.5t38.5 -15.5t15.5 -38.5t-15.5 -38.5t-39 -15.5t-38.5 15.5t-15 38.5zM306 849q-32 22 -73.5 22t-69.5 -28t-28 -69q0 -64 50 -114h117v-95h-106v-565h-117v565h-106v95h94q-52 63 -52 140.5t53 127.5t135 50q59 0 103 -21v-108z" />
<glyph horiz-adv-x="0" d="M-109 853q0 71 43 115.5t110.5 44.5t108.5 -20v-108q-39 25 -84 25q-69 0 -69 -76v-73l-109 23v69z" />
<glyph horiz-adv-x="0" d="M-60 889q0 30 20 50.5t50.5 20.5t51.5 -20.5t21 -50.5t-21 -50.5t-51.5 -20.5t-50.5 20.5t-20 50.5z" />
<glyph horiz-adv-x="0" d="M63.5 759q-14.5 15 -14.5 36.5t14.5 36.5t36.5 15t37 -15t15 -36.5t-15 -36.5t-37 -15t-36.5 15zM69 910q-69 0 -69 -76v-73l-109 23v69q0 71 43 115.5t110.5 44.5t108.5 -20v-108q-39 25 -84 25z" />
<glyph horiz-adv-x="276" d="M353 799q-44 21 -79.5 21t-57 -24.5t-21.5 -70.5v-65h108v-95h-106v-565h-118v565h-106v95h105v76q0 41 -22.5 63.5t-60.5 22.5q-79 0 -79 -86v-29h-118v32q0 90 56 136t141 46q103 0 152 -68q42 71 121 71q51 0 85 -21v-104z" />
<glyph d="M265 858.5q20 20.5 50.5 20.5t51.5 -20.5t21 -50.5t-21 -50.5t-51.5 -20.5t-50.5 20.5t-20 50.5t20 50.5zM195 734v-74h107v-95h-106v-565h-117v565h-106v95h105v69q0 41 -22.5 63.5t-60.5 22.5q-79 0 -79 -86v-22h-118v26q0 90 56 136t141.5 46t142.5 -45.5t57 -135.5z " />
<glyph horiz-adv-x="276" d="M-202 707v32q0 89 50 135.5t131 46.5q108 0 152 -67q15 56 57.5 90t92.5 34t84 -21v-108q-35 22 -77 22t-67.5 -30t-25.5 -84v-97h108v-95h-106v-565h-118v565h-106v95h105v76q0 41 -22.5 63.5t-60.5 22.5q-79 0 -79 -86v-29h-118zM260.5 802.5q15.5 15.5 38 15.5 t38.5 -15.5t16 -38.5t-16 -38.5t-39 -15.5t-38 15.5t-15 38.5t15.5 38.5z" />
<glyph d="M195 660h107v-95h-106v-565h-117v565h-106v95h106v30q0 61 -51.5 93t-162 32t-157.5 -27.5t-47 -73.5v-11h-118v15q0 93 85.5 145t238 52t240.5 -56.5t88 -165.5v-33z" />
<glyph d="M350 799q-44 21 -79.5 21t-57 -24.5t-21.5 -70.5v-65h110v-95h-106v-565h-117v565h-106v95h106v30q0 61 -51.5 93t-162 32t-157.5 -27.5t-47 -73.5v-11h-118v15q0 93 85.5 145t224.5 52q203 0 282 -84q35 93 130 93q51 0 85 -21v-104z" />
<glyph d="M265 858.5q20 20.5 50.5 20.5t51.5 -20.5t21 -50.5t-21 -50.5t-51.5 -20.5t-50.5 20.5t-20 50.5t20 50.5zM195 693v-33h107v-95h-106v-565h-117v565h-106v95h106v30q0 61 -51.5 93t-162 32t-157.5 -27.5t-47 -73.5v-11h-118v15q0 93 85.5 145t238 52t240.5 -56.5 t88 -165.5z" />
<glyph d="M-457 703v15q0 93 85.5 145t224.5 52q205 0 276 -97q5 71 48.5 115.5t111.5 44.5q48 0 80 -21v-108q-33 22 -76 22t-68.5 -30t-25.5 -84v-97h103v-95h-106v-565h-117v565h-106v95h106v30q0 61 -51.5 93t-162 32t-157.5 -27.5t-47 -73.5v-11h-118zM264.5 802.5 q15.5 15.5 38.5 15.5t38.5 -15.5t15.5 -38.5t-15.5 -38.5t-39 -15.5t-38.5 15.5t-15 38.5t15.5 38.5z" />
<glyph horiz-adv-x="0" d="M-134 875.5q39 30.5 91.5 30.5t87.5 -19v-108q-40 25 -77.5 25t-56.5 -20.5t-19 -51t10.5 -57t17.5 -32.5h-61l-7 10h-53l-78 115q-31 46 -81 46q-28 0 -59 -9v99q42 7 68 7q54 0 87.5 -20.5t65.5 -70.5l16 -24q9 49 48 79.5z" />
<glyph horiz-adv-x="0" d="M-105 819q0 30 20.5 50.5t50.5 20.5t51 -20.5t21 -50.5t-21 -50.5t-51 -20.5t-50.5 20.5t-20.5 50.5zM-359 814q-27 0 -59 -9v99q42 7 68 7q109 -1 168 -91l108 -167h-126l-77 115q-31 46 -82 46z" />
<glyph horiz-adv-x="0" d="M-158 942q43 35 102 35t101 -20v-108q-32 22 -73.5 22t-69.5 -28t-28 -64.5t14 -66.5q24 -50 49 -64h-99l-4 5h-35l-78 115q-29 46 -81 46q-28 0 -59 -9v99q42 7 68 7q85 -1 135 -60q15 56 58 91zM-21 818q23 0 39 -15.5t16 -38.5t-16 -38.5t-39 -15.5t-38.5 15.5 t-15.5 38.5t15.5 38.5t38.5 15.5z" />
<glyph horiz-adv-x="0" d="M-132.5 888.5q34.5 26.5 86 26.5t86.5 -22v-104q-44 21 -77.5 21t-54 -19.5t-20.5 -48.5t14 -57q16 -25 28 -37h-69l-5 5h-74q-108 69 -181 69q-30 0 -57 -8v89q32 8 70 8t80 -22q48 -25 134 -102l-92 112q-52 63 -124 63q-36 0 -68 -9v91q27 8 75 8q118 0 187 -112 l13 -20q14 42 48.5 68.5z" />
<glyph horiz-adv-x="0" d="M-32 876q30 0 51 -20.5t21 -50.5t-21 -50.5t-51 -20.5t-50.5 20.5t-20.5 50.5t20.5 50.5t50.5 20.5zM-381 952q118 0 187 -112l116 -187h-140q-108 69 -181 69q-30 0 -57 -8v89q32 8 70 8t80 -22q48 -25 134 -102l-92 112q-52 63 -124 63q-36 0 -68 -9v91q27 8 75 8z" />
<glyph horiz-adv-x="0" d="M-381 952q117 0 184 -108q9 59 49.5 97t97.5 38t94 -22v-108q-32 22 -73.5 22t-69.5 -28t-28 -67q0 -43 31 -94q21 -28 32 -34h-70l-4 5h-80q-108 69 -181 69q-30 0 -57 -8v89q32 8 70 8t80 -22q48 -25 134 -102l-92 112q-52 63 -124 63q-36 0 -68 -9v91q27 8 75 8z M-23 818q23 0 39 -15.5t16 -38.5t-16 -38.5t-39 -15.5t-38.5 15.5t-15.5 38t15.5 38.5t38.5 16z" />
<glyph d="M227 873.5q20 20.5 50.5 20.5t51.5 -20.5t21 -50.5t-21 -50.5t-51.5 -20.5t-50.5 20.5t-20 50.5t20 50.5zM-9 828h36q167 0 169 -168h106v-95h-106v-565h-117v565h-106v95h106q-2 39 -15 56t-48 17h-38q-103 0 -146 44q-41 43 -41 127h118q0 -45 18 -60.5t64 -15.5z" />
<glyph d="M325 779q-40 25 -77.5 25t-56.5 -20.5t-19 -54t17 -69.5h113v-95h-106v-565h-117v565h-106v95h101l-73 108q-31 46 -81 46q-28 0 -59 -9v99q42 7 68 7q54 0 87.5 -20.5t65.5 -70.5l16 -24q9 49 48 79.5t91.5 30.5t87.5 -19v-108z" />
<glyph d="M302 660v-95h-106v-565h-117v565h-106v95h97l-73 108q-31 46 -82 46q-27 0 -58 -9v99q42 7 67 7q109 -1 168 -91l104 -160h106zM291.5 768.5q-20.5 -20.5 -51 -20.5t-51 20.5t-20.5 50.5t20.5 50.5t51 20.5t51 -20.5t20.5 -50.5t-20.5 -50.5z" />
<glyph d="M198 764q0 23 15.5 38.5t38.5 15.5t39 -15.5t16 -38.5t-16 -38.5t-39 -15.5t-38.5 15.5t-15.5 38.5zM115 942q43 35 102 35t101 -20v-108q-32 22 -73.5 22t-69.5 -28t-28 -69q0 -62 49 -114h106v-95h-106v-565h-117v565h-106v95h94l-73 108q-29 46 -81 46q-28 0 -59 -9 v99q42 7 68 7q85 -1 135 -60q15 56 58 91z" />
<glyph d="M320 789q-44 21 -77.5 21t-54 -19.5t-20.5 -48.5t14 -57l17 -25h103v-95h-106v-565h-117v565h-106v95h78q-98 62 -170 62q-30 0 -57 -8v89q32 8 70 8t80 -22q48 -25 134 -102l-92 112q-52 63 -124 63q-36 0 -68 -9v91q27 8 75 8q118 0 187 -112l13 -20q14 42 48.5 68.5 t86 26.5t86.5 -22v-104z" />
<glyph d="M302 660v-95h-106v-565h-117v565h-106v95h76q-98 62 -170 62q-30 0 -57 -8v89q32 8 70 8t80 -22q48 -25 134 -102l-92 112q-52 63 -124 63q-36 0 -68 -9v91q27 8 75 8q118 0 187 -112l112 -180h106zM246 734q-30 0 -50.5 20.5t-20.5 50.5t20.5 50.5t50.5 20.5t51 -20.5 t21 -50.5t-21 -50.5t-51 -20.5z" />
<glyph d="M197 764q0 23 15.5 38.5t38.5 15.5t39 -15.5t16 -38.5t-16 -38.5t-39 -15.5t-38.5 15.5t-15.5 38.5zM-108 952q115 0 184 -106q9 58 50 95.5t97.5 37.5t93.5 -22v-108q-32 22 -73.5 22t-69 -27.5t-27.5 -69.5q0 -62 49 -114h106v-95h-106v-565h-117v565h-106v95h72 q-100 62 -171 62q-30 0 -57 -8v89q32 8 70 8t81 -22q49 -26 134 -102l-92 112q-52 63 -125 63q-37 0 -68 -9v91q29 8 75 8z" />
<glyph horiz-adv-x="778" d="M581 660h225v-95h-106v-565h-118v317h-228q-52 0 -95 10q-108 -41 -108 -114q0 -36 24 -57t67 -21t75.5 27.5t42.5 78.5h113v-241h-116v97q-16 -25 -55 -42.5t-83 -17.5q-84 0 -136 46t-52 123q0 112 126 166q-64 51 -64 134q0 67 49.5 114.5t131.5 47.5t132.5 -41 t50.5 -109.5t-50 -109.5h174v252zM326 553q-20 19 -51 19t-50.5 -19.5t-19.5 -49.5q0 -67 79 -87q62 30 62 91q0 27 -20 46z" />
<glyph horiz-adv-x="551" d="M667 317h-313q-52 0 -95 10q-108 -41 -108 -114q0 -36 24 -57t67 -21t75.5 27.5t42.5 78.5h113v-241h-116v97q-16 -25 -55 -42.5t-83 -17.5q-84 0 -136 46t-52 123q0 112 126 166q-64 51 -64 134q0 67 49.5 114.5t131.5 47.5t132.5 -41t50.5 -109.5t-50 -109.5h260v-91z M326 553q-20 19 -51 19t-50.5 -19.5t-19.5 -49.5q0 -67 79 -87q62 30 62 91q0 27 -20 46z" />
<glyph horiz-adv-x="1112" d="M505 660h634v-95h-106v-565h-115v268h-177v-127h-100l-32 71q-28 63 -28 91q0 10 1 14h-228q-52 0 -95 10q-108 -41 -108 -114q0 -36 24 -57t67 -21t75.5 27.5t42.5 78.5h113v-241h-116v97q-16 -25 -55 -42.5t-83 -17.5q-84 0 -136 46t-52 123q0 112 126 166 q-64 51 -64 134q0 67 49.5 114.5t131.5 47.5t132.5 -41t50.5 -109.5t-50 -109.5h218v157h-120v95zM326 553q-20 19 -51 19t-50.5 -19.5t-19.5 -49.5q0 -67 79 -87q62 30 62 91q0 27 -20 46zM918 363v202h-177v-202h177z" />
<glyph horiz-adv-x="876" d="M1139 565h-399v-199h225v-103h-225v-125h-100l-32 71q-28 68 -28 91q0 7 2 17h-228q-52 0 -95 10q-108 -41 -108 -114q0 -36 24 -57t67 -21t75.5 27.5t42.5 78.5h113v-241h-116v97q-16 -25 -55 -42.5t-83 -17.5q-84 0 -136 46t-52 123q0 112 126 166q-64 51 -64 134 q0 67 49.5 114.5t131.5 47.5t132.5 -41t50.5 -109.5t-50 -109.5h217v157h-119v95h634v-95zM326 553q-20 19 -51 19t-50.5 -19.5t-19.5 -49.5q0 -67 79 -87q62 30 62 91q0 27 -20 46z" />
<glyph horiz-adv-x="1479" d="M1506 660v-95h-106v-565h-117v179q-20 -30 -61 -48t-102.5 -18t-120 39t-90.5 111h-175v-125h-100l-32 71q-28 64 -28 91q0 7 2 17h-222q-52 0 -95 10q-108 -41 -108 -114q0 -36 24 -57t67 -21t75.5 27.5t42.5 78.5h113v-241h-116v97q-16 -25 -55 -42.5t-83 -17.5 q-84 0 -136 46t-52 123q0 112 126 166q-64 51 -64 134q0 67 49.5 114.5t131.5 47.5t132.5 -41t50.5 -109.5t-50 -109.5h211v157h-120v95h1008zM326 553q-20 19 -51 19t-50.5 -19.5t-19.5 -49.5q0 -67 79 -87q62 30 62 91q0 27 -20 46zM1038 482q0 51 -30 83h-274v-199h146 l-1 6q159 25 159 110zM1283 352v213h-152q23 -34 23 -88q0 -122 -138 -166q12 -43 46.5 -69t91 -26t93 35t36.5 101z" />
<glyph horiz-adv-x="1126" d="M514 660h639v-95h-106v-565h-117v179q-20 -30 -61 -48t-92 -18q-85 0 -149.5 53.5t-90.5 150.5h-183q-52 0 -95 10q-108 -41 -108 -114q0 -36 24 -57t67 -21t75.5 27.5t42.5 78.5h113v-241h-116v97q-16 -25 -55 -42.5t-83 -17.5q-84 0 -136 46t-52 123q0 112 126 166 q-64 51 -64 134q0 67 49.5 114.5t131.5 47.5t132.5 -41t50.5 -109.5t-50 -109.5h230q48 29 48 77t-30 80h-141v95zM326 553q-20 19 -51 19t-50.5 -19.5t-19.5 -49.5q0 -67 79 -87q62 30 62 91q0 27 -20 46zM930 352v213h-152q23 -34 23 -88q0 -122 -138 -166 q12 -43 46.5 -69t91 -26t93 35t36.5 101z" />
<glyph horiz-adv-x="1110" d="M1137 660v-95h-106v-565h-118v144q-56 -56 -145 -56t-149.5 53.5t-60.5 146.5q0 11 2 29h-206q-52 0 -95 10q-108 -41 -108 -114q0 -36 24 -57t67 -21t75.5 27.5t42.5 78.5h113v-241h-116v97q-16 -25 -55 -42.5t-83 -17.5q-84 0 -136 46t-52 123q0 112 126 166 q-64 51 -64 134q0 67 49.5 114.5t131.5 47.5t132.5 -41t50.5 -109.5t-50 -109.5h187q60 85 177 85q38 0 68 -8v-102q-34 9 -59 9q-45 0 -74.5 -27.5t-29.5 -76t30 -77.5t81 -29t88.5 34.5t37.5 82.5v266h-397v95h621zM326 553q-20 19 -51 19t-50.5 -19.5t-19.5 -49.5 q0 -67 79 -87q62 30 62 91q0 27 -20 46z" />
<glyph horiz-adv-x="744" d="M260 229q-192 0 -192 133q0 70 52.5 104t130.5 34h319v65h-600v95h830v-95h-112v-565h-118v405h-312q-70 0 -70 -40q0 -23 22.5 -33.5t85.5 -11.5q187 -5 187 -152q0 -72 -55 -116t-130 -44t-129 38v-96h-116v236h107q14 -37 49 -63t74 -26t61.5 19t22.5 52q0 61 -107 61 z" />
<glyph horiz-adv-x="533" d="M701 391h-443q-70 0 -70 -40q0 -22 21.5 -29t86.5 -9q187 -5 187 -147q0 -72 -54.5 -115t-130 -43t-129.5 38v-96h-116v236h107q14 -37 49 -63t74 -26t61.5 18t22.5 50.5t-26 44.5t-81 12q-192 0 -192 127q0 69 52.5 103t130.5 34h450v-95zM560 660v-95h-590v95h590z" />
<glyph horiz-adv-x="1143" d="M1170 660v-95h-106v-565h-117v179q-20 -30 -61 -48t-92 -18q-92 0 -159.5 62t-87.5 173q-36 43 -154 43h-135q-70 0 -70 -40q0 -22 21.5 -29t86.5 -9q187 -5 187 -147q0 -72 -54.5 -115t-130 -43t-129.5 38v-96h-116v236h107q14 -37 49 -63t74 -26t61.5 18t22.5 50.5 t-26 44.5t-81 12q-192 0 -192 127q0 69 52.5 103t130.5 34h156q161 0 239 -83q56 31 56 80.5t-30 81.5h-702v95h1200zM947 352v213h-152q23 -34 23 -88q0 -122 -138 -166q12 -43 46.5 -69t91 -26t93 35t36.5 101z" />
<glyph horiz-adv-x="808" d="M836 565h-366v-123q46 43 110 43q87 0 140 -53t53 -140.5t-60 -141.5t-152 -54q-16 0 -23 1v95q5 -1 17 -1q46 0 73 28t27 72t-25.5 72t-66 28t-67 -27.5t-26.5 -70.5v-293h-118v135q-10 -10 -19 -15l1 -1l-134 -104q-16 -13 -16 -28q0 -26 56 -80l-65 -50 q-43 19 -76.5 55.5t-33.5 77t48 73.5l58 40q-57 18 -89 64t-32 111q0 91 60 144t152 53q15 0 23 -1v-95q-6 1 -17 1q-46 0 -73 -27.5t-27 -70.5t25 -69t66 -26t67 27.5t26 70.5v280h-379v95h863v-95z" />
<glyph horiz-adv-x="653" d="M680 660v-95h-106v-565h-116v176q-20 -30 -54 -50l-162 -112q-18 -14 -18 -32q0 -29 47 -80l-69 -45q-41 23 -69 58t-28 72q0 48 53 80l59 34q-60 15 -95 56.5t-35 98.5q0 79 64 114h-125v97h352v-97q-178 0 -178 -100q0 -39 27.5 -60t75.5 -21q71 0 113 44t42 92v240 h-485v95h707z" />
<glyph horiz-adv-x="651" d="M678 565h-148v-97q75 -49 75 -158t-84 -182v-406h-111v172h-122q-18 0 -26 -9.5t-8 -36.5t10 -67h-94q-32 55 -32 105q0 96 101 96h171v86q-49 -16 -112 -16q-104 0 -174.5 45.5t-70.5 125.5q0 55 35 88.5t96 38.5q-53 3 -85.5 37.5t-32.5 87.5t37 90h-130v95h705v-95z M419 498v67h-188q-48 -35 -48 -89q0 -35 23 -57t60 -22h34v-98h-37q-92 0 -92 -71q0 -37 36 -58t92 -21q84 0 135.5 43t51.5 117q0 44 -24.5 69t-60.5 25t-53 -6v94q22 7 66 7h5z" />
<glyph horiz-adv-x="528" d="M443 565v-196q-37 7 -85.5 7t-92 -9.5t-76.5 -37.5t-33 -71q0 -108 184 -108q88 0 158 41v-106q-22 -13 -61 -22v-306h-111v130h-109q-18 0 -25.5 -9.5t-7.5 -33t10 -63.5h-94q-32 51 -32 99q0 95 101 95h157v75q-131 2 -210 56t-79 150.5t77 153.5t198 59h14v96h-353v95 h581v-95h-111z" />
<glyph horiz-adv-x="607" d="M334 68l-28 -1q-112 0 -187.5 55.5t-75.5 145.5t64.5 141.5t157.5 60.5v95h-292v95h661v-95h-252v-102q81 -17 131.5 -67.5t50.5 -116.5q0 -127 -119 -182v-309h-111v130h-109q-18 0 -25.5 -9.5t-7.5 -32.5t10 -65h-95q-32 57 -32 102t26 68.5t76 23.5h157v63zM445 271 q0 52 -39 80t-102 28t-102.5 -28t-39.5 -80t40.5 -81t103.5 -29t101 29t38 81z" />
<glyph horiz-adv-x="578" d="M490 393h-196q-59 0 -93 -31t-34 -84.5t30 -84t79.5 -30.5t81 27.5t37.5 78.5h114v-279h-116v128q-10 -14 -31 -27l-150 -110q-21 -15 -21 -40t43 -66l-69 -43q-40 23 -67.5 57.5t-27.5 70.5q0 49 58 84l56 33q-65 21 -101.5 74.5t-36.5 124.5q0 93 63 152t179 59h84v78 h-399v95h632v-95h-115v-172z" />
<glyph horiz-adv-x="543" d="M-27 660h597v-95h-106v-565h-118v195l-141 -31q-41 -10 -41 -56q0 -19 14 -63l-76 -18q-20 22 -39.5 60.5t-19.5 72.5q0 67 82 84l201 40l-111 73q-16 13 -36 13t-40 -19.5t-34 -47.5l-62 47q9 58 39 102t71.5 44t84.5 -30l108 -79v178h-373v95z" />
<glyph horiz-adv-x="831" d="M858 565h-364v-111q46 43 124 43t127.5 -54t49.5 -142.5t-59.5 -140.5t-150.5 -52q-17 0 -24 1v96q10 -2 17 -2q47 0 73.5 26.5t26.5 72.5t-24 73.5t-64.5 27.5t-68 -27t-27.5 -72v-304h-118v227q-4 -6 -13 -12l-140 -117q-19 -16 -19 -41.5t40 -67.5l-68 -42 q-40 22 -67.5 55t-27.5 74t57 81l46 31q-116 33 -116 193v184h-95v95h885v-95zM376 384v181h-190v-188q0 -55 21.5 -79.5t65.5 -24.5t73.5 29.5t29.5 81.5z" />
<glyph horiz-adv-x="629" d="M656 660v-95h-106v-565h-118v143q-12 -12 -27 -24l-146 -115q-18 -14 -18 -40.5t41 -65.5l-68 -43q-39 21 -67 55.5t-28 72.5q0 51 58 83l33 18q-71 18 -117.5 73.5t-46.5 140.5t62.5 146t164.5 61q47 0 81 -9v-102q-32 11 -65.5 11t-60.5 -10l185 -162q19 30 19 64v268 h-459v95h683zM183 358q-20 -29 -20 -76.5t33.5 -80t83.5 -32.5t89 23z" />
<glyph horiz-adv-x="737" d="M540 660h224v-95h-106v-565h-118v201l-175 -123q-19 -12 -19 -38t43 -60l-69 -43q-97 50 -97 120q0 46 54 80l142 95q-78 21 -133 46l-197 -122l-92 71l184 109q-94 71 -94 171q0 66 51 113.5t135 47.5t136.5 -47t52.5 -120q0 -89 -83 -149q72 -25 161 -47v355z M325.5 550q-19.5 22 -52 22t-51 -19.5t-18.5 -50.5q0 -59 76 -104q65 39 65 102q0 28 -19.5 50z" />
<glyph horiz-adv-x="800" d="M827 660v-95h-106v-565h-117v241l-124 -51q-29 -14 -29 -42t29 -71l-77 -26q-30 25 -50.5 59.5t-20.5 66.5q0 64 75 89l156 51q-68 46 -140.5 46t-170.5 -54q-32 -25 -79 -32q-8 0 -11 -1l170 -276h-135l-169 274v84h69q94 0 94 84v123h-218v95h854zM307 565v-131 q59 25 123 25q109 0 174 -61v167h-297z" />
<glyph horiz-adv-x="648" d="M543 408h-316q-44 0 -44 -34q0 -37 42 -65q57 17 130 17q124 0 193 -59t69 -151q0 -46 -10 -78h-107q10 28 10 63.5t-13 58.5l-103 -48q-20 -8 -20 -28.5t40 -71.5l-74 -35q-26 19 -52 53.5t-26 66.5q0 46 57 72l107 49q-32 13 -79 13q-86 0 -133.5 -40t-47.5 -106 t60.5 -115.5t164.5 -49.5q46 0 71 6v-89q-34 -7 -78 -7q-87 0 -161.5 28.5t-124 90t-49.5 145.5q0 113 92 176q-79 45 -79 118q0 54 39.5 83t102.5 29h222v65h-453v95h702v-95h-132v-157z" />
<glyph horiz-adv-x="807" d="M834 565h-365v-123q46 43 110 43q86 0 139.5 -53t53.5 -140.5t-60.5 -141.5t-152.5 -54q-16 0 -23 1v95q6 -1 18 -1q45 0 72.5 28.5t27.5 72t-25.5 71.5t-66.5 28t-67 -27.5t-26 -70.5v-293h-118v130l-150 -175h-140l127 139q-64 14 -102 63.5t-38 118.5q0 91 60.5 145 t152.5 54q15 0 23 -1v-95q-6 1 -18 1q-45 0 -72.5 -28.5t-27.5 -72t25.5 -71.5t66.5 -28t67 27.5t26 70.5v287h-378v95h861v-95z" />
<glyph horiz-adv-x="807" d="M834 660v-95h-106v-565h-118v121q-35 -33 -87 -74t-105.5 -83t-92.5 -73h-175l196 156q-211 26 -296 255v93h67q40 0 53 16.5t13 60.5v93h-210v95h861zM610 565h-310v-115q0 -66 -24 -101q-26 -39 -91 -45q22 -74 83.5 -116.5t146 -42.5t144 40t59.5 117q0 50 -25 80 t-63 30t-57.5 -16.5t-19.5 -41t14.5 -38.5t33.5 -14t34 6v-82q-25 -9 -52 -9q-59 0 -99 37.5t-40 100t48.5 104t112 41.5t105.5 -25v90z" />
<glyph horiz-adv-x="593" d="M-27 660h647v-95h-106v-565h-116v155l-204 -175h-158l362 316v269h-135v-221q0 -69 -37.5 -104t-91 -35t-92.5 14v95q25 -13 54 -13q50 0 50 53v211h-173v95z" />
<glyph horiz-adv-x="645" d="M672 660v-95h-106v-565h-116v156l-225 -201h-156l147 130q-70 7 -116 48t-46 102.5t38 97t103 43.5q-59 2 -94.5 30.5t-35.5 76.5t34 82h-126v95h699zM450 337v228h-227q-40 -29 -40 -71q0 -68 102 -68h44v-99h-53q-48 0 -76 -21t-28 -57t29 -54.5t73 -18.5 q77 0 126.5 43.5t49.5 117.5z" />
<glyph horiz-adv-x="615" d="M-27 660h669v-95h-221v-153h-195q-64 0 -64 -48q0 -28 28.5 -38t94.5 -11q193 -3 193 -148q-1 -51 -32 -91t-88 -60l126 -161h-141l-86 128l-87 -128h-141l121 156q-59 13 -103 37v110q100 -61 207 -61q51 0 78.5 17.5t27.5 48t-26 42t-101.5 13t-131 35t-55.5 107 t52 110t127 36.5h80v59h-332v95zM486.5 405q20.5 21 51 21t51 -21t20.5 -51t-20.5 -50.5t-51 -20.5t-51 20.5t-20.5 50.5t20.5 51z" />
<glyph horiz-adv-x="652" d="M679 660v-95h-106v-565h-117v171l-233 -216h-155l157 145q-64 13 -101.5 55t-37.5 101q0 79 63 114h-124v97h352v-97q-178 0 -178 -100q0 -39 27.5 -60t83.5 -21t101 39t45 91v246h-483v95h706z" />
<glyph horiz-adv-x="650" d="M677 565h-145v-97q75 -47 75 -151q0 -89 -50 -153.5t-135 -92.5l128 -164h-141l-85 129l-88 -129h-142l120 154q-72 17 -115.5 58.5t-43.5 100t35 92t97 38.5q-53 3 -86 37.5t-33 87.5t38 90h-133v95h704v-95zM422 498v67h-188q-48 -35 -48 -89q0 -35 22.5 -57t59.5 -22 h35v-98h-38q-92 0 -92 -71q0 -37 36 -58t92 -21q84 0 136 43t52 117q0 44 -24.5 69t-61.5 25t-52 -6v94q22 7 66 7h5z" />
<glyph horiz-adv-x="658" d="M-27 660h712v-95h-106v-565h-118v80l-209 -180h-152l361 309v153h-163q62 -37 62 -109.5t-57 -118.5t-135.5 -46t-134.5 22v104q49 -26 105 -26q110 0 110 80q0 94 -155 94v97h368v106h-488v95z" />
<glyph horiz-adv-x="867" d="M894 660v-95h-106v-565h-118v79l-199 -200h-157l356 325v34h-203q13 -29 13 -68q0 -72 -49.5 -117.5t-126 -45.5t-132.5 37v-94h-116v236h107l1 -5q17 -38 51 -61t71 -23t57.5 17.5t20.5 49.5q0 63 -99 66q-197 4 -197 135q0 72 52 108.5t135 36.5h75v55h-357v95h921z M670 329v236h-223v-150l-7 1v-1h-179q-74 0 -74 -45q0 -22 20 -30.5t63 -10.5h400z" />
<glyph horiz-adv-x="701" d="M728 660v-95h-106v-565h-118v87l-212 -187h-159l371 314v44h-104q-14 -72 -74.5 -119t-151 -47t-151.5 36v107q72 -43 138 -43q125 0 125 106q0 46 -27.5 71t-73.5 25t-88 -17v99q38 15 94 15q83 0 137 -35.5t70 -102.5h106v212h-531v95h755z" />
<glyph horiz-adv-x="514" d="M436 565v-196q-34 6 -86 6q-86 0 -133.5 -35t-47.5 -97t45 -95.5t119 -33.5t144 41v-106q-37 -20 -77 -27l119 -153h-142l-85 128l-87 -128h-142l130 167q-68 26 -105.5 80t-37.5 130q0 94 68.5 157.5t185.5 65.5h15v96h-346v95h568v-95h-105z" />
<glyph horiz-adv-x="571" d="M598 565h-231v-105q74 -19 118 -69t44 -121.5t-35.5 -120.5t-100.5 -72l127 -163h-141l-87 128l-86 -128h-142l124 160q-67 21 -106 71.5t-39 121.5q0 89 59.5 140t147.5 60v98h-277v95h625v-95zM377 183.5q33 30.5 33 83t-33.5 80.5t-88.5 28.5t-91 -27t-36 -81 t35.5 -84t91.5 -30.5t89 30.5z" />
<glyph horiz-adv-x="532" d="M283 217l-47 -2q-79 1 -133.5 36t-54.5 108.5t52.5 110t126.5 36.5h80v59h-334v95h586v-95h-135v-153h-196q-27 0 -45.5 -11.5t-18.5 -38.5t27 -38t80 -11l34 1h14q83 -4 122 -43.5t38.5 -97t-31.5 -97.5t-87 -59l126 -162h-142l-86 128l-87 -128h-141l121 156 q-55 12 -103 37v110q100 -61 207 -61q51 0 79 17.5t28 47.5q0 54 -80 55z" />
<glyph horiz-adv-x="564" d="M452 565v-188q-55 10 -102 10q-84 0 -138 -35.5t-54 -99t41 -104t105 -40.5q44 0 73 18.5t29 45.5q0 55 -63 55q-43 0 -77 -22v86q46 22 107.5 22t103.5 -36t42 -93t-31.5 -96.5t-89.5 -58.5l125 -161h-141l-87 129l-86 -129h-142l127 164q-72 26 -113.5 83.5 t-41.5 132.5q0 109 76 169t197 62h23v86h-362v95h617v-95h-138z" />
<glyph horiz-adv-x="760" d="M787 660v-95h-106v-565h-117v155l-215 -180h-172l387 321v269h-134v-191q0 -93 -50 -141.5t-140 -48.5q-185 0 -185 188v193h-82v95h814zM314 365v200h-142v-200q0 -82 70 -82q72 0 72 82z" />
<glyph horiz-adv-x="610" d="M637 660v-95h-106v-565h-118v205l-274 -169l-61 89l293 178q-57 76 -146.5 76.5t-166.5 -46.5v107q65 41 164 41q119 0 191 -81v165h-440v95h664z" />
<glyph horiz-adv-x="662" d="M392 507q0 -150 -232 -215q29 -87 140 -87q66 0 116 39.5t50 121.5v294h223v-95h-106v-565h-117v174l-233 -219h-164l170 156q-87 16 -146.5 79.5t-67.5 166.5q136 33 196.5 66.5t60.5 86.5q0 27 -13 44t-39 17q-53 0 -53 -59q0 -27 12 -55h-113q-11 35 -11 66 q0 62 44 103.5t119 41.5t119.5 -43.5t44.5 -117.5z" />
<glyph horiz-adv-x="573" d="M-27 660h627v-95h-115v-172h-196q-59 0 -93 -31t-34 -84.5t30 -84t79.5 -30.5t81 27.5t37.5 78.5h114v-279h-116v128l-173 -173h-152l133 129q-72 18 -113.5 72.5t-41.5 129.5q0 93 63 152t179 59h84v78h-394v95z" />
<glyph horiz-adv-x="645" d="M672 660v-95h-106v-565h-116v154l-217 -199h-160l146 130q-74 9 -119.5 49.5t-45.5 99t39.5 93t106.5 38.5q-64 3 -100 31t-36 84.5t52 84.5h-143v95h325v-95h-2q-55 0 -84.5 -21.5t-29.5 -60.5q0 -69 107 -69h44v-98h-52q-49 0 -79 -18.5t-30 -52t28.5 -50.5t78.5 -17 q77 0 124 42t47 112v328h222z" />
<glyph horiz-adv-x="538" d="M-27 660h592v-95h-106v-565h-118v223l-171 -179h-146l317 319v1h-179q-19 0 -26.5 -9t-7.5 -36.5t10 -67.5h-94q-32 55 -32 120q0 41 25.5 64.5t75.5 23.5h228v106h-368v95z" />
<glyph horiz-adv-x="573" d="M600 660v-95h-106v-565h-118v235l-205 -235h-150l171 195q-124 29 -124 193v177h-95v95h627zM376 391v174h-190v-181q0 -55 21.5 -79.5t65.5 -24.5t73.5 29.5t29.5 81.5z" />
<glyph horiz-adv-x="830" d="M857 565h-363v-112q46 43 124 43t127.5 -54t49.5 -142.5t-59.5 -140.5t-150.5 -52q-17 0 -24 2v95q5 -1 17 -1q47 0 73.5 26t26.5 72t-24 73.5t-64.5 27.5t-68 -27t-27.5 -72v-303h-118v235l-205 -235h-150l171 195q-124 29 -124 193v177h-95v95h884v-95zM376 391v174 h-190v-181q0 -55 21.5 -79.5t65.5 -24.5t73.5 29.5t29.5 81.5z" />
<glyph horiz-adv-x="629" d="M656 660v-95h-106v-565h-117v145l-220 -210h-162l161 152q-71 16 -118.5 71t-47.5 140t62.5 146t164.5 61q47 0 81 -9v-102q-32 11 -68 11t-57 -10l184 -161q19 28 19 63l1 -1v269h-460v95h683zM183 358q-20 -29 -20 -76.5t33.5 -80t83.5 -32.5t89 23z" />
<glyph horiz-adv-x="590" d="M396 660h221v-95h-106v-565h-115v130l-192 -170h-162l354 306v54h-169v-130h-102l-32 69q-27 57 -27 88q0 50 45 61v106q0 54 -46 54q-29 0 -55 -14v92q36 19 80 19q137 0 137 -135v-116h169v246z" />
<glyph horiz-adv-x="598" d="M-27 660h652v-95h-106v-565h-115v132l-195 -172h-165l360 314v38h-178v-126h-100l-32 71q-28 68 -28 91q0 49 44 60v157h-137v95zM226 414h178v151h-178v-151z" />
<glyph horiz-adv-x="642" d="M179 314q31 -91 139 -91q55 0 91.5 35t36.5 101v206h-152q23 -34 23 -88q0 -117 -138 -163zM201 482q0 51 -30 83h-198v95h696v-95h-106v-565h-117v183l-242 -228h-165l188 178q-73 19 -123 81t-62 162q159 25 159 106z" />
<glyph horiz-adv-x="601" d="M628 660v-95h-106v-565h-117v147l-204 -212h-158l161 161q-68 14 -111.5 64.5t-43.5 133t59 141t154 58.5q39 0 68 -8v-102q-34 9 -59 9q-44 0 -73.5 -28t-29.5 -76t29.5 -77t81 -29t89 34.5t37.5 82.5v266h-432v95h655z" />
<glyph horiz-adv-x="739" d="M542 660h224v-95h-106v-565h-118v197l-249 -209l-91 66l218 178q-70 21 -122 45l-177 -128l-93 69l167 116q-100 71 -100 172q0 67 50.5 114.5t134 47.5t135.5 -46.5t52 -120.5q0 -88 -84 -148q55 -22 159 -51v358zM331 550q-19 22 -50 22t-50 -19.5t-19 -49.5 q0 -58 73 -104q65 40 65 100q0 29 -19 51z" />
<glyph horiz-adv-x="791" d="M818 660v-95h-106v-565h-117v277l-136 -162h-141l203 224q-46 24 -92 24q-74 0 -176 -56q-30 -22 -76 -30q-8 0 -10 -1l169 -276h-134l-170 274v84h69q94 0 94 84v123h-222v95h845zM312 565v-130q59 24 117 24q102 0 166 -60v166h-283z" />
<glyph horiz-adv-x="655" d="M555 408h-316q-44 0 -44 -34.5t37 -59.5q51 15 117 15q120 0 190.5 -58.5t70.5 -160.5q0 -44 -10 -77h-106q9 24 9 69t-19 76l-109 -153h-130l161 203q-29 6 -65 6q-74 0 -118.5 -40t-44.5 -107t58.5 -115.5t166.5 -48.5q46 0 77 7v-89q-40 -8 -84 -8q-192 0 -286 117 q-49 62 -49 147q0 114 87 177q-74 42 -74 114q0 54 39.5 83t102.5 29h223v65h-466v95h709v-95h-127v-157z" />
<glyph horiz-adv-x="807" d="M834 565h-365v-123q46 43 110 43q86 0 139.5 -53t53.5 -140.5t-60.5 -141.5t-152.5 -54q-16 0 -23 1v95q6 -1 18 -1q45 0 72.5 28.5t27.5 72t-25.5 71.5t-66.5 28t-67 -27.5t-26 -70.5v-293h-118v130l-150 -175h-140l127 139q-64 14 -102 63.5t-38 118.5q0 91 60.5 145 t152.5 54q15 0 23 -1v-95q-6 1 -18 1q-45 0 -72.5 -28.5t-27.5 -72t25.5 -71.5t66.5 -28t67 27.5t26 70.5v287h-378v95h861v-95zM255.5 -64q19.5 20 48 20t48 -20t19.5 -48t-20 -47.5t-48 -19.5t-47.5 19.5t-19.5 47.5t19.5 48z" />
<glyph horiz-adv-x="807" d="M834 660v-95h-106v-565h-118v121q-35 -33 -87 -74t-105.5 -83t-92.5 -73h-175l196 156q-211 26 -296 255v93h67q40 0 53 16.5t13 60.5v93h-210v95h861zM610 565h-310v-115q0 -66 -24 -101q-26 -39 -91 -45q22 -74 83.5 -116.5t146 -42.5t144 40t59.5 117q0 50 -25 80 t-63 30t-57.5 -16.5t-19.5 -41t14.5 -38.5t33.5 -14t34 6v-82q-25 -9 -52 -9q-59 0 -99 37.5t-40 100t48.5 104t112 41.5t105.5 -25v90zM532 -45q28 0 48 -19.5t20 -48t-20 -48t-48 -19.5t-47.5 19.5t-19.5 47.5t19.5 48t47.5 20z" />
<glyph horiz-adv-x="593" d="M-27 660h647v-95h-106v-565h-116v155l-204 -175h-158l362 316v269h-135v-221q0 -69 -37.5 -104t-91 -35t-92.5 14v95q25 -13 54 -13q50 0 50 53v211h-173v95zM312 -40q28 0 48 -20t20 -48t-20 -47.5t-48 -19.5t-47.5 19.5t-19.5 47.5t19.5 48t47.5 20z" />
<glyph horiz-adv-x="645" d="M672 660v-95h-106v-565h-116v156l-225 -201h-156l147 130q-70 7 -116 48t-46 102.5t38 97t103 43.5q-59 2 -94.5 30.5t-35.5 76.5t34 82h-126v95h699zM450 337v228h-227q-40 -29 -40 -71q0 -68 102 -68h44v-99h-53q-48 0 -76 -21t-28 -57t29 -54.5t73 -18.5 q77 0 126.5 43.5t49.5 117.5zM368 -39q28 0 48 -19.5t20 -48t-20 -48t-48 -19.5t-47.5 19.5t-19.5 47.5t19.5 48t47.5 20z" />
<glyph horiz-adv-x="689" d="M-27 660h743v-95h-221v-153h-196q-27 0 -45.5 -11.5t-18.5 -38t29 -36.5t95 -11q192 -3 192 -148q-1 -52 -32 -91.5t-87 -59.5l126 -161h-142l-86 128l-86 -128h-142l121 156q-53 12 -102 37v110q100 -61 206 -61q51 0 79 17.5t28 48t-26 42t-89 12.5q-199 4 -199 144 q0 72 52 108.5t127 36.5h79v59h-405v95zM611 426q30 0 51 -21t21 -51t-21 -50.5t-51 -20.5t-50.5 20.5t-20.5 50.5t20.5 51t50.5 21zM28 32q28 0 48 -20t20 -48t-20 -47.5t-48 -19.5t-47.5 19.5t-19.5 47.5t19.5 48t47.5 20z" />
<glyph horiz-adv-x="652" d="M679 660v-95h-106v-565h-117v171l-233 -216h-155l157 145q-64 13 -101.5 55t-37.5 101q0 79 63 114h-124v97h352v-97q-178 0 -178 -100q0 -39 27.5 -60t83.5 -21t101 39t45 91v246h-483v95h706zM315.5 -65q19.5 20 48 20t48 -19.5t19.5 -48t-20 -48t-48 -19.5t-47.5 19.5 t-19.5 47.5t19.5 48z" />
<glyph horiz-adv-x="688" d="M715 565h-144v-97q75 -49 75 -144t-50 -160t-135 -93l128 -164h-142l-85 129l-88 -129h-141l120 154q-72 17 -115.5 58.5t-43.5 100t35 92t96 38.5q-53 3 -85.5 37.5t-32.5 87.5t38 90h-165v95h735v-95zM460 498v67h-188q-48 -35 -48 -89q0 -35 23 -57t60 -22h34v-98h-37 q-92 0 -92 -71q0 -37 36 -58t92 -21q84 0 135.5 43t51.5 117q0 44 -24.5 69t-60.5 25t-53 -6v94q22 7 66 7h5zM9.5 64q19.5 20 48 20t48 -20t19.5 -48t-20 -47.5t-48 -19.5t-47.5 19.5t-19.5 47.5t19.5 48z" />
<glyph horiz-adv-x="658" d="M-27 660h712v-95h-106v-565h-118v80l-209 -180h-152l361 309v153h-163q62 -37 62 -109.5t-57 -118.5t-135.5 -46t-134.5 22v104q49 -26 105 -26q110 0 110 80q0 94 -155 94v97h368v106h-488v95zM367.5 -80q19.5 20 48 20t48 -20t19.5 -48t-20 -47.5t-48 -19.5t-47.5 19.5 t-19.5 47.5t19.5 48z" />
<glyph horiz-adv-x="867" d="M894 660v-95h-106v-565h-118v79l-199 -200h-157l356 325v34h-203q13 -29 13 -68q0 -72 -49.5 -117.5t-126 -45.5t-132.5 37v-94h-116v236h107l1 -5q17 -38 51 -61t71 -23t57.5 17.5t20.5 49.5q0 63 -99 66q-197 4 -197 135q0 72 52 108.5t135 36.5h75v55h-357v95h921z M670 329v236h-223v-150l-7 1v-1h-179q-74 0 -74 -45q0 -22 20 -30.5t63 -10.5h400zM591.5 -77q19.5 20 48 20t48 -19.5t19.5 -48t-20 -48t-48 -19.5t-47.5 19.5t-19.5 47.5t19.5 48z" />
<glyph horiz-adv-x="701" d="M728 660v-95h-106v-565h-118v87l-212 -187h-159l371 314v44h-104q-14 -72 -74.5 -119t-151 -47t-151.5 36v107q72 -43 138 -43q125 0 125 106q0 46 -27.5 71t-73.5 25t-88 -17v99q38 15 94 15q83 0 137 -35.5t70 -102.5h106v212h-531v95h755zM409.5 -77q19.5 20 48 20 t48 -19.5t19.5 -48t-20 -48t-48 -19.5t-47.5 19.5t-19.5 47.5t19.5 48z" />
<glyph horiz-adv-x="552" d="M475 565v-196q-35 6 -86 6q-86 0 -133.5 -35t-47.5 -97t45 -95.5t118 -33.5t145 41v-106q-37 -20 -78 -27l119 -153h-141l-85 128l-88 -128h-141l129 167q-68 26 -105.5 80t-37.5 130q0 94 68.5 157.5t186.5 65.5h15v96h-378v95h599v-95h-104zM-6.5 61q19.5 20 48 20 t48 -19.5t19.5 -48t-20 -48t-48 -19.5t-47.5 19.5t-19.5 47.5t19.5 48z" />
<glyph horiz-adv-x="616" d="M643 565h-231v-105q74 -18 118.5 -68t44.5 -121.5t-36 -121t-100 -72.5l127 -163h-142l-86 128l-87 -128h-141l124 159q-68 22 -107 72.5t-39 121.5q0 89 60 140t147 60v98h-323v95h671v-95zM422.5 184q33.5 31 33.5 83t-33.5 80t-89 28.5t-91 -27t-35.5 -81t35 -84 t91 -30.5t89.5 31zM44 112q28 0 48 -20t20 -48t-20 -47.5t-48 -19.5t-47.5 19.5t-19.5 47.5t19.5 48t47.5 20z" />
<glyph horiz-adv-x="602" d="M353 217l-47 -2q-79 1 -133.5 36t-54.5 108.5t52.5 110t126.5 36.5h80v59h-403v95h655v-95h-135v-153h-196q-27 0 -45.5 -11.5t-18.5 -38.5t27 -38t80 -11l34 1h14q83 -4 122 -43.5t38.5 -97t-31.5 -97.5t-87 -59l126 -162h-142l-86 128l-87 -128h-141l121 156 q-55 12 -103 37v110q100 -61 207 -61q51 0 79 17.5t28 47.5q0 54 -80 55zM30 39q28 0 48 -19.5t20 -48t-20 -48t-48 -19.5t-47.5 19.5t-19.5 47.5t19.5 48t47.5 20z" />
<glyph horiz-adv-x="613" d="M501 565v-188q-55 10 -102 10q-84 0 -138 -35.5t-54 -99t41 -104t105 -40.5q44 0 73 18.5t29 45.5q0 55 -63 55q-43 0 -77 -22v86q46 22 107.5 22t103.5 -36t42 -93t-31.5 -96.5t-89.5 -58.5l125 -161h-141l-87 129l-86 -129h-142l127 164q-72 26 -113.5 83.5 t-41.5 132.5q0 109 76 169t197 62h23v86h-412v95h667v-95h-138zM48 75q28 0 48 -19.5t20 -48t-20 -48t-48 -19.5t-47.5 19.5t-19.5 47.5t19.5 48t47.5 20z" />
<glyph horiz-adv-x="760" d="M787 660v-95h-106v-565h-117v155l-215 -180h-172l387 321v269h-134v-191q0 -93 -50 -141.5t-140 -48.5q-185 0 -185 188v193h-82v95h814zM314 365v200h-142v-200q0 -82 70 -82q72 0 72 82zM466 -51q28 0 48 -19.5t20 -48t-20 -48t-48 -19.5t-47.5 19.5t-19.5 47.5 t19.5 48t47.5 20z" />
<glyph horiz-adv-x="610" d="M637 660v-95h-106v-565h-118v205l-274 -169l-61 89l293 178q-57 76 -146.5 76.5t-166.5 -46.5v107q65 41 164 41q119 0 191 -81v165h-440v95h664zM223.5 -24q19.5 20 48 20t48 -20t19.5 -48t-20 -47.5t-48 -19.5t-47.5 19.5t-19.5 47.5t19.5 48z" />
<glyph horiz-adv-x="662" d="M303 -112q0 28 19.5 48t47.5 20t48 -20t20 -48t-20 -47.5t-48 -19.5t-47.5 19.5t-19.5 47.5zM392 507q0 -150 -232 -215q29 -87 140 -87q66 0 116 39.5t50 121.5v294h223v-95h-106v-565h-117v174l-233 -219h-164l170 156q-87 16 -146.5 79.5t-67.5 166.5 q136 33 196.5 66.5t60.5 86.5q0 27 -13 44t-39 17q-53 0 -53 -59q0 -27 12 -55h-113q-11 35 -11 66q0 62 44 103.5t119 41.5t119.5 -43.5t44.5 -117.5z" />
<glyph horiz-adv-x="573" d="M256 -125q0 28 19.5 48t48 20t48 -19.5t19.5 -48t-20 -48t-48 -19.5t-47.5 19.5t-19.5 47.5zM-27 660h627v-95h-115v-172h-196q-59 0 -93 -31t-34 -84.5t30 -84t79.5 -30.5t81 27.5t37.5 78.5h114v-279h-116v128l-173 -173h-152l133 129q-72 18 -113.5 72.5t-41.5 129.5 q0 93 63 152t179 59h84v78h-394v95z" />
<glyph horiz-adv-x="645" d="M672 660v-95h-106v-565h-116v154l-217 -199h-160l146 130q-74 9 -119.5 49.5t-45.5 99t39.5 93t106.5 38.5q-64 3 -100 31t-36 84.5t52 84.5h-143v95h325v-95h-2q-55 0 -84.5 -21.5t-29.5 -60.5q0 -69 107 -69h44v-98h-52q-49 0 -79 -18.5t-30 -52t28.5 -50.5t78.5 -17 q77 0 124 42t47 112v328h222zM315.5 -71q19.5 20 48 20t48 -19.5t19.5 -48t-20 -48t-48 -19.5t-47.5 19.5t-19.5 47.5t19.5 48z" />
<glyph horiz-adv-x="538" d="M-27 660h592v-95h-106v-565h-118v223l-171 -179h-146l317 319v1h-179q-19 0 -26.5 -9t-7.5 -36.5t10 -67.5h-94q-32 55 -32 120q0 41 25.5 64.5t75.5 23.5h228v106h-368v95zM224 -15q28 0 48 -19.5t20 -48t-20 -48t-48 -19.5t-47.5 19.5t-19.5 47.5t19.5 48t47.5 20z" />
<glyph horiz-adv-x="573" d="M600 660v-95h-106v-565h-118v235l-205 -235h-150l171 195q-124 29 -124 193v177h-95v95h627zM376 391v174h-190v-181q0 -55 21.5 -79.5t65.5 -24.5t73.5 29.5t29.5 81.5zM266 -39q28 0 48 -19.5t20 -48t-20 -48t-48 -19.5t-47.5 19.5t-19.5 47.5t19.5 48t47.5 20z" />
<glyph horiz-adv-x="830" d="M857 565h-363v-112q46 43 124 43t127.5 -54t49.5 -142.5t-59.5 -140.5t-150.5 -52q-17 0 -24 2v95q5 -1 17 -1q47 0 73.5 26t26.5 72t-24 73.5t-64.5 27.5t-68 -27t-27.5 -72v-303h-118v235l-205 -235h-150l171 195q-124 29 -124 193v177h-95v95h884v-95zM376 391v174 h-190v-181q0 -55 21.5 -79.5t65.5 -24.5t73.5 29.5t29.5 81.5zM266 -39q28 0 48 -19.5t20 -48t-20 -48t-48 -19.5t-47.5 19.5t-19.5 47.5t19.5 48t47.5 20z" />
<glyph horiz-adv-x="629" d="M656 660v-95h-106v-565h-117v145l-220 -210h-162l161 152q-71 16 -118.5 71t-47.5 140t62.5 146t164.5 61q47 0 81 -9v-102q-32 11 -68 11t-57 -10l184 -161q19 28 19 63l1 -1v269h-460v95h683zM183 358q-20 -29 -20 -76.5t33.5 -80t83.5 -32.5t89 23zM301.5 -68 q19.5 20 48 20t48 -20t19.5 -48t-20 -47.5t-48 -19.5t-47.5 19.5t-19.5 47.5t19.5 48z" />
<glyph horiz-adv-x="590" d="M396 660h221v-95h-106v-565h-115v130l-192 -170h-162l354 306v54h-169v-130h-102l-32 69q-27 57 -27 88q0 50 45 61v106q0 54 -46 54q-29 0 -55 -14v92q36 19 80 19q137 0 137 -135v-116h169v246zM273.5 -62q19.5 20 48 20t48 -20t19.5 -48t-20 -47.5t-48 -19.5 t-47.5 19.5t-19.5 47.5t19.5 48z" />
<glyph horiz-adv-x="598" d="M-27 660h652v-95h-106v-565h-115v132l-195 -172h-165l360 314v38h-178v-126h-100l-32 71q-28 68 -28 91q0 49 44 60v157h-137v95zM226 414h178v151h-178v-151zM326 -42q28 0 48 -20t20 -48t-20 -47.5t-48 -19.5t-47.5 19.5t-19.5 47.5t19.5 48t47.5 20z" />
<glyph horiz-adv-x="642" d="M269 -113q0 28 19.5 48t47.5 20t48 -19.5t20 -48t-20 -48t-48 -19.5t-47.5 19.5t-19.5 47.5zM179 314q31 -91 139 -91q55 0 91.5 35t36.5 101v206h-152q23 -34 23 -88q0 -117 -138 -163zM201 482q0 51 -30 83h-198v95h696v-95h-106v-565h-117v183l-242 -228h-165l188 178 q-73 19 -123 81t-62 162q159 25 159 106z" />
<glyph horiz-adv-x="601" d="M628 660v-95h-106v-565h-117v147l-204 -212h-158l161 161q-68 14 -111.5 64.5t-43.5 133t59 141t154 58.5q39 0 68 -8v-102q-34 9 -59 9q-44 0 -73.5 -28t-29.5 -76t29.5 -77t81 -29t89 34.5t37.5 82.5v266h-432v95h655zM289.5 -68q19.5 20 48 20t48 -20t19.5 -48 t-20 -47.5t-48 -19.5t-47.5 19.5t-19.5 47.5t19.5 48z" />
<glyph horiz-adv-x="565" d="M469 565v-123q46 43 110 43q91 0 144 -58l-83 -85q-22 49 -81 49q-38 0 -64 -27.5t-26 -70.5v-293h-118v130l-150 -175h-140l127 139q-64 14 -102 63.5t-38 118.5q0 91 60.5 145t152.5 54q15 0 23 -1v-95q-6 1 -18 1q-45 0 -72.5 -28.5t-27.5 -72t25.5 -71.5t66.5 -28 t67 27.5t26 70.5v287h-378v95h619v-95h-123z" />
<glyph horiz-adv-x="587" d="M483 217q-59 0 -99 37.5t-40 100t48.5 104t119.5 41.5q100 0 154 -51.5t54 -134.5q0 -63 -32 -113.5t-92 -98.5l-264 -211h-175l196 156q-217 24 -303 255v93h67q40 0 53 16.5t13 60.5v93h-210v95h641v-95h-314v-115q0 -66 -24 -101q-26 -39 -91 -45q22 -74 83.5 -116.5 t145.5 -42.5t143 40t59 117q0 50 -24 80t-62 30t-57.5 -16.5t-19.5 -41t14.5 -38.5t33.5 -14t34 6v-82q-25 -9 -52 -9z" />
<glyph horiz-adv-x="376" d="M460 351l53 -97l-319 -274h-158zM146 354v211h-173v95h430v-95h-140v-221q0 -69 -37.5 -104t-91 -35t-92.5 14v95q25 -13 54 -13q50 0 50 53z" />
<glyph horiz-adv-x="391" d="M100 133q-46 41 -46 102.5t38 97t103 43.5q-59 2 -94.5 30.5t-35.5 76.5t34 82h-126v95h445v-95h-195q-40 -29 -40 -71q0 -68 102 -68h44v-99h-53q-48 0 -76 -21t-28 -57t29 -54.5t76.5 -18.5t93 28.5t72.5 63t47 76.5l63 -109l-327 -280h-157l147 130q-70 7 -116 48z " />
<glyph horiz-adv-x="418" d="M86 256q0 79 63 114h-124v97h352v-97q-178 0 -178 -100q0 -39 27.5 -60t77.5 -21t100 37.5t87 98.5l56 -79l-316 -291h-156l157 145q-63 8 -104.5 51.5t-41.5 104.5zM445 660v-95h-472v95h472z" />
<glyph horiz-adv-x="482" d="M93 459h536v-97h-331q62 -37 62 -109.5t-57 -118.5t-135.5 -46t-134.5 22v104q49 -26 105 -26q110 0 110 80q0 94 -155 94v97zM100 -100l438 376l65 -74l-351 -302h-152zM509 660v-95h-536v95h536z" />
<glyph horiz-adv-x="620" d="M480 170q0 -72 -49.5 -117.5t-126 -45.5t-132.5 37v-94h-116v236h107l1 -5q17 -38 51 -61t71 -23t57.5 17.5t20.5 49.5q0 63 -99 66q-197 4 -197 135q0 72 52 108.5t135 36.5h75v55h-357v95h674v-95h-200v-150l-7 1v-1h-179q-74 0 -74 -45q0 -22 20 -30.5t63 -10.5h453 v-82l61 -76l-313 -292h-157l392 359h-239q13 -29 13 -68z" />
<glyph horiz-adv-x="515" d="M325.5 139q-60.5 -47 -151 -47t-151.5 36v107q72 -43 138 -43q125 0 125 106q0 46 -27.5 71t-73.5 25t-88 -17v99q38 15 94 15q83 0 137 -35.5t70 -102.5h179v-83l55 -76l-340 -294h-159l430 358h-163q-14 -72 -74.5 -119zM543 660v-95h-570v95h570z" />
<glyph horiz-adv-x="514" d="M436 565v-196q-34 6 -86 6q-86 0 -133.5 -35t-47.5 -97t45 -95.5t119 -33.5t144 41v-106q-37 -20 -77 -27l119 -153h-142l-85 128l-87 -128h-142l130 167q-68 26 -105.5 80t-37.5 130q0 94 68.5 157.5t185.5 65.5h15v96h-346v95h568v-95h-105zM236 -197h119l143 -172 h-141z" />
<glyph horiz-adv-x="571" d="M598 565h-231v-105q74 -19 118 -69t44 -121.5t-35.5 -120.5t-100.5 -72l127 -163h-141l-87 128l-86 -128h-142l124 160q-67 21 -106 71.5t-39 121.5q0 89 59.5 140t147.5 60v98h-277v95h625v-95zM377 183.5q33 30.5 33 83t-33.5 80.5t-88.5 28.5t-91 -27t-36 -81 t35.5 -84t91.5 -30.5t89 30.5zM239 -152h119l143 -172h-141z" />
<glyph horiz-adv-x="532" d="M283 217l-47 -2q-79 1 -133.5 36t-54.5 108.5t52.5 110t126.5 36.5h80v59h-334v95h586v-95h-135v-153h-196q-27 0 -45.5 -11.5t-18.5 -38.5t27 -38t80 -11l34 1h14q83 -4 122 -43.5t38.5 -97t-31.5 -97.5t-87 -59l126 -162h-142l-86 128l-87 -128h-141l121 156 q-55 12 -103 37v110q100 -61 207 -61q51 0 79 17.5t28 47.5q0 54 -80 55zM202 -211h119l143 -172h-141z" />
<glyph horiz-adv-x="564" d="M452 565v-188q-55 10 -102 10q-84 0 -138 -35.5t-54 -99t41 -104t105 -40.5q44 0 73 18.5t29 45.5q0 55 -63 55q-43 0 -77 -22v86q46 22 107.5 22t103.5 -36t42 -93t-31.5 -96.5t-89.5 -58.5l125 -161h-141l-87 129l-86 -129h-142l127 164q-72 26 -113.5 83.5 t-41.5 132.5q0 109 76 169t197 62h23v86h-362v95h617v-95h-138zM242 -198h119l143 -172h-141z" />
<glyph horiz-adv-x="491" d="M604 337l38 -110l-303 -252h-172zM420 565v-191q0 -93 -50 -141.5t-140 -48.5q-185 0 -185 188v193h-82v95h555v-95h-98zM162 565v-200q0 -82 70 -82q72 0 72 82v200h-142z" />
<glyph horiz-adv-x="396" d="M58 440q65 41 165 41t169 -59.5t93 -169.5h-1l1 -2l-346 -214l-61 89l288 175q-54 79 -142.5 79.5t-165.5 -46.5v107zM423 660v-95h-450v95h450z" />
<glyph horiz-adv-x="452" d="M392 507q0 -150 -232 -215q29 -87 140 -87q133 0 225 153l73 -80l-362 -323h-158l171 156q-88 9 -152 75.5t-72 170.5q136 33 196.5 66.5t60.5 86.5q0 27 -13 44t-39 17q-53 0 -53 -59q0 -27 12 -55h-113q-11 35 -11 66q0 62 44 103.5t119 41.5t119.5 -43.5t44.5 -117.5z " />
<glyph horiz-adv-x="573" d="M-27 660h627v-95h-115v-172h-196q-59 0 -93 -31t-34 -84.5t30 -84t79.5 -30.5t81 27.5t37.5 78.5h114v-279h-116v128l-173 -173h-152l133 129q-72 18 -113.5 72.5t-41.5 129.5q0 93 63 152t179 59h84v78h-394v95zM532 -293h-141l-121 172h119z" />
<glyph horiz-adv-x="448" d="M106.5 128q-52.5 42 -52.5 103t39.5 95.5t106.5 38.5q-64 3 -100 31t-36 84.5t52 84.5h-143v95h325v-95h-2q-55 0 -84.5 -21.5t-29.5 -60.5q0 -69 107 -69h44v-98h-52q-49 0 -79 -18.5t-30 -52t28.5 -50.5t78.5 -17q144 0 227 153l78 -66l-336 -310h-161l151 130 q-79 1 -131.5 43z" />
<glyph horiz-adv-x="319" d="M162 364q-19 0 -26.5 -9t-7.5 -36.5t10 -67.5h-94q-32 55 -32 120q0 41 25.5 64.5t75.5 23.5h347v-76l24 -36l-314 -303h-146l339 320h-201zM346 660v-95h-373v95h373z" />
<glyph horiz-adv-x="328" d="M68 388v177h-95v95h382v-95h-169v-181q0 -55 21.5 -79.5t64.5 -24.5q77 0 132 107l56 -62l-289 -325h-150l175 195q-128 24 -128 193z" />
<glyph horiz-adv-x="611" d="M494 565v-113q46 44 119 44q122 0 176 -112l-91 -62q-12 36 -39 58t-67.5 22t-69 -27t-28.5 -72v-303h-118v235l-205 -235h-150l171 195q-124 29 -124 193v177h-95v95h665v-95h-144zM186 565v-181q0 -55 21.5 -79.5t65.5 -24.5t73.5 29.5t29.5 81.5v174h-190z" />
<glyph horiz-adv-x="376" d="M94.5 156.5q-48.5 55.5 -48.5 141t62.5 146.5t164.5 61q47 0 81 -9v-102q-32 11 -68 11t-57 -10l184 -161q19 24 39 60l67 -71l-306 -288h-162l164 152q-72 14 -120.5 69.5zM183 358q-20 -29 -20 -76.5t33.5 -80t84.5 -32.5t88 24zM403 660v-95h-430v95h430z" />
<glyph horiz-adv-x="388" d="M227 414h317v-94l-319 -360h-155l343 360h-186v-130h-102l-32 69q-27 57 -27 88q0 50 45 61v106q0 54 -46 54q-29 0 -55 -14v92q36 19 80 19q137 0 137 -135v-116z" />
<glyph horiz-adv-x="411" d="M226 414h325v-102l-307 -352h-156l324 352h-186v-126h-100l-32 71q-28 68 -28 91q0 49 44 60v157h-137v95h465v-95h-212v-151z" />
<glyph horiz-adv-x="386" d="M413 565h-119q23 -34 23 -88q0 -117 -138 -163q15 -44 49 -67.5t83 -23.5q89 0 164 115l57 -72l-328 -311h-165l188 178q-73 19 -123 81t-62 162q159 25 159 106q0 51 -30 83h-198v95h440v-95z" />
<glyph horiz-adv-x="369" d="M396 565h-423v95h423v-95zM271 392q-44 0 -73.5 -28t-29.5 -76t29.5 -77t82 -29t93 32.5t78.5 96.5l62 -73l-303 -303h-157l161 161q-70 9 -117.5 60t-47.5 135.5t59 143t154 58.5q39 0 68 -8v-102q-34 9 -59 9z" />
<glyph horiz-adv-x="547" d="M312 565v-130q59 24 128.5 24t120 -31.5t89.5 -87.5l-53 -68l-3 4l-135 -161h-141l203 224q-42 24 -92 24q-74 0 -176 -56q-30 -22 -76 -30q-8 0 -10 -1l169 -276h-134l-170 274v84h69q94 0 94 84v123h-222v95h845v-95h-506z" />
<glyph horiz-adv-x="565" d="M469 565v-123q46 43 110 43q91 0 144 -58l-83 -85q-22 49 -81 49q-38 0 -64 -27.5t-26 -70.5v-293h-118v130l-150 -175h-140l127 139q-64 14 -102 63.5t-38 118.5q0 91 60.5 145t152.5 54q15 0 23 -1v-95q-6 1 -18 1q-45 0 -72.5 -28.5t-27.5 -72t25.5 -71.5t66.5 -28 t67 27.5t26 70.5v287h-378v95h619v-95h-123zM304 -63q28 0 48 -19.5t20 -48t-20 -48t-48 -19.5t-47.5 19.5t-19.5 47.5t19.5 48t47.5 20z" />
<glyph horiz-adv-x="587" d="M483 217q-59 0 -99 37.5t-40 100t48.5 104t119.5 41.5q100 0 154 -51.5t54 -134.5q0 -63 -32 -113.5t-92 -98.5l-264 -211h-175l196 156q-217 24 -303 255v93h67q40 0 53 16.5t13 60.5v93h-210v95h641v-95h-314v-115q0 -66 -24 -101q-26 -39 -91 -45q22 -74 83.5 -116.5 t145.5 -42.5t143 40t59 117q0 50 -24 80t-62 30t-57.5 -16.5t-19.5 -41t14.5 -38.5t33.5 -14t34 6v-82q-25 -9 -52 -9zM560 -49q28 0 48 -19.5t20 -48t-20 -48t-48 -19.5t-47.5 19.5t-19.5 47.5t19.5 48t47.5 20z" />
<glyph horiz-adv-x="376" d="M363.5 14q19.5 20 48 20t48 -20t19.5 -48t-20 -47.5t-48 -19.5t-47.5 19.5t-19.5 47.5t19.5 48zM460 351l53 -97l-319 -274h-158zM146 354v211h-173v95h430v-95h-140v-221q0 -69 -37.5 -104t-91 -35t-92.5 14v95q25 -13 54 -13q50 0 50 53z" />
<glyph horiz-adv-x="391" d="M450 10q28 0 48 -20t20 -48t-20 -47.5t-48 -19.5t-47.5 19.5t-19.5 47.5t19.5 48t47.5 20zM100 133q-46 41 -46 102.5t38 97t103 43.5q-59 2 -94.5 30.5t-35.5 76.5t34 82h-126v95h445v-95h-195q-40 -29 -40 -71q0 -68 102 -68h44v-99h-53q-48 0 -76 -21t-28 -57 t29 -54.5t76.5 -18.5t93 28.5t72.5 63t47 76.5l63 -109l-327 -280h-157l147 130q-70 7 -116 48z" />
<glyph horiz-adv-x="624" d="M-27 660h678v-95h-231v-153h-196q-63 0 -63 -48q0 -28 28.5 -38t94.5 -11q192 -3 192 -148q-1 -55 -35.5 -96t-96.5 -59h4l159 -186h-142l-93 122l-93 -122h-142l152 178q-79 9 -143 44v110q100 -61 206 -61q51 0 79 17.5t28 48t-26 42t-101.5 13t-131 35t-55.5 107 t52 110t127 36.5h80v59h-331v95zM535 422q28 0 48 -20t20 -48t-20 -47.5t-48 -19.5t-47.5 19.5t-19.5 47.5t19.5 48t47.5 20zM254 -219h119l143 -172h-141zM107.5 -229q19.5 20 48 20t48 -19.5t19.5 -48t-20 -48t-48 -19.5t-47.5 19.5t-19.5 47.5t19.5 48z" />
<glyph horiz-adv-x="418" d="M450 20q28 0 48 -20t20 -48t-20 -47.5t-48 -19.5t-47.5 19.5t-19.5 47.5t19.5 48t47.5 20zM86 256q0 79 63 114h-124v97h352v-97q-178 0 -178 -100q0 -39 27.5 -60t77.5 -21t100 37.5t87 98.5l56 -79l-316 -291h-156l157 145q-63 8 -104.5 51.5t-41.5 104.5zM445 660v-95 h-472v95h472z" />
<glyph horiz-adv-x="647" d="M674 565h-144v-97q75 -49 75 -146t-53.5 -163t-143.5 -92l157 -184h-142l-93 122l-93 -122h-142l148 173q-84 11 -137 54.5t-53 105.5t35 95.5t96 38.5q-53 3 -85.5 37.5t-32.5 87.5t37 90h-130v95h701v-95zM419 498v67h-188q-48 -35 -48 -89q0 -35 23 -57t60 -22h34v-98 h-37q-92 0 -92 -71q0 -37 36 -58t92 -21q84 0 135.5 43t51.5 117q0 44 -24.5 69t-60.5 25t-53 -6v94q22 7 66 7h5zM332 -158h119l143 -172h-141zM191.5 -175q19.5 20 48 20t48 -19.5t19.5 -48t-20 -48t-48 -19.5t-47.5 19.5t-19.5 47.5t19.5 48z" />
<glyph horiz-adv-x="482" d="M93 459h536v-97h-331q62 -37 62 -109.5t-57 -118.5t-135.5 -46t-134.5 22v104q49 -26 105 -26q110 0 110 80q0 94 -155 94v97zM100 -100l438 376l65 -74l-351 -302h-152zM520 0q28 0 48 -20t20 -48t-20 -47.5t-48 -19.5t-47.5 19.5t-19.5 47.5t19.5 48t47.5 20zM509 660 v-95h-536v95h536z" />
<glyph horiz-adv-x="620" d="M671.5 -53q19.5 20 48 20t48 -19.5t19.5 -48t-20 -48t-48 -19.5t-47.5 19.5t-19.5 47.5t19.5 48zM480 170q0 -72 -49.5 -117.5t-126 -45.5t-132.5 37v-94h-116v236h107l1 -5q17 -38 51 -61t71 -23t57.5 17.5t20.5 49.5q0 63 -99 66q-197 4 -197 135q0 72 52 108.5 t135 36.5h75v55h-357v95h674v-95h-200v-150l-7 1v-1h-179q-74 0 -74 -45q0 -22 20 -30.5t63 -10.5h453v-82l61 -76l-313 -292h-157l392 359h-239q13 -29 13 -68z" />
<glyph horiz-adv-x="515" d="M548 0q28 0 48 -20t20 -48t-20 -47.5t-48 -19.5t-47.5 19.5t-19.5 47.5t19.5 48t47.5 20zM325.5 139q-60.5 -47 -151 -47t-151.5 36v107q72 -43 138 -43q125 0 125 106q0 46 -27.5 71t-73.5 25t-88 -17v99q38 15 94 15q83 0 137 -35.5t70 -102.5h179v-83l55 -76 l-340 -294h-159l430 358h-163q-14 -72 -74.5 -119zM543 660v-95h-570v95h570z" />
<glyph horiz-adv-x="566" d="M489 565v-196q-35 6 -86 6q-86 0 -133.5 -35t-47.5 -97t45 -95.5t118 -33.5t145 41v-106q-37 -20 -78 -27l119 -153h-141l-85 128l-88 -128h-141l129 167q-68 26 -105.5 80t-37.5 130q0 94 68.5 157.5t186.5 65.5h15v96h-399v95h620v-95h-104zM289 -197h119l143 -172 h-141zM-6.5 54q19.5 20 48 20t48 -20t19.5 -48t-20 -47.5t-48 -19.5t-47.5 19.5t-19.5 47.5t19.5 48z" />
<glyph horiz-adv-x="644" d="M671 565h-231v-105q74 -18 118.5 -68t44.5 -121.5t-36 -121t-100 -72.5l127 -163h-142l-86 128l-87 -128h-141l124 159q-68 22 -107 72.5t-39 121.5q0 89 60 140t147 60v98h-350v95h698v-95zM450.5 184q33.5 31 33.5 83t-33.5 80t-89 28.5t-91 -27t-35.5 -81t35 -84 t91 -30.5t89.5 31zM313 -152h119l143 -172h-141zM48 104q28 0 48 -20t20 -48t-20 -47.5t-48 -19.5t-47.5 19.5t-19.5 47.5t19.5 48t47.5 20z" />
<glyph horiz-adv-x="616" d="M367 217l-47 -2q-79 1 -133.5 36t-54.5 108.5t52.5 110t126.5 36.5h80v59h-418v95h670v-95h-135v-153h-196q-27 0 -45.5 -11.5t-18.5 -38.5t27 -38t80 -11l34 1h14q83 -4 122 -43.5t38.5 -97t-31.5 -97.5t-87 -59l126 -162h-142l-86 128l-87 -128h-141l121 156 q-55 12 -103 37v110q100 -61 207 -61q51 0 79 17.5t28 47.5q0 54 -80 55zM286 -211h119l143 -172h-141zM24 38q28 0 48 -20t20 -48t-20 -47.5t-48 -19.5t-47.5 19.5t-19.5 47.5t19.5 48t47.5 20z" />
<glyph horiz-adv-x="641" d="M529 565v-188q-55 10 -102 10q-84 0 -138 -35.5t-54 -99t41 -104t105 -40.5q44 0 73 18.5t29 45.5q0 55 -63 55q-43 0 -77 -22v86q46 22 107.5 22t103.5 -36t42 -93t-31.5 -96.5t-89.5 -58.5l125 -161h-141l-87 129l-86 -129h-142l127 164q-72 26 -113.5 83.5 t-41.5 132.5q0 109 76 169t197 62h23v86h-439v95h694v-95h-138zM319 -198h119l143 -172h-141zM13.5 57q19.5 20 48 20t48 -19.5t19.5 -48t-20 -48t-48 -19.5t-47.5 19.5t-19.5 47.5t19.5 48z" />
<glyph horiz-adv-x="491" d="M505.5 -7q19.5 20 48 20t48 -19.5t19.5 -48t-20 -48t-48 -19.5t-47.5 19.5t-19.5 47.5t19.5 48zM604 337l38 -110l-303 -252h-172zM420 565v-191q0 -93 -50 -141.5t-140 -48.5q-185 0 -185 188v193h-82v95h555v-95h-98zM162 565v-200q0 -82 70 -82q72 0 72 82v200h-142z " />
<glyph horiz-adv-x="396" d="M58 440q65 41 165 41t169 -59.5t93 -169.5h-1l1 -2l-346 -214l-61 89l288 175q-54 79 -142.5 79.5t-165.5 -46.5v107zM394 63q28 0 48 -19.5t20 -48t-20 -48t-48 -19.5t-47.5 19.5t-19.5 47.5t19.5 48t47.5 20zM423 660v-95h-450v95h450z" />
<glyph horiz-adv-x="452" d="M424 -44q0 28 19.5 48t48 20t48 -20t19.5 -48t-20 -47.5t-48 -19.5t-47.5 19.5t-19.5 47.5zM392 507q0 -150 -232 -215q29 -87 140 -87q133 0 225 153l73 -80l-362 -323h-158l171 156q-88 9 -152 75.5t-72 170.5q136 33 196.5 66.5t60.5 86.5q0 27 -13 44t-39 17 q-53 0 -53 -59q0 -27 12 -55h-113q-11 35 -11 66q0 62 44 103.5t119 41.5t119.5 -43.5t44.5 -117.5z" />
<glyph horiz-adv-x="573" d="M98 -201q0 28 19.5 48t48 20t48 -19.5t19.5 -48t-20 -48t-48 -19.5t-47.5 19.5t-19.5 47.5zM-27 660h627v-95h-115v-172h-196q-59 0 -93 -31t-34 -84.5t30 -84t79.5 -30.5t81 27.5t37.5 78.5h114v-279h-116v128l-173 -173h-152l133 129q-72 18 -113.5 72.5t-41.5 129.5 q0 93 63 152t179 59h84v78h-394v95zM542 -293h-141l-121 172h119z" />
<glyph horiz-adv-x="640" d="M529 565v-188q-55 10 -102 10q-84 0 -138 -35.5t-54 -99t41 -104t105 -40.5q44 0 73 18.5t29 45.5q0 55 -63 55q-43 0 -77 -22v86q46 22 107.5 22t103.5 -36t42 -93t-31.5 -96.5t-89.5 -58.5l125 -161h-141l-87 129l-86 -129h-142l127 164q-72 26 -113.5 83.5 t-41.5 132.5q0 109 76 169t197 62h23v86h-439v95h694v-95h-138zM319 -198h119l143 -172h-141zM3.5 60q19.5 20 48 20t48 -20t19.5 -48t-20 -47.5t-48 -19.5t-47.5 19.5t-19.5 47.5t19.5 48z" />
<glyph horiz-adv-x="319" d="M332 43q28 0 48 -19.5t20 -48t-20 -48t-48 -19.5t-47.5 19.5t-19.5 47.5t19.5 48t47.5 20zM162 364q-19 0 -26.5 -9t-7.5 -36.5t10 -67.5h-94q-32 55 -32 120q0 41 25.5 64.5t75.5 23.5h347v-76l24 -36l-314 -303h-146l339 320h-201zM346 660v-95h-373v95h373z" />
<glyph horiz-adv-x="328" d="M364 50q28 0 48 -20t20 -48t-20 -47.5t-48 -19.5t-47.5 19.5t-19.5 47.5t19.5 48t47.5 20zM68 388v177h-95v95h382v-95h-169v-181q0 -55 21.5 -79.5t64.5 -24.5q77 0 132 107l56 -62l-289 -325h-150l175 195q-128 24 -128 193z" />
<glyph horiz-adv-x="611" d="M494 565v-113q46 44 119 44q122 0 176 -112l-91 -62q-12 36 -39 58t-67.5 22t-69 -27t-28.5 -72v-303h-118v235l-205 -235h-150l171 195q-124 29 -124 193v177h-95v95h665v-95h-144zM186 565v-181q0 -55 21.5 -79.5t65.5 -24.5t73.5 29.5t29.5 81.5v174h-190zM264 -55 q28 0 48 -19.5t20 -48t-20 -48t-48 -19.5t-47.5 19.5t-19.5 47.5t19.5 48t47.5 20z" />
<glyph horiz-adv-x="376" d="M393.5 -30q19.5 20 48 20t48 -20t19.5 -48t-20 -47.5t-48 -19.5t-47.5 19.5t-19.5 47.5t19.5 48zM94.5 156.5q-48.5 55.5 -48.5 141t62.5 146.5t164.5 61q47 0 81 -9v-102q-32 11 -68 11t-57 -10l184 -161q19 24 39 60l67 -71l-306 -288h-162l164 152q-72 14 -120.5 69.5 zM183 358q-20 -29 -20 -76.5t33.5 -80t84.5 -32.5t88 24zM403 660v-95h-430v95h430z" />
<glyph horiz-adv-x="388" d="M227 414h317v-94l-319 -360h-155l343 360h-186v-130h-102l-32 69q-27 57 -27 88q0 50 45 61v106q0 54 -46 54q-29 0 -55 -14v92q36 19 80 19q137 0 137 -135v-116zM432 20q28 0 48 -20t20 -48t-20 -47.5t-48 -19.5t-47.5 19.5t-19.5 47.5t19.5 48t47.5 20z" />
<glyph horiz-adv-x="411" d="M226 414h325v-102l-307 -352h-156l324 352h-186v-126h-100l-32 71q-28 68 -28 91q0 49 44 60v157h-137v95h465v-95h-212v-151zM415.5 7q19.5 20 48 20t48 -19.5t19.5 -48t-20 -48t-48 -19.5t-47.5 19.5t-19.5 47.5t19.5 48z" />
<glyph horiz-adv-x="386" d="M373 -49q0 28 19.5 48t47.5 20t48 -19.5t20 -48t-20 -48t-48 -19.5t-47.5 19.5t-19.5 47.5zM413 565h-119q23 -34 23 -88q0 -117 -138 -163q15 -44 49 -67.5t83 -23.5q89 0 164 115l57 -72l-328 -311h-165l188 178q-73 19 -123 81t-62 162q159 25 159 106q0 51 -30 83 h-198v95h440v-95z" />
<glyph horiz-adv-x="369" d="M371 -51q0 28 19.5 48t47.5 20t48 -19.5t20 -48t-20 -48t-48 -19.5t-47.5 19.5t-19.5 47.5zM396 565h-423v95h423v-95zM271 392q-44 0 -73.5 -28t-29.5 -76t29.5 -77t82 -29t93 32.5t78.5 96.5l62 -73l-303 -303h-157l161 161q-70 9 -117.5 60t-47.5 135.5t59 143 t154 58.5q39 0 68 -8v-102q-34 9 -59 9z" />
<glyph horiz-adv-x="1326" d="M1354 565h-366v-123q46 43 110 43q87 0 140 -53t53 -140.5t-60.5 -141.5t-152.5 -54q-16 0 -23 1v95q6 -1 18 -1q45 0 72.5 28.5t27.5 72t-25.5 71.5t-66.5 28t-67 -27.5t-26 -70.5v-293h-118v128q-45 -42 -110 -42q-86 0 -139.5 53t-53.5 137q0 58 27 104q-20 11 -53 11 t-59 -27.5t-26 -70.5v-293h-118v128q-45 -42 -110 -42q-86 0 -139.5 53t-53.5 140.5t60.5 141.5t152.5 54q15 0 23 -1v-95q-6 1 -18 1q-45 0 -72.5 -28.5t-27.5 -72t25.5 -71.5t66.5 -28t67 27.5t26 70.5v287h-365v95h1381v-95zM870 278v287h-414v-123q46 43 111 43t111 -31 q45 21 102 21q15 0 23 -1v-95q-6 1 -18 1q-45 0 -72.5 -28.5t-27.5 -72t25.5 -71.5t66.5 -28t67 27.5t26 70.5z" />
<glyph horiz-adv-x="1407" d="M1434 660v-95h-106v-565h-118v149q-42 -33 -111 -33t-120 50.5t-51 129.5t53 129t132 50q17 0 35 -4v-88q-5 2 -20 2q-40 0 -64.5 -26t-24.5 -66t24 -64t61.5 -24t61.5 22.5t24 64.5v273h-295v-131q0 -69 -38 -112q-43 -48 -117 -55l209 -267h-142l-204 265v56h-1 q-1 31 -21.5 50.5t-56.5 19.5t-62 -27t-26 -71v-293h-118v128q-45 -42 -110 -42q-86 0 -139.5 53t-53.5 140.5t60.5 141.5t152.5 54q15 0 23 -1v-95q-6 1 -18 1q-45 0 -72.5 -28.5t-27.5 -72t25.5 -71.5t66.5 -28t67 27.5t26 70.5v287h-365v95h1461zM798 442v123h-342v-121 q44 41 104.5 41t104 -33t57.5 -92q76 10 76 82z" />
<glyph horiz-adv-x="1211" d="M1239 660v-95h-106v-565h-117v160q-56 -81 -181 -81q-85 0 -137 46t-52 120t62 109h-97q-28 37 -69 37t-63.5 -27t-22.5 -71v-293h-118v128q-45 -42 -110 -42q-86 0 -139.5 53t-53.5 140.5t60.5 141.5t152.5 54q15 0 23 -1v-95q-6 1 -18 1q-45 0 -72.5 -28.5t-27.5 -72 t25.5 -71.5t66.5 -28t67 27.5t26 70.5v287h-365v95h1266zM1016 309v256h-560v-119q42 39 105 39t109 -34h267v-97q-178 0 -178 -99q0 -39 28 -60.5t75 -21.5q71 0 112.5 44.5t41.5 91.5z" />
<glyph horiz-adv-x="1173" d="M1201 660v-95h-107v-565h-118v362h-164q64 -40 64 -124t-55.5 -132t-136 -48t-136.5 22v104q49 -26 102.5 -26t83.5 24.5t30 70t-30.5 73t-88.5 34.5l-18 -18q-5 12 -12 20h-6v6q-25 23 -63 23t-64 -27.5t-26 -70.5v-293h-118v128q-45 -42 -110 -42q-86 0 -139.5 53 t-53.5 140.5t60.5 141.5t152.5 54q15 0 23 -1v-95q-6 1 -18 1q-45 0 -72.5 -28.5t-27.5 -72t25.5 -71.5t66.5 -28t67 27.5t26 70.5v287h-365v95h1228zM976 459v106h-520v-123q46 43 108 43t106 -26h306z" />
<glyph horiz-adv-x="1059" d="M984 565v-196q-27 6 -85 6q-86 0 -134 -35t-48 -97t45 -95.5t119 -33.5q38 0 79 12t66 28v-106q-64 -34 -153 -34q-127 0 -201 61.5t-74 170.5q0 58 26 105q-24 40 -77 40q-39 0 -65 -27.5t-26 -70.5v-293h-118v128q-45 -42 -110 -42q-86 0 -139.5 53t-53.5 140.5 t60.5 141.5t152.5 54q15 0 23 -1v-95q-6 1 -18 1q-45 0 -72.5 -28.5t-27.5 -72t25.5 -71.5t66.5 -28t67 27.5t26 70.5v287h-365v95h1113v-95h-102zM456 565v-123q46 43 110 43q87 0 140 -53q63 36 146 37h16v96h-412z" />
<glyph horiz-adv-x="1329" d="M1356 660v-95h-106v-565h-117v565h-134v-212q0 -93 -50 -141.5t-140 -48.5q-184 0 -185 185q-23 43 -77 43q-39 0 -65 -27.5t-26 -70.5v-293h-118v128q-45 -42 -110 -42q-86 0 -139.5 53t-53.5 140.5t60.5 141.5t152.5 54q15 0 23 -1v-95q-6 1 -18 1q-45 0 -72.5 -28.5 t-27.5 -72t25.5 -71.5t66.5 -28t67 27.5t26 70.5v287h-365v95h1383zM456 565v-123q46 43 110 43q26 0 58 -7v87h-168zM883 344v221h-142v-221q0 -82 70 -82q72 0 72 82z" />
<glyph horiz-adv-x="930" d="M957 565h-396v-146q46 43 122 43q96 0 154 -58.5t58 -156.5t-60 -157.5t-156 -59.5q-23 0 -35 3v95q12 -3 30 -3q48 0 75.5 32.5t27.5 91t-31 89t-78.5 30.5t-77 -30t-29.5 -76v-262h-118v368h-64q-163 0 -163 -139q0 -59 31.5 -92.5t88.5 -33.5q13 0 19 1v-101 q-20 -2 -36 -2q-97 0 -159 60t-62 157t56 150h-98v95h387v102h-470v95h984v-95z" />
<glyph horiz-adv-x="1259" d="M1062 660h217v-95h-99v-565h-118v171q-20 -31 -69 -52.5t-107 -21.5q-97 0 -171 62.5t-91 171.5q-19 60 -80 60q-38 0 -63 -27.5t-25 -70.5v-293h-118v128q-45 -42 -110 -42q-86 0 -139.5 53t-53.5 140.5t60.5 141.5t152.5 54q15 0 23 -1v-95q-6 1 -18 1 q-45 0 -72.5 -28.5t-27.5 -72t25.5 -71.5t66.5 -28t67 27.5t26 70.5v287h-365v95h601v-95h-118v-121q44 41 102 41t97.5 -28t59.5 -75q84 26 123.5 55.5t39.5 72.5q0 27 -13 44t-39 17t-39.5 -16.5t-13.5 -35.5t5 -42h-110q-7 26 -7 46q0 62 44 103.5t119.5 41.5t120 -43.5 t44.5 -117.5q0 -149 -233 -215q15 -45 52 -69.5t96 -24.5t108.5 39t49.5 121v302z" />
<glyph horiz-adv-x="1096" d="M987 565v-153h-196q-63 0 -63 -48q0 -28 28.5 -38t94.5 -11q192 -3 192 -148q-1 -73 -61 -120t-170.5 -47t-198.5 48v110q100 -61 206 -61q51 0 79 17.5t28 48t-26 42t-101.5 13t-131 35t-55.5 108.5v4q-24 26 -64 26t-66 -27.5t-26 -70.5v-293h-118v128 q-45 -42 -110 -42q-86 0 -139.5 53t-53.5 140.5t60.5 141.5t152.5 54q15 0 23 -1v-95q-6 1 -18 1q-45 0 -72.5 -28.5t-27.5 -72t25.5 -71.5t66.5 -28t67 27.5t26 70.5v287h-365v95h1150v-95h-136zM456 565v-123q46 43 103.5 43t99.5 -20q50 41 132 41h80v59h-415z" />
<glyph horiz-adv-x="1125" d="M1152 660v-95h-106v-565h-118v221q-46 -48 -123 -48q-175 0 -184 181q-25 37 -69 37t-70 -27.5t-26 -70.5v-293h-118v128q-45 -42 -110 -42q-86 0 -139.5 53t-53.5 140.5t60.5 141.5t152.5 54q15 0 23 -1v-95q-6 1 -18 1q-45 0 -72.5 -28.5t-27.5 -72t25.5 -71.5 t66.5 -28t67 27.5t26 70.5v287h-365v95h1179zM456 565v-123q46 43 110 43q28 0 54 -6v86h-164zM928 378v187h-190v-194q0 -55 21.5 -79.5t65.5 -24.5t73.5 29.5t29.5 81.5z" />
<glyph horiz-adv-x="1381" d="M1408 565h-362v-114q46 43 124 43t127.5 -54t49.5 -142.5t-59.5 -140.5t-150.5 -52q-17 0 -24 1v96q10 -2 17 -2q47 0 73.5 26.5t26.5 72.5t-24 73.5t-64.5 27.5t-68 -27t-27.5 -72v-301h-118v221q-47 -47 -123 -47q-175 0 -185 180q-24 37 -68 37t-70 -27.5t-26 -70.5 v-293h-118v128q-45 -42 -110 -42q-86 0 -139.5 53t-53.5 140.5t60.5 141.5t152.5 54q15 0 23 -1v-95q-6 1 -18 1q-45 0 -72.5 -28.5t-27.5 -72t25.5 -71.5t66.5 -28t67 27.5t26 70.5v287h-365v95h1435v-95zM456 565v-123q46 43 110 43q28 0 54 -6v86h-164zM928 378v187h-190 v-194q0 -55 21.5 -79t65.5 -24t73.5 29t29.5 81z" />
<glyph horiz-adv-x="1144" d="M1171 660v-95h-106v-565h-115v268h-177v-127h-100l-32 71q-28 63 -28 91q0 43 44 54v16l-30 -31q-22 49 -80 49q-39 0 -65 -27.5t-26 -70.5v-293h-118v128q-45 -42 -110 -42q-86 0 -139.5 53t-53.5 140.5t60.5 141.5t152.5 54q15 0 23 -1v-95q-6 1 -18 1 q-45 0 -72.5 -28.5t-27.5 -72t25.5 -71.5t66.5 -28t67 27.5t26 70.5v287h-365v95h1198zM456 565v-123q46 43 103 43t98 -19v99h-201zM950 363v202h-177v-202h177z" />
<glyph horiz-adv-x="1216" d="M1243 660v-95h-106v-565h-117v179q-20 -30 -61 -48t-92 -18q-89 0 -156 59.5t-89 165.5q-21 53 -78 53q-38 0 -63 -27.5t-25 -70.5v-293h-118v128q-45 -42 -110 -42q-86 0 -139.5 53t-53.5 140.5t60.5 141.5t152.5 54q15 0 23 -1v-95q-6 1 -18 1q-45 0 -72.5 -28.5 t-27.5 -72t25.5 -71.5t66.5 -28t67 27.5t26 70.5v287h-365v95h1270zM456 565v-121q44 41 107 41q98 0 144 -88q68 32 68 84t-30 84h-289zM1020 352v213h-152q23 -34 23 -88q0 -122 -138 -166q12 -43 46.5 -69t91 -26t93 35t36.5 101z" />
<glyph horiz-adv-x="1317" d="M1344 660v-95h-106v-565h-119v386q-15 3 -31 3q-49 0 -73 -26.5t-24 -84.5v-67h-118v69q0 98 -69 98q-36 0 -58 -28.5t-22 -95.5t40.5 -111.5t122.5 -44.5q24 0 37 2v-96q-26 -3 -51 -3q-121 0 -193 73t-72 191q0 46 13 88q-23 38 -68 38t-71 -27.5t-26 -70.5v-293h-118 v128q-45 -42 -110 -42q-86 0 -139.5 53t-53.5 140.5t60.5 141.5t152.5 54q15 0 23 -1v-95q-6 1 -18 1q-45 0 -72.5 -28.5t-27.5 -72t25.5 -71.5t66.5 -28t67 27.5t26 70.5v287h-365v95h1371zM1119 565h-663v-123q46 43 114.5 43t118.5 -39q44 30 102.5 30t95 -25t45.5 -66 q26 97 149 97q18 0 38 -5v88z" />
<glyph horiz-adv-x="1127" d="M1154 660v-95h-106v-565h-118v144q-56 -56 -145 -56t-149.5 53.5t-60.5 146.5q0 50 20 93q-20 10 -51.5 10t-57.5 -27.5t-26 -70.5v-293h-118v128q-45 -42 -110 -42q-86 0 -139.5 53t-53.5 140.5t60.5 141.5t152.5 54q15 0 23 -1v-95q-6 1 -18 1q-45 0 -72.5 -28.5 t-27.5 -72t25.5 -71.5t66.5 -28t67 27.5t26 70.5v287h-365v95h1177zM930 299v266h-470v-123q46 43 106 43t103 -23q51 31 119 31q38 0 68 -8v-102q-34 9 -59 9q-45 0 -74.5 -27.5t-29.5 -76t30 -77.5t81 -29t88.5 34.5t37.5 82.5z" />
<glyph horiz-adv-x="1282" d="M1085 660h224v-95h-106v-565h-118v660zM456 565v-123q46 43 110 43q46 0 84 -16q-5 23 -5 41q0 64 46 109t127 45t132.5 -53.5t51.5 -135.5q0 -111 -75 -170.5t-175 -59.5h-2l234 -245h-151l-221 241v99h107q79 0 123 35.5t44 100.5q0 90 -71 90q-28 0 -42.5 -19 t-14.5 -47t16 -60h-77l13 -13l-83 -85q-22 49 -80 49q-39 0 -65 -27.5t-26 -70.5v-293h-118v128q-45 -42 -110 -42q-86 0 -139.5 53t-53.5 140.5t60.5 141.5t152.5 54q15 0 23 -1v-95q-6 1 -18 1q-45 0 -72.5 -28.5t-27.5 -72t25.5 -71.5t66.5 -28t67 27.5t26 70.5v287h-365 v95h590v-95h-107z" />
<glyph horiz-adv-x="1270" d="M1296 660v-95h-106v-565h-117v251h-157q-78 0 -141 9l185 -260h-141l-191 274v51q-3 32 -25.5 49t-59 17t-62 -27t-25.5 -71v-293h-118v128q-45 -42 -110 -42q-86 0 -139.5 53t-53.5 140.5t60.5 141.5t152.5 54q15 0 23 -1v-95q-6 1 -18 1q-45 0 -72.5 -28.5t-27.5 -72 t25.5 -71.5t66.5 -28t67 27.5t26 70.5v287h-365v95h1323zM456 565v-121q44 41 107 41q128 0 171 -123q57 14 57 80v123h-335zM1073 346v219h-165v-125q0 -56 -23 -94h188z" />
<glyph horiz-adv-x="1391" d="M1418 660v-95h-106v-565h-118v107q-85 -79 -215 -79q-177 0 -284 145q-39 -67 -115 -106t-171 -39q-128 0 -219.5 72.5t-136.5 194.5v93h67q40 0 54.5 18t14.5 62v97h-216v95h1445zM489 210q-59 0 -99 38.5t-40 101t48.5 106.5t120.5 44t121 -29.5t72 -81.5q31 2 43 20.5 t12 58.5v97h-462v-120q0 -60 -21 -96q-26 -43 -96 -52q22 -74 86.5 -120t150 -46t141.5 45t56 124q0 51 -24.5 81.5t-71.5 30.5q-30 0 -48.5 -18t-18.5 -44t15.5 -40.5t33.5 -14.5t32 6v-82q-24 -9 -51 -9zM1194 565h-311v-119q0 -65 -24.5 -101.5t-79.5 -45.5 q-2 -1 -6.5 -1t-6.5 -1q22 -74 85 -120t146.5 -46t144 46.5t60.5 124.5q0 50 -25 80t-63 30t-57.5 -18.5t-19.5 -44t15.5 -40t33.5 -14.5t32 6v-82q-24 -9 -51 -9q-59 0 -99 38.5t-40 101t48.5 106.5t124.5 44q53 0 93 -23v88z" />
<glyph horiz-adv-x="1176" d="M1203 660v-95h-106v-565h-117v369h-80q-153 0 -153 -133q0 -64 30 -100t90 -36q13 0 19 1v-98q-22 -2 -36 -2q-70 0 -120.5 31.5t-76.5 87.5q-92 -92 -244 -92q-128 0 -219.5 72.5t-136.5 194.5v93h67q40 0 54.5 18t14.5 62v97h-216v95h1230zM980 466v99h-675v-120 q0 -60 -21 -96q-26 -43 -96 -52q22 -74 86.5 -120t150 -46t141.5 45t56 124q0 51 -24.5 81.5t-71.5 30.5q-30 0 -48.5 -18t-18.5 -44t15.5 -40.5t33.5 -14.5t32 6v-82q-24 -9 -51 -9q-59 0 -99 38.5t-40 101t48.5 106.5t124.5 44q126 0 179 -92q67 58 192 58h86z" />
<glyph horiz-adv-x="1200" d="M1227 660v-95h-106v-565h-115v268h-177v-127h-100l-24 52q-35 -75 -115 -120t-181 -45q-128 0 -219.5 72.5t-136.5 194.5v93h67q40 0 54.5 18t14.5 62v97h-216v95h1254zM489 210q-59 0 -99 38.5t-40 101t48.5 106.5t121.5 44t122 -30.5t71 -84.5v180h-408v-120 q0 -60 -21 -96q-26 -43 -96 -52q22 -74 86.5 -120t150 -46t141.5 45t56 124q0 51 -24.5 81.5t-71.5 30.5q-30 0 -48.5 -18t-18.5 -44t15.5 -40.5t33.5 -14.5t32 6v-82q-24 -9 -51 -9zM1006 363v202h-177v-202h177z" />
<glyph horiz-adv-x="1216" d="M1243 660v-95h-106v-565h-117v179q-20 -30 -61 -48t-92 -18q-98 0 -167 69q-38 -71 -115.5 -112.5t-175.5 -41.5q-128 0 -219.5 72.5t-136.5 194.5v93h67q40 0 54.5 18t14.5 62v97h-216v95h1270zM489 210q-59 0 -99 38.5t-40 101t48.5 106.5t119.5 44q136 0 190 -103 q67 32 67 84t-30 84h-440v-120q0 -60 -21 -96q-26 -43 -96 -52q22 -74 86.5 -120t150 -46t141.5 45t56 124q0 51 -24.5 81.5t-71.5 30.5q-30 0 -48.5 -18t-18.5 -44t15.5 -40.5t33.5 -14.5t32 6v-82q-24 -9 -51 -9zM1020 352v213h-152q23 -34 23 -88q0 -122 -138 -166 q12 -43 46.5 -69t91 -26t93 35t36.5 101z" />
<glyph horiz-adv-x="1175" d="M1202 660v-95h-106v-565h-118v144q-56 -56 -149.5 -56t-150.5 59q-43 -56 -113.5 -87.5t-155.5 -31.5q-128 0 -219.5 72.5t-136.5 194.5v93h67q40 0 54.5 18t14.5 62v97h-216v95h1229zM978 299v266h-673v-120q0 -60 -21 -96q-26 -43 -96 -52q22 -74 86.5 -120t150 -46 t141.5 45t56 124q0 51 -24.5 81.5t-71.5 30.5q-30 0 -48.5 -18t-18.5 -44t15.5 -40.5t33.5 -14.5t32 6v-82q-24 -9 -51 -9q-59 0 -99 38.5t-40 101t48.5 106.5t124.5 44q104 0 159 -65q60 58 154 58q38 0 68 -8v-102q-34 9 -59 9q-45 0 -74.5 -27.5t-29.5 -76t30 -77.5 t81 -29t88.5 34.5t37.5 82.5z" />
<glyph horiz-adv-x="1356" d="M1159 660h224v-95h-106v-565h-118v660zM719 510q0 64 46 109t127 45t132.5 -53.5t51.5 -135.5q0 -111 -75 -170.5t-175 -59.5h-2l234 -245h-151l-194 211q-31 -83 -113.5 -133t-200.5 -50t-209.5 72.5t-136.5 194.5v93h67q40 0 54.5 18t14.5 62v97h-216v95h665v-95h-333 v-120q0 -60 -21 -96q-26 -43 -96 -52q22 -74 86.5 -120t150 -46t141.5 45t56 124q0 51 -24.5 81.5t-71.5 30.5q-30 0 -48.5 -18t-18.5 -44t15.5 -40.5t33.5 -14.5t32 6v-82q-24 -9 -51 -9q-59 0 -99 38.5t-40 101t48.5 106.5t128.5 44t133.5 -43.5t65.5 -116.5h67 q79 0 123 35.5t44 100.5q0 90 -71 90q-28 0 -42.5 -19t-14.5 -47t16 -60h-113q-16 32 -16 70z" />
<glyph horiz-adv-x="895" d="M922 660v-95h-106v-565h-116v565h-135v-221q0 -69 -37.5 -104t-91 -35t-92.5 14v95q25 -13 54 -13q50 0 50 53v211h-197v-221q0 -69 -37.5 -104t-91 -35t-92.5 14v95q25 -13 54 -13q50 0 50 53v211h-161v95h949z" />
<glyph horiz-adv-x="955" d="M982 660v-95h-106v-565h-117v157q-26 -37 -77.5 -58t-109.5 -21q-91 0 -150 43.5t-59 118.5q0 57 38 92.5t104 43.5q-59 2 -95 30.5t-36 76.5t34 82h-157v-221q0 -69 -37.5 -104t-91 -35t-92.5 14v95q25 -13 54 -13q50 0 50 53v211h-161v95h1009zM759 337v228h-227 q-40 -29 -40 -71q0 -68 103 -68h43v-99h-52q-49 0 -77 -21t-28 -57t29 -54.5t74 -18.5q77 0 126 43.5t49 117.5z" />
<glyph horiz-adv-x="972" d="M1000 660v-95h-107v-565h-118v362h-164q64 -40 64 -124t-55.5 -132t-136 -48t-136.5 22v104q49 -26 102.5 -26t83.5 24.5t30 73.5t-40 77.5t-115 28.5v97h367v106h-524v-221q0 -69 -37.5 -104t-91 -35t-92.5 14v95q25 -13 54 -13q50 0 50 53v211h-161v95h1027z" />
<glyph horiz-adv-x="1088" d="M1115 660v-95h-106v-565h-117v565h-134v-212q0 -93 -50 -141.5t-140 -48.5q-185 0 -185 188v214h-132v-221q0 -69 -37.5 -104t-91 -35t-92.5 14v95q25 -13 54 -13q50 0 50 53v211h-161v95h1142zM642 344v221h-142v-221q0 -82 70 -82q72 0 72 82z" />
<glyph horiz-adv-x="889" d="M801 393h-196q-59 0 -93 -31t-34 -84.5t30 -84t79.5 -30.5t81 27.5t37.5 78.5h114v-279h-116v128q-18 -25 -57 -39t-77 -14q-96 0 -154.5 60t-58.5 152t63 151t179 59h84v78h-432v-221q0 -69 -37.5 -104t-91 -35t-92.5 14v95q25 -13 54 -13q50 0 50 53v211h-161v95h943 v-95h-115v-172z" />
<glyph horiz-adv-x="945" d="M972 660v-95h-106v-565h-117v144q-28 -36 -76.5 -56.5t-105.5 -20.5q-94 0 -154 45t-60 120q0 58 39.5 91.5t106.5 39.5q-63 3 -99 31.5t-36 86t51 84.5h-164v-221q0 -69 -37.5 -104t-91 -35t-92.5 14v95q25 -13 54 -13q50 0 50 53v211h-161v95h624v-95h-2 q-55 0 -84 -21.5t-29 -60.5q0 -71 107 -71h44v-99h-53q-108 0 -108 -72q0 -36 29 -56t78 -20q77 0 123.5 42t46.5 112v341h223z" />
<glyph horiz-adv-x="945" d="M972 660v-95h-106v-565h-118v143q-63 -66 -159 -66t-161.5 60t-65.5 153t62.5 154t164.5 61q47 0 81 -9v-102q-32 11 -68 11t-57 -10l184 -161q19 28 19 63v268h-497v-221q0 -69 -37.5 -104t-91 -35t-92.5 14v95q25 -13 54 -13q50 0 50 53v211h-161v95h999zM499 358 q-20 -29 -20 -76.5t33.5 -80t83.5 -32.5t89 23z" />
<glyph horiz-adv-x="892" d="M698 660h221v-95h-106v-565h-115v272h-169v-130h-102l-32 69q-27 57 -27 89q0 50 45 61v153q0 54 -46 54q-13 0 -23 -3h-2q-16 -4 -30 -11v11h-61v-221q0 -69 -37.5 -104t-91 -35t-92.5 14v95q25 -13 54 -13q50 0 50 53v211h-161v95h371v-2q26 7 48 7q137 0 137 -135 v-164h169v294z" />
<glyph horiz-adv-x="888" d="M915 660v-95h-106v-565h-115v268h-177v-127h-100l-32 71q-28 63 -28 91q0 43 44 54v208h-150v-221q0 -69 -37.5 -104t-91 -35t-92.5 14v95q25 -13 54 -13q50 0 50 53v211h-161v95h942zM694 363v202h-177v-202h177z" />
<glyph horiz-adv-x="966" d="M993 660v-95h-106v-565h-117v179q-20 -30 -61 -48t-92 -18q-97 0 -166.5 68.5t-84.5 190.5q159 25 159 110q0 51 -30 83h-244v-221q0 -69 -37.5 -104t-91 -35t-92.5 14v95q25 -13 54 -13q50 0 50 53v211h-161v95h1020zM770 352v213h-152q23 -34 23 -88q0 -122 -138 -166 q12 -43 46.5 -69t91 -26t93 35t36.5 101z" />
<glyph horiz-adv-x="1069" d="M1096 660v-95h-106v-565h-119v386q-15 3 -31 3q-49 0 -73 -26.5t-24 -84.5v-67h-118v69q0 98 -69 98q-36 0 -58 -28.5t-22 -95.5t40.5 -111.5t122.5 -44.5q24 0 37 2v-96q-26 -3 -51 -3q-121 0 -193 73t-72 191q0 95 49 153t135 58q58 0 94.5 -25t45.5 -66q26 97 149 97 q18 0 38 -5v88h-620v-221q0 -69 -37.5 -104t-91 -35t-92.5 14v95q25 -13 54 -13q50 0 50 53v211h-161v95h1123z" />
<glyph horiz-adv-x="913" d="M940 660v-95h-106v-565h-118v144q-56 -56 -145 -56t-149.5 53.5t-60.5 144t59 149t154 58.5q38 0 68 -8v-102q-34 9 -59 9q-45 0 -74.5 -27.5t-29.5 -76t30 -77.5t81 -29t88.5 34.5t37.5 82.5v266h-465v-221q0 -69 -37.5 -104t-91 -35t-92.5 14v95q25 -13 54 -13 q50 0 50 53v211h-161v95h967z" />
<glyph horiz-adv-x="1005" d="M1032 660v-95h-106v-565h-117v251h-157q-78 0 -141 9l185 -260h-141l-191 274v84h69q94 0 94 84v123h-276v-221q0 -69 -37.5 -104t-91 -35t-92.5 14v95q25 -13 54 -13q50 0 50 53v211h-161v95h1059zM809 346v219h-165v-125q0 -56 -23 -94h188z" />
<glyph horiz-adv-x="927" d="M954 660v-95h-106v-565h-115v268h-177v-127h-100l-7 15q-73 -78 -192 -78q-91 0 -150 43.5t-59 118.5q0 57 38 92.5t104 43.5q-59 2 -95 30.5t-36 76.5t34 82h-120v95h981zM323 327h-52q-49 0 -77 -21t-28 -57t29 -54.5t74 -18.5q94 0 143 64q-16 40 -16 63q0 43 44 54 v208h-223q-40 -29 -40 -71q0 -68 103 -68h43v-99zM733 363v202h-177v-202h177z" />
<glyph horiz-adv-x="995" d="M1022 660v-95h-106v-565h-117v179q-20 -30 -61 -48t-92 -18q-100 0 -169 71q-83 -106 -220 -106q-91 0 -150 43.5t-59 118.5q0 57 38 92.5t104 43.5q-59 2 -95 30.5t-36 76.5t34 82h-120v95h1049zM323 327h-52q-49 0 -77 -21t-28 -57t29 -54.5t74 -18.5q103 0 158 81 q-25 56 -32 115q159 25 159 110q0 51 -30 83h-307q-40 -29 -40 -71q0 -68 103 -68h43v-99zM799 352v213h-152q23 -34 23 -88q0 -122 -138 -166q12 -43 46.5 -69t91 -26t93 35t36.5 101z" />
<glyph horiz-adv-x="1024" d="M1051 660v-95h-106v-565h-116v176q-54 -81 -182 -82q-111 0 -163 75q-78 -75 -195 -75q-94 0 -149.5 43t-55.5 119t65 114h-126v97h352v-97q-178 0 -178 -100q0 -37 28.5 -59t75.5 -22q95 0 157 77q4 71 64 104h-95v97h322v-97q-178 0 -178 -100q0 -39 27.5 -60t75.5 -21 q71 0 113 44t42 92v240h-856v95h1078z" />
<glyph horiz-adv-x="1046" d="M1073 565h-144v-97q75 -49 75 -151q0 -119 -86.5 -192t-220.5 -73q-78 0 -140 26.5t-88 76.5q-78 -61 -176 -61t-153.5 43t-55.5 119t65 114h-126v97h352v-97q-178 0 -178 -100q0 -37 28.5 -59t75.5 -22q95 0 157 76q25 77 125 85q-53 3 -85.5 37.5t-32.5 87.5t37 90 h-529v95h1100v-95zM818 498v67h-188q-48 -35 -48 -89q0 -35 23 -57t60 -22h34v-98h-37q-92 0 -92 -71q0 -37 36 -58t92 -21q84 0 135.5 43t51.5 117q0 44 -24.5 69t-60.5 25t-53 -6v94q22 7 66 7h5z" />
<glyph horiz-adv-x="989" d="M1016 660v-95h-106v-565h-115v268h-177v-127h-100l-19 42q-84 -89 -210 -89q-94 0 -149.5 43t-55.5 119t65 114h-126v97h352v-97q-178 0 -178 -100q0 -37 28.5 -59t75.5 -22q99 0 162 83q-5 18 -5 31q0 43 44 54v208h-529v95h1043zM795 363v202h-177v-202h177z" />
<glyph horiz-adv-x="1043" d="M1070 660v-95h-106v-565h-117v179q-20 -30 -61 -48t-92 -18q-110 0 -182 86q-36 -47 -94 -76t-140.5 -29t-138 43t-55.5 119t65 114h-126v97h352v-97q-178 0 -178 -100q0 -37 28.5 -59t75.5 -22q102 0 166 88q-19 47 -24 95q159 25 159 110q0 51 -30 83h-599v95h1097z M847 352v213h-152q23 -34 23 -88q0 -122 -138 -166q12 -43 46.5 -69t91 -26t93 35t36.5 101z" />
<glyph horiz-adv-x="1248" d="M1288 660v-95h-119v-565h-117v112q-19 -29 -58.5 -47.5t-89.5 -18.5q-95 0 -159 59t-78 177q149 32 149 93q0 19 -19.5 30.5t-66 11.5t-138.5 -26q13 -32 13 -74q0 -119 -86.5 -192t-220.5 -73q-104 0 -174.5 45.5t-70.5 125.5q0 55 35 88.5t96 38.5q-53 3 -85.5 37.5 t-32.5 87.5t37 90h-130v95h1315zM300 299h-37q-92 0 -92 -71q0 -37 36 -58t92 -21q84 0 135.5 43t51.5 117q0 44 -24.5 69t-60.5 25t-53 -6v94q22 7 66 7h5v67h-188q-48 -35 -48 -89q0 -35 23 -57t60 -22h34v-98zM1052 287v278h-522v-97q46 18 107.5 28.5t105.5 10.5 q188 0 188 -133q0 -50 -36 -88.5t-92 -56.5q24 -80 119 -80q60 0 95 37t35 101z" />
<glyph horiz-adv-x="668" d="M695 565h-138v-97q75 -48 75 -150.5t-75 -174.5v-457h-115v143q-52 -63 -143 -63t-151.5 52t-60.5 138.5t64 136.5q-97 49 -97 137q0 53 35.5 85.5t95.5 37.5q-53 3 -85.5 37t-32.5 86.5t37 88.5h-131v95h722v-95zM442 -22v98q-56 -18 -121 -18h-9q-48 0 -77.5 -25 t-29.5 -72.5t30 -74t81.5 -26.5t88.5 35t37 83zM446 498v67h-214q-48 -35 -48 -88q0 -34 22.5 -54.5t60.5 -20.5h34v-99h-37q-43 0 -68 -17.5t-25 -45.5q0 -40 40.5 -62.5t117.5 -22.5t130.5 42.5t53.5 112.5q0 44 -24.5 68.5t-60.5 24.5t-53 -6v94q22 7 66 7h5z" />
<glyph horiz-adv-x="1221" d="M1248 565h-366v-123q46 43 110 43q87 0 140 -53t53 -140.5t-60.5 -141.5t-152.5 -54q-16 0 -23 1v95q6 -1 18 -1q45 0 72.5 28.5t27.5 72t-25.5 71.5t-66.5 28t-67 -27.5t-26 -70.5v-293h-118v128q-45 -42 -110 -42q-86 0 -139.5 53t-53.5 137q0 48 18 86h-185 q64 -40 64 -124t-55.5 -132t-136 -48t-136.5 22v104q49 -26 102.5 -26t83.5 24.5t30 73.5t-40 77.5t-115 28.5v97h473v-9q50 25 110 25q15 0 23 -1v-95q-6 1 -18 1q-45 0 -72.5 -28.5t-27.5 -72t25.5 -71.5t66.5 -28t67 27.5t26 70.5v287h-791v95h1275v-95z" />
<glyph horiz-adv-x="1055" d="M1083 660v-95h-107v-565h-118v362h-164q64 -40 64 -124t-55.5 -132t-136 -48t-136.5 22v104q49 -26 102.5 -26t83.5 24.5t30 73.5t-40 77.5t-115 28.5h-197q64 -40 64 -124t-55.5 -132t-136 -48t-136.5 22v104q49 -26 102.5 -26t83.5 24.5t30 73.5t-40 77.5t-115 28.5v97 h767v106h-885v95h1110z" />
</font>
</defs>
</svg>
