<?xml version="1.0" standalone="no"?>
<!DOCTYPE svg PUBLIC "-//W3C//DTD SVG 1.1//EN" "http://www.w3.org/Graphics/SVG/1.1/DTD/svg11.dtd" >
<svg xmlns="http://www.w3.org/2000/svg">
<metadata></metadata>
<defs>
<font id="playfair_displaybold_italic" horiz-adv-x="799" >
<font-face units-per-em="2048" ascent="1638" descent="-410" />
<missing-glyph horiz-adv-x="522" />
<glyph unicode="fi" horiz-adv-x="1235" d="M409 1315q65 103 160 164q101 66 219.5 94.5t266.5 28.5q143 0 207 -57q41 -33 41 -87q0 -55 -28.5 -98t-76.5 -67.5t-106 -24.5q-71 0 -110.5 32t-39.5 89q0 71 37.5 117t101.5 62l-26 1q-149 0 -246 -64q-70 -45 -113.5 -128t-83.5 -228l-25 -92h298q171 3 297 30 l-269 -913q-11 -39 -11 -60q0 -42 38 -42q70 0 129 161l39 99h39l-53 -150q-40 -113 -118.5 -162t-164.5 -49q-90 0 -133.5 45t-43.5 127q0 65 28 154l211 719h-297l-375 -1372q-166 -3 -297 -29l386 1401h-177l12 41h176q43 155 108 258z" />
<glyph unicode="fl" horiz-adv-x="1253" d="M1163 332l-51 -150q-41 -116 -114 -163.5t-160 -47.5q-92 0 -138 48t-46 135q0 63 24 143l321 1069q10 33 10 59q0 41 -30.5 60t-103.5 20q-73 -1 -125 -37q-41 -27 -67.5 -83.5t-53.5 -159.5l-45 -168h194l-12 -41h-194l-371 -1372q-164 -3 -295 -29l380 1401h-173 l12 41h172q38 137 88.5 227.5t124.5 147.5q147 112 371 112h4q141 1 254 22t221 62l-430 -1454q-9 -31 -9 -52q0 -50 42 -50q66 0 124 161l37 99h39z" />
<glyph unicode="f&#xef;" horiz-adv-x="1227" d="M895 114q0 -42 37 -42q33 0 64.5 35t64.5 126l37 99h39l-52 -150q-40 -115 -117.5 -163t-162.5 -48q-84 0 -126 45t-42 127q0 67 27 154l211 719h-302l-372 -1372q-164 -3 -295 -29l380 1401h-173l12 41h172q43 154 97.5 260t133.5 170q124 98 301 98q107 0 166 -59 q43 -37 43 -105q0 -54 -25.5 -93t-66.5 -59t-87 -20q-65 0 -99 36.5t-34 98.5q0 71 43.5 116t107.5 54q-19 5 -37 5q-100 0 -164 -64q-47 -46 -61.5 -117.5t-19 -176.5t-12.5 -144h304q168 3 297 30l-277 -913q-12 -37 -12 -60zM1467.5 1519q34.5 -37 34.5 -98 q0 -54 -25 -93t-66 -59t-87 -20q-64 0 -97.5 37t-33.5 98q0 53 24.5 92t64.5 59.5t87 20.5q64 0 98.5 -37z" />
<glyph unicode="f&#xec;" horiz-adv-x="1227" d="M1137 332l-52 -150q-40 -115 -117.5 -163t-162.5 -48q-84 0 -126 45.5t-42 127.5q0 68 27 153l211 719h-302l-372 -1372q-164 -3 -295 -29l380 1401h-173l12 41h172q71 241 183.5 348.5t262.5 107.5q51 0 91 -15q-35 38 -55 71q-22 37 -22 73q0 58 48 87q26 14 54 14 q33 0 63 -17.5t49 -48.5q20 -32 31.5 -67t37.5 -143.5t71 -225.5l-25 -14q-56 69 -115 131v-2q-58 63 -95 88.5t-81 25.5t-74 -33.5t-52 -91.5t-53 -169l-32 -119h303q168 3 297 30l-277 -913q-12 -37 -12 -60q0 -42 37 -42q33 0 64.5 35t64.5 126l37 99h39z" />
<glyph unicode="ffb" horiz-adv-x="2417" d="M1921 1007q83 80 184 80q124 0 188 -80.5t64 -234.5q0 -167 -78 -355t-223.5 -317t-335.5 -129q-57 0 -103.5 23.5t-68.5 63.5q-101 -9 -268 -91l-31 15q27 51 43 120l348 1264q8 34 8 56q0 42 -25.5 62t-85.5 21q-94 -1 -153.5 -51t-97.5 -176l-60 -221h195l-12 -41 h-194l-371 -1372q-164 -3 -295 -29l380 1401h-335l-373 -1372q-166 -3 -297 -29l373 1372l8 29h-199l13 41h199q81 245 219 350q143 113 346 113q88 0 158.5 -25t119.5 -65q143 114 385 114q134 1 243 22t210 62l-241 -878q80 177 163 257zM1133 1407q-75 59 -183 59 q-87 0 -148.5 -39t-105.5 -119.5t-80 -211.5l-11 -39h335q68 234 193 350zM1665 31q96 0 187.5 131.5t148.5 322.5t57 353q0 76 -16.5 108.5t-50.5 32.5q-42 0 -93 -56.5t-102 -155t-94 -221.5l-128 -470q35 -45 91 -45z" />
<glyph unicode="ffh" horiz-adv-x="2454" d="M2311 182q-72 -211 -274 -211q-186 0 -186 168q0 68 30 158l182 553q21 58 21 89q0 46 -43 46q-64 0 -155 -136t-183 -359.5t-158 -469.5v3l-6 -23h-289l385 1366q9 33 9 59q0 41 -26 60.5t-85 19.5q-95 0 -155.5 -50t-96.5 -177l-60 -221h195l-12 -41h-194l-371 -1372 q-164 -3 -295 -29l380 1401h-330l-373 -1372q-166 -3 -297 -29l373 1372l8 29h-199l13 41h199q80 241 219 350q139 113 346 113q167 0 270 -90q145 114 390 114q135 1 243.5 22t209.5 62l-270 -961q71 159 141 250.5t146 130.5t171 39q89 0 131 -45t42 -124q0 -62 -25 -140 l-201 -604q-11 -32 -11 -58q0 -44 40 -44q71 0 127 161l37 99h38zM1126 1407q-70 59 -176 59q-87 0 -148.5 -38.5t-105.5 -119t-80 -212.5l-11 -39h330q66 234 191 350z" />
<glyph unicode="ffj" horiz-adv-x="1853" d="M537 1407q139 113 346 113q165 0 267 -87q28 25 60 46q101 66 222.5 94.5t271.5 28.5q121 0 185 -44q30 -15 46.5 -41t16.5 -58q0 -55 -28 -98.5t-76.5 -68t-106.5 -24.5q-71 0 -110.5 32t-39.5 89q0 69 36 114.5t97 63.5h-20q-131 0 -218.5 -47.5t-142.5 -138 t-94 -232.5l-25 -92h331q170 3 296 30l-237 -851q-61 -221 -132 -346t-175 -185q-122 -90 -293 -90q-98 0 -146.5 31.5t-48.5 89.5q0 40 21 74t57.5 54.5t79.5 20.5q54 0 86.5 -31.5t32.5 -76.5q0 -35 -20.5 -71.5t-57.5 -59.5q78 9 124.5 58.5t78.5 162.5l322 1149h-330 l-277 -1016h-287l278 1016h-333l-373 -1372q-166 -3 -297 -29l373 1372l8 29h-199l13 41h199q80 239 219 350zM1124 1409q-69 57 -174 57q-87 0 -148.5 -38.5t-105.5 -119t-80 -212.5l-11 -39h333q64 228 186 352z" />
<glyph unicode="ffk" horiz-adv-x="2419" d="M1876 690q52 64 99.5 187.5t96.5 162.5q60 47 127 47q93 0 141.5 -52t48.5 -131q0 -51 -21.5 -92t-60.5 -65t-90 -24q-63 0 -97 34t-34 85q0 59 38.5 108t96.5 80q-10 17 -33 17q-47 0 -86 -31q-41 -34 -85.5 -147.5t-89 -180t-138.5 -90.5q343 -8 343 -223q0 -32 -7 -66 l-31 -151q-6 -28 -6 -46q0 -22 9 -31t28 -9q31 0 61.5 35t63.5 126l37 99h39l-52 -150q-74 -211 -293 -211q-84 0 -128 41t-44 119q0 34 9 76l34 158q12 48 12 83q0 60 -38 91t-124 43l-163 -582h-289l385 1366q11 38 11 63q0 39 -26 57.5t-85 18.5q-63 0 -110 -20t-83 -70 t-61 -137l-60 -221h195l-12 -41h-194l-371 -1372q-164 -3 -295 -29l380 1401h-330l-373 -1372q-166 -3 -297 -29l373 1372l8 29h-199l13 41h199q80 241 219 350q139 113 346 113q167 0 270 -90q145 114 390 114q139 1 241 21.5t212 62.5l-285 -1017q113 15 165 79z M1126 1407q-70 59 -176 59q-87 0 -148.5 -38.5t-105.5 -119t-80 -212.5l-11 -39h330q66 234 191 350z" />
<glyph unicode="Th" horiz-adv-x="2413" d="M2269 182q-72 -211 -274 -211q-186 0 -186 169q0 67 30 157l182 553q20 57 20 90q0 45 -42 45q-66 0 -151.5 -115.5t-175.5 -334.5t-169 -515l1 5l-7 -25h-289l373 1369q-99 -30 -254 -30q-80 0 -199 13l-297 -1114q-15 -57 -15 -94t16.5 -58.5t53 -31.5t99.5 -13l-8 -41 q-129 6 -379 6q-244 0 -360 -6l8 41q88 3 136 21t75.5 58t48.5 118l306 1155q-134 16 -220 16q-167 0 -232 -35q55 -15 90 -59.5t35 -106.5q0 -47 -20.5 -86.5t-56.5 -62.5t-82 -23q-70 0 -109 46.5t-39 115.5q0 58 31 111.5t102 87.5q99 49 275 49q94 0 184.5 -9t276 -33 t299.5 -24q83 0 139.5 8t108.5 27l42 156q171 12 306 57l-272 -997q73 174 145.5 273t150.5 141t176 42q88 0 131 -44.5t43 -123.5q0 -61 -26 -141l-201 -604q-12 -33 -12 -57q0 -45 41 -45q71 0 127 161l36 99h39z" />
<glyph unicode="fb" horiz-adv-x="1774" d="M1278 1007q83 80 184 80q124 0 188 -80.5t64 -234.5q0 -167 -78 -355t-223.5 -317t-335.5 -129q-57 0 -103.5 23.5t-68.5 63.5q-101 -9 -268 -91l-31 15q27 51 43 120l348 1264q8 34 8 56q0 42 -25.5 62t-85.5 21q-94 -1 -153.5 -51t-97.5 -176l-60 -221h195l-12 -41 h-194l-371 -1372q-164 -3 -295 -29l380 1401h-173l12 41h172q48 165 124 271.5t194 161t288 54.5q134 1 243 22t210 62l-241 -878q80 177 163 257zM1022 31q96 0 187.5 131.5t148.5 322.5t57 353q0 76 -16.5 108.5t-50.5 32.5q-42 0 -93 -56.5t-102 -155t-94 -221.5 l-128 -470q35 -45 91 -45z" />
<glyph unicode="fh" horiz-adv-x="1817" d="M1673 182q-72 -211 -274 -211q-186 0 -186 168q0 68 30 158l182 553q21 58 21 89q0 46 -43 46q-64 0 -155 -136t-183 -359.5t-158 -469.5v3l-6 -23h-289l385 1366q9 33 9 59q0 41 -26 60.5t-85 19.5q-95 0 -155.5 -50t-96.5 -177l-60 -221h195l-12 -41h-194l-371 -1372 q-164 -3 -295 -29l380 1401h-173l12 41h172q47 166 123.5 273t195 160.5t289.5 53.5q135 1 243.5 22t209.5 62l-270 -961q71 159 141 250.5t146 130.5t171 39q89 0 131 -45t42 -124q0 -62 -25 -140l-201 -604q-11 -32 -11 -58q0 -44 40 -44q71 0 127 161l37 99h38z" />
<glyph unicode="fj" horiz-adv-x="1217" d="M411 1312.5q67 103.5 162 166.5q101 66 222.5 94.5t271.5 28.5q121 0 185 -44q30 -15 46.5 -41t16.5 -58q0 -55 -28 -98.5t-76.5 -68t-106.5 -24.5q-71 0 -110.5 32t-39.5 89q0 69 36 114.5t97 63.5h-20q-131 0 -218.5 -47.5t-142.5 -138t-94 -232.5l-25 -92h331 q170 3 296 30l-237 -851q-61 -221 -132 -346t-175 -185q-122 -90 -293 -90q-98 0 -146.5 31.5t-48.5 89.5q0 40 21 74t57.5 54.5t79.5 20.5q54 0 86.5 -31.5t32.5 -76.5q0 -35 -20.5 -71.5t-57.5 -59.5q78 9 124.5 58.5t78.5 162.5l322 1149h-330l-277 -1016h-287l278 1016 h-177l12 41h176q43 152 110 255.5z" />
<glyph unicode="fk" horiz-adv-x="1780" d="M1238 690q52 64 99.5 187.5t96.5 162.5q60 47 127 47q93 0 141.5 -52t48.5 -131q0 -51 -21.5 -92t-60.5 -65t-90 -24q-63 0 -97 34t-34 85q0 59 38.5 108t96.5 80q-10 17 -33 17q-47 0 -86 -31q-41 -34 -85.5 -147.5t-89 -180t-138.5 -90.5q153 -3 248 -54.5t95 -168.5 q0 -32 -7 -66l-31 -151q-6 -28 -6 -46q0 -22 9 -31t28 -9q31 0 61.5 35t63.5 126l37 99h39l-52 -150q-74 -211 -293 -211q-84 0 -128 41t-44 119q0 34 9 76l34 158q12 48 12 83q0 60 -37.5 91t-124.5 43l-163 -582h-289l385 1366q11 38 11 63q0 39 -26 57.5t-85 18.5 q-63 0 -110 -20t-83 -70t-61 -137l-60 -221h195l-12 -41h-194l-371 -1372q-164 -3 -295 -29l380 1401h-173l12 41h172q47 166 123.5 273t195 160.5t289.5 53.5q139 1 241 21.5t212 62.5l-285 -1017q113 15 165 79z" />
<glyph unicode="&#xd;" horiz-adv-x="0" />
<glyph unicode=" "  horiz-adv-x="522" />
<glyph unicode="&#x09;" horiz-adv-x="522" />
<glyph unicode="&#xa0;" horiz-adv-x="522" />
<glyph unicode="!" horiz-adv-x="643" d="M296.5 697q15.5 142 26.5 325.5t19 259.5q3 81 25 153t69 119.5t119 47.5q67 0 102.5 -37.5t35.5 -105.5q0 -14 -1 -21q-8 -89 -50.5 -193t-174 -372t-186.5 -472l-37 7q37 147 52.5 289zM76.5 193q26.5 44 72.5 69t100 25q64 0 100.5 -32.5t36.5 -89.5q0 -50 -26.5 -95 t-72.5 -72t-100 -27q-65 0 -101 33t-36 91q0 54 26.5 98z" />
<glyph unicode="&#x22;" horiz-adv-x="801" d="M642 1175q-13 91 -13 125q0 21 1 31q3 46 24.5 83.5t57.5 59t80 21.5q47 0 74.5 -26t29.5 -70q0 -50 -26 -100.5t-90.5 -144t-94.5 -155.5h-28q-2 85 -15 176zM309 1175q-13 91 -13 125q0 21 1 31q3 46 24.5 83.5t57.5 59t80 21.5q47 0 74.5 -26t29.5 -70 q0 -50 -26 -100.5t-90.5 -144t-94.5 -155.5h-28q-2 85 -15 176z" />
<glyph unicode="#" horiz-adv-x="1280" d="M812 547h294l-21 -41h-292l-138 -299h-49l138 299h-333l-139 -299h-49l138 299h-300l19 41h300l159 342h-299l16 41h302l140 303h50l-141 -303h334l140 303h49l-140 -303h292l-16 -41h-295zM588 889l-158 -342h333l159 342h-334z" />
<glyph unicode="$" horiz-adv-x="1249" d="M1135 1374q62 -40 98.5 -102t36.5 -137q0 -58 -19.5 -106t-55 -76.5t-83.5 -28.5q-68 0 -106.5 48.5t-38.5 125.5q0 71 26.5 134t67.5 126q-44 35 -110 55l-155 -556q102 -90 162.5 -152.5t103 -139t42.5 -159.5q0 -149 -83.5 -245t-209 -140t-261.5 -49l-67 -242h-45 l67 241q-76 1 -140 12l-70 -253h-45l73 262q-92 24 -182 84q-64 41 -99.5 102t-35.5 137q0 58 19.5 106t55.5 76.5t83 28.5q68 0 107.5 -48.5t39.5 -125.5q0 -71 -27 -132.5t-69 -127.5q49 -37 120 -57l166 598q-74 71 -125 131t-83.5 131t-32.5 149q0 145 69.5 241 t178 142.5t228.5 50.5l67 242h45l-67 -241q76 -2 139 -14l71 255h45l-74 -265q86 -24 173 -81zM782 1436h-13l-122 -438q40 -43 113 -109l149 535q-60 12 -127 12zM588 1363q-51 -54 -51 -144q0 -86 76 -181l110 393q-84 -14 -135 -68zM494 16h24l131 475q-32 33 -112 109 l-160 -574q55 -10 117 -10zM782 240q0 100 -98 213l-121 -433q219 24 219 220z" />
<glyph unicode="%" horiz-adv-x="1630" d="M10 -86l1706 1774l31 -27l-1706 -1774zM290 1330.5q61 100.5 166.5 164.5t233.5 64q124 0 194 -63t70 -175q0 -103 -60 -202.5t-165 -163.5t-233 -64q-125 0 -196 62t-71 175q0 102 61 202.5zM550 1447.5q-53 -80.5 -81.5 -193.5t-28.5 -201q0 -63 18 -97t52 -34 q71 0 124 80.5t81 193.5t28 203q0 62 -17.5 95.5t-51.5 33.5q-71 0 -124 -80.5zM823 411q61 100 167 164t233 64q125 0 194.5 -63t69.5 -175q0 -102 -60.5 -202t-166 -164t-232.5 -64q-124 0 -195 62.5t-71 175.5q0 102 61 202zM1083 527.5q-53 -80.5 -81.5 -193 t-28.5 -201.5q0 -63 17.5 -97t51.5 -34q71 0 124 80.5t81.5 193.5t28.5 203q0 63 -18 96t-52 33q-70 0 -123 -80.5z" />
<glyph unicode="&#x26;" horiz-adv-x="1767" d="M1061 327.5q-64 -44.5 -160 -44.5q-65 0 -120.5 23.5t-90.5 75t-35 132.5q0 246 359 363q71 24 245 79.5t293 100.5q77 28 127.5 53.5t85.5 66.5t35 99q0 51 -27 89.5t-73 59.5t-103 21q-38 0 -59 -12q90 -38 90 -121q0 -43 -26.5 -77t-69 -52.5t-88.5 -18.5 q-65 0 -106.5 36t-41.5 93q0 54 34.5 93.5t92.5 62.5q68 29 166 29q128 0 203.5 -65t75.5 -208q0 -105 -43.5 -182t-128 -132.5t-217.5 -103.5q-53 -20 -126 -45q87 -96 87 -233q0 -135 -84.5 -259t-252.5 -202t-405 -78q-187 0 -331 51.5t-226 152.5t-82 245 q0 131 68 242.5t192.5 190t290.5 114.5q-90 31 -135 87.5t-45 125.5q0 82 58 140.5t149.5 88t191.5 29.5q125 0 191.5 -45t66.5 -119q0 -46 -24 -78.5t-60 -49t-73 -16.5v37q48 0 80 28.5t32 72.5q0 49 -40.5 78.5t-106.5 29.5q-73 0 -137 -37.5t-103 -104.5t-39 -151 q0 -54 23 -104q73 12 129 12q74 0 74 -43q0 -21 -19 -32t-45 -11q-48 0 -141 45q-72 -26 -129.5 -89.5t-90 -151t-32.5 -183.5q0 -184 122.5 -281.5t340.5 -97.5q145 0 270.5 43t202 129t76.5 209t-75 204q-95 -32 -188.5 -62.5t-177.5 -59.5q-90 -31 -141 -73t-51 -103 q0 -57 42 -84.5t103 -27.5q56 0 100.5 21t73 50.5t41.5 55.5l31 -17q-30 -60 -94 -104.5z" />
<glyph unicode="'" horiz-adv-x="467" d="M309 1175q-13 91 -13 125q0 21 1 31q3 46 24.5 83.5t57.5 59t80 21.5q47 0 74.5 -26t29.5 -70q0 -50 -26 -100.5t-90.5 -144t-94.5 -155.5h-28q-2 85 -15 176z" />
<glyph unicode="(" horiz-adv-x="811" d="M264.5 -124q-90.5 121 -141 264t-50.5 317q0 222 124 443.5t341.5 414.5t495.5 336l20 -27q-222 -160 -376.5 -339t-239 -401t-84.5 -493q0 -209 43 -386t133 -351l-37 -27q-138 128 -228.5 249z" />
<glyph unicode=")" horiz-adv-x="813" d="M566.5 1402q90.5 -121 141 -264t50.5 -317q0 -222 -124 -443.5t-341.5 -414.5t-495.5 -336l-20 27q222 160 376.5 339t239 401t84.5 493q0 209 -43 386t-133 351l37 27q138 -128 228.5 -249z" />
<glyph unicode="*" horiz-adv-x="991" d="M1044 1246q0 -67 -86 -109q-35 -18 -77 -27.5t-122.5 -23.5t-129.5 -24q42 -9 118 -23t114 -24.5t63 -27.5q44 -28 44 -70q0 -36 -32 -71q-40 -51 -91 -51q-30 0 -59 20q-26 17 -48 47t-57.5 88t-57.5 90q3 -39 13 -120.5t10 -121.5q0 -36 -5 -59q-14 -57 -49.5 -83.5 t-77.5 -26.5q-34 0 -56 18t-22 57q0 18 4 35q9 38 32.5 82t63.5 110t72 120q-41 -36 -108 -98t-103 -92.5t-67 -47.5q-38 -19 -71 -19q-52 0 -71 50q-5 15 -5 30q0 68 85 111q35 18 78.5 28t125 23t131.5 23q-44 10 -121.5 24t-116 24.5t-62.5 27.5q-42 28 -42 70 q0 36 30 71q40 51 91 51q30 0 60 -20q26 -18 48 -47.5t59 -91t62 -98.5q-4 40 -12 93.5t-12.5 92t-4.5 67.5q0 32 6 59q14 57 49.5 84t77.5 27q33 0 54.5 -17.5t21.5 -54.5q0 -20 -5 -39q-7 -34 -26.5 -72.5t-63.5 -112.5t-70 -121q34 30 100 92t103 93t70 48q37 19 69 19 q27 0 45 -14t25 -36q6 -15 6 -32z" />
<glyph unicode="+" horiz-adv-x="1178" d="M733 1241h74l-137 -483h475l-19 -62h-475l-137 -481h-74l138 481h-478l19 62h477z" />
<glyph unicode="," horiz-adv-x="588" d="M181 -126q61 73 67 157q-57 -60 -127 -60q-62 0 -94.5 28.5t-32.5 82.5q0 55 29 102t78 75t106 28q66 0 100.5 -37.5t34.5 -110.5q0 -129 -81.5 -241.5t-223.5 -176.5l-10 33q93 47 154 120z" />
<glyph unicode="-" horiz-adv-x="1036" d="M848 457h-739l45 170h739z" />
<glyph unicode="." horiz-adv-x="571" d="M24.5 193q26.5 44 72.5 69t100 25q64 0 100.5 -32.5t36.5 -89.5q0 -50 -26.5 -95t-72.5 -72t-100 -27q-65 0 -101 33t-36 91q0 54 26.5 98z" />
<glyph unicode="/" horiz-adv-x="944" d="M1100 1479l-1123 -1508h-67l1122 1508h68z" />
<glyph unicode="0" horiz-adv-x="1272" d="M997 1042.5q91 -44.5 139 -128.5t48 -199q0 -183 -100 -355.5t-267.5 -280.5t-359.5 -108q-125 0 -217 44.5t-141.5 129t-49.5 201.5q0 183 101 355t269.5 279t360.5 107q126 0 217 -44.5zM545 941q-92 -110 -144.5 -283t-52.5 -353q0 -153 38.5 -225t102.5 -72 q114 0 204.5 112.5t141 287t50.5 352.5q0 150 -37.5 220.5t-99.5 70.5q-111 0 -203 -110z" />
<glyph unicode="1" horiz-adv-x="760" d="M109 0l256 864q-102 -41 -273 -86l6 43q139 35 245.5 78t180 85t154.5 97h41l-322 -1081h-288z" />
<glyph unicode="2" horiz-adv-x="1096" d="M403 595q-59 -24 -114 -24q-63 0 -108.5 31t-45.5 109q0 91 67.5 178t186 142.5t262.5 55.5q101 0 175.5 -26t114.5 -74.5t40 -114.5q0 -129 -132 -241t-316.5 -222t-231.5 -145q47 0 125.5 -17.5t137.5 -28.5t114 -11q80 0 127 25t47 73q0 62 -74 101l23 26 q58 -31 85 -72.5t27 -101.5q0 -70 -34 -131.5t-105 -100t-178 -38.5q-69 0 -152 19t-144.5 31t-132.5 12q-61 0 -107.5 -11.5t-110.5 -38.5l10 43q28 23 237 176t352.5 323t143.5 322q0 81 -41 123.5t-114 42.5q-80 0 -162.5 -46.5t-136.5 -120.5t-54 -150q0 -51 28 -75 t91 -24q54 0 95.5 20t93.5 64l24 -28q-54 -51 -113 -75z" />
<glyph unicode="3" horiz-adv-x="1059" d="M303 635q-63 0 -108 30.5t-45 108.5q0 75 65 148.5t177 120.5t243 47q102 0 177.5 -25t116 -71t40.5 -109q0 -90 -71.5 -166t-180 -128t-221.5 -79q176 -3 282.5 -65t106.5 -187q0 -165 -170.5 -294t-420 -200.5t-472.5 -74.5l10 37q173 11 347 79.5t289.5 192.5 t115.5 293q0 82 -33 132t-92 54q-48 -19 -72 -27t-47 -8q-37 0 -37 21q0 2 2 10q8 38 98 38q25 0 39 -1q112 47 183 131.5t71 192.5q0 86 -50 135t-140 49q-73 0 -144.5 -35.5t-117 -92.5t-45.5 -116q0 -50 27.5 -74t90.5 -24q71 0 127 31l23 -31q-79 -43 -164 -43z" />
<glyph unicode="4" horiz-adv-x="1096" d="M662 94l-103 -383h-289l103 383h-492l13 43l983 950h53l-248 -921h266l-20 -72h-266zM539 706l-558 -540h412z" />
<glyph unicode="5" horiz-adv-x="967" d="M779.5 876.5q-77.5 -75.5 -175.5 -75.5q-28 0 -57.5 9.5t-95 36t-102.5 26.5q-11 0 -17 -1l-191 -409q132 72 318 72q177 0 263.5 -64.5t86.5 -179.5q0 -179 -159.5 -312t-391 -205t-438.5 -77l10 37q152 0 309 67t261 193t104 293q0 186 -193 186q-94 0 -200 -55l-21 10 l283 633q39 2 72.5 -4t108.5 -26.5t142 -20.5q65 0 111 20.5t78 71.5l24 -15q-52 -135 -129.5 -210.5z" />
<glyph unicode="6" horiz-adv-x="1161" d="M762.5 1222.5q-179.5 -164.5 -294 -417t-114.5 -553.5q0 -93 12.5 -145.5t35.5 -73.5t59 -21q86 0 157.5 100t112.5 244.5t41 264.5q0 94 -28 137t-74 43q-52 0 -102.5 -51.5t-84.5 -159.5l-32 10q84 297 333 297q85 0 151 -35.5t103 -105t37 -168.5q0 -159 -91 -301.5 t-244 -229t-330 -86.5q-353 0 -353 377q0 281 174 527.5t424.5 407t462.5 196.5l12 -41q-188 -51 -367.5 -215.5z" />
<glyph unicode="7" horiz-adv-x="1030" d="M920 786q-176 -202 -277.5 -385.5t-157.5 -400.5q-17 -69 -23 -105t-11 -57q-14 -62 -61 -101.5t-122 -39.5q-122 0 -122 114q0 32 10 74q43 186 215 390.5t391.5 418t277.5 275.5q-106 -70 -167 -106t-120.5 -56.5t-123.5 -20.5q-50 0 -89 9t-108.5 32t-122.5 23 q-67 0 -108 -30t-41 -91q0 -149 248 -207l-11 -33q-311 63 -311 295q0 74 34 138.5t106.5 105.5t181.5 41q91 0 194.5 -31t165.5 -47t146 -16q60 0 105 17t81 65h55q-59 -69 -235 -271z" />
<glyph unicode="8" horiz-adv-x="1178" d="M762 832q14 -13 94.5 -85t122 -152.5t41.5 -166.5q0 -130 -86 -234.5t-229 -163.5t-308 -59q-115 0 -206 28.5t-144 89t-53 151.5q0 155 149 282.5t369 215.5q-64 61 -104 107.5t-66.5 105.5t-26.5 130q0 116 76 207t200.5 141t264.5 50q151 0 245.5 -56t94.5 -163 q0 -223 -434 -428zM869 1041.5q51 112.5 51 232.5q0 168 -115 168q-59 0 -112 -40.5t-85.5 -107.5t-32.5 -143q0 -87 42.5 -155.5t121.5 -142.5q79 76 130 188.5zM585 54q70 46 113 125t43 173q0 77 -28 140.5t-70 112.5t-109 113q-72 -55 -128.5 -134t-88.5 -175.5 t-32 -197.5q0 -97 35 -150t118 -53q77 0 147 46z" />
<glyph unicode="9" horiz-adv-x="1135" d="M328 162q-84 0 -149.5 35.5t-102.5 105t-37 168.5q0 159 91 301t244.5 228.5t330.5 86.5q352 0 352 -376q0 -272 -171 -511.5t-416.5 -395t-453.5 -189.5l-12 41q183 49 357.5 209.5t286.5 406t112 535.5q0 93 -12.5 145.5t-35.5 73.5t-59 21q-87 0 -158.5 -100 t-112 -244t-40.5 -265q0 -180 100 -180q53 0 103 51t84 160l35 -10q-85 -297 -336 -297z" />
<glyph unicode=":" horiz-adv-x="637" d="M54.5 193q26.5 44 72.5 69t100 25q64 0 100.5 -32.5t36.5 -89.5q0 -50 -26.5 -95t-72.5 -72t-100 -27q-65 0 -101 33t-36 91q0 54 26.5 98zM259.5 993q26.5 44 72.5 69t100 25q64 0 100.5 -32.5t36.5 -89.5q0 -50 -26.5 -95t-72.5 -72t-100 -27q-65 0 -101 33t-36 91 q0 54 26.5 98z" />
<glyph unicode=";" horiz-adv-x="651" d="M269.5 993q26.5 44 72.5 69t100 25q64 0 100.5 -32.5t36.5 -89.5q0 -50 -26.5 -95t-72.5 -72t-100 -27q-65 0 -101 33t-36 91q0 54 26.5 98zM206 -126q61 73 67 157q-57 -60 -127 -60q-62 0 -94.5 28.5t-32.5 82.5q0 55 29 102t78 75t106 28q66 0 100.5 -37.5 t34.5 -110.5q0 -129 -81.5 -241.5t-223.5 -176.5l-10 33q93 47 154 120z" />
<glyph unicode="&#x3c;" horiz-adv-x="1217" d="M252 719l678 -357l-33 -65l-799 430l1131 465l20 -59z" />
<glyph unicode="=" horiz-adv-x="1331" d="M1255 901l-18 -61h-1026l18 61h1026zM1174 614l-19 -61h-1026l18 61h1027z" />
<glyph unicode="&#x3e;" horiz-adv-x="1219" d="M1040 770l-757 406l32 59l879 -473l-1075 -445l-21 60z" />
<glyph unicode="?" horiz-adv-x="995" d="M516.5 1541q-51.5 -15 -78.5 -46q35 0 68.5 -17.5t54.5 -48t21 -67.5q-1 -40 -22 -73t-57 -52.5t-79 -19.5q-61 0 -103 37.5t-42 101.5q0 84 64 139t161.5 81t197.5 26q108 0 197 -29t142 -86t53 -139q0 -61 -37 -122.5t-115 -134.5t-213 -173q-144 -106 -208 -159 t-93 -99t-29 -103q0 -59 35.5 -96t104.5 -37q45 0 87.5 14t69.5 39q-40 13 -69 47t-29 82q0 56 39.5 94.5t101.5 38.5q50 0 84.5 -32t34.5 -84q0 -79 -60 -133.5t-149 -80.5t-174 -26q-139 0 -226 58.5t-87 170.5q0 77 42.5 142.5t100.5 115.5t191 154q118 94 172 143.5 t85 101t31 113.5q0 80 -43 127t-127 47q-46 0 -97.5 -15zM253.5 193q26.5 44 72.5 69t100 25q64 0 100.5 -32.5t36.5 -89.5q0 -50 -26.5 -95t-72.5 -72t-100 -27q-65 0 -101 33t-36 91q0 54 26.5 98z" />
<glyph unicode="@" horiz-adv-x="1767" d="M1050.5 -269q-129.5 -36 -280.5 -36q-198 0 -359 64t-257.5 203.5t-96.5 356.5q0 250 124 480.5t352 375t524 144.5q195 0 341.5 -61.5t228 -186.5t81.5 -311q0 -214 -100 -375t-246.5 -246.5t-276.5 -85.5q-161 0 -161 142q0 31 6 63q-57 -107 -128 -156t-161 -49 q-108 0 -170.5 63t-62.5 187q0 144 77.5 303t203.5 266t263 107q73 0 107.5 -34.5t37.5 -104.5l33 110q163 0 259 29l-218 -739q-12 -45 -12 -72q0 -49 47 -49q67 0 178.5 76.5t197 222t85.5 342.5q0 177 -78 294t-215 172.5t-317 55.5q-277 0 -496.5 -137t-341 -358.5 t-121.5 -462.5q0 -205 90.5 -338t241.5 -194.5t338 -61.5q278 0 492 125l12 -27q-92 -61 -221.5 -97zM1074 786q0 121 -79 121q-69 0 -145.5 -91t-128 -231.5t-51.5 -279.5q0 -79 20 -116t64 -37q66 0 122 81t115 248l83 278v27z" />
<glyph unicode="A" horiz-adv-x="1337" d="M1126 74q29 -31 66 -33l-8 -41q-105 6 -297 6q-209 0 -307 -6l8 41q66 3 103 15.5t55.5 43t18.5 87.5q0 17 -1 26l-17 336h-443l-181 -256q-65 -92 -65 -151q0 -93 171 -101l-10 -41q-172 6 -266 6q-76 0 -141 -6l8 41q52 14 103 61t128 156l854 1202q27 -3 54 -3 q29 0 51 3l82 -1288q5 -67 34 -98zM716 1133l-383 -543h411z" />
<glyph unicode="B" horiz-adv-x="1391" d="M604 1444q69 0 153 2t146 2q230 0 340.5 -71t110.5 -199q0 -106 -69 -195t-194 -147t-288 -74q149 -7 253 -50t156 -113t52 -157q0 -140 -86.5 -240t-239 -151t-348.5 -51q-36 0 -148 3t-211 3q-206 0 -317 -6l8 41q74 3 110.5 16t58.5 48t42 112l270 1016q18 72 18 98 q0 40 -30 58t-108 20l10 41q108 -6 311 -6zM866.5 832q80.5 62 123 163t42.5 215q0 97 -36 148t-122 51q-42 0 -66 -12t-40.5 -42.5t-32.5 -90.5l-130 -494h71q110 0 190.5 62zM442 124q0 -37 22.5 -57t76.5 -20q121 0 207 58t130 156t44 218q0 118 -56 187t-180 69h-90 l-137 -518q-17 -64 -17 -93z" />
<glyph unicode="C" horiz-adv-x="1419" d="M1397 979h-45q15 89 15 160q0 96 -34 157q-72 134 -241 134q-164 0 -312 -144t-237.5 -374.5t-89.5 -473.5q0 -203 72.5 -304t203.5 -101q78 0 162 35.5t145 99.5q54 56 93.5 127.5t91.5 196.5h45q-97 -355 -121 -492h-45q6 44 6 70q0 52 -26 52q-16 0 -42 -18 q-93 -64 -188 -98.5t-213 -34.5q-274 0 -411.5 131t-137.5 377q0 242 128 474t353 379t498 147q80 0 137 -18t94.5 -46t73.5 -69q15 -18 30 -18q38 0 83 122h43q-68 -177 -131 -471z" />
<glyph unicode="D" horiz-adv-x="1579" d="M560 1443l65 1q213 6 305 6q300 0 459 -124t159 -365q0 -235 -114.5 -456.5t-343 -363t-551.5 -141.5q-46 0 -138 3t-172 3q-199 0 -307 -6l6 41q70 3 105.5 16t57.5 48.5t42 111.5l268 1016q16 64 16 89q0 43 -30 63.5t-104 23.5l6 41q145 -7 271 -7zM436 100 q0 -34 23 -48.5t80 -14.5q208 0 362.5 145t235 373.5t80.5 470.5q0 193 -79.5 290t-252.5 97q-53 0 -79 -13t-42 -47.5t-37 -115.5l-268 -1024q-23 -87 -23 -113z" />
<glyph unicode="E" horiz-adv-x="1282" d="M958 1444q291 0 416 6q-54 -147 -78 -242q-11 -46 -26 -127h-45q3 39 3 73q0 93 -22.5 147t-72 78t-134.5 24h-63q-72 0 -108 -12t-57.5 -46.5t-41.5 -111.5l-128 -483h75q102 0 171 71.5t109 173.5h48q-24 -70 -37.5 -118t-23.5 -88.5t-15 -59.5q-25 -91 -60 -266h-45 q2 28 2 44q0 202 -172 202h-63l-131 -492q-19 -68 -19 -100q0 -29 13.5 -44t42 -20.5t79.5 -5.5h76q112 0 187.5 34.5t135 112t120.5 216.5h47q-22 -54 -45 -148q-32 -108 -54 -262q-139 6 -464 6q-443 0 -666 -6l10 41q74 3 110 16t58 48t43 112l270 1016q17 65 17 99 q0 30 -13.5 46t-42 22.5t-81.5 8.5l10 41q223 -6 665 -6z" />
<glyph unicode="F" horiz-adv-x="1204" d="M958 1444q291 0 416 6q-43 -117 -80 -250q-33 -130 -43 -180h-47q8 75 8 126q0 95 -25 151t-77.5 81t-138.5 25h-47q-67 0 -101 -12t-54.5 -46.5t-39.5 -111.5l-131 -492h94q100 0 167 68t114 178h45q-32 -101 -51 -171.5t-25 -94.5q-24 -105 -63 -303h-45q1 14 1 42 q0 118 -35.5 179t-129.5 61h-83l-128 -483q-16 -61 -16 -91q0 -34 17 -51.5t53.5 -24.5t104.5 -9l-8 -41q-126 6 -364 6q-226 0 -334 -6l10 41q74 3 110 16t58 48t43 112l270 1016q17 65 17 99q0 30 -13.5 46t-42 22.5t-81.5 8.5l10 41q223 -6 665 -6z" />
<glyph unicode="G" horiz-adv-x="1513" d="M1393 1133q0 48 -6 82t-23 67q-40 77 -121.5 118.5t-193.5 41.5q-196 0 -343 -178t-225 -430.5t-78 -460.5q0 -184 72.5 -272.5t220.5 -88.5q88 0 158 43q33 22 50.5 55t33.5 95l47 180q18 68 18 106q0 36 -17 54.5t-52.5 26t-102.5 10.5l11 41q118 -7 348 -7 q199 0 289 7l-11 -41q-49 -4 -73 -16.5t-40.5 -46.5t-37.5 -113l-109 -406h-41q1 9 1 27q0 42 -14.5 66t-43.5 24q-30 0 -62.5 -13t-64.5 -29.5t-45 -23.5q-151 -80 -297 -80q-177 0 -303.5 55t-193 160t-66.5 254q0 237 127 479.5t352 401t504 158.5q84 0 145 -17t104 -45 t87 -71q19 -19 35 -19q39 0 81 123h46q-67 -175 -132 -471h-45q11 83 11 154z" />
<glyph unicode="H" horiz-adv-x="1659" d="M1473 1444q224 0 337 6l-10 -41q-75 -3 -111.5 -16t-58 -48t-41.5 -112l-270 -1016q-18 -70 -18 -100t13.5 -45.5t42.5 -22t83 -8.5l-8 -41q-111 6 -336 6q-208 0 -322 -6l8 41q74 3 111 16t58.5 48t41.5 112l131 492h-534l-131 -492q-18 -70 -18 -100t13.5 -45.5 t42.5 -22t83 -8.5l-9 -41q-113 6 -321 6q-223 0 -334 -6l10 41q71 3 107 16t58 48.5t42 111.5l270 1016q17 65 17 99q0 30 -13.5 46t-42 22.5t-81.5 8.5l10 41q103 -6 334 -6q197 0 323 6l-10 -41q-75 -3 -111.5 -16t-58 -48t-41.5 -112l-128 -483h534l129 483q18 63 18 98 q0 31 -14 47t-43 22.5t-82 8.5l10 41q111 -6 320 -6z" />
<glyph unicode="I" d="M441 117q0 -30 13.5 -45.5t42.5 -22t83 -8.5l-9 -41q-118 6 -333 6q-214 0 -322 -6l10 41q71 3 107 16t58 48.5t42 111.5l270 1016q17 65 17 99q0 30 -13.5 46t-42 22.5t-81.5 8.5l10 41q101 -6 321 -6q204 0 336 6l-10 -41q-75 -3 -111.5 -16t-58 -48t-41.5 -112 l-270 -1016q-18 -70 -18 -100z" />
<glyph unicode="J" horiz-adv-x="1399" d="M958.5 980.5q86.5 101.5 190.5 183t252 177.5q-77 -26 -185.5 -79t-176.5 -77t-158 -24q-60 0 -113 14t-154.5 51.5t-171.5 37.5q-58 0 -91.5 -30t-33.5 -87q3 -137 232 -158l-6 -39q-162 13 -259.5 87.5t-97.5 208.5q0 79 33 139.5t98.5 94t159.5 33.5q132 0 250 -68.5 t189 -103t182 -34.5q175 0 346 79q77 120 128 120q14 0 27 -11t13 -25q0 -50 -150 -106q-121 -97 -205.5 -250t-147.5 -364h204l-6 -41h-210l-22 -80l-127 -496q-59 -233 -206.5 -375.5t-399.5 -142.5q-130 0 -208.5 37t-78.5 117q0 67 46 111t126 44q70 0 114.5 -32.5 t45.5 -90.5q0 -95 -113 -145q19 -6 58 -6q78 0 127 58t80 148t84 287l110 394q25 92 60 172h-279l6 41h291q61 129 147.5 230.5z" />
<glyph unicode="K" horiz-adv-x="1516" d="M876 602q0 51 -12 81t-40 52q-85 -22 -125 -22q-53 0 -53 34l1 9q6 41 60 41q39 0 120 -21q131 18 191 113.5t116.5 283.5t114.5 246q60 60 146 60q90 0 142 -51.5t50 -135.5q0 -47 -21.5 -93t-64 -75.5t-100.5 -29.5t-96.5 36t-38.5 97t41 118.5t110 88.5q-12 6 -33 6 q-36 0 -59 -11t-45 -34q-50 -55 -105 -230t-111 -275.5t-177 -127.5q107 -12 170 -42.5t92 -86t29 -144.5q0 -40 -4 -77l-23 -215l-1 -14q0 -62 52 -62q39 0 66 30t49 93l35 104h41l-54 -158q-37 -111 -109 -165t-165 -54q-116 0 -177 56t-61 154q0 14 4 48l39 287 q6 51 6 86zM441 117q0 -30 13.5 -45.5t42.5 -22t83 -8.5l-9 -41q-113 6 -321 6q-223 0 -334 -6l10 41q71 3 107 16t58 48.5t42 111.5l270 1016q17 65 17 99q0 30 -13.5 46t-42 22.5t-81.5 8.5l10 41q103 -6 334 -6q197 0 323 6l-10 -41q-75 -3 -111.5 -16t-58 -48 t-41.5 -112l-270 -1016q-18 -70 -18 -100z" />
<glyph unicode="L" horiz-adv-x="1239" d="M1102 262q-31 -105 -55 -262q-140 6 -465 6q-447 0 -670 -6l10 41q74 3 110 16t58 48t43 112l270 1016q17 65 17 99q0 30 -13.5 46t-42 22.5t-81.5 8.5l10 41q108 -6 338 -6q193 0 319 6l-10 -41q-75 -3 -111.5 -16t-58.5 -48t-43 -112l-270 -1016q-18 -70 -18 -100 q0 -29 13.5 -44t42 -20.5t80.5 -5.5h82q146 0 257 89t192 294h45q-24 -64 -49 -168z" />
<glyph unicode="M" horiz-adv-x="1878" d="M2030 1450l-11 -41q-75 -3 -111.5 -16t-58 -48t-41.5 -112l-270 -1016q-17 -65 -17 -98q0 -31 14 -47t42.5 -22.5t81.5 -8.5l-8 -41q-129 6 -328 6q-223 0 -328 -6l9 41q75 3 111.5 16t57.5 48t41 112l297 1104l-849 -1331h-46l-165 1257l-258 -983q-17 -65 -17 -102 q0 -57 38.5 -87.5t131.5 -33.5l-8 -41q-73 6 -229 6q-125 0 -195 -6l10 41q68 3 111 30t67.5 74t42.5 119l261 969q17 65 17 98q0 31 -13.5 47t-42.5 22.5t-82 8.5l10 41q92 -6 280 -6q108 0 185 6l117 -1047l663 1041h160q198 0 330 6z" />
<glyph unicode="N" horiz-adv-x="1690" d="M1495 1413q90 131 221 131q61 0 105 -23t67 -62.5t23 -88.5q0 -52 -24 -94.5t-67 -67t-96 -24.5q-67 0 -104 33.5t-37 89.5q0 67 43.5 118t110.5 72q-8 8 -33 8q-98 0 -172 -108q-91 -136 -189 -477t-223 -930h-45l-508 1112q-88 -435 -167 -732t-152 -393 q-45 -60 -95.5 -94.5t-123.5 -34.5q-61 0 -104.5 23t-66 63t-22.5 89q0 52 24 94.5t66.5 67t96.5 24.5q66 0 103.5 -34t37.5 -89q0 -67 -44 -118.5t-112 -71.5q10 -9 35 -9q105 0 172 111q77 120 158.5 431t177.5 802v2q13 62 13 92q0 33 -14.5 50.5t-47.5 24.5t-96 9l10 41 q65 -6 182 -6q95 0 166 6l424 -972q171 738 307 935z" />
<glyph unicode="O" horiz-adv-x="1591" d="M204.5 932q118.5 237 330.5 392t479 155q174 0 299 -58t191.5 -169t66.5 -267q0 -231 -119 -467.5t-332 -391.5t-479 -155q-173 0 -298 58t-191 168.5t-66 265.5q0 232 118.5 469zM726.5 1294.5q-129.5 -147.5 -209 -381.5t-79.5 -477q0 -131 28 -228t78 -148.5 t115 -51.5q140 0 269 147.5t209 381.5t80 477q0 131 -28.5 228t-78.5 148.5t-115 51.5q-139 0 -268.5 -147.5z" />
<glyph unicode="P" horiz-adv-x="1317" d="M441 127q0 -43 30.5 -63t106.5 -23l-9 -41q-123 6 -315 6q-232 0 -340 -6l8 41q74 3 110.5 16t58.5 48t42 112l270 1016q15 65 15 96q0 41 -29 59t-106 21l10 41q104 -6 325 -6q49 0 148.5 2t151.5 2q241 0 361 -78.5t120 -230.5q0 -160 -106.5 -286.5t-298.5 -198.5 t-440 -72l-97 -365q-16 -64 -16 -90zM573 623q170 0 278.5 82t157 209.5t48.5 271.5q0 111 -47.5 167t-151.5 56q-42 0 -63 -14.5t-34 -47.5t-34 -114l-162 -610h8z" />
<glyph unicode="Q" horiz-adv-x="1702" d="M1491.5 166.5q46.5 -44.5 46.5 -127.5q0 -103 -76.5 -201.5t-207.5 -160.5t-287 -62q-119 0 -218.5 38t-175 94t-165.5 139q-160 -54 -273 -54q-100 0 -156.5 41.5t-56.5 124.5q0 66 37 118t102.5 81.5t147.5 29.5q76 0 150 -26t140.5 -66t158.5 -103q186 98 337 251.5 t239.5 345t88.5 397.5q0 196 -80.5 306t-228.5 110q-139 0 -247.5 -93t-168 -239t-59.5 -299q0 -125 50 -189.5t159 -64.5q83 0 153.5 36.5t117.5 96t62 127.5q10 34 10 76l-1 22q-22 -61 -73.5 -91.5t-107.5 -30.5q-68 0 -107.5 42.5t-39.5 108.5q0 53 26 96.5t70.5 68 t97.5 24.5q86 0 135.5 -61.5t49.5 -164.5q0 -117 -64.5 -210.5t-180 -146t-261.5 -52.5q-130 0 -229.5 43.5t-155 125.5t-55.5 195q0 172 121 313.5t320 222.5t421 81q180 0 319.5 -51t217 -145.5t77.5 -219.5q0 -175 -142 -373t-367 -377t-470 -305q101 -70 176 -114.5 t162.5 -74.5t179.5 -30q188 0 265 145q-59 -45 -132 -45q-69 0 -114 40.5t-45 109.5q0 48 24 87.5t66.5 62t95.5 22.5q75 0 121.5 -44.5zM379 -86q-62 57 -105.5 91.5t-91 56.5t-96.5 22q-54 0 -87.5 -27t-33.5 -73q0 -56 49 -86.5t138 -30.5q86 0 227 47z" />
<glyph unicode="R" horiz-adv-x="1456" d="M1389 248l-9 -27q-39 -129 -113 -189.5t-200 -60.5q-125 0 -188 54t-63 146q0 19 3 38l31 233q4 32 4 67q0 64 -24 103.5t-82.5 60.5t-162.5 23l-126 -479q-20 -70 -20 -101q0 -38 30.5 -55t108.5 -20l-9 -41q-123 6 -319 6q-228 0 -336 -6l8 41q74 3 110.5 16t58.5 48 t42 112l268 1016q18 65 18 98q0 40 -29.5 57.5t-106.5 20.5l10 41q103 -6 309 -6q67 0 155 2t152 2q250 0 370 -70t120 -215q0 -119 -73.5 -214.5t-209 -157t-317.5 -83.5q122 -12 201.5 -34.5t126.5 -70.5t47 -132q0 -21 -3 -45l-28 -211q-3 -24 -3 -44q0 -99 66 -99 q40 0 68.5 36t56.5 111l10 29h48zM610 733q135 0 239 54t162 158t58 249q0 110 -46.5 162.5t-143.5 52.5q-42 0 -67.5 -12t-42.5 -40.5t-32 -82.5l-142 -541h15z" />
<glyph unicode="S" horiz-adv-x="1202" d="M1149 1047h-41q12 57 12 114q0 123 -76 196t-217 73q-110 0 -178.5 -55t-68.5 -169q0 -141 158.5 -309t240.5 -271.5t82 -244.5q0 -137 -87.5 -229.5t-218 -136.5t-259.5 -44q-92 0 -155 12t-105.5 31t-94.5 52q-45 30 -71 30q-18 0 -31 -10t-24.5 -32.5t-30.5 -67.5h-41 q66 157 139 491h41q-22 -86 -19 -162q7 -146 91 -222.5t243 -76.5q264 0 264 215q0 173 -145 336t-218 259.5t-73 242.5q0 132 75 224.5t191.5 139t237.5 46.5q107 0 182 -25t142 -65q50 -33 67 -33t32 25t36 83h41q-78 -190 -121 -417z" />
<glyph unicode="T" horiz-adv-x="1395" d="M592 1409q-170 0 -232 -35q54 -15 88.5 -60t34.5 -106q0 -47 -20.5 -86.5t-56.5 -62.5t-82 -23q-69 0 -108.5 46.5t-39.5 115.5q0 57 31.5 111t101.5 88q101 49 275 49q87 0 172 -6t258.5 -22.5t277.5 -16.5q137 0 217 27q-31 29 -51 70.5t-20 90.5q0 75 44 121.5 t117 46.5q49 0 84.5 -20t54.5 -52.5t19 -70.5q0 -126 -141 -195q-124 -59 -342 -59q-52 0 -120 4l-300 -1126q-15 -57 -15 -94t16.5 -58.5t53 -31.5t99.5 -13l-9 -41q-129 6 -378 6q-244 0 -361 -6l8 41q88 3 136 21t75.5 58t48.5 118l309 1156q-155 15 -245 15z" />
<glyph unicode="U" horiz-adv-x="1421" d="M1349 1289q0 59 -35 85t-120 35l10 41q77 -6 219 -6q114 0 181 6l-11 -41q-69 -9 -108 -34.5t-64.5 -78.5t-52.5 -157l-139 -543q-73 -283 -201 -434q-75 -88 -185 -139.5t-235 -51.5q-150 0 -250 42.5t-149 119.5q-55 77 -55 191q0 102 45 266l170 643q17 65 17 98 q0 31 -14 47t-42.5 22.5t-81.5 8.5l12 41q105 -6 338 -6q191 0 317 6l-12 -41q-75 -3 -111.5 -16t-58 -48t-41.5 -112l-180 -678q-49 -184 -49 -298q0 -108 44.5 -161t139.5 -53q215 0 339 139.5t190 390.5l141 541q32 122 32 175z" />
<glyph unicode="V" horiz-adv-x="1354" d="M1444 1444q88 0 153 6l-10 -41q-67 -19 -121 -64.5t-123 -152.5l-782 -1202q-17 1 -52 1q-34 0 -52 -1l-162 1288q-8 66 -39.5 97.5t-67.5 33.5l11 41q104 -6 295 -6q205 0 313 6l-10 -41q-63 -3 -97.5 -12.5t-52 -35.5t-17.5 -75q0 -22 3 -49l102 -908l539 828 q62 94 62 152q0 49 -43.5 72.5t-127.5 27.5l11 41q80 -6 268 -6z" />
<glyph unicode="W" horiz-adv-x="2011" d="M2079 1444q91 0 155 6l-10 -41q-48 -13 -84.5 -33.5t-76 -64t-81.5 -119.5l-645 -1202h-106l-126 913l-552 -913h-107l-161 1288q-9 69 -40 99t-69 32l10 41q102 -6 287 -6q175 0 266 6l-10 -41q-40 -3 -63 -13.5t-34.5 -35.5t-11.5 -71q0 -23 3 -52l99 -888l374 616 l-43 313q-9 68 -34 98.5t-54 32.5l10 41q95 -6 266 -6q212 0 320 6l-11 -41q-62 -3 -96 -13t-50.5 -34t-16.5 -70q0 -27 4 -55l108 -857l422 777q51 96 51 151q0 52 -42.5 74.5t-129.5 26.5l10 41q84 -6 269 -6z" />
<glyph unicode="X" horiz-adv-x="1518" d="M1108.5 1197q91.5 137 171.5 208q92 74 186 74q86 0 134.5 -52.5t48.5 -133.5q0 -56 -23.5 -101.5t-65.5 -71.5t-94 -26q-63 0 -98 37t-35 100q1 67 44.5 122.5t111.5 78.5q-11 8 -35 8q-69 0 -133 -47q-79 -63 -178 -207t-192 -349l69 -581q20 -139 117 -139 q49 0 81.5 30t57.5 97l35 104h41l-54 -158q-42 -115 -112 -167t-172 -52q-109 0 -175 40.5t-98 110t-45 169.5l-29 238q-78 -150 -181 -283t-197 -205q-92 -70 -191 -70q-86 0 -133 52.5t-47 133.5q0 56 23 101.5t64.5 71.5t94.5 26q62 0 96.5 -36t34.5 -96 q0 -69 -42 -125.5t-111 -80.5q8 -8 35 -8q63 0 135 47q88 61 199.5 200.5t211.5 336.5l-73 606q-9 69 -35.5 106t-79.5 37q-47 0 -80.5 -33t-58.5 -104l-35 -104h-41l53 158q41 115 115.5 167t183.5 52q148 0 216.5 -82t88.5 -238l30 -256q74 157 165.5 294z" />
<glyph unicode="Y" horiz-adv-x="1503" d="M332 1427.5q73 51.5 178 51.5q134 0 210 -83.5t114 -235.5t67 -412q135 382 336 604q116 127 242 127q60 0 103 -23.5t65 -64t22 -89.5q0 -51 -24 -93t-66.5 -66.5t-95.5 -24.5q-68 0 -105 34t-37 91q1 67 44.5 117.5t111.5 71.5q-11 8 -35 8q-60 0 -123 -47 q-57 -41 -129.5 -136.5t-149 -243t-141.5 -335.5l-116 -461q-13 -55 -13 -83q0 -37 16.5 -56t49.5 -26.5t92 -10.5l-10 -41q-117 6 -352 6q-222 0 -330 -6l10 41q75 3 112 16t58.5 48.5t40.5 111.5l111 442q-32 279 -89.5 473.5t-146.5 194.5q-36 0 -57.5 -25t-36.5 -71 l-43 -129h-45l51 158q38 116 111 167.5z" />
<glyph unicode="Z" horiz-adv-x="1348" d="M1069.5 1175q-106.5 -49 -209.5 -49q-72 0 -128 13.5t-146.5 45.5t-149.5 32q-44 0 -68 -21t-24 -61q0 -44 35.5 -73.5t114.5 -45.5l-11 -39q-113 18 -189.5 75t-76.5 162q0 77 36.5 137t104 94t156.5 34q79 0 140 -23t181 -91.5t234 -68.5q55 0 101 13.5t116 42.5 q37 53 78 86t72 33q16 0 30 -11q12 -10 12 -27q0 -28 -38 -62.5t-115 -63.5l-567 -557h311l-16 -41h-336l-580 -570q100 88 207 136.5t211 48.5q71 0 127 -13.5t147 -45.5t150 -32q43 0 67.5 21.5t24.5 60.5q0 87 -149 119l8 39q113 -18 189.5 -75t76.5 -162 q0 -77 -36.5 -137t-104 -94t-156.5 -34q-79 0 -139.5 23t-181 91.5t-234.5 68.5q-55 0 -101 -13.5t-116 -42.5q-36 -53 -78 -86t-73 -33q-16 0 -29 11q-12 10 -12 27q0 28 38 62.5t115 63.5l576 566h-332l14 41h359l571 561q-100 -87 -206.5 -136z" />
<glyph unicode="[" horiz-adv-x="741" d="M911 1581l-8 -39h-166l-469 -1874h166l-8 -39h-471l485 1952h471z" />
<glyph unicode="\" horiz-adv-x="1006" d="M731 -29l-463 1508h64l467 -1508h-68z" />
<glyph unicode="]" horiz-adv-x="743" d="M-168 -371l8 39h166l469 1874h-166l8 39h471l-485 -1952h-471z" />
<glyph unicode="^" horiz-adv-x="1081" d="M741.5 706.5q-110.5 45.5 -196.5 100.5q-76 -49 -183 -95t-215 -77l-8 29q154 66 291 179t221 238h37q20 -127 96 -238.5t199 -176.5l-16 -31q-115 26 -225.5 71.5z" />
<glyph unicode="_" horiz-adv-x="1430" d="M1012 -357h-1125l60 178h1126z" />
<glyph unicode="`" horiz-adv-x="457" d="M327.5 1338.5q-43.5 46.5 -113.5 116t-97 114.5q-22 37 -22 73q0 58 48 87q26 14 54 14q33 0 63 -17.5t49 -48.5q20 -32 31.5 -67t37.5 -143.5t71 -225.5l-25 -14q-53 65 -96.5 111.5z" />
<glyph unicode="a" horiz-adv-x="1143" d="M1053 332l-52 -150q-40 -115 -113 -163t-157 -48q-107 0 -151 64q-28 41 -28 104q0 48 18 122q-130 -290 -343 -290q-113 0 -171 66.5t-58 185.5q0 182 97.5 386t247 341t292.5 137q55 0 89 -32.5t41 -98.5l28 101q163 3 297 30l-269 -913q-10 -35 -10 -56q0 -46 39 -46 q72 0 127 161l37 99h39zM743 908q0 50 -18 77t-51 27q-70 0 -159 -125.5t-151.5 -313.5t-62.5 -364q0 -68 13.5 -97.5t43.5 -29.5q44 0 99 62t109 180.5t96 279.5l-10 -50l89 319q2 12 2 35z" />
<glyph unicode="b" horiz-adv-x="1120" d="M634.5 1017.5q78.5 69.5 172.5 69.5q124 0 189 -80.5t65 -234.5q0 -167 -78.5 -355t-224 -317t-334.5 -129q-58 0 -104 23.5t-70 63.5q-100 -9 -268 -91l-31 15q28 56 43 120l371 1264q9 32 9 56q0 41 -31.5 60t-106.5 19l12 43q140 1 253.5 22t219.5 62l-239 -832 q74 152 152.5 221.5zM367 31q96 0 188 131.5t149.5 322.5t57.5 353q0 76 -17.5 108.5t-52.5 32.5q-56 0 -127.5 -101.5t-135.5 -263.5l-154 -538q36 -45 92 -45z" />
<glyph unicode="c" horiz-adv-x="948" d="M603.5 49.5q-113.5 -78.5 -259.5 -78.5q-97 0 -171 35t-115.5 105.5t-41.5 175.5q0 175 88.5 362.5t248.5 312.5t362 125q74 0 131 -26t88 -70.5t31 -99.5q0 -56 -27 -108.5t-74 -85.5t-102 -33q-51 0 -84 32t-33 86q0 53 26 100t68.5 79t91.5 45q-35 41 -98 41 q-100 0 -195 -110t-154.5 -286.5t-59.5 -363.5q0 -205 155 -205q146 0 271 180l41 -16q-74 -118 -187.5 -196.5z" />
<glyph unicode="d" horiz-adv-x="1186" d="M1096 332l-49 -150q-38 -116 -111 -163.5t-160 -47.5q-127 0 -162 95q-16 33 -16 84q0 63 25 147l2 9q-78 -174 -165.5 -254.5t-207.5 -80.5q-108 0 -176 72t-68 215q0 165 86 361t242 332t354 136q96 0 125 -69l92 348q10 37 10 57q0 41 -32 59.5t-107 18.5l13 43 q141 1 256 22t223 62l-402 -1454q-11 -35 -11 -56q0 -46 40 -46q31 0 61.5 35t63.5 126l35 99h39zM719 1040q-87 0 -183.5 -125.5t-160.5 -318.5t-64 -381q0 -72 15.5 -106.5t50.5 -34.5q40 0 96 59.5t116 175t109 272.5l103 387q-20 72 -82 72z" />
<glyph unicode="e" horiz-adv-x="961" d="M685.5 110.5q-70.5 -62.5 -162 -101t-195.5 -38.5q-93 0 -166 33t-114.5 98.5t-41.5 157.5q0 182 98.5 376t268.5 322.5t372 128.5q95 0 154 -41.5t59 -119.5q0 -117 -95 -215t-238.5 -167.5t-299.5 -110.5q-12 -74 -12 -140q0 -108 40.5 -153.5t117.5 -45.5 q64 0 144.5 40.5t154.5 127.5l33 -16q-47 -73 -117.5 -135.5zM564 965q-75 -84 -139 -218t-93 -276q143 63 225 137t129 169t47 204q0 38 -8 53t-25 15q-61 0 -136 -84z" />
<glyph unicode="f" horiz-adv-x="698" d="M396 1331.5q58 110.5 136 175.5q116 95 289 95q84 0 145 -24.5t93.5 -69t32.5 -103.5q0 -43 -24 -84t-67.5 -67.5t-97.5 -26.5q-61 0 -96 28.5t-35 81.5q0 67 42.5 121t115.5 80q-10 11 -29 19t-41 8q-60 0 -108 -41q-37 -32 -63 -102.5t-62 -204.5l-44 -164h220l-12 -41 h-219l-367 -1368q-166 -3 -297 -29l375 1397h-170l12 41h169q44 168 102 278.5z" />
<glyph unicode="g" horiz-adv-x="967" d="M73 75q-34 34 -34 81q0 51 40 95.5t117.5 88.5t207.5 100q-144 3 -229 60.5t-85 171.5q0 93 61 189t180 160t283 64q52 0 97 -7q87 170 163 231q60 47 132 47q58 0 92.5 -29t34.5 -84q0 -44 -22 -84.5t-59 -66t-81 -25.5t-70.5 26t-26.5 68q0 32 18 66.5t52 62.5 q-7 4 -15 4q-20 0 -40 -16q-30 -25 -70 -83t-70 -124q92 -21 143.5 -75t51.5 -142q0 -94 -57 -183.5t-161.5 -151.5t-240.5 -76q-97 -42 -147.5 -73.5t-50.5 -60.5q0 -18 22 -31t70 -28l172 -57q109 -36 171 -85.5t62 -130.5q0 -104 -90 -188t-235 -132t-301 -48 q-117 0 -200 19.5t-126 55t-43 83.5q0 68 64.5 107t181.5 80.5t163 60.5l-36 10q-55 16 -89 50zM567 544q49 67 72.5 168.5t24.5 207.5q0 62 -18 95.5t-62 33.5q-70 0 -119 -72.5t-73.5 -176.5t-24.5 -196q0 -70 19 -98.5t60 -28.5q72 0 121 67zM78 -260q0 -96 119 -96 q80 0 165 28.5t141 79t56 111.5q0 23 -15 37t-35 21.5t-71 23.5l-206 60q-154 -129 -154 -265z" />
<glyph unicode="h" horiz-adv-x="1167" d="M1024 182q-72 -211 -274 -211q-187 0 -187 167q0 69 31 159l182 553q19 57 19 90q0 45 -39 45q-58 0 -136.5 -106.5t-160 -286.5t-149.5 -393l-51 -173l-1 -6v1l-6 -21h-289l406 1366q10 37 10 57q0 41 -32 59.5t-107 18.5l12 43q267 3 477 84l-279 -951 q72 156 140.5 245.5t139.5 127t157 37.5q96 0 140.5 -44t44.5 -120q0 -66 -28 -145l-200 -604q-12 -37 -12 -59q0 -43 40 -43q69 0 127 161l37 99h39z" />
<glyph unicode="i" horiz-adv-x="659" d="M389.5 1493.5q27.5 43.5 75 66.5t106.5 23q73 0 112.5 -33.5t39.5 -93.5q0 -54 -28.5 -97t-77 -67t-107.5 -24q-70 0 -109 32.5t-39 88.5q0 61 27.5 104.5zM298 947q0 40 -36 40q-37 0 -68 -37.5t-63 -124.5l-41 -104h-39l58 156q74 210 284 210q95 0 138 -45.5 t43 -119.5q0 -57 -23 -121l-215 -627q-12 -36 -12 -59q0 -43 41 -43q31 0 62 34.5t67 126.5l36 99h39l-53 -150q-72 -211 -276 -211q-186 0 -186 169q0 69 30 157l201 588q13 36 13 62z" />
<glyph unicode="j" horiz-adv-x="616" d="M382 1495q28 43 76 65.5t107 22.5q72 0 111 -32.5t39 -90.5q0 -55 -28.5 -99t-76.5 -68.5t-106 -24.5q-72 0 -111 33t-39 91q0 60 28 103zM252.5 -109q-71.5 -125 -174.5 -186q-122 -90 -293 -90q-98 0 -146.5 31.5t-48.5 89.5q0 39 21.5 73.5t58 55t78.5 20.5 q54 0 87.5 -32t33.5 -76q0 -35 -21.5 -71.5t-58.5 -59.5q78 9 124.5 58.5t78.5 162.5l287 1018q11 42 11 63q0 39 -36 39q-35 0 -66.5 -38t-62.5 -124l-39 -104h-39l55 156q39 112 114.5 161t170.5 49q175 0 175 -161q0 -52 -19 -125l-158 -565q-61 -220 -132.5 -345z" />
<glyph unicode="k" horiz-adv-x="1130" d="M590.5 692.5q50.5 63.5 98 186t95.5 161.5q58 47 127 47q93 0 142 -52t49 -131q0 -51 -21.5 -92t-60.5 -65t-90 -24q-63 0 -98 34t-33 85q0 59 38.5 108t96.5 80q-4 7 -14 12t-19 5q-47 0 -86 -31q-41 -34 -86 -147.5t-89.5 -180t-138.5 -90.5q154 -3 249 -55t95 -170 q0 -32 -7 -64l-31 -151q-6 -29 -6 -46q0 -22 9 -31t28 -9q66 0 125 161l36 99h39l-51 -150q-74 -211 -295 -211q-83 0 -126.5 41.5t-43.5 120.5q0 38 8 74l35 158q12 48 12 83q0 59 -36 90t-119 43l-170 -581h-289l406 1366q10 37 10 57q0 41 -32 59.5t-107 18.5l12 43 q267 3 477 84l-298 -1016q109 17 159.5 80.5z" />
<glyph unicode="l" horiz-adv-x="614" d="M282 122q0 -50 44 -50q63 0 123 161l36 99h39l-51 -150q-39 -115 -112.5 -163t-159.5 -48q-94 0 -140 48t-46 135q0 64 24 143l321 1069q10 37 10 58q0 40 -32 58.5t-107 18.5l15 43q141 1 254 22t221 62l-430 -1454q-9 -31 -9 -52z" />
<glyph unicode="m" horiz-adv-x="1753" d="M1610 182q-74 -211 -277 -211q-118 0 -164 74q-22 37 -22 91q0 65 31 161l184 553q16 51 16 82q0 41 -28 41q-55 0 -126 -87.5t-152 -265t-161 -436.5v5l-53 -189h-293l250 850q18 58 18 84q0 39 -34 39q-61 0 -135 -97.5t-149 -271.5t-142 -399v5l-54 -210h-288l250 885 q10 35 10 58q0 44 -37 44q-36 0 -66.5 -38t-62.5 -124l-39 -104h-39l55 156q76 210 277 210q165 0 165 -164q0 -57 -18 -122l-47 -180q68 169 136.5 271t147 148.5t177.5 46.5q162 0 162 -159q0 -60 -25 -150l-37 -131q70 166 140.5 262.5t145.5 137t165 40.5 q167 0 167 -160q0 -65 -28 -149l-200 -604q-13 -38 -13 -61q0 -41 39 -41q71 0 129 161l37 99h39z" />
<glyph unicode="n" horiz-adv-x="1235" d="M1094 182q-74 -211 -275 -211q-115 0 -164 68q-26 40 -26 95q0 62 33 163l184 553q19 59 19 88q0 47 -40 47q-61 0 -148 -124t-175 -327t-153 -428l-27 -106h-289l248 885q12 43 12 65q0 37 -35 37q-38 0 -68 -36t-63 -126l-39 -104h-39l55 156q39 112 105 161t160 49 q176 0 176 -168q0 -52 -17 -118l-64 -249q84 208 161 324.5t155.5 163.5t175.5 47q185 0 185 -164q0 -62 -27 -145l-201 -604q-12 -33 -12 -60q0 -42 39 -42q33 0 64 34t65 127l37 99h39z" />
<glyph unicode="o" horiz-adv-x="1083" d="M101.5 659.5q76.5 181.5 227 304.5t359.5 123q160 0 246 -86t86 -251q0 -169 -76.5 -350.5t-227.5 -305t-360 -123.5q-159 0 -245 86.5t-86 251.5q0 169 76.5 350.5zM511.5 901.5q-89.5 -145.5 -151 -357t-61.5 -392.5q0 -74 17 -107t53 -33q75 0 164 141.5t150.5 351 t61.5 398.5q0 81 -16.5 112.5t-50.5 31.5q-77 0 -166.5 -145.5z" />
<glyph unicode="p" horiz-adv-x="1194" d="M702 1013.5q81 73.5 177 73.5q124 0 189 -80.5t65 -234.5q0 -167 -75 -355t-215 -317t-323 -129q-57 0 -105.5 19t-78.5 52l-55 -196q-12 -43 -12 -73q0 -56 41 -77.5t128 -23.5l-12 -43q-27 1 -126.5 5t-197.5 4q-84 0 -175 -4t-113 -5l12 43q50 0 79.5 11.5t48 39 t32.5 76.5l371 1330q-57 -127 -132 -228.5t-180 -210.5l-22 27q89 95 148 168.5t119.5 179t119.5 256.5l8 27q169 12 305 57l-177 -624q75 159 156 232.5zM440 31q97 0 188.5 124t148.5 307.5t57 346.5q0 95 -17.5 132.5t-50.5 37.5q-41 0 -90.5 -54.5t-99.5 -149 t-92 -213.5l-137 -484q36 -47 93 -47z" />
<glyph unicode="q" horiz-adv-x="1128" d="M771 -234q0 -47 33.5 -69.5t100.5 -24.5l-12 -43q-28 1 -126.5 5t-191.5 4q-88 0 -182.5 -4t-118.5 -5l13 43q64 1 104 16t63.5 46t37.5 82l131 489q-80 -177 -164.5 -255.5t-188.5 -78.5q-124 0 -189 81t-65 235q0 164 83 352.5t229.5 318t324.5 129.5q60 0 106.5 -23.5 t68.5 -65.5q113 9 268 92l32 -15q-22 -46 -45 -121l-303 -1132q-9 -31 -9 -56zM711 1028q-96 0 -188 -135.5t-150 -328t-58 -343.5q0 -68 17.5 -98.5t52.5 -30.5q49 0 110.5 72t117.5 191.5t89 254.5l-7 -36l109 406q-36 48 -93 48z" />
<glyph unicode="r" horiz-adv-x="963" d="M611.5 942q51.5 78 109.5 111.5t133 33.5q78 0 122 -46t44 -119q0 -57 -25.5 -106t-70.5 -78t-99 -29q-60 0 -92.5 31.5t-32.5 90.5q0 48 22.5 91t61.5 73t86 41q-24 6 -26 6q-108 0 -216.5 -155t-223.5 -556l-85 -331h-288l250 885q11 41 11 62q0 40 -34 40 q-38 0 -69 -36.5t-64 -125.5l-39 -104h-39l55 156q76 210 283 210q157 0 157 -165q0 -57 -16 -121l-18 -71q52 134 103.5 212z" />
<glyph unicode="s" horiz-adv-x="860" d="M231 14q77 0 124.5 47t47.5 129q0 65 -28 134.5t-86 158.5q-8 12 -48 73.5t-59.5 118t-19.5 111.5q0 88 44.5 156t128.5 106.5t200 38.5q132 0 221.5 -48.5t89.5 -164.5q0 -35 -14 -70t-42.5 -58t-68.5 -23q-51 0 -82 38.5t-31 98.5q0 50 18.5 94.5t45.5 75.5 q-29 17 -72 17q-74 0 -116.5 -46t-43.5 -129q0 -53 21.5 -99.5t53.5 -96t48 -74.5q65 -108 93 -177.5t28 -139.5q0 -90 -47 -161t-134.5 -112t-203.5 -41q-146 0 -242 56.5t-96 181.5q0 61 30.5 104t84.5 43t85.5 -45t31.5 -114q0 -41 -10 -77t-19.5 -60.5t-11.5 -30.5 q30 -15 79 -15z" />
<glyph unicode="t" horiz-adv-x="723" d="M330 133q0 -61 61 -61q45 0 87 44t75 132l31 84h39l-41 -119q-82 -242 -308 -242q-104 0 -156.5 54.5t-52.5 148.5q0 53 19 123l206 715h-186l11 41h187l89 311q177 3 297 29l-98 -340h231l-6 -41h-237l-242 -838q-6 -22 -6 -41z" />
<glyph unicode="u" horiz-adv-x="1223" d="M1137 338l-56 -156q-38 -113 -110.5 -162t-163.5 -49q-54 0 -93.5 18.5t-58.5 51.5q-19 35 -19 84q0 51 21 133l54 209q-79 -193 -152.5 -301t-149.5 -151.5t-169 -43.5q-92 0 -138.5 43.5t-46.5 124.5q0 61 27 142l199 604q12 38 12 59q0 43 -39 43q-33 0 -64 -34.5 t-65 -127.5l-37 -98h-39l51 150q73 210 275 210q187 0 187 -169q0 -63 -30 -156l-184 -553q-18 -55 -18 -87q0 -48 39 -48q60 0 143.5 119t168.5 316.5t151 424.5l32 125q181 3 297 28l-256 -913q-13 -47 -13 -68q0 -34 36 -34q38 0 69 36.5t62 124.5l39 105h39z" />
<glyph unicode="v" horiz-adv-x="1075" d="M484.5 643q-89.5 -230 -97.5 -407q-3 -89 19.5 -131t72.5 -42q120 0 220.5 94t166.5 235.5t90 281.5q-88 42 -144 113.5t-56 160.5q0 66 36 102.5t97 36.5q74 0 108 -62t29 -173q-10 -208 -88 -411t-225.5 -336.5t-352.5 -133.5q-153 0 -220.5 69.5t-67.5 173.5 q0 343 549 790q-49 -6 -87.5 -29.5t-106 -80t-114.5 -56.5q-16 0 -30 5.5t-40.5 19.5t-45.5 14q-29 0 -46.5 -22t-35.5 -77l-17 -55h-39l45 149q62 218 193 218q36 0 74.5 -22t64.5 -34t70 -12q84 0 149 43l21 39l43 -21q-145 -210 -234.5 -440z" />
<glyph unicode="w" horiz-adv-x="1393" d="M452 633.5q-135 -232.5 -135 -420.5q0 -79 25 -115.5t80 -36.5q72 0 143 54q-24 58 -24 137q0 119 54 231t132.5 182t142.5 70q78 0 78 -135q0 -110 -44 -215.5t-131 -194.5q51 -94 155 -94q102 0 173.5 81t107 204.5t35.5 248.5q0 35 -3 66q-115 45 -191.5 108.5 t-76.5 164.5q0 50 32.5 84t88.5 34q93 0 137.5 -108.5t52.5 -247.5q4 -52 4 -80q0 -165 -54 -321.5t-161.5 -257.5t-259.5 -101q-166 0 -233 113q-129 -113 -301 -113q-90 0 -152 33t-92.5 89.5t-30.5 127.5q0 121 88 245.5t227.5 245t366.5 290.5q-51 -8 -92.5 -31.5 t-114.5 -78t-121 -54.5q-18 0 -32 5t-39.5 19.5t-46.5 14.5q-28 0 -45.5 -22.5t-34.5 -76.5l-19 -55h-39l45 149q38 117 86.5 163t108.5 46q36 0 79.5 -19t74.5 -29.5t79 -10.5q86 0 158 43l23 39l43 -21q-212 -217 -347 -449.5zM808.5 640.5q-30.5 -49.5 -51 -128.5 t-20.5 -160q0 -68 19 -123q68 78 106.5 174.5t38.5 190.5q0 96 -35 96q-27 0 -57.5 -49.5z" />
<glyph unicode="x" horiz-adv-x="1157" d="M811 963q98 124 225 124q66 0 108 -36t42 -99t-43.5 -105t-110.5 -42q-61 0 -109.5 34t-72.5 103q-88 -101 -156 -273l56 -497q9 -52 25.5 -73t43.5 -21q32 0 61.5 37t63.5 139l27 76h39l-52 -150q-68 -209 -274 -209q-97 0 -156.5 46t-70.5 155l-19 164 q-64 -143 -145 -240q-109 -125 -227 -125q-71 0 -110.5 34.5t-39.5 94.5q0 45 21 80t56.5 54.5t78.5 19.5q120 0 178 -137q102 116 179 301l-54 469q-7 48 -25 67t-47 19q-31 0 -59.5 -34t-63.5 -134l-26 -76h-39l51 150q40 119 114 163.5t169 44.5q101 0 155 -47.5 t68 -169.5l13 -120q57 125 126 213z" />
<glyph unicode="y" horiz-adv-x="987" d="M776.5 426q65.5 134 97.5 258q-83 46 -137 115t-51 149q0 64 37 101.5t100 37.5q135 0 135 -186q0 -123 -56 -283t-148.5 -321t-198.5 -289q-104 -125 -229.5 -221t-259.5 -141q-81 -31 -146 -31q-66 0 -103.5 30.5t-37.5 84.5t39.5 90.5t101.5 36.5q121 0 219 -142 q143 70 267 189l-160 979q-12 56 -22.5 76t-30.5 20q-23 0 -44 -30.5t-53 -121.5l-37 -100h-39l52 150q40 116 103 163t149 47q87 0 136 -48.5t68 -172.5l96 -701q87 127 152.5 261z" />
<glyph unicode="z" horiz-adv-x="950" d="M195 188q77 50 121 73.5t87 23.5q35 0 61 -9t72.5 -33t84.5 -24q36 0 55.5 20.5t19.5 51.5q0 45 -33.5 75t-84.5 42l12 30q109 -24 163 -78t54 -141q0 -67 -28.5 -122t-87 -87.5t-144.5 -32.5q-85 0 -163.5 37t-125 55.5t-119.5 18.5q-58 0 -101.5 -19t-84.5 -69h-59 l995 956q-59 -26 -146 -84t-136 -85t-95 -27q-34 0 -59.5 9t-72 32.5t-83.5 23.5t-56.5 -18.5t-19.5 -52.5q0 -42 29.5 -69.5t89.5 -47.5l-12 -31q-217 52 -217 213q0 66 32.5 124.5t98.5 95t161 36.5q57 0 100 -13.5t128.5 -53t169.5 -39.5q61 0 103.5 19.5t84.5 68.5h60 l-981 -942q50 23 127 73z" />
<glyph unicode="{" horiz-adv-x="739" d="M150.5 -334.5q-85.5 52.5 -91 150.5t37.5 273q67 271 67 376q-1 62 -24 90t-72 31h-10l6 37h10q66 5 110.5 49.5t83.5 148t87 300.5q48 193 120 296.5t179 144t276 40.5l-10 -39q-72 -1 -110.5 -28.5t-73.5 -117.5t-86 -296q-45 -179 -116 -283.5t-170 -156t-245 -76.5 q112 -26 179 -66.5t96.5 -98t29.5 -137.5q0 -83 -32 -214q-63 -253 -60 -332q0 -41 12.5 -63t37.5 -30.5t67 -9.5l-10 -39q-203 -2 -288.5 50.5z" />
<glyph unicode="|" horiz-adv-x="756" d="M307 -399v2156h180v-2156h-180z" />
<glyph unicode="}" horiz-adv-x="739" d="M591.5 1551.5q85.5 -52.5 91 -150.5t-37.5 -273q-67 -271 -67 -376q1 -62 24 -90t72 -31h10l-6 -37h-10q-66 -5 -110.5 -49.5t-83.5 -148t-87 -300.5q-48 -193 -120 -296.5t-179 -144t-276 -40.5l10 39q72 1 110.5 28.5t73.5 117.5t86 296q45 179 116 283.5t170 156 t245 76.5q-112 26 -179 66.5t-96.5 98t-29.5 137.5q0 83 32 214q63 253 60 332q0 41 -12.5 63t-37.5 30.5t-67 9.5l10 39q203 2 288.5 -50.5z" />
<glyph unicode="~" horiz-adv-x="1321" d="M1065.5 521.5q-110.5 -85.5 -244.5 -85.5q-71 0 -126.5 21t-160 80t-196.5 59q-135 0 -209 -119l-29 10q57 147 166.5 232.5t245.5 85.5q71 0 125.5 -21t160 -80t197.5 -59q135 0 209 119l29 -10q-57 -147 -167.5 -232.5z" />
<glyph unicode="&#xa1;" horiz-adv-x="606" d="M255.5 993q26.5 44 72.5 69t100 25q64 0 100.5 -32.5t36.5 -89.5q0 -50 -26.5 -95t-72.5 -72t-100 -27q-65 0 -101 33t-36 91q0 54 26.5 98zM282 376q-11 -135 -15.5 -311.5t-10.5 -250.5q-3 -95 -55 -147t-146 -52q-67 0 -104.5 31.5t-37.5 90.5q0 11 1 17 q11 101 111 295.5t161.5 322t104.5 281.5l37 -6q-35 -136 -46 -271z" />
<glyph unicode="&#xa2;" horiz-adv-x="977" d="M717 1087q74 0 131 -26t88 -70.5t31 -99.5q0 -56 -27 -108.5t-74 -85.5t-102 -33q-51 0 -84 32t-33 86q0 53 26 100t68.5 79t91.5 45q-35 41 -98 41q-36 0 -73 -16l-251 -935q30 -14 70 -14q146 0 271 180l41 -16q-70 -111 -175.5 -188t-240.5 -86l-92 -343h-45l92 342 q-143 4 -228.5 84t-85.5 232q0 162 76.5 336.5t216.5 302t319 154.5l99 370h45l-98 -364zM466.5 833.5q-64.5 -111.5 -102.5 -255t-38 -291.5q0 -111 47 -163l235 877q-77 -56 -141.5 -167.5z" />
<glyph unicode="&#xa3;" horiz-adv-x="1376" d="M632.5 1341.5q170.5 165.5 448.5 165.5q75 0 129.5 -25t83.5 -67t29 -94q0 -60 -24.5 -107t-67 -73.5t-94.5 -26.5q-63 0 -100.5 33.5t-37.5 95.5q0 73 44.5 128.5t115.5 72.5q-5 14 -29.5 23.5t-56.5 9.5q-82 0 -138.5 -43t-94 -119.5t-68.5 -192.5l-70 -268h279 l-12 -41h-278l-11 -43q-17 -65 -43 -121h289l-13 -41h-297q-38 -67 -86.5 -117t-164 -149t-181.5 -197q192 166 379 166q68 0 122 -12t142.5 -40t143.5 -28q45 0 75.5 23.5t30.5 64.5q0 86 -143 115l10 37q111 -17 186.5 -72.5t75.5 -152.5q0 -75 -40.5 -138t-112.5 -100 t-162 -37q-78 0 -137.5 21.5t-180.5 86t-235 64.5q-88 0 -168 -30q-41 -70 -95 -106t-106 -36q-14 0 -20 4.5t-6 16.5q0 23 23 53t68.5 56.5t110.5 39.5q41 79 75 166t71 221l21 80h-199l12 41h198l43 164h-198l12 41h197l12 45q73 277 243.5 442.5z" />
<glyph unicode="&#xa4;" horiz-adv-x="1348" d="M231 614q0 111 60 213l-121 119l174 174l119 -119q94 60 215 60q115 0 213 -60l121 121l174 -174l-121 -121q59 -100 59 -213t-59 -215l119 -118l-174 -175l-121 121q-96 -57 -211 -57q-124 0 -213 57l-119 -118l-176 174l119 118q-58 97 -58 213zM475.5 483 q31.5 -57 86 -89t118.5 -32t118 32t85.5 89t31.5 131t-31.5 132t-85.5 90t-118 32t-118.5 -32t-86 -90t-31.5 -132t31.5 -131z" />
<glyph unicode="&#xa5;" horiz-adv-x="1589" d="M368 1427.5q73 51.5 178 51.5q134 0 210 -83.5t114 -235.5t67 -412q135 382 336 604q116 127 242 127q60 0 103 -23.5t65 -64t22 -89.5q0 -51 -24 -93t-66.5 -66.5t-95.5 -24.5q-68 0 -105 34t-37 91q1 67 44.5 117.5t111.5 71.5q-11 8 -35 8q-60 0 -123 -47 q-57 -41 -129 -136t-149 -243.5t-142 -335.5l-18 -70h273l-10 -41h-273l-31 -123h269l-10 -41h-269l-47 -186q-13 -55 -13 -83q0 -37 16.5 -56t49.5 -26.5t92 -10.5l-10 -41q-117 6 -352 6q-222 0 -330 -6l10 41q74 3 111.5 16t59 48.5t40.5 111.5l47 186h-288l11 41h287 l31 123h-284l11 41h283l13 51q-32 280 -89.5 474t-146.5 194q-36 0 -57.5 -25t-36.5 -71l-43 -129h-45l51 158q38 116 111 167.5z" />
<glyph unicode="&#xa6;" horiz-adv-x="762" d="M311 786v971h181v-971h-181zM492 668v-1067h-181v1067h181z" />
<glyph unicode="&#xa7;" horiz-adv-x="1180" d="M931.5 1441.5q42.5 49.5 104.5 74.5q-10 21 -54 34t-93 13q-71 0 -134 -28.5t-102 -86.5t-39 -141q0 -71 43.5 -124t105.5 -105t85 -72q97 -82 146 -129.5t79.5 -101.5t30.5 -118q0 -244 -337 -408q93 -104 93 -212q0 -130 -83.5 -225.5t-213.5 -146t-264 -50.5 q-73 0 -146 16t-125.5 57t-52.5 113q0 50 25.5 94.5t69.5 71.5t98 27q58 0 90.5 -28.5t32.5 -76.5q0 -63 -41.5 -113t-104.5 -75q9 -21 54 -34t94 -13q72 0 134 29t100 87.5t38 141.5q0 71 -42.5 123.5t-104.5 104t-86 71.5q-95 79 -145 128t-79.5 103t-29.5 117 q0 245 336 408q-92 104 -92 213q0 129 83 225t213 146.5t265 50.5q69 0 143.5 -16.5t128 -58.5t53.5 -112q0 -50 -25.5 -94t-70.5 -71t-98 -27q-59 0 -92 31t-33 81q0 57 42.5 106.5zM855 492q0 47 -26 90.5t-77 91t-146 121.5q-108 86 -162 141q-120 -93 -120 -205 q0 -47 26.5 -92t79 -94.5t143.5 -122.5q110 -87 164 -141q50 36 79.5 78.5t35.5 101.5q3 17 3 31z" />
<glyph unicode="&#xa8;" d="M35 1475.5q25 39.5 65.5 60t87.5 20.5q64 0 99 -37.5t35 -97.5q0 -54 -25.5 -93t-66.5 -59t-87 -20q-65 0 -99 36.5t-34 98.5q0 52 25 91.5zM501.5 1476q24.5 39 64.5 59.5t87 20.5q64 0 98.5 -37t34.5 -98q0 -54 -25 -93t-66 -59t-87 -20q-64 0 -97.5 37t-33.5 98 q0 53 24.5 92z" />
<glyph unicode="&#xa9;" horiz-adv-x="1866" d="M275.5 1195.5q109.5 187.5 296.5 297t409 109.5t409 -109.5t296.5 -297t109.5 -409.5q0 -221 -109.5 -408.5t-296.5 -297t-409 -109.5t-409 109.5t-296.5 297t-109.5 408.5q0 222 109.5 409.5zM346.5 411q98.5 -172 266.5 -273t368 -101q199 0 367.5 101t267 273 t98.5 375q0 204 -98.5 376t-267 273t-367.5 101q-200 0 -368 -101t-266.5 -273t-98.5 -376q0 -203 98.5 -375zM1326.5 395q-52.5 -73 -136 -119.5t-193.5 -46.5q-138 0 -245.5 59.5t-169.5 183.5t-62 310q0 180 65 307t180 192t263 65q92 0 176.5 -28t138.5 -85.5t54 -140.5 q0 -72 -45.5 -118t-116.5 -46q-72 0 -115 42t-43 111q0 61 38 105.5t97 60.5q-20 22 -59.5 36.5t-83.5 14.5q-114 0 -177 -109t-63 -380q0 -163 38 -263t98.5 -143t134.5 -43q169 0 268 205l37 -14q-26 -83 -78.5 -156z" />
<glyph unicode="&#xaa;" horiz-adv-x="1090" d="M1096 979l-27 -74q-31 -88 -91 -128t-149 -40q-150 0 -150 133q0 32 9 74q-60 -113 -131.5 -160t-155.5 -47q-95 0 -146.5 49.5t-51.5 141.5q0 123 79.5 252.5t203.5 214t247 84.5q80 0 85 -74l16 55q152 0 266 19l-176 -557q-11 -31 -11 -51q0 -33 35 -33q61 0 90 90 l19 51h39zM754 1430q-54 0 -120 -74t-112.5 -188.5t-46.5 -229.5q0 -104 49 -104q30 0 69 39t77 106t68 147l65 226q-3 78 -49 78z" />
<glyph unicode="&#xab;" horiz-adv-x="1200" d="M642 887q-72 -113 -152.5 -214t-143.5 -155q41 -50 82 -147t70.5 -206.5t36.5 -193.5h-37q-107 166 -217 298t-242 237l6 24q176 111 338.5 248t333.5 309h37q-40 -87 -112 -200zM1045 856q-64 -104 -135.5 -196.5t-127.5 -141.5q37 -45 73 -134t61.5 -188.5t31.5 -175.5 h-37q-101 154 -201.5 273t-222.5 213l7 24q161 101 307.5 225t304.5 283h37q-34 -78 -98 -182z" />
<glyph unicode="&#xac;" horiz-adv-x="1323" d="M1221 758l-121 -420h-74l102 358h-952l19 62h1026z" />
<glyph unicode="&#xad;" horiz-adv-x="1036" />
<glyph unicode="&#xae;" horiz-adv-x="1403" d="M1101 1525q131 -77 208 -208.5t77 -286.5t-77 -286t-208 -208t-286 -77t-286 77t-208 208t-77 286t77 286.5t208 208.5t286 77t286 -77zM1058.5 592.5q111.5 68.5 176.5 185t65 252.5q0 137 -65 253t-176 184.5t-244 68.5t-244 -68.5t-176 -184.5t-65 -253 q0 -136 65 -252.5t176.5 -185t243.5 -68.5t243.5 68.5zM1055 709q-65 0 -98.5 21t-43.5 67l-30 149q-8 37 -18.5 54.5t-35 26.5t-75.5 12v-212q0 -32 3.5 -47t13 -20.5t30.5 -7.5v-31q-25 0 -58 1t-71 1q-44 0 -79 -1t-56 -1v31q20 2 29.5 7.5t13.5 20.5t4 47v449 q0 33 -4 48.5t-13.5 21.5t-29.5 8v30q28 -2 127 -2q67 0 111 1t65 1q250 0 250 -161q0 -55 -47.5 -102t-163.5 -65q65 -6 102 -20.5t55 -38t25 -61.5l31 -133q5 -26 11 -37.5t19 -11.5q14 0 23 12l16 -21q-30 -36 -106 -36zM918 1210q0 72 -26.5 108t-84.5 36 q-32 0 -42.5 -12t-10.5 -46v-223h24q140 0 140 137z" />
<glyph unicode="&#xaf;" horiz-adv-x="741" d="M211 1407l12 51h688l-12 -51h-688z" />
<glyph unicode="&#xb0;" horiz-adv-x="682" d="M659 1649q57 -30 91 -86t34 -129q0 -75 -34 -131t-91 -86.5t-124 -30.5t-123.5 30.5t-90.5 86.5t-34 131q0 73 34 129t90.5 86t123.5 30t124 -30zM630 1248.5q46 23.5 75.5 71t29.5 114.5q0 64 -29.5 111t-76 71t-94.5 24t-94 -24t-75.5 -71t-29.5 -111q0 -67 29 -114.5 t75 -71t95 -23.5t95 23.5z" />
<glyph unicode="&#xb1;" horiz-adv-x="1266" d="M995 62l-18 -62h-1026l18 62h1026zM778 1241h74l-137 -483h475l-19 -62h-475l-137 -481h-74l138 481h-478l19 62h477z" />
<glyph unicode="&#xb2;" horiz-adv-x="729" d="M420 1500.5q88 43.5 198 43.5q84 0 134.5 -28.5t50.5 -85.5q0 -80 -78.5 -149.5t-188 -137.5t-139.5 -90q23 0 57.5 -5.5t98 -18.5t96.5 -13q38 0 61 15.5t23 45.5q0 21 -8 37l35 14q33 -51 33 -100q0 -61 -49.5 -101t-141.5 -40q-30 0 -59.5 4t-100 17t-127.5 16 q-50 1 -81.5 -4.5t-77.5 -24.5l8 37q18 13 144.5 98t213 177.5t86.5 174.5q0 84 -102 84q-111 0 -203 -98l-29 23q58 66 146 109.5z" />
<glyph unicode="&#xb3;" horiz-adv-x="694" d="M431 1497.5q92 46.5 196 46.5q85 0 136.5 -28t51.5 -82q0 -55 -53 -103t-130.5 -82t-150.5 -49q125 -2 199 -38t74 -113q0 -96 -106.5 -169.5t-263.5 -116t-306 -52.5v37q117 9 227.5 49.5t181 109.5t70.5 158q0 95 -88 106q-39 -20 -66 -20q-36 0 -36 27q0 37 90 34 q75 32 120.5 80t45.5 103q0 38 -24 56.5t-64 18.5q-113 0 -222 -104l-28 25q54 60 146 106.5z" />
<glyph unicode="&#xb4;" horiz-adv-x="457" d="M388 1444q59 100 87 144.5t66 82.5q51 54 111 54q43 0 75 -31q27 -27 27 -62q0 -55 -60 -112q-29 -29 -65.5 -55t-144 -94.5t-203.5 -143.5l-21 20q69 97 128 197z" />
<glyph unicode="&#xb6;" horiz-adv-x="1450" d="M900.5 -242.5q-145.5 -142.5 -400.5 -142.5q-130 0 -208.5 37t-78.5 117q0 43 21.5 79t61.5 57t93 21q67 0 109.5 -30.5t42.5 -83.5q0 -98 -109 -156q19 -6 57 -6q61 0 103.5 35.5t74.5 104t66 183.5q-339 0 -495 131t-156 365q0 268 128.5 493.5t349.5 357.5t487 132 q71 0 192 -3t176 -3q133 0 197 4l-10 -39q-66 -3 -104 -18.5t-58 -44t-33 -76.5l-293 -1116q-68 -256 -213.5 -398.5zM786 355q-20 -150 -20 -224q0 -33 4 -33q52 193 192 716.5t142 528.5q-8 0 -48.5 -85t-92 -218.5t-95.5 -277.5q-141 0 -270.5 -8.5t-213.5 -19t-85 -15.5 q-1 -6 75.5 -16t202.5 -17.5t269 -7.5q-40 -173 -60 -323z" />
<glyph unicode="&#xb7;" horiz-adv-x="592" d="M137.5 605q26.5 44 72.5 69t100 25q64 0 100.5 -32.5t36.5 -89.5q0 -50 -26.5 -95t-72.5 -72t-100 -27q-65 0 -101 33t-36 91q0 54 26.5 98z" />
<glyph unicode="&#xb8;" horiz-adv-x="467" d="M303 -121q55 0 89 -22.5t34 -63.5q0 -61 -49.5 -101t-126 -58.5t-160.5 -18.5q-58 0 -107.5 12.5t-74.5 28.5l12 31q5 -2 25 -8t46 -10.5t54 -4.5q54 0 107 21t53 73q0 22 -16 34.5t-42 12.5q-35 0 -63 -14l139 209h60l-90 -141q60 20 110 20z" />
<glyph unicode="&#xb9;" horiz-adv-x="549" d="M287 895l155 479q-15 -6 -55.5 -22.5t-81 -29.5t-86.5 -24l10 39q103 28 179 61.5t124 64t117 79.5h39l-207 -647h-194z" />
<glyph unicode="&#xba;" horiz-adv-x="1006" d="M277 1205q62 115 180 194.5t278 79.5q151 0 236.5 -63t85.5 -189q0 -101 -61.5 -215.5t-179.5 -193.5t-279 -79q-151 0 -236.5 63t-85.5 187q0 101 62 216zM606 1357q-59 -85 -96 -213.5t-37 -248.5q0 -119 74 -119q61 0 119.5 84.5t95.5 212.5t37 250q0 119 -74 119 q-60 0 -119 -85z" />
<glyph unicode="&#xbb;" horiz-adv-x="1198" d="M882.5 786.5q109.5 -131.5 241.5 -235.5l-6 -25q-179 -111 -342 -247.5t-332 -307.5h-36q39 87 111 200.5t152.5 214.5t143.5 153q-41 50 -82 147.5t-70 207.5t-36 193h37q109 -169 218.5 -300.5zM454 763q100 -119 220 -212l-6 -25q-163 -101 -310.5 -225t-300.5 -281 h-37q33 79 96.5 182t134.5 195.5t126 141.5q-36 46 -71.5 135.5t-61 189t-31.5 174.5h37q104 -156 204 -275z" />
<glyph unicode="&#xbc;" horiz-adv-x="1368" d="M-201 -113l-31 27l1706 1774l31 -27zM287 895l155 479q-15 -6 -55.5 -22.5t-81 -29.5t-86.5 -24l10 39q103 28 179 61.5t124 64t117 79.5h39l-207 -647h-194zM959 137l-35 -121h-107l-55 -190h-156l55 190h-397l11 37l688 596h39l-149 -512h106zM786 446l-359 -309h270z " />
<glyph unicode="&#xbd;" horiz-adv-x="1272" d="M-201 -113l-31 27l1706 1774l31 -27zM287 895l155 479q-15 -6 -55.5 -22.5t-81 -29.5t-86.5 -24l10 39q103 28 179 61.5t124 64t117 79.5h39l-207 -647h-194zM743 605.5q88 43.5 198 43.5q84 0 134.5 -28.5t50.5 -85.5q0 -80 -78.5 -149.5t-188 -137.5t-139.5 -90 q23 0 57.5 -5.5t98 -18.5t96.5 -13q38 0 61 15.5t23 45.5q0 21 -8 37l35 14q33 -51 33 -100q0 -61 -49.5 -101t-141.5 -40q-30 0 -59.5 4t-100 17t-127.5 16q-50 1 -81.5 -4.5t-77.5 -24.5l8 37q18 13 144.5 98t213 177.5t86.5 174.5q0 84 -102 84q-111 0 -203 -98l-29 23 q58 66 146 109.5z" />
<glyph unicode="&#xbe;" horiz-adv-x="1536" d="M4 -113l-31 27l1706 1774l31 -27zM431 1497.5q92 46.5 196 46.5q85 0 136.5 -28t51.5 -82q0 -55 -53 -103t-130.5 -82t-150.5 -49q125 -2 199 -38t74 -113q0 -96 -106.5 -169.5t-263.5 -116t-306 -52.5v37q117 9 227.5 49.5t181 109.5t70.5 158q0 95 -88 106 q-39 -20 -66 -20q-36 0 -36 27q0 37 90 34q75 32 120.5 80t45.5 103q0 38 -24 56.5t-64 18.5q-113 0 -222 -104l-28 25q54 60 146 106.5zM1164 137l-35 -121h-107l-55 -190h-156l55 190h-397l11 37l688 596h39l-149 -512h106zM991 446l-359 -309h270z" />
<glyph unicode="&#xbf;" horiz-adv-x="999" d="M454.5 993q26.5 44 72.5 69t100 25q64 0 100.5 -32.5t36.5 -89.5q0 -50 -26.5 -95t-72.5 -72t-100 -27q-65 0 -101 33t-36 91q0 54 26.5 98zM484 -327q53 13 77 38q-50 6 -86.5 43.5t-36.5 87.5q1 38 22.5 68.5t57 47.5t76.5 17q58 0 96.5 -33t38.5 -94 q0 -79 -64.5 -131.5t-165 -77t-208.5 -24.5q-115 0 -201 27t-133 79t-47 123q0 60 32 109.5t97 100.5t190 134q113 79 161 116.5t77 80t29 96.5q0 53 -34 89t-102 36q-45 0 -90 -13.5t-65 -35.5q25 -1 48.5 -15.5t38.5 -39t15 -53.5q0 -50 -40 -84.5t-101 -34.5 q-51 0 -82 26t-31 78q0 73 62 121.5t154 71t182 22.5q96 0 172.5 -25t120.5 -73t44 -115q0 -65 -41.5 -122.5t-100 -103t-169.5 -122.5q-104 -69 -157.5 -111.5t-81 -84.5t-27.5 -93q0 -65 46.5 -102t125.5 -37q48 0 101 13z" />
<glyph unicode="&#xc0;" horiz-adv-x="1337" d="M1126 74q29 -31 66 -33l-8 -41q-105 6 -297 6q-209 0 -307 -6l8 41q66 3 103 15.5t55.5 43t18.5 87.5q0 17 -1 26l-17 336h-443l-181 -256q-65 -92 -65 -151q0 -93 171 -101l-10 -41q-172 6 -266 6q-76 0 -141 -6l8 41q52 14 103 61t128 156l854 1202q27 -3 54 -3 q29 0 51 3l82 -1288q5 -67 34 -98zM716 1133l-383 -543h411zM862.5 1657q-83.5 29 -125 44.5t-75.5 37.5q-29 18 -47 46.5t-18 58.5q0 25 14 50q30 50 93 50q43 0 77 -23q29 -17 52 -42.5t87 -110t148 -166.5l-17 -23q-105 49 -188.5 78z" />
<glyph unicode="&#xc1;" horiz-adv-x="1337" d="M1126 74q29 -31 66 -33l-8 -41q-105 6 -297 6q-209 0 -307 -6l8 41q66 3 103 15.5t55.5 43t18.5 87.5q0 17 -1 26l-17 336h-443l-181 -256q-65 -92 -65 -151q0 -93 171 -101l-10 -41q-172 6 -266 6q-76 0 -141 -6l8 41q52 14 103 61t128 156l854 1202q27 -3 54 -3 q29 0 51 3l82 -1288q5 -67 34 -98zM716 1133l-383 -543h411zM1006.5 1759.5q84.5 79.5 123.5 114.5t87 61q41 23 88 23q71 0 98 -55q11 -22 11 -42q0 -65 -92 -116q-36 -20 -78.5 -34.5t-165 -49.5t-236.5 -80l-14 25q94 74 178.5 153.5z" />
<glyph unicode="&#xc2;" horiz-adv-x="1337" d="M1126 74q29 -31 66 -33l-8 -41q-105 6 -297 6q-209 0 -307 -6l8 41q66 3 103 15.5t55.5 43t18.5 87.5q0 17 -1 26l-17 336h-443l-181 -256q-65 -92 -65 -151q0 -93 171 -101l-10 -41q-172 6 -266 6q-76 0 -141 -6l8 41q52 14 103 61t128 156l854 1202q27 -3 54 -3 q29 0 51 3l82 -1288q5 -67 34 -98zM716 1133l-383 -543h411zM1161.5 1629q-88.5 28 -191.5 71q-214 -77 -445 -121l-10 29q169 53 317 138t238 179h37q48 -115 111.5 -190t172.5 -127l-8 -29q-133 22 -221.5 50z" />
<glyph unicode="&#xc3;" horiz-adv-x="1337" d="M1126 74q29 -31 66 -33l-8 -41q-105 6 -297 6q-209 0 -307 -6l8 41q66 3 103 15.5t55.5 43t18.5 87.5q0 17 -1 26l-17 336h-443l-181 -256q-65 -92 -65 -151q0 -93 171 -101l-10 -41q-172 6 -266 6q-76 0 -141 -6l8 41q52 14 103 61t128 156l854 1202q27 -3 54 -3 q29 0 51 3l82 -1288q5 -67 34 -98zM716 1133l-383 -543h411zM698.5 1828q91.5 70 193.5 70q73 0 121.5 -21t123 -74.5t144.5 -53.5q44 0 82.5 28t75.5 91l37 -10q-55 -144 -146.5 -214.5t-193.5 -70.5q-72 0 -120 21t-123.5 74.5t-145.5 53.5q-45 0 -83 -27.5t-75 -90.5 l-37 10q55 144 146.5 214z" />
<glyph unicode="&#xc4;" horiz-adv-x="1337" d="M1126 74q29 -31 66 -33l-8 -41q-105 6 -297 6q-209 0 -307 -6l8 41q66 3 103 15.5t55.5 43t18.5 87.5q0 17 -1 26l-17 336h-443l-181 -256q-65 -92 -65 -151q0 -93 171 -101l-10 -41q-172 6 -266 6q-76 0 -141 -6l8 41q52 14 103 61t128 156l854 1202q27 -3 54 -3 q29 0 51 3l82 -1288q5 -67 34 -98zM716 1133l-383 -543h411zM598.5 1796.5q24.5 39.5 64.5 60.5t87 21q64 0 98.5 -37.5t34.5 -99.5q0 -54 -25 -93t-66 -59t-87 -20q-65 0 -98 36.5t-33 98.5q0 53 24.5 92.5zM1088.5 1796.5q24.5 39.5 64.5 60.5t87 21q64 0 98.5 -37.5 t34.5 -99.5q0 -54 -25 -93t-65.5 -59t-85.5 -20q-66 0 -99.5 36.5t-33.5 98.5q0 53 24.5 92.5z" />
<glyph unicode="&#xc5;" horiz-adv-x="1337" d="M1126 74q29 -31 66 -33l-8 -41q-105 6 -297 6q-209 0 -307 -6l8 41q66 3 103 15.5t55.5 43t18.5 87.5q0 17 -1 26l-17 336h-443l-181 -256q-65 -92 -65 -151q0 -93 171 -101l-10 -41q-172 6 -266 6q-76 0 -141 -6l8 41q52 14 103 61t128 156l854 1202q27 -3 54 -3 q29 0 51 3l82 -1288q5 -67 34 -98zM716 1133l-383 -543h411zM1124 1897.5q46 -21.5 72 -61t26 -91.5q0 -61 -35.5 -112.5t-94 -82t-124.5 -30.5q-85 0 -140 47.5t-55 128.5q0 62 33.5 113t90 80.5t124.5 29.5q57 0 103 -21.5zM1069.5 1586.5q44.5 23.5 71.5 65t27 91.5 q0 43 -22 73t-57.5 45t-73.5 15q-49 0 -92.5 -25t-69 -67t-25.5 -88q0 -42 21 -72t55 -45.5t72 -15.5q49 0 93.5 23.5z" />
<glyph unicode="&#xc6;" horiz-adv-x="1853" d="M1349.5 1444h176.5q295 0 424 6q-32 -89 -78 -242q-19 -68 -27 -127h-45q15 85 15 145q0 96 -42.5 136.5t-138.5 40.5h-129q-71 0 -106.5 -12t-57 -46.5t-41.5 -111.5l-128 -483h159q58 0 96.5 30.5t62 76t52.5 122.5h45q-28 -85 -45 -154.5t-24 -95.5q-22 -75 -54 -250 h-45q0 20 5.5 63t5.5 64q0 45 -23 72t-84 31h-162l-131 -492q-17 -66 -17 -99q0 -30 13.5 -45t41.5 -20.5t79 -5.5h149q99 0 162.5 34t110 111t94.5 218h45q-19 -50 -43 -148q-35 -127 -53 -262q-139 6 -463 6q-440 0 -664 -6l9 41q74 3 110.5 16t58.5 48t42 112l131 492 h-328l-438 -516q-59 -67 -59 -97q0 -45 126 -55v-41q-56 6 -176 6q-88 0 -137 -6v41q63 3 176 131l992 1168q-3 39 -33.5 52.5t-104.5 16.5l10 41q93 -3 218 -4l116 137h53l-117 -138q115 -1 215.5 -1zM975 1233l9 35l-441 -518h304z" />
<glyph unicode="&#xc7;" horiz-adv-x="1419" d="M1397 979h-45q15 89 15 160q0 96 -34 157q-72 134 -241 134q-164 0 -312 -144t-237.5 -374.5t-89.5 -473.5q0 -203 72.5 -304t203.5 -101q78 0 162 35.5t145 99.5q54 56 93.5 127.5t91.5 196.5h45q-97 -355 -121 -492h-45q6 44 6 70q0 52 -26 52q-16 0 -42 -18 q-93 -64 -188 -98.5t-213 -34.5q-274 0 -411.5 131t-137.5 377q0 242 128 474t353 379t498 147q80 0 137 -18t94.5 -46t73.5 -69q15 -18 30 -18q38 0 83 122h43q-68 -177 -131 -471zM734 -109q63 0 100 -25t37 -73q0 -61 -51 -101t-130.5 -58.5t-164.5 -18.5 q-70 0 -130 12.5t-95 28.5l12 31q96 -23 166 -23q68 0 126 20.5t58 73.5q0 47 -65 47q-34 0 -72 -14l100 221h56l-66 -141q58 20 119 20z" />
<glyph unicode="&#xc8;" horiz-adv-x="1282" d="M958 1444q291 0 416 6q-54 -147 -78 -242q-11 -46 -26 -127h-45q3 39 3 73q0 93 -22.5 147t-72 78t-134.5 24h-63q-72 0 -108 -12t-57.5 -46.5t-41.5 -111.5l-128 -483h75q102 0 171 71.5t109 173.5h48q-24 -70 -37.5 -118t-23.5 -88.5t-15 -59.5q-25 -91 -60 -266h-45 q2 28 2 44q0 202 -172 202h-63l-131 -492q-19 -68 -19 -100q0 -29 13.5 -44t42 -20.5t79.5 -5.5h76q112 0 187.5 34.5t135 112t120.5 216.5h47q-22 -54 -45 -148q-32 -108 -54 -262q-139 6 -464 6q-443 0 -666 -6l10 41q74 3 110 16t58 48t43 112l270 1016q17 65 17 99 q0 30 -13.5 46t-42 22.5t-81.5 8.5l10 41q223 -6 665 -6zM779.5 1657q-83.5 29 -125 44.5t-75.5 37.5q-29 18 -47 46.5t-18 58.5q0 25 14 50q30 50 93 50q43 0 77 -23q29 -17 52 -42.5t87 -110t148 -166.5l-17 -23q-105 49 -188.5 78z" />
<glyph unicode="&#xc9;" horiz-adv-x="1282" d="M958 1444q291 0 416 6q-54 -147 -78 -242q-11 -46 -26 -127h-45q3 39 3 73q0 93 -22.5 147t-72 78t-134.5 24h-63q-72 0 -108 -12t-57.5 -46.5t-41.5 -111.5l-128 -483h75q102 0 171 71.5t109 173.5h48q-24 -70 -37.5 -118t-23.5 -88.5t-15 -59.5q-25 -91 -60 -266h-45 q2 28 2 44q0 202 -172 202h-63l-131 -492q-19 -68 -19 -100q0 -29 13.5 -44t42 -20.5t79.5 -5.5h76q112 0 187.5 34.5t135 112t120.5 216.5h47q-22 -54 -45 -148q-32 -108 -54 -262q-139 6 -464 6q-443 0 -666 -6l10 41q74 3 110 16t58 48t43 112l270 1016q17 65 17 99 q0 30 -13.5 46t-42 22.5t-81.5 8.5l10 41q223 -6 665 -6zM923.5 1759.5q84.5 79.5 123.5 114.5t87 61q41 23 88 23q71 0 98 -55q11 -22 11 -42q0 -65 -92 -116q-36 -20 -78.5 -34.5t-165 -49.5t-236.5 -80l-14 25q94 74 178.5 153.5z" />
<glyph unicode="&#xca;" horiz-adv-x="1282" d="M958 1444q291 0 416 6q-54 -147 -78 -242q-11 -46 -26 -127h-45q3 39 3 73q0 93 -22.5 147t-72 78t-134.5 24h-63q-72 0 -108 -12t-57.5 -46.5t-41.5 -111.5l-128 -483h75q102 0 171 71.5t109 173.5h48q-24 -70 -37.5 -118t-23.5 -88.5t-15 -59.5q-25 -91 -60 -266h-45 q2 28 2 44q0 202 -172 202h-63l-131 -492q-19 -68 -19 -100q0 -29 13.5 -44t42 -20.5t79.5 -5.5h76q112 0 187.5 34.5t135 112t120.5 216.5h47q-22 -54 -45 -148q-32 -108 -54 -262q-139 6 -464 6q-443 0 -666 -6l10 41q74 3 110 16t58 48t43 112l270 1016q17 65 17 99 q0 30 -13.5 46t-42 22.5t-81.5 8.5l10 41q223 -6 665 -6zM1078.5 1629q-88.5 28 -191.5 71q-214 -77 -445 -121l-10 29q169 53 317 138t238 179h37q48 -115 111.5 -190t172.5 -127l-8 -29q-133 22 -221.5 50z" />
<glyph unicode="&#xcb;" horiz-adv-x="1282" d="M958 1444q291 0 416 6q-54 -147 -78 -242q-11 -46 -26 -127h-45q3 39 3 73q0 93 -22.5 147t-72 78t-134.5 24h-63q-72 0 -108 -12t-57.5 -46.5t-41.5 -111.5l-128 -483h75q102 0 171 71.5t109 173.5h48q-24 -70 -37.5 -118t-23.5 -88.5t-15 -59.5q-25 -91 -60 -266h-45 q2 28 2 44q0 202 -172 202h-63l-131 -492q-19 -68 -19 -100q0 -29 13.5 -44t42 -20.5t79.5 -5.5h76q112 0 187.5 34.5t135 112t120.5 216.5h47q-22 -54 -45 -148q-32 -108 -54 -262q-139 6 -464 6q-443 0 -666 -6l10 41q74 3 110 16t58 48t43 112l270 1016q17 65 17 99 q0 30 -13.5 46t-42 22.5t-81.5 8.5l10 41q223 -6 665 -6zM515.5 1796.5q24.5 39.5 64.5 60.5t87 21q64 0 98.5 -37.5t34.5 -99.5q0 -54 -25 -93t-66 -59t-87 -20q-65 0 -98 36.5t-33 98.5q0 53 24.5 92.5zM1005.5 1796.5q24.5 39.5 64.5 60.5t87 21q64 0 98.5 -37.5 t34.5 -99.5q0 -54 -25 -93t-65.5 -59t-85.5 -20q-66 0 -99.5 36.5t-33.5 98.5q0 53 24.5 92.5z" />
<glyph unicode="&#xcc;" d="M441 117q0 -30 13.5 -45.5t42.5 -22t83 -8.5l-9 -41q-118 6 -333 6q-214 0 -322 -6l10 41q71 3 107 16t58 48.5t42 111.5l270 1016q17 65 17 99q0 30 -13.5 46t-42 22.5t-81.5 8.5l10 41q101 -6 321 -6q204 0 336 6l-10 -41q-75 -3 -111.5 -16t-58 -48t-41.5 -112 l-270 -1016q-18 -70 -18 -100zM576.5 1657q-83.5 29 -125 44.5t-75.5 37.5q-29 18 -47 46.5t-18 58.5q0 25 14 50q30 50 93 50q43 0 77 -23q29 -17 52 -42.5t87 -110t148 -166.5l-17 -23q-105 49 -188.5 78z" />
<glyph unicode="&#xcd;" d="M441 117q0 -30 13.5 -45.5t42.5 -22t83 -8.5l-9 -41q-118 6 -333 6q-214 0 -322 -6l10 41q71 3 107 16t58 48.5t42 111.5l270 1016q17 65 17 99q0 30 -13.5 46t-42 22.5t-81.5 8.5l10 41q101 -6 321 -6q204 0 336 6l-10 -41q-75 -3 -111.5 -16t-58 -48t-41.5 -112 l-270 -1016q-18 -70 -18 -100zM720.5 1759.5q84.5 79.5 123.5 114.5t87 61q41 23 88 23q71 0 98 -55q11 -22 11 -42q0 -65 -92 -116q-36 -20 -78.5 -34.5t-165 -49.5t-236.5 -80l-14 25q94 74 178.5 153.5z" />
<glyph unicode="&#xce;" d="M441 117q0 -30 13.5 -45.5t42.5 -22t83 -8.5l-9 -41q-118 6 -333 6q-214 0 -322 -6l10 41q71 3 107 16t58 48.5t42 111.5l270 1016q17 65 17 99q0 30 -13.5 46t-42 22.5t-81.5 8.5l10 41q101 -6 321 -6q204 0 336 6l-10 -41q-75 -3 -111.5 -16t-58 -48t-41.5 -112 l-270 -1016q-18 -70 -18 -100zM875.5 1629q-88.5 28 -191.5 71q-214 -77 -445 -121l-10 29q169 53 317 138t238 179h37q48 -115 111.5 -190t172.5 -127l-8 -29q-133 22 -221.5 50z" />
<glyph unicode="&#xcf;" d="M441 117q0 -30 13.5 -45.5t42.5 -22t83 -8.5l-9 -41q-118 6 -333 6q-214 0 -322 -6l10 41q71 3 107 16t58 48.5t42 111.5l270 1016q17 65 17 99q0 30 -13.5 46t-42 22.5t-81.5 8.5l10 41q101 -6 321 -6q204 0 336 6l-10 -41q-75 -3 -111.5 -16t-58 -48t-41.5 -112 l-270 -1016q-18 -70 -18 -100zM312.5 1796.5q24.5 39.5 64.5 60.5t87 21q64 0 98.5 -37.5t34.5 -99.5q0 -54 -25 -93t-66 -59t-87 -20q-65 0 -98 36.5t-33 98.5q0 53 24.5 92.5zM802.5 1796.5q24.5 39.5 64.5 60.5t87 21q64 0 98.5 -37.5t34.5 -99.5q0 -54 -25 -93 t-65.5 -59t-85.5 -20q-66 0 -99.5 36.5t-33.5 98.5q0 53 24.5 92.5z" />
<glyph unicode="&#xd0;" horiz-adv-x="1579" d="M560 1443l65 1q213 6 305 6q300 0 459 -124t159 -365q0 -235 -114.5 -456.5t-343 -363t-551.5 -141.5q-46 0 -138 3t-172 3q-199 0 -307 -6l6 41q70 3 105.5 16t57.5 48.5t42 111.5l268 1016q16 64 16 89q0 43 -30 63.5t-104 23.5l6 41q145 -7 271 -7zM436 100 q0 -34 23 -48.5t80 -14.5q208 0 362.5 145t235 373.5t80.5 470.5q0 193 -79.5 290t-252.5 97q-53 0 -79 -13t-42 -47.5t-37 -115.5l-268 -1024q-23 -87 -23 -113zM156 707l12 52h820l-13 -52h-819z" />
<glyph unicode="&#xd1;" horiz-adv-x="1690" d="M1495 1413q90 131 221 131q61 0 105 -23t67 -62.5t23 -88.5q0 -52 -24 -94.5t-67 -67t-96 -24.5q-67 0 -104 33.5t-37 89.5q0 67 43.5 118t110.5 72q-8 8 -33 8q-98 0 -172 -108q-91 -136 -189 -477t-223 -930h-45l-508 1112q-88 -435 -167 -732t-152 -393 q-45 -60 -95.5 -94.5t-123.5 -34.5q-61 0 -104.5 23t-66 63t-22.5 89q0 52 24 94.5t66.5 67t96.5 24.5q66 0 103.5 -34t37.5 -89q0 -67 -44 -118.5t-112 -71.5q10 -9 35 -9q105 0 172 111q77 120 158.5 431t177.5 802v2q13 62 13 92q0 33 -14.5 50.5t-47.5 24.5t-96 9l10 41 q65 -6 182 -6q95 0 166 6l424 -972q171 738 307 935zM860.5 1828q91.5 70 193.5 70q73 0 121.5 -21t123 -74.5t144.5 -53.5q44 0 82.5 28t75.5 91l37 -10q-55 -144 -146.5 -214.5t-193.5 -70.5q-72 0 -120 21t-123.5 74.5t-145.5 53.5q-45 0 -83 -27.5t-75 -90.5l-37 10 q55 144 146.5 214z" />
<glyph unicode="&#xd2;" horiz-adv-x="1591" d="M204.5 932q118.5 237 330.5 392t479 155q174 0 299 -58t191.5 -169t66.5 -267q0 -231 -119 -467.5t-332 -391.5t-479 -155q-173 0 -298 58t-191 168.5t-66 265.5q0 232 118.5 469zM726.5 1294.5q-129.5 -147.5 -209 -381.5t-79.5 -477q0 -131 28 -228t78 -148.5 t115 -51.5q140 0 269 147.5t209 381.5t80 477q0 131 -28.5 228t-78.5 148.5t-115 51.5q-139 0 -268.5 -147.5zM970.5 1657q-83.5 29 -125 44.5t-75.5 37.5q-29 18 -47 46.5t-18 58.5q0 25 14 50q30 50 93 50q43 0 77 -23q29 -17 52 -42.5t87 -110t148 -166.5l-17 -23 q-105 49 -188.5 78z" />
<glyph unicode="&#xd3;" horiz-adv-x="1591" d="M204.5 932q118.5 237 330.5 392t479 155q174 0 299 -58t191.5 -169t66.5 -267q0 -231 -119 -467.5t-332 -391.5t-479 -155q-173 0 -298 58t-191 168.5t-66 265.5q0 232 118.5 469zM726.5 1294.5q-129.5 -147.5 -209 -381.5t-79.5 -477q0 -131 28 -228t78 -148.5 t115 -51.5q140 0 269 147.5t209 381.5t80 477q0 131 -28.5 228t-78.5 148.5t-115 51.5q-139 0 -268.5 -147.5zM1114.5 1759.5q84.5 79.5 123.5 114.5t87 61q41 23 88 23q71 0 98 -55q11 -22 11 -42q0 -65 -92 -116q-36 -20 -78.5 -34.5t-165 -49.5t-236.5 -80l-14 25 q94 74 178.5 153.5z" />
<glyph unicode="&#xd4;" horiz-adv-x="1591" d="M204.5 932q118.5 237 330.5 392t479 155q174 0 299 -58t191.5 -169t66.5 -267q0 -231 -119 -467.5t-332 -391.5t-479 -155q-173 0 -298 58t-191 168.5t-66 265.5q0 232 118.5 469zM726.5 1294.5q-129.5 -147.5 -209 -381.5t-79.5 -477q0 -131 28 -228t78 -148.5 t115 -51.5q140 0 269 147.5t209 381.5t80 477q0 131 -28.5 228t-78.5 148.5t-115 51.5q-139 0 -268.5 -147.5zM1269.5 1629q-88.5 28 -191.5 71q-214 -77 -445 -121l-10 29q169 53 317 138t238 179h37q48 -115 111.5 -190t172.5 -127l-8 -29q-133 22 -221.5 50z" />
<glyph unicode="&#xd5;" horiz-adv-x="1591" d="M204.5 932q118.5 237 330.5 392t479 155q174 0 299 -58t191.5 -169t66.5 -267q0 -231 -119 -467.5t-332 -391.5t-479 -155q-173 0 -298 58t-191 168.5t-66 265.5q0 232 118.5 469zM726.5 1294.5q-129.5 -147.5 -209 -381.5t-79.5 -477q0 -131 28 -228t78 -148.5 t115 -51.5q140 0 269 147.5t209 381.5t80 477q0 131 -28.5 228t-78.5 148.5t-115 51.5q-139 0 -268.5 -147.5zM806.5 1828q91.5 70 193.5 70q73 0 121.5 -21t123 -74.5t144.5 -53.5q44 0 82.5 28t75.5 91l37 -10q-55 -144 -146.5 -214.5t-193.5 -70.5q-72 0 -120 21 t-123.5 74.5t-145.5 53.5q-45 0 -83 -27.5t-75 -90.5l-37 10q55 144 146.5 214z" />
<glyph unicode="&#xd6;" horiz-adv-x="1591" d="M204.5 932q118.5 237 330.5 392t479 155q174 0 299 -58t191.5 -169t66.5 -267q0 -231 -119 -467.5t-332 -391.5t-479 -155q-173 0 -298 58t-191 168.5t-66 265.5q0 232 118.5 469zM726.5 1294.5q-129.5 -147.5 -209 -381.5t-79.5 -477q0 -131 28 -228t78 -148.5 t115 -51.5q140 0 269 147.5t209 381.5t80 477q0 131 -28.5 228t-78.5 148.5t-115 51.5q-139 0 -268.5 -147.5zM706.5 1796.5q24.5 39.5 64.5 60.5t87 21q64 0 98.5 -37.5t34.5 -99.5q0 -54 -25 -93t-66 -59t-87 -20q-65 0 -98 36.5t-33 98.5q0 53 24.5 92.5zM1196.5 1796.5 q24.5 39.5 64.5 60.5t87 21q64 0 98.5 -37.5t34.5 -99.5q0 -54 -25 -93t-65.5 -59t-85.5 -20q-66 0 -99.5 36.5t-33.5 98.5q0 53 24.5 92.5z" />
<glyph unicode="&#xd7;" horiz-adv-x="1016" d="M240 1085l53 37l252 -358l465 362l32 -45l-464 -360l256 -354l-52 -37l-254 354l-458 -356l-31 45l457 354z" />
<glyph unicode="&#xd8;" horiz-adv-x="1591" d="M1571 985q0 -231 -119 -467.5t-332 -391.5t-479 -155q-243 0 -388 112l-224 -233l-35 29l226 233q-134 129 -134 351q0 232 118.5 469t330.5 392t479 155q247 0 392 -115l210 219l31 -27l-209 -220q133 -129 133 -351zM1127.5 1370.5q-55.5 71.5 -132.5 71.5 q-139 0 -268.5 -147.5t-209 -381.5t-79.5 -477q0 -71 9 -133l758 867q-22 129 -77.5 200.5zM534.5 70.5q53.5 -62.5 124.5 -62.5q140 0 269 147.5t209 381.5t80 477q0 52 -5 100l-756 -867q25 -114 78.5 -176.5z" />
<glyph unicode="&#xd9;" horiz-adv-x="1421" d="M1349 1289q0 59 -35 85t-120 35l10 41q77 -6 219 -6q114 0 181 6l-11 -41q-69 -9 -108 -34.5t-64.5 -78.5t-52.5 -157l-139 -543q-73 -283 -201 -434q-75 -88 -185 -139.5t-235 -51.5q-150 0 -250 42.5t-149 119.5q-55 77 -55 191q0 102 45 266l170 643q17 65 17 98 q0 31 -14 47t-42.5 22.5t-81.5 8.5l12 41q105 -6 338 -6q191 0 317 6l-12 -41q-75 -3 -111.5 -16t-58 -48t-41.5 -112l-180 -678q-49 -184 -49 -298q0 -108 44.5 -161t139.5 -53q215 0 339 139.5t190 390.5l141 541q32 122 32 175zM905.5 1657q-83.5 29 -125 44.5 t-75.5 37.5q-29 18 -47 46.5t-18 58.5q0 25 14 50q30 50 93 50q43 0 77 -23q29 -17 52 -42.5t87 -110t148 -166.5l-17 -23q-105 49 -188.5 78z" />
<glyph unicode="&#xda;" horiz-adv-x="1421" d="M1349 1289q0 59 -35 85t-120 35l10 41q77 -6 219 -6q114 0 181 6l-11 -41q-69 -9 -108 -34.5t-64.5 -78.5t-52.5 -157l-139 -543q-73 -283 -201 -434q-75 -88 -185 -139.5t-235 -51.5q-150 0 -250 42.5t-149 119.5q-55 77 -55 191q0 102 45 266l170 643q17 65 17 98 q0 31 -14 47t-42.5 22.5t-81.5 8.5l12 41q105 -6 338 -6q191 0 317 6l-12 -41q-75 -3 -111.5 -16t-58 -48t-41.5 -112l-180 -678q-49 -184 -49 -298q0 -108 44.5 -161t139.5 -53q215 0 339 139.5t190 390.5l141 541q32 122 32 175zM1049.5 1759.5q84.5 79.5 123.5 114.5 t87 61q41 23 88 23q71 0 98 -55q11 -22 11 -42q0 -65 -92 -116q-36 -20 -78.5 -34.5t-165 -49.5t-236.5 -80l-14 25q94 74 178.5 153.5z" />
<glyph unicode="&#xdb;" horiz-adv-x="1421" d="M1349 1289q0 59 -35 85t-120 35l10 41q77 -6 219 -6q114 0 181 6l-11 -41q-69 -9 -108 -34.5t-64.5 -78.5t-52.5 -157l-139 -543q-73 -283 -201 -434q-75 -88 -185 -139.5t-235 -51.5q-150 0 -250 42.5t-149 119.5q-55 77 -55 191q0 102 45 266l170 643q17 65 17 98 q0 31 -14 47t-42.5 22.5t-81.5 8.5l12 41q105 -6 338 -6q191 0 317 6l-12 -41q-75 -3 -111.5 -16t-58 -48t-41.5 -112l-180 -678q-49 -184 -49 -298q0 -108 44.5 -161t139.5 -53q215 0 339 139.5t190 390.5l141 541q32 122 32 175zM1204.5 1629q-88.5 28 -191.5 71 q-214 -77 -445 -121l-10 29q169 53 317 138t238 179h37q48 -115 111.5 -190t172.5 -127l-8 -29q-133 22 -221.5 50z" />
<glyph unicode="&#xdc;" horiz-adv-x="1421" d="M1349 1289q0 59 -35 85t-120 35l10 41q77 -6 219 -6q114 0 181 6l-11 -41q-69 -9 -108 -34.5t-64.5 -78.5t-52.5 -157l-139 -543q-73 -283 -201 -434q-75 -88 -185 -139.5t-235 -51.5q-150 0 -250 42.5t-149 119.5q-55 77 -55 191q0 102 45 266l170 643q17 65 17 98 q0 31 -14 47t-42.5 22.5t-81.5 8.5l12 41q105 -6 338 -6q191 0 317 6l-12 -41q-75 -3 -111.5 -16t-58 -48t-41.5 -112l-180 -678q-49 -184 -49 -298q0 -108 44.5 -161t139.5 -53q215 0 339 139.5t190 390.5l141 541q32 122 32 175zM641.5 1796.5q24.5 39.5 64.5 60.5t87 21 q64 0 98.5 -37.5t34.5 -99.5q0 -54 -25 -93t-66 -59t-87 -20q-65 0 -98 36.5t-33 98.5q0 53 24.5 92.5zM1131.5 1796.5q24.5 39.5 64.5 60.5t87 21q64 0 98.5 -37.5t34.5 -99.5q0 -54 -25 -93t-65.5 -59t-85.5 -20q-66 0 -99.5 36.5t-33.5 98.5q0 53 24.5 92.5z" />
<glyph unicode="&#xdd;" horiz-adv-x="1503" d="M332 1427.5q73 51.5 178 51.5q134 0 210 -83.5t114 -235.5t67 -412q135 382 336 604q116 127 242 127q60 0 103 -23.5t65 -64t22 -89.5q0 -51 -24 -93t-66.5 -66.5t-95.5 -24.5q-68 0 -105 34t-37 91q1 67 44.5 117.5t111.5 71.5q-11 8 -35 8q-60 0 -123 -47 q-57 -41 -129.5 -136.5t-149 -243t-141.5 -335.5l-116 -461q-13 -55 -13 -83q0 -37 16.5 -56t49.5 -26.5t92 -10.5l-10 -41q-117 6 -352 6q-222 0 -330 -6l10 41q75 3 112 16t58.5 48.5t40.5 111.5l111 442q-32 279 -89.5 473.5t-146.5 194.5q-36 0 -57.5 -25t-36.5 -71 l-43 -129h-45l51 158q38 116 111 167.5zM1033.5 1759.5q84.5 79.5 123.5 114.5t87 61q41 23 88 23q71 0 98 -55q11 -22 11 -42q0 -65 -92 -116q-36 -20 -78.5 -34.5t-165 -49.5t-236.5 -80l-14 25q94 74 178.5 153.5z" />
<glyph unicode="&#xde;" horiz-adv-x="1354" d="M441 117q0 -30 13.5 -45.5t42.5 -22t83 -8.5l-9 -41q-119 6 -333 6t-322 -6l10 41q71 3 107 16t58 48.5t42 111.5l270 1016q17 65 17 99q0 30 -13.5 46t-42 22.5t-81.5 8.5l10 41q100 -6 321 -6q204 0 336 6l-10 -41q-75 -3 -111.5 -16t-58 -48t-41.5 -112l-22 -82 q110 2 161 2q160 0 267.5 -38t161 -107.5t53.5 -163.5q0 -160 -106.5 -286.5t-299 -198.5t-440.5 -72h-26l-19 -70q-18 -70 -18 -100zM795.5 403.5q108.5 75.5 160.5 200t52 273.5q0 111 -57 174t-167 63q-50 0 -87 -2l-209 -784h36q163 0 271.5 75.5z" />
<glyph unicode="&#xdf;" horiz-adv-x="1245" d="M380 1362q73 120 187.5 180t286.5 60q132 0 217.5 -28.5t124.5 -74.5t39 -100q0 -77 -53.5 -135t-160.5 -135.5t-155 -116.5q-62 -50 -81 -82t-19 -68q0 -59 38 -109t85 -94.5t65 -62.5q60 -59 95 -100.5t56 -88.5t21 -104q0 -105 -59 -180t-157 -113.5t-214 -38.5 q-85 0 -149.5 27t-99.5 76.5t-35 115.5q0 63 33 107.5t85 44.5q57 0 89 -52t32 -122q0 -40 -13 -80.5t-36 -67.5q24 -8 51 -8q43 0 78 25t55.5 70.5t20.5 103.5q0 63 -17.5 123.5t-54.5 134.5q-7 16 -34.5 71.5t-43.5 109t-16 98.5q0 69 30 113t85.5 95.5t77.5 73.5 q65 68 94.5 157.5t29.5 186.5q0 101 -40 149t-103 48q-73 0 -123 -73t-92 -234l-426 -1620q-171 -3 -295 -29l377 1434q51 193 124 313z" />
<glyph unicode="&#xe0;" horiz-adv-x="1143" d="M1053 332l-52 -150q-40 -115 -113 -163t-157 -48q-107 0 -151 64q-28 41 -28 104q0 48 18 122q-130 -290 -343 -290q-113 0 -171 66.5t-58 185.5q0 182 97.5 386t247 341t292.5 137q55 0 89 -32.5t41 -98.5l28 101q163 3 297 30l-269 -913q-10 -35 -10 -56q0 -46 39 -46 q72 0 127 161l37 99h39zM743 908q0 50 -18 77t-51 27q-70 0 -159 -125.5t-151.5 -313.5t-62.5 -364q0 -68 13.5 -97.5t43.5 -29.5q44 0 99 62t109 180.5t96 279.5l-10 -50l89 319q2 12 2 35zM668.5 1338.5q-43.5 46.5 -113.5 116t-97 114.5q-22 37 -22 73q0 58 48 87 q26 14 54 14q33 0 63 -17.5t49 -48.5q20 -32 31.5 -67t37.5 -143.5t71 -225.5l-25 -14q-53 65 -96.5 111.5z" />
<glyph unicode="&#xe1;" horiz-adv-x="1143" d="M1053 332l-52 -150q-40 -115 -113 -163t-157 -48q-107 0 -151 64q-28 41 -28 104q0 48 18 122q-130 -290 -343 -290q-113 0 -171 66.5t-58 185.5q0 182 97.5 386t247 341t292.5 137q55 0 89 -32.5t41 -98.5l28 101q163 3 297 30l-269 -913q-10 -35 -10 -56q0 -46 39 -46 q72 0 127 161l37 99h39zM743 908q0 50 -18 77t-51 27q-70 0 -159 -125.5t-151.5 -313.5t-62.5 -364q0 -68 13.5 -97.5t43.5 -29.5q44 0 99 62t109 180.5t96 279.5l-10 -50l89 319q2 12 2 35zM772 1444q59 100 87 144.5t66 82.5q51 54 111 54q43 0 75 -31q27 -27 27 -62 q0 -55 -60 -112q-29 -29 -65.5 -55t-144 -94.5t-203.5 -143.5l-21 20q69 97 128 197z" />
<glyph unicode="&#xe2;" horiz-adv-x="1143" d="M1053 332l-52 -150q-40 -115 -113 -163t-157 -48q-107 0 -151 64q-28 41 -28 104q0 48 18 122q-130 -290 -343 -290q-113 0 -171 66.5t-58 185.5q0 182 97.5 386t247 341t292.5 137q55 0 89 -32.5t41 -98.5l28 101q163 3 297 30l-269 -913q-10 -35 -10 -56q0 -46 39 -46 q72 0 127 161l37 99h39zM743 908q0 50 -18 77t-51 27q-70 0 -159 -125.5t-151.5 -313.5t-62.5 -364q0 -68 13.5 -97.5t43.5 -29.5q44 0 99 62t109 180.5t96 279.5l-10 -50l89 319q2 12 2 35zM906 1313q-87 36 -167 88q-171 -95 -371 -152l-10 29q148 64 277.5 172t211.5 229 h37q28 -145 84 -238.5t160 -162.5l-8 -29q-127 28 -214 64z" />
<glyph unicode="&#xe3;" horiz-adv-x="1143" d="M1053 332l-52 -150q-40 -115 -113 -163t-157 -48q-107 0 -151 64q-28 41 -28 104q0 48 18 122q-130 -290 -343 -290q-113 0 -171 66.5t-58 185.5q0 182 97.5 386t247 341t292.5 137q55 0 89 -32.5t41 -98.5l28 101q163 3 297 30l-269 -913q-10 -35 -10 -56q0 -46 39 -46 q72 0 127 161l37 99h39zM743 908q0 50 -18 77t-51 27q-70 0 -159 -125.5t-151.5 -313.5t-62.5 -364q0 -68 13.5 -97.5t43.5 -29.5q44 0 99 62t109 180.5t96 279.5l-10 -50l89 319q2 12 2 35zM533 1539.5q84 70.5 178 70.5q59 0 97.5 -21.5t98.5 -75t116 -53.5q41 0 75.5 28 t69.5 91l37 -10q-53 -144 -137 -214.5t-178 -70.5q-59 0 -97.5 21.5t-98.5 75t-116 53.5q-41 0 -75.5 -28t-69.5 -91l-37 10q53 144 137 214.5z" />
<glyph unicode="&#xe4;" horiz-adv-x="1143" d="M1053 332l-52 -150q-40 -115 -113 -163t-157 -48q-107 0 -151 64q-28 41 -28 104q0 48 18 122q-130 -290 -343 -290q-113 0 -171 66.5t-58 185.5q0 182 97.5 386t247 341t292.5 137q55 0 89 -32.5t41 -98.5l28 101q163 3 297 30l-269 -913q-10 -35 -10 -56q0 -46 39 -46 q72 0 127 161l37 99h39zM743 908q0 50 -18 77t-51 27q-70 0 -159 -125.5t-151.5 -313.5t-62.5 -364q0 -68 13.5 -97.5t43.5 -29.5q44 0 99 62t109 180.5t96 279.5l-10 -50l89 319q2 12 2 35zM444 1475.5q25 39.5 65.5 60t87.5 20.5q64 0 99 -37.5t35 -97.5q0 -54 -25.5 -93 t-66.5 -59t-87 -20q-65 0 -99 36.5t-34 98.5q0 52 25 91.5zM910.5 1476q24.5 39 64.5 59.5t87 20.5q64 0 98.5 -37t34.5 -98q0 -54 -25 -93t-66 -59t-87 -20q-64 0 -97.5 37t-33.5 98q0 53 24.5 92z" />
<glyph unicode="&#xe5;" horiz-adv-x="1143" d="M1053 332l-52 -150q-40 -115 -113 -163t-157 -48q-107 0 -151 64q-28 41 -28 104q0 48 18 122q-130 -290 -343 -290q-113 0 -171 66.5t-58 185.5q0 182 97.5 386t247 341t292.5 137q55 0 89 -32.5t41 -98.5l28 101q163 3 297 30l-269 -913q-10 -35 -10 -56q0 -46 39 -46 q72 0 127 161l37 99h39zM743 908q0 50 -18 77t-51 27q-70 0 -159 -125.5t-151.5 -313.5t-62.5 -364q0 -68 13.5 -97.5t43.5 -29.5q44 0 99 62t109 180.5t96 279.5l-10 -50l89 319q2 12 2 35zM945 1610.5q46 -21.5 72.5 -61t26.5 -91.5q0 -61 -35.5 -112.5t-94.5 -82 t-126 -30.5q-84 0 -138.5 47.5t-54.5 128.5q0 62 33.5 113t90 80.5t124.5 29.5q56 0 102 -21.5zM891.5 1300q44.5 24 71.5 65.5t27 90.5q0 43 -22.5 73t-58 45t-72.5 15q-49 0 -92.5 -25t-69 -67t-25.5 -88q0 -42 21 -72t55 -45.5t72 -15.5q49 0 93.5 24z" />
<glyph unicode="&#xe6;" horiz-adv-x="1505" d="M1147 50.5q-124 -79.5 -277 -79.5q-112 0 -193.5 48t-111.5 138q-67 -91 -155.5 -138.5t-188.5 -47.5q-117 0 -175 63.5t-58 180.5q0 182 122.5 379.5t312 329t374.5 131.5q104 0 147 -71q156 103 328 103q103 0 166 -43.5t63 -125.5q0 -116 -95 -212.5t-239 -164.5 t-299 -109q-12 -73 -12 -139q0 -108 40.5 -153.5t117.5 -45.5q63 0 141.5 40t153.5 128l37 -16q-75 -116 -199 -195.5zM1096 965q-72 -84 -133 -218.5t-89 -277.5q156 65 224 123q85 73 131.5 173t46.5 216q0 33 -13 50.5t-36 17.5q-59 0 -131 -84zM594.5 514.5 q45.5 132.5 128.5 250.5t191 198q-29 38 -83 38q-110 0 -237.5 -114.5t-215 -297.5t-87.5 -376q0 -64 26.5 -97.5t69.5 -33.5q91 0 169 108q-7 33 -7 70q0 122 45.5 254.5z" />
<glyph unicode="&#xe7;" horiz-adv-x="948" d="M603.5 49.5q-113.5 -78.5 -259.5 -78.5q-97 0 -171 35t-115.5 105.5t-41.5 175.5q0 175 88.5 362.5t248.5 312.5t362 125q74 0 131 -26t88 -70.5t31 -99.5q0 -56 -27 -108.5t-74 -85.5t-102 -33q-51 0 -84 32t-33 86q0 53 26 100t68.5 79t91.5 45q-35 41 -98 41 q-100 0 -195 -110t-154.5 -286.5t-59.5 -363.5q0 -205 155 -205q146 0 271 180l41 -16q-74 -118 -187.5 -196.5zM392 -121q55 0 89 -22.5t34 -63.5q0 -61 -49.5 -101t-126 -58.5t-160.5 -18.5q-58 0 -107.5 12.5t-74.5 28.5l12 31q5 -2 25 -8t46 -10.5t54 -4.5q54 0 107 21 t53 73q0 22 -16 34.5t-42 12.5q-35 0 -63 -14l139 209h60l-90 -141q60 20 110 20z" />
<glyph unicode="&#xe8;" horiz-adv-x="961" d="M685.5 110.5q-70.5 -62.5 -162 -101t-195.5 -38.5q-93 0 -166 33t-114.5 98.5t-41.5 157.5q0 182 98.5 376t268.5 322.5t372 128.5q95 0 154 -41.5t59 -119.5q0 -117 -95 -215t-238.5 -167.5t-299.5 -110.5q-12 -74 -12 -140q0 -108 40.5 -153.5t117.5 -45.5 q64 0 144.5 40.5t154.5 127.5l33 -16q-47 -73 -117.5 -135.5zM564 965q-75 -84 -139 -218t-93 -276q143 63 225 137t129 169t47 204q0 38 -8 53t-25 15q-61 0 -136 -84zM622.5 1338.5q-43.5 46.5 -113.5 116t-97 114.5q-22 37 -22 73q0 58 48 87q26 14 54 14q33 0 63 -17.5 t49 -48.5q20 -32 31.5 -67t37.5 -143.5t71 -225.5l-25 -14q-53 65 -96.5 111.5z" />
<glyph unicode="&#xe9;" horiz-adv-x="961" d="M685.5 110.5q-70.5 -62.5 -162 -101t-195.5 -38.5q-93 0 -166 33t-114.5 98.5t-41.5 157.5q0 182 98.5 376t268.5 322.5t372 128.5q95 0 154 -41.5t59 -119.5q0 -117 -95 -215t-238.5 -167.5t-299.5 -110.5q-12 -74 -12 -140q0 -108 40.5 -153.5t117.5 -45.5 q64 0 144.5 40.5t154.5 127.5l33 -16q-47 -73 -117.5 -135.5zM564 965q-75 -84 -139 -218t-93 -276q143 63 225 137t129 169t47 204q0 38 -8 53t-25 15q-61 0 -136 -84zM726 1444q59 100 87 144.5t66 82.5q51 54 111 54q43 0 75 -31q27 -27 27 -62q0 -55 -60 -112 q-29 -29 -65.5 -55t-144 -94.5t-203.5 -143.5l-21 20q69 97 128 197z" />
<glyph unicode="&#xea;" horiz-adv-x="961" d="M685.5 110.5q-70.5 -62.5 -162 -101t-195.5 -38.5q-93 0 -166 33t-114.5 98.5t-41.5 157.5q0 182 98.5 376t268.5 322.5t372 128.5q95 0 154 -41.5t59 -119.5q0 -117 -95 -215t-238.5 -167.5t-299.5 -110.5q-12 -74 -12 -140q0 -108 40.5 -153.5t117.5 -45.5 q64 0 144.5 40.5t154.5 127.5l33 -16q-47 -73 -117.5 -135.5zM564 965q-75 -84 -139 -218t-93 -276q143 63 225 137t129 169t47 204q0 38 -8 53t-25 15q-61 0 -136 -84zM860 1313q-87 36 -167 88q-171 -95 -371 -152l-10 29q148 64 277.5 172t211.5 229h37 q28 -145 84 -238.5t160 -162.5l-8 -29q-127 28 -214 64z" />
<glyph unicode="&#xeb;" horiz-adv-x="961" d="M685.5 110.5q-70.5 -62.5 -162 -101t-195.5 -38.5q-93 0 -166 33t-114.5 98.5t-41.5 157.5q0 182 98.5 376t268.5 322.5t372 128.5q95 0 154 -41.5t59 -119.5q0 -117 -95 -215t-238.5 -167.5t-299.5 -110.5q-12 -74 -12 -140q0 -108 40.5 -153.5t117.5 -45.5 q64 0 144.5 40.5t154.5 127.5l33 -16q-47 -73 -117.5 -135.5zM564 965q-75 -84 -139 -218t-93 -276q143 63 225 137t129 169t47 204q0 38 -8 53t-25 15q-61 0 -136 -84zM398 1475.5q25 39.5 65.5 60t87.5 20.5q64 0 99 -37.5t35 -97.5q0 -54 -25.5 -93t-66.5 -59t-87 -20 q-65 0 -99 36.5t-34 98.5q0 52 25 91.5zM864.5 1476q24.5 39 64.5 59.5t87 20.5q64 0 98.5 -37t34.5 -98q0 -54 -25 -93t-66 -59t-87 -20q-64 0 -97.5 37t-33.5 98q0 53 24.5 92z" />
<glyph unicode="&#xec;" horiz-adv-x="659" d="M297 945q0 42 -35 42q-39 0 -70 -37.5t-63 -124.5l-39 -104h-39l55 156q76 210 285 210q95 0 138 -46t43 -121q0 -56 -21 -119l-217 -627q-12 -36 -12 -59q0 -43 40 -43q32 0 64 34.5t66 126.5l36 99h39l-51 -150q-74 -211 -276 -211q-187 0 -187 168q0 69 31 158 l201 588q12 38 12 60zM365.5 1338.5q-43.5 46.5 -113.5 116t-97 114.5q-22 37 -22 73q0 58 48 87q26 14 54 14q33 0 63 -17.5t49 -48.5q20 -32 31.5 -67t37.5 -143.5t71 -225.5l-25 -14q-53 65 -96.5 111.5z" />
<glyph unicode="&#xed;" horiz-adv-x="659" d="M297 945q0 42 -35 42q-39 0 -70 -37.5t-63 -124.5l-39 -104h-39l55 156q76 210 285 210q95 0 138 -46t43 -121q0 -56 -21 -119l-217 -627q-12 -36 -12 -59q0 -43 40 -43q32 0 64 34.5t66 126.5l36 99h39l-51 -150q-74 -211 -276 -211q-187 0 -187 168q0 69 31 158 l201 588q12 38 12 60zM469 1444q59 100 87 144.5t66 82.5q51 54 111 54q43 0 75 -31q27 -27 27 -62q0 -55 -60 -112q-29 -29 -65.5 -55t-144 -94.5t-203.5 -143.5l-21 20q69 97 128 197z" />
<glyph unicode="&#xee;" horiz-adv-x="659" d="M297 945q0 42 -35 42q-39 0 -70 -37.5t-63 -124.5l-39 -104h-39l55 156q76 210 285 210q95 0 138 -46t43 -121q0 -56 -21 -119l-217 -627q-12 -36 -12 -59q0 -43 40 -43q32 0 64 34.5t66 126.5l36 99h39l-51 -150q-74 -211 -276 -211q-187 0 -187 168q0 69 31 158 l201 588q12 38 12 60zM603 1313q-87 36 -167 88q-171 -95 -371 -152l-10 29q148 64 277.5 172t211.5 229h37q28 -145 84 -238.5t160 -162.5l-8 -29q-127 28 -214 64z" />
<glyph unicode="&#xef;" horiz-adv-x="659" d="M297 945q0 42 -35 42q-39 0 -70 -37.5t-63 -124.5l-39 -104h-39l55 156q76 210 285 210q95 0 138 -46t43 -121q0 -56 -21 -119l-217 -627q-12 -36 -12 -59q0 -43 40 -43q32 0 64 34.5t66 126.5l36 99h39l-51 -150q-74 -211 -276 -211q-187 0 -187 168q0 69 31 158 l201 588q12 38 12 60zM141 1475.5q25 39.5 65.5 60t87.5 20.5q64 0 99 -37.5t35 -97.5q0 -54 -25.5 -93t-66.5 -59t-87 -20q-65 0 -99 36.5t-34 98.5q0 52 25 91.5zM607.5 1476q24.5 39 64.5 59.5t87 20.5q64 0 98.5 -37t34.5 -98q0 -54 -25 -93t-66 -59t-87 -20 q-64 0 -97.5 37t-33.5 98q0 53 24.5 92z" />
<glyph unicode="&#xf0;" horiz-adv-x="1081" d="M951.5 1127.5q68.5 -150.5 68.5 -328.5q0 -196 -78 -388t-229 -316t-357 -124q-152 0 -241.5 82t-89.5 256q0 163 74.5 344t212.5 304.5t317 123.5q44 0 75 -11q-25 145 -91 256l-349 -155l-12 37l341 151q-82 122 -224 208l24 35q192 -64 334 -182l309 136l13 -36 l-290 -128q124 -114 192.5 -264.5zM553.5 146q75.5 134 121.5 334t46 382q0 89 -11 167q-29 11 -63 11q-92 0 -166 -140.5t-115.5 -348t-41.5 -393.5q0 -83 15.5 -114.5t53.5 -31.5q85 0 160.5 134z" />
<glyph unicode="&#xf1;" horiz-adv-x="1235" d="M1094 182q-74 -211 -275 -211q-115 0 -164 68q-26 40 -26 95q0 62 33 163l184 553q19 59 19 88q0 47 -40 47q-61 0 -148 -124t-175 -327t-153 -428l-27 -106h-289l248 885q12 43 12 65q0 37 -35 37q-38 0 -68 -36t-63 -126l-39 -104h-39l55 156q39 112 105 161t160 49 q176 0 176 -168q0 -52 -17 -118l-64 -249q84 208 161 324.5t155.5 163.5t175.5 47q185 0 185 -164q0 -62 -27 -145l-201 -604q-12 -33 -12 -60q0 -42 39 -42q33 0 64 34t65 127l37 99h39zM525 1539.5q84 70.5 178 70.5q59 0 97.5 -21.5t98.5 -75t116 -53.5q41 0 75.5 28 t69.5 91l37 -10q-53 -144 -137 -214.5t-178 -70.5q-59 0 -97.5 21.5t-98.5 75t-116 53.5q-41 0 -75.5 -28t-69.5 -91l-37 10q53 144 137 214.5z" />
<glyph unicode="&#xf2;" horiz-adv-x="1083" d="M101.5 659.5q76.5 181.5 227 304.5t359.5 123q160 0 246 -86t86 -251q0 -169 -76.5 -350.5t-227.5 -305t-360 -123.5q-159 0 -245 86.5t-86 251.5q0 169 76.5 350.5zM511.5 901.5q-89.5 -145.5 -151 -357t-61.5 -392.5q0 -74 17 -107t53 -33q75 0 164 141.5t150.5 351 t61.5 398.5q0 81 -16.5 112.5t-50.5 31.5q-77 0 -166.5 -145.5zM647.5 1338.5q-43.5 46.5 -113.5 116t-97 114.5q-22 37 -22 73q0 58 48 87q26 14 54 14q33 0 63 -17.5t49 -48.5q20 -32 31.5 -67t37.5 -143.5t71 -225.5l-25 -14q-53 65 -96.5 111.5z" />
<glyph unicode="&#xf3;" horiz-adv-x="1083" d="M101.5 659.5q76.5 181.5 227 304.5t359.5 123q160 0 246 -86t86 -251q0 -169 -76.5 -350.5t-227.5 -305t-360 -123.5q-159 0 -245 86.5t-86 251.5q0 169 76.5 350.5zM511.5 901.5q-89.5 -145.5 -151 -357t-61.5 -392.5q0 -74 17 -107t53 -33q75 0 164 141.5t150.5 351 t61.5 398.5q0 81 -16.5 112.5t-50.5 31.5q-77 0 -166.5 -145.5zM751 1444q59 100 87 144.5t66 82.5q51 54 111 54q43 0 75 -31q27 -27 27 -62q0 -55 -60 -112q-29 -29 -65.5 -55t-144 -94.5t-203.5 -143.5l-21 20q69 97 128 197z" />
<glyph unicode="&#xf4;" horiz-adv-x="1083" d="M101.5 659.5q76.5 181.5 227 304.5t359.5 123q160 0 246 -86t86 -251q0 -169 -76.5 -350.5t-227.5 -305t-360 -123.5q-159 0 -245 86.5t-86 251.5q0 169 76.5 350.5zM511.5 901.5q-89.5 -145.5 -151 -357t-61.5 -392.5q0 -74 17 -107t53 -33q75 0 164 141.5t150.5 351 t61.5 398.5q0 81 -16.5 112.5t-50.5 31.5q-77 0 -166.5 -145.5zM885 1313q-87 36 -167 88q-171 -95 -371 -152l-10 29q148 64 277.5 172t211.5 229h37q28 -145 84 -238.5t160 -162.5l-8 -29q-127 28 -214 64z" />
<glyph unicode="&#xf5;" horiz-adv-x="1083" d="M101.5 659.5q76.5 181.5 227 304.5t359.5 123q160 0 246 -86t86 -251q0 -169 -76.5 -350.5t-227.5 -305t-360 -123.5q-159 0 -245 86.5t-86 251.5q0 169 76.5 350.5zM511.5 901.5q-89.5 -145.5 -151 -357t-61.5 -392.5q0 -74 17 -107t53 -33q75 0 164 141.5t150.5 351 t61.5 398.5q0 81 -16.5 112.5t-50.5 31.5q-77 0 -166.5 -145.5zM512 1539.5q84 70.5 178 70.5q59 0 97.5 -21.5t98.5 -75t116 -53.5q41 0 75.5 28t69.5 91l37 -10q-53 -144 -137 -214.5t-178 -70.5q-59 0 -97.5 21.5t-98.5 75t-116 53.5q-41 0 -75.5 -28t-69.5 -91l-37 10 q53 144 137 214.5z" />
<glyph unicode="&#xf6;" horiz-adv-x="1083" d="M101.5 659.5q76.5 181.5 227 304.5t359.5 123q160 0 246 -86t86 -251q0 -169 -76.5 -350.5t-227.5 -305t-360 -123.5q-159 0 -245 86.5t-86 251.5q0 169 76.5 350.5zM511.5 901.5q-89.5 -145.5 -151 -357t-61.5 -392.5q0 -74 17 -107t53 -33q75 0 164 141.5t150.5 351 t61.5 398.5q0 81 -16.5 112.5t-50.5 31.5q-77 0 -166.5 -145.5zM423 1475.5q25 39.5 65.5 60t87.5 20.5q64 0 99 -37.5t35 -97.5q0 -54 -25.5 -93t-66.5 -59t-87 -20q-65 0 -99 36.5t-34 98.5q0 52 25 91.5zM889.5 1476q24.5 39 64.5 59.5t87 20.5q64 0 98.5 -37t34.5 -98 q0 -54 -25 -93t-66 -59t-87 -20q-64 0 -97.5 37t-33.5 98q0 53 24.5 92z" />
<glyph unicode="&#xf7;" horiz-adv-x="1303" d="M745 1101.5q43 33.5 89 33.5q38 0 62 -23t24 -58q0 -14 -5 -32q-13 -48 -56 -80.5t-91 -32.5q-38 0 -61.5 22.5t-23.5 58.5q0 14 5 32q14 46 57 79.5zM1203 758l-18 -62h-1026l18 62h1026zM575 512q43 33 89 33q39 0 62.5 -22.5t23.5 -58.5q0 -14 -5 -32 q-14 -48 -56.5 -81.5t-90.5 -33.5q-38 0 -61.5 24t-23.5 60q0 13 5 31q14 47 57 80z" />
<glyph unicode="&#xf8;" horiz-adv-x="1083" d="M1020 750q0 -169 -76.5 -350.5t-227.5 -305t-360 -123.5q-96 0 -166 32l-124 -173l-31 20l122 171q-132 83 -132 288q0 169 76.5 350.5t227 304.5t359.5 123q95 0 165 -31l120 171l31 -19l-118 -169q134 -83 134 -289zM726 1020.5q-16 26.5 -48 26.5q-73 0 -158.5 -133.5 t-148 -332.5t-71.5 -379l445 726q-3 66 -19 92.5zM319 39.5q17 -27.5 50 -27.5q72 0 157.5 131.5t148 330.5t69.5 385l-445 -731q3 -61 20 -88.5z" />
<glyph unicode="&#xf9;" horiz-adv-x="1223" d="M1137 338l-56 -156q-38 -113 -110.5 -162t-163.5 -49q-54 0 -93.5 18.5t-58.5 51.5q-19 35 -19 84q0 51 21 133l54 209q-79 -193 -152.5 -301t-149.5 -151.5t-169 -43.5q-92 0 -138.5 43.5t-46.5 124.5q0 61 27 142l199 604q12 38 12 59q0 43 -39 43q-33 0 -64 -34.5 t-65 -127.5l-37 -98h-39l51 150q73 210 275 210q187 0 187 -169q0 -63 -30 -156l-184 -553q-18 -55 -18 -87q0 -48 39 -48q60 0 143.5 119t168.5 316.5t151 424.5l32 125q181 3 297 28l-256 -913q-13 -47 -13 -68q0 -34 36 -34q38 0 69 36.5t62 124.5l39 105h39z M630.5 1338.5q-43.5 46.5 -113.5 116t-97 114.5q-22 37 -22 73q0 58 48 87q26 14 54 14q33 0 63 -17.5t49 -48.5q20 -32 31.5 -67t37.5 -143.5t71 -225.5l-25 -14q-53 65 -96.5 111.5z" />
<glyph unicode="&#xfa;" horiz-adv-x="1223" d="M1137 338l-56 -156q-38 -113 -110.5 -162t-163.5 -49q-54 0 -93.5 18.5t-58.5 51.5q-19 35 -19 84q0 51 21 133l54 209q-79 -193 -152.5 -301t-149.5 -151.5t-169 -43.5q-92 0 -138.5 43.5t-46.5 124.5q0 61 27 142l199 604q12 38 12 59q0 43 -39 43q-33 0 -64 -34.5 t-65 -127.5l-37 -98h-39l51 150q73 210 275 210q187 0 187 -169q0 -63 -30 -156l-184 -553q-18 -55 -18 -87q0 -48 39 -48q60 0 143.5 119t168.5 316.5t151 424.5l32 125q181 3 297 28l-256 -913q-13 -47 -13 -68q0 -34 36 -34q38 0 69 36.5t62 124.5l39 105h39zM734 1444 q59 100 87 144.5t66 82.5q51 54 111 54q43 0 75 -31q27 -27 27 -62q0 -55 -60 -112q-29 -29 -65.5 -55t-144 -94.5t-203.5 -143.5l-21 20q69 97 128 197z" />
<glyph unicode="&#xfb;" horiz-adv-x="1223" d="M1137 338l-56 -156q-38 -113 -110.5 -162t-163.5 -49q-54 0 -93.5 18.5t-58.5 51.5q-19 35 -19 84q0 51 21 133l54 209q-79 -193 -152.5 -301t-149.5 -151.5t-169 -43.5q-92 0 -138.5 43.5t-46.5 124.5q0 61 27 142l199 604q12 38 12 59q0 43 -39 43q-33 0 -64 -34.5 t-65 -127.5l-37 -98h-39l51 150q73 210 275 210q187 0 187 -169q0 -63 -30 -156l-184 -553q-18 -55 -18 -87q0 -48 39 -48q60 0 143.5 119t168.5 316.5t151 424.5l32 125q181 3 297 28l-256 -913q-13 -47 -13 -68q0 -34 36 -34q38 0 69 36.5t62 124.5l39 105h39zM868 1313 q-87 36 -167 88q-171 -95 -371 -152l-10 29q148 64 277.5 172t211.5 229h37q28 -145 84 -238.5t160 -162.5l-8 -29q-127 28 -214 64z" />
<glyph unicode="&#xfc;" horiz-adv-x="1223" d="M1137 338l-56 -156q-38 -113 -110.5 -162t-163.5 -49q-54 0 -93.5 18.5t-58.5 51.5q-19 35 -19 84q0 51 21 133l54 209q-79 -193 -152.5 -301t-149.5 -151.5t-169 -43.5q-92 0 -138.5 43.5t-46.5 124.5q0 61 27 142l199 604q12 38 12 59q0 43 -39 43q-33 0 -64 -34.5 t-65 -127.5l-37 -98h-39l51 150q73 210 275 210q187 0 187 -169q0 -63 -30 -156l-184 -553q-18 -55 -18 -87q0 -48 39 -48q60 0 143.5 119t168.5 316.5t151 424.5l32 125q181 3 297 28l-256 -913q-13 -47 -13 -68q0 -34 36 -34q38 0 69 36.5t62 124.5l39 105h39zM406 1475.5 q25 39.5 65.5 60t87.5 20.5q64 0 99 -37.5t35 -97.5q0 -54 -25.5 -93t-66.5 -59t-87 -20q-65 0 -99 36.5t-34 98.5q0 52 25 91.5zM872.5 1476q24.5 39 64.5 59.5t87 20.5q64 0 98.5 -37t34.5 -98q0 -54 -25 -93t-66 -59t-87 -20q-64 0 -97.5 37t-33.5 98q0 53 24.5 92z" />
<glyph unicode="&#xfd;" horiz-adv-x="987" d="M776.5 426q65.5 134 97.5 258q-83 46 -137 115t-51 149q0 64 37 101.5t100 37.5q135 0 135 -186q0 -123 -56 -283t-148.5 -321t-198.5 -289q-104 -125 -229.5 -221t-259.5 -141q-81 -31 -146 -31q-66 0 -103.5 30.5t-37.5 84.5t39.5 90.5t101.5 36.5q121 0 219 -142 q143 70 267 189l-160 979q-12 56 -22.5 76t-30.5 20q-23 0 -44 -30.5t-53 -121.5l-37 -100h-39l52 150q40 116 103 163t149 47q87 0 136 -48.5t68 -172.5l96 -701q87 127 152.5 261zM658 1444q59 100 87 144.5t66 82.5q51 54 111 54q43 0 75 -31q27 -27 27 -62 q0 -55 -60 -112q-29 -29 -65.5 -55t-144 -94.5t-203.5 -143.5l-21 20q69 97 128 197z" />
<glyph unicode="&#xfe;" horiz-adv-x="1196" d="M706 1021q79 66 175 66q124 0 189 -80.5t65 -234.5q0 -167 -75.5 -355t-215.5 -317t-322 -129q-57 0 -106 18.5t-78 50.5l-55 -194q-13 -47 -13 -74q0 -56 41 -77t129 -23l-12 -43q-29 1 -128 5t-196 4q-84 0 -175 -4t-113 -5l12 43q50 0 79.5 11.5t48 39t32.5 76.5 l372 1331q-57 -127 -132.5 -228t-182.5 -212l-22 27q93 99 151.5 171.5t119.5 179t121 258.5l68 245q168 12 305 57l-232 -818q71 145 150 211zM440 31q98 0 190 124t149 307.5t57 346.5q0 95 -17.5 132.5t-50.5 37.5q-39 0 -85 -44.5t-92.5 -123t-83.5 -176.5l-158 -557 q34 -47 91 -47z" />
<glyph unicode="&#xff;" horiz-adv-x="987" d="M776.5 426q65.5 134 97.5 258q-83 46 -137 115t-51 149q0 64 37 101.5t100 37.5q135 0 135 -186q0 -123 -56 -283t-148.5 -321t-198.5 -289q-104 -125 -229.5 -221t-259.5 -141q-81 -31 -146 -31q-66 0 -103.5 30.5t-37.5 84.5t39.5 90.5t101.5 36.5q121 0 219 -142 q143 70 267 189l-160 979q-12 56 -22.5 76t-30.5 20q-23 0 -44 -30.5t-53 -121.5l-37 -100h-39l52 150q40 116 103 163t149 47q87 0 136 -48.5t68 -172.5l96 -701q87 127 152.5 261zM330 1475.5q25 39.5 65.5 60t87.5 20.5q64 0 99 -37.5t35 -97.5q0 -54 -25.5 -93 t-66.5 -59t-87 -20q-65 0 -99 36.5t-34 98.5q0 52 25 91.5zM796.5 1476q24.5 39 64.5 59.5t87 20.5q64 0 98.5 -37t34.5 -98q0 -54 -25 -93t-66 -59t-87 -20q-64 0 -97.5 37t-33.5 98q0 53 24.5 92z" />
<glyph unicode="&#x100;" horiz-adv-x="1337" d="M1126 74q29 -31 66 -33l-8 -41q-105 6 -297 6q-209 0 -307 -6l8 41q66 3 103 15.5t55.5 43t18.5 87.5q0 17 -1 26l-17 336h-443l-181 -256q-65 -92 -65 -151q0 -93 171 -101l-10 -41q-172 6 -266 6q-76 0 -141 -6l8 41q52 14 103 61t128 156l854 1202q27 -3 54 -3 q29 0 51 3l82 -1288q5 -67 34 -98zM716 1133l-383 -543h411zM543 1677l12 52h820l-13 -52h-819z" />
<glyph unicode="&#x101;" horiz-adv-x="1143" d="M1053 332l-52 -150q-40 -115 -113 -163t-157 -48q-107 0 -151 64q-28 41 -28 104q0 48 18 122q-130 -290 -343 -290q-113 0 -171 66.5t-58 185.5q0 182 97.5 386t247 341t292.5 137q55 0 89 -32.5t41 -98.5l28 101q163 3 297 30l-269 -913q-10 -35 -10 -56q0 -46 39 -46 q72 0 127 161l37 99h39zM743 908q0 50 -18 77t-51 27q-70 0 -159 -125.5t-151.5 -313.5t-62.5 -364q0 -68 13.5 -97.5t43.5 -29.5q44 0 99 62t109 180.5t96 279.5l-10 -50l89 319q2 12 2 35zM454 1407l12 51h688l-12 -51h-688z" />
<glyph unicode="&#x102;" horiz-adv-x="1337" d="M1126 74q29 -31 66 -33l-8 -41q-105 6 -297 6q-209 0 -307 -6l8 41q66 3 103 15.5t55.5 43t18.5 87.5q0 17 -1 26l-17 336h-443l-181 -256q-65 -92 -65 -151q0 -93 171 -101l-10 -41q-172 6 -266 6q-76 0 -141 -6l8 41q52 14 103 61t128 156l854 1202q27 -3 54 -3 q29 0 51 3l82 -1288q5 -67 34 -98zM716 1133l-383 -543h411zM800.5 1804.5q76.5 -24.5 197.5 -24.5q270 0 467 116l22 -20q-54 -77 -140.5 -145t-189 -110t-200.5 -42q-136 0 -217.5 81.5t-106.5 213.5l31 14q60 -59 136.5 -83.5z" />
<glyph unicode="&#x103;" horiz-adv-x="1143" d="M1053 332l-52 -150q-40 -115 -113 -163t-157 -48q-107 0 -151 64q-28 41 -28 104q0 48 18 122q-130 -290 -343 -290q-113 0 -171 66.5t-58 185.5q0 182 97.5 386t247 341t292.5 137q55 0 89 -32.5t41 -98.5l28 101q163 3 297 30l-269 -913q-10 -35 -10 -56q0 -46 39 -46 q72 0 127 161l37 99h39zM743 908q0 50 -18 77t-51 27q-70 0 -159 -125.5t-151.5 -313.5t-62.5 -364q0 -68 13.5 -97.5t43.5 -29.5q44 0 99 62t109 180.5t96 279.5l-10 -50l89 319q2 12 2 35zM642.5 1503q58.5 -30 159.5 -30q110 0 219 36.5t197 104.5l22 -21 q-49 -82 -128 -155.5t-172 -119.5t-181 -46q-108 0 -171 88t-83 231l31 15q48 -73 106.5 -103z" />
<glyph unicode="&#x104;" horiz-adv-x="1337" d="M1126 74q29 -31 66 -33l-8 -41q-105 6 -297 6q-209 0 -307 -6l8 41q66 3 103 15.5t55.5 43t18.5 87.5q0 17 -1 26l-17 336h-443l-181 -256q-65 -92 -65 -151q0 -93 171 -101l-10 -41q-172 6 -266 6q-76 0 -141 -6l8 41q52 14 103 61t128 156l854 1202q27 -3 54 -3 q29 0 51 3l82 -1288q5 -67 34 -98zM716 1133l-383 -543h411zM969.5 -91q-61.5 -62 -61.5 -130q0 -62 67 -62q33 0 74.5 12.5t77.5 32.5l22 -34q-141 -113 -299 -113q-81 0 -126.5 32.5t-45.5 90.5q0 90 114 158.5t280 109.5h53q-94 -35 -155.5 -97z" />
<glyph unicode="&#x105;" horiz-adv-x="1143" d="M1053 332l-52 -150q-40 -115 -113 -163t-157 -48q-107 0 -151 64q-28 41 -28 104q0 48 18 122q-130 -290 -343 -290q-113 0 -171 66.5t-58 185.5q0 182 97.5 386t247 341t292.5 137q55 0 89 -32.5t41 -98.5l28 101q163 3 297 30l-269 -913q-10 -35 -10 -56q0 -46 39 -46 q72 0 127 161l37 99h39zM743 908q0 50 -18 77t-51 27q-70 0 -159 -125.5t-151.5 -313.5t-62.5 -364q0 -68 13.5 -97.5t43.5 -29.5q44 0 99 62t109 180.5t96 279.5l-10 -50l89 319q2 12 2 35zM712 -90.5q-62 -63.5 -62 -132.5q0 -29 16 -44.5t44 -15.5q32 0 67 17.5t60 44.5 l28 -25q-114 -139 -276 -139q-79 0 -124.5 33t-45.5 90q0 90 114.5 158.5t278.5 109.5h53q-91 -33 -153 -96.5z" />
<glyph unicode="&#x106;" horiz-adv-x="1419" d="M1397 979h-45q15 89 15 160q0 96 -34 157q-72 134 -241 134q-164 0 -312 -144t-237.5 -374.5t-89.5 -473.5q0 -203 72.5 -304t203.5 -101q78 0 162 35.5t145 99.5q54 56 93.5 127.5t91.5 196.5h45q-97 -355 -121 -492h-45q6 44 6 70q0 52 -26 52q-16 0 -42 -18 q-93 -64 -188 -98.5t-213 -34.5q-274 0 -411.5 131t-137.5 377q0 242 128 474t353 379t498 147q80 0 137 -18t94.5 -46t73.5 -69q15 -18 30 -18q38 0 83 122h43q-68 -177 -131 -471zM1078.5 1759.5q84.5 79.5 123.5 114.5t87 61q41 23 88 23q71 0 98 -55q11 -22 11 -42 q0 -65 -92 -116q-36 -20 -78.5 -34.5t-165 -49.5t-236.5 -80l-14 25q94 74 178.5 153.5z" />
<glyph unicode="&#x107;" horiz-adv-x="948" d="M603.5 49.5q-113.5 -78.5 -259.5 -78.5q-97 0 -171 35t-115.5 105.5t-41.5 175.5q0 175 88.5 362.5t248.5 312.5t362 125q74 0 131 -26t88 -70.5t31 -99.5q0 -56 -27 -108.5t-74 -85.5t-102 -33q-51 0 -84 32t-33 86q0 53 26 100t68.5 79t91.5 45q-35 41 -98 41 q-100 0 -195 -110t-154.5 -286.5t-59.5 -363.5q0 -205 155 -205q146 0 271 180l41 -16q-74 -118 -187.5 -196.5zM708 1442q59 100 87 144.5t66 82.5q51 54 111 54q43 0 75 -31q27 -27 27 -62q0 -55 -60 -112q-29 -29 -65.5 -55t-144 -94.5t-203.5 -143.5l-21 20 q69 97 128 197z" />
<glyph unicode="&#x108;" horiz-adv-x="1419" d="M1397 979h-45q15 89 15 160q0 96 -34 157q-72 134 -241 134q-164 0 -312 -144t-237.5 -374.5t-89.5 -473.5q0 -203 72.5 -304t203.5 -101q78 0 162 35.5t145 99.5q54 56 93.5 127.5t91.5 196.5h45q-97 -355 -121 -492h-45q6 44 6 70q0 52 -26 52q-16 0 -42 -18 q-93 -64 -188 -98.5t-213 -34.5q-274 0 -411.5 131t-137.5 377q0 242 128 474t353 379t498 147q80 0 137 -18t94.5 -46t73.5 -69q15 -18 30 -18q38 0 83 122h43q-68 -177 -131 -471zM1233.5 1629q-88.5 28 -191.5 71q-214 -77 -445 -121l-10 29q169 53 317 138t238 179h37 q48 -115 111.5 -190t172.5 -127l-8 -29q-133 22 -221.5 50z" />
<glyph unicode="&#x109;" horiz-adv-x="948" d="M603.5 49.5q-113.5 -78.5 -259.5 -78.5q-97 0 -171 35t-115.5 105.5t-41.5 175.5q0 175 88.5 362.5t248.5 312.5t362 125q74 0 131 -26t88 -70.5t31 -99.5q0 -56 -27 -108.5t-74 -85.5t-102 -33q-51 0 -84 32t-33 86q0 53 26 100t68.5 79t91.5 45q-35 41 -98 41 q-100 0 -195 -110t-154.5 -286.5t-59.5 -363.5q0 -205 155 -205q146 0 271 180l41 -16q-74 -118 -187.5 -196.5zM842 1311q-87 36 -167 88q-171 -95 -371 -152l-10 29q148 64 277.5 172t211.5 229h37q28 -145 84 -238.5t160 -162.5l-8 -29q-127 28 -214 64z" />
<glyph unicode="&#x10a;" horiz-adv-x="1419" d="M1397 979h-45q15 89 15 160q0 96 -34 157q-72 134 -241 134q-164 0 -312 -144t-237.5 -374.5t-89.5 -473.5q0 -203 72.5 -304t203.5 -101q78 0 162 35.5t145 99.5q54 56 93.5 127.5t91.5 196.5h45q-97 -355 -121 -492h-45q6 44 6 70q0 52 -26 52q-16 0 -42 -18 q-93 -64 -188 -98.5t-213 -34.5q-274 0 -411.5 131t-137.5 377q0 242 128 474t353 379t498 147q80 0 137 -18t94.5 -46t73.5 -69q15 -18 30 -18q38 0 83 122h43q-68 -177 -131 -471zM919 1792q27 43 75 66.5t107 23.5q73 0 112 -33.5t39 -93.5q0 -52 -28 -95t-76.5 -68 t-108.5 -25q-70 0 -108.5 33t-38.5 92q0 57 27 100z" />
<glyph unicode="&#x10b;" horiz-adv-x="948" d="M603.5 49.5q-113.5 -78.5 -259.5 -78.5q-97 0 -171 35t-115.5 105.5t-41.5 175.5q0 175 88.5 362.5t248.5 312.5t362 125q74 0 131 -26t88 -70.5t31 -99.5q0 -56 -27 -108.5t-74 -85.5t-102 -33q-51 0 -84 32t-33 86q0 53 26 100t68.5 79t91.5 45q-35 41 -98 41 q-100 0 -195 -110t-154.5 -286.5t-59.5 -363.5q0 -205 155 -205q146 0 271 180l41 -16q-74 -118 -187.5 -196.5zM591 1493.5q27 43.5 74 67.5t107 24q74 0 113 -32.5t39 -92.5q0 -52 -28 -95.5t-77 -69t-108 -25.5q-70 0 -108.5 32t-38.5 91q0 57 27 100.5z" />
<glyph unicode="&#x10c;" horiz-adv-x="1419" d="M1397 979h-45q15 89 15 160q0 96 -34 157q-72 134 -241 134q-164 0 -312 -144t-237.5 -374.5t-89.5 -473.5q0 -203 72.5 -304t203.5 -101q78 0 162 35.5t145 99.5q54 56 93.5 127.5t91.5 196.5h45q-97 -355 -121 -492h-45q6 44 6 70q0 52 -26 52q-16 0 -42 -18 q-93 -64 -188 -98.5t-213 -34.5q-274 0 -411.5 131t-137.5 377q0 242 128 474t353 379t498 147q80 0 137 -18t94.5 -46t73.5 -69q15 -18 30 -18q38 0 83 122h43q-68 -177 -131 -471zM965 1869q89 -28 189 -71q212 77 447 121l10 -29q-170 -53 -317.5 -137.5t-237.5 -179.5 h-37q-47 114 -111.5 189.5t-173.5 127.5l9 29q133 -22 222 -50z" />
<glyph unicode="&#x10d;" horiz-adv-x="948" d="M603.5 49.5q-113.5 -78.5 -259.5 -78.5q-97 0 -171 35t-115.5 105.5t-41.5 175.5q0 175 88.5 362.5t248.5 312.5t362 125q74 0 131 -26t88 -70.5t31 -99.5q0 -56 -27 -108.5t-74 -85.5t-102 -33q-51 0 -84 32t-33 86q0 53 26 100t68.5 79t91.5 45q-35 41 -98 41 q-100 0 -195 -110t-154.5 -286.5t-59.5 -363.5q0 -205 155 -205q146 0 271 180l41 -16q-74 -118 -187.5 -196.5zM646.5 1613q87.5 -36 167.5 -87q173 95 371 151l10 -28q-148 -65 -278 -173t-212 -229h-36q-28 145 -83.5 238.5t-160.5 163.5l8 28q126 -28 213.5 -64z" />
<glyph unicode="&#x10e;" horiz-adv-x="1579" d="M560 1443l65 1q213 6 305 6q300 0 459 -124t159 -365q0 -235 -114.5 -456.5t-343 -363t-551.5 -141.5q-46 0 -138 3t-172 3q-199 0 -307 -6l6 41q70 3 105.5 16t57.5 48.5t42 111.5l268 1016q16 64 16 89q0 43 -30 63.5t-104 23.5l6 41q145 -7 271 -7zM436 100 q0 -34 23 -48.5t80 -14.5q208 0 362.5 145t235 373.5t80.5 470.5q0 193 -79.5 290t-252.5 97q-53 0 -79 -13t-42 -47.5t-37 -115.5l-268 -1024q-23 -87 -23 -113zM850 1869q89 -28 189 -71q212 77 447 121l10 -29q-170 -53 -317.5 -137.5t-237.5 -179.5h-37 q-47 114 -111.5 189.5t-173.5 127.5l9 29q133 -22 222 -50z" />
<glyph unicode="&#x10f;" horiz-adv-x="1186" d="M1096 332l-49 -150q-38 -116 -111 -163.5t-160 -47.5q-127 0 -162 95q-16 33 -16 84q0 63 25 147l2 9q-78 -174 -165.5 -254.5t-207.5 -80.5q-108 0 -176 72t-68 215q0 165 86 361t242 332t354 136q96 0 125 -69l92 348q10 37 10 57q0 41 -32 59.5t-107 18.5l13 43 q141 1 256 22t223 62l-402 -1454q-11 -35 -11 -56q0 -46 40 -46q31 0 61.5 35t63.5 126l35 99h39zM719 1040q-87 0 -183.5 -125.5t-160.5 -318.5t-64 -381q0 -72 15.5 -106.5t50.5 -34.5q40 0 96 59.5t116 175t109 272.5l103 387q-20 72 -82 72zM1342 1349q31 106 31 152 q0 39 -27 39l7 43q15 0 29 -1t28 -1q102 0 196 25q3 -4 3 -21q0 -77 -88.5 -206.5t-243.5 -280.5l-29 8q63 137 94 243z" />
<glyph unicode="&#x110;" horiz-adv-x="1579" d="M560 1443l65 1q213 6 305 6q300 0 459 -124t159 -365q0 -235 -114.5 -456.5t-343 -363t-551.5 -141.5q-46 0 -138 3t-172 3q-199 0 -307 -6l6 41q70 3 105.5 16t57.5 48.5t42 111.5l268 1016q16 64 16 89q0 43 -30 63.5t-104 23.5l6 41q145 -7 271 -7zM436 100 q0 -34 23 -48.5t80 -14.5q208 0 362.5 145t235 373.5t80.5 470.5q0 193 -79.5 290t-252.5 97q-53 0 -79 -13t-42 -47.5t-37 -115.5l-268 -1024q-23 -87 -23 -113zM156 707l12 52h820l-13 -52h-819z" />
<glyph unicode="&#x111;" horiz-adv-x="1186" d="M857 118q0 -46 40 -46q31 0 61.5 35t63.5 126l35 99h39l-49 -150q-38 -116 -111 -163.5t-160 -47.5q-127 0 -162 95q-16 33 -16 84q0 63 25 147l2 9q-78 -174 -165.5 -254.5t-207.5 -80.5q-108 0 -176 72t-68 215q0 165 86 361t242 332t354 136q96 0 125 -69l60 227h-328 l12 41h327l21 80q10 37 10 57q0 41 -32 59.5t-107 18.5l13 43q141 1 256 22t223 62l-95 -342h175l-13 -41h-173l-296 -1071q-11 -35 -11 -56zM771 1022.5q-19 17.5 -52 17.5q-87 0 -183.5 -125.5t-160.5 -318.5t-64 -381q0 -72 15.5 -106.5t50.5 -34.5q40 0 96 59.5 t115.5 175t109.5 272.5l103 387q-11 37 -30 54.5z" />
<glyph unicode="&#x112;" horiz-adv-x="1282" d="M958 1444q291 0 416 6q-54 -147 -78 -242q-11 -46 -26 -127h-45q3 39 3 73q0 93 -22.5 147t-72 78t-134.5 24h-63q-72 0 -108 -12t-57.5 -46.5t-41.5 -111.5l-128 -483h75q102 0 171 71.5t109 173.5h48q-24 -70 -37.5 -118t-23.5 -88.5t-15 -59.5q-25 -91 -60 -266h-45 q2 28 2 44q0 202 -172 202h-63l-131 -492q-19 -68 -19 -100q0 -29 13.5 -44t42 -20.5t79.5 -5.5h76q112 0 187.5 34.5t135 112t120.5 216.5h47q-22 -54 -45 -148q-32 -108 -54 -262q-139 6 -464 6q-443 0 -666 -6l10 41q74 3 110 16t58 48t43 112l270 1016q17 65 17 99 q0 30 -13.5 46t-42 22.5t-81.5 8.5l10 41q223 -6 665 -6zM460 1677l12 52h820l-13 -52h-819z" />
<glyph unicode="&#x113;" horiz-adv-x="961" d="M685.5 110.5q-70.5 -62.5 -162 -101t-195.5 -38.5q-93 0 -166 33t-114.5 98.5t-41.5 157.5q0 182 98.5 376t268.5 322.5t372 128.5q95 0 154 -41.5t59 -119.5q0 -117 -95 -215t-238.5 -167.5t-299.5 -110.5q-12 -74 -12 -140q0 -108 40.5 -153.5t117.5 -45.5 q64 0 144.5 40.5t154.5 127.5l33 -16q-47 -73 -117.5 -135.5zM564 965q-75 -84 -139 -218t-93 -276q143 63 225 137t129 169t47 204q0 38 -8 53t-25 15q-61 0 -136 -84zM408 1407l12 51h688l-12 -51h-688z" />
<glyph unicode="&#x114;" horiz-adv-x="1282" d="M958 1444q291 0 416 6q-54 -147 -78 -242q-11 -46 -26 -127h-45q3 39 3 73q0 93 -22.5 147t-72 78t-134.5 24h-63q-72 0 -108 -12t-57.5 -46.5t-41.5 -111.5l-128 -483h75q102 0 171 71.5t109 173.5h48q-24 -70 -37.5 -118t-23.5 -88.5t-15 -59.5q-25 -91 -60 -266h-45 q2 28 2 44q0 202 -172 202h-63l-131 -492q-19 -68 -19 -100q0 -29 13.5 -44t42 -20.5t79.5 -5.5h76q112 0 187.5 34.5t135 112t120.5 216.5h47q-22 -54 -45 -148q-32 -108 -54 -262q-139 6 -464 6q-443 0 -666 -6l10 41q74 3 110 16t58 48t43 112l270 1016q17 65 17 99 q0 30 -13.5 46t-42 22.5t-81.5 8.5l10 41q223 -6 665 -6zM717.5 1804.5q76.5 -24.5 197.5 -24.5q270 0 467 116l22 -20q-54 -77 -140.5 -145t-189 -110t-200.5 -42q-136 0 -217.5 81.5t-106.5 213.5l31 14q60 -59 136.5 -83.5z" />
<glyph unicode="&#x115;" horiz-adv-x="961" d="M685.5 110.5q-70.5 -62.5 -162 -101t-195.5 -38.5q-93 0 -166 33t-114.5 98.5t-41.5 157.5q0 182 98.5 376t268.5 322.5t372 128.5q95 0 154 -41.5t59 -119.5q0 -117 -95 -215t-238.5 -167.5t-299.5 -110.5q-12 -74 -12 -140q0 -108 40.5 -153.5t117.5 -45.5 q64 0 144.5 40.5t154.5 127.5l33 -16q-47 -73 -117.5 -135.5zM564 965q-75 -84 -139 -218t-93 -276q143 63 225 137t129 169t47 204q0 38 -8 53t-25 15q-61 0 -136 -84zM596.5 1503q58.5 -30 159.5 -30q110 0 219 36.5t197 104.5l22 -21q-49 -82 -128 -155.5t-172 -119.5 t-181 -46q-108 0 -171 88t-83 231l31 15q48 -73 106.5 -103z" />
<glyph unicode="&#x116;" horiz-adv-x="1282" d="M958 1444q291 0 416 6q-54 -147 -78 -242q-11 -46 -26 -127h-45q3 39 3 73q0 93 -22.5 147t-72 78t-134.5 24h-63q-72 0 -108 -12t-57.5 -46.5t-41.5 -111.5l-128 -483h75q102 0 171 71.5t109 173.5h48q-24 -70 -37.5 -118t-23.5 -88.5t-15 -59.5q-25 -91 -60 -266h-45 q2 28 2 44q0 202 -172 202h-63l-131 -492q-19 -68 -19 -100q0 -29 13.5 -44t42 -20.5t79.5 -5.5h76q112 0 187.5 34.5t135 112t120.5 216.5h47q-22 -54 -45 -148q-32 -108 -54 -262q-139 6 -464 6q-443 0 -666 -6l10 41q74 3 110 16t58 48t43 112l270 1016q17 65 17 99 q0 30 -13.5 46t-42 22.5t-81.5 8.5l10 41q223 -6 665 -6zM764 1792q27 43 75 66.5t107 23.5q73 0 112 -33.5t39 -93.5q0 -52 -28 -95t-76.5 -68t-108.5 -25q-70 0 -108.5 33t-38.5 92q0 57 27 100z" />
<glyph unicode="&#x117;" horiz-adv-x="961" d="M685.5 110.5q-70.5 -62.5 -162 -101t-195.5 -38.5q-93 0 -166 33t-114.5 98.5t-41.5 157.5q0 182 98.5 376t268.5 322.5t372 128.5q95 0 154 -41.5t59 -119.5q0 -117 -95 -215t-238.5 -167.5t-299.5 -110.5q-12 -74 -12 -140q0 -108 40.5 -153.5t117.5 -45.5 q64 0 144.5 40.5t154.5 127.5l33 -16q-47 -73 -117.5 -135.5zM564 965q-75 -84 -139 -218t-93 -276q143 63 225 137t129 169t47 204q0 38 -8 53t-25 15q-61 0 -136 -84zM609 1495.5q27 43.5 74 67.5t107 24q74 0 113 -32.5t39 -92.5q0 -52 -28 -95.5t-77 -69t-108 -25.5 q-70 0 -108.5 32t-38.5 91q0 57 27 100.5z" />
<glyph unicode="&#x118;" horiz-adv-x="1282" d="M958 1444q291 0 416 6q-54 -147 -78 -242q-11 -46 -26 -127h-45q3 39 3 73q0 93 -22.5 147t-72 78t-134.5 24h-63q-72 0 -108 -12t-57.5 -46.5t-41.5 -111.5l-128 -483h75q102 0 171 71.5t109 173.5h48q-24 -70 -37.5 -118t-23.5 -88.5t-15 -59.5q-25 -91 -60 -266h-45 q2 28 2 44q0 202 -172 202h-63l-131 -492q-19 -68 -19 -100q0 -29 13.5 -44t42 -20.5t79.5 -5.5h76q112 0 187.5 34.5t135 112t120.5 216.5h47q-22 -54 -45 -148q-32 -108 -54 -262q-139 6 -464 6q-443 0 -666 -6l10 41q74 3 110 16t58 48t43 112l270 1016q17 65 17 99 q0 30 -13.5 46t-42 22.5t-81.5 8.5l10 41q223 -6 665 -6zM881.5 -91q-61.5 -62 -61.5 -130q0 -62 67 -62q33 0 74.5 12.5t77.5 32.5l22 -34q-141 -113 -299 -113q-81 0 -126.5 32.5t-45.5 90.5q0 90 114 158.5t280 109.5h53q-94 -35 -155.5 -97z" />
<glyph unicode="&#x119;" horiz-adv-x="961" d="M685.5 110.5q-70.5 -62.5 -162 -101t-195.5 -38.5q-93 0 -166 33t-114.5 98.5t-41.5 157.5q0 182 98.5 376t268.5 322.5t372 128.5q95 0 154 -41.5t59 -119.5q0 -117 -95 -215t-238.5 -167.5t-299.5 -110.5q-12 -74 -12 -140q0 -108 40.5 -153.5t117.5 -45.5 q64 0 144.5 40.5t154.5 127.5l33 -16q-47 -73 -117.5 -135.5zM564 965q-75 -84 -139 -218t-93 -276q143 63 225 137t129 169t47 204q0 38 -8 53t-25 15q-61 0 -136 -84zM358 -90.5q-62 -63.5 -62 -132.5q0 -29 16 -44.5t44 -15.5q32 0 67 17.5t60 44.5l28 -25 q-114 -139 -276 -139q-79 0 -124.5 33t-45.5 90q0 90 114.5 158.5t278.5 109.5h53q-91 -33 -153 -96.5z" />
<glyph unicode="&#x11a;" horiz-adv-x="1282" d="M958 1444q291 0 416 6q-54 -147 -78 -242q-11 -46 -26 -127h-45q3 39 3 73q0 93 -22.5 147t-72 78t-134.5 24h-63q-72 0 -108 -12t-57.5 -46.5t-41.5 -111.5l-128 -483h75q102 0 171 71.5t109 173.5h48q-24 -70 -37.5 -118t-23.5 -88.5t-15 -59.5q-25 -91 -60 -266h-45 q2 28 2 44q0 202 -172 202h-63l-131 -492q-19 -68 -19 -100q0 -29 13.5 -44t42 -20.5t79.5 -5.5h76q112 0 187.5 34.5t135 112t120.5 216.5h47q-22 -54 -45 -148q-32 -108 -54 -262q-139 6 -464 6q-443 0 -666 -6l10 41q74 3 110 16t58 48t43 112l270 1016q17 65 17 99 q0 30 -13.5 46t-42 22.5t-81.5 8.5l10 41q223 -6 665 -6zM810 1869q89 -28 189 -71q212 77 447 121l10 -29q-170 -53 -317.5 -137.5t-237.5 -179.5h-37q-47 114 -111.5 189.5t-173.5 127.5l9 29q133 -22 222 -50z" />
<glyph unicode="&#x11b;" horiz-adv-x="961" d="M685.5 110.5q-70.5 -62.5 -162 -101t-195.5 -38.5q-93 0 -166 33t-114.5 98.5t-41.5 157.5q0 182 98.5 376t268.5 322.5t372 128.5q95 0 154 -41.5t59 -119.5q0 -117 -95 -215t-238.5 -167.5t-299.5 -110.5q-12 -74 -12 -140q0 -108 40.5 -153.5t117.5 -45.5 q64 0 144.5 40.5t154.5 127.5l33 -16q-47 -73 -117.5 -135.5zM564 965q-75 -84 -139 -218t-93 -276q143 63 225 137t129 169t47 204q0 38 -8 53t-25 15q-61 0 -136 -84zM664.5 1615q87.5 -36 167.5 -87q173 95 371 151l10 -28q-148 -65 -278 -173t-212 -229h-36 q-28 145 -83.5 238.5t-160.5 163.5l8 28q126 -28 213.5 -64z" />
<glyph unicode="&#x11c;" horiz-adv-x="1513" d="M1393 1133q0 48 -6 82t-23 67q-40 77 -121.5 118.5t-193.5 41.5q-196 0 -343 -178t-225 -430.5t-78 -460.5q0 -184 72.5 -272.5t220.5 -88.5q88 0 158 43q33 22 50.5 55t33.5 95l47 180q18 68 18 106q0 36 -17 54.5t-52.5 26t-102.5 10.5l11 41q118 -7 348 -7 q199 0 289 7l-11 -41q-49 -4 -73 -16.5t-40.5 -46.5t-37.5 -113l-109 -406h-41q1 9 1 27q0 42 -14.5 66t-43.5 24q-30 0 -62.5 -13t-64.5 -29.5t-45 -23.5q-151 -80 -297 -80q-177 0 -303.5 55t-193 160t-66.5 254q0 237 127 479.5t352 401t504 158.5q84 0 145 -17t104 -45 t87 -71q19 -19 35 -19q39 0 81 123h46q-67 -175 -132 -471h-45q11 83 11 154zM1257.5 1629q-88.5 28 -191.5 71q-214 -77 -445 -121l-10 29q169 53 317 138t238 179h37q48 -115 111.5 -190t172.5 -127l-8 -29q-133 22 -221.5 50z" />
<glyph unicode="&#x11d;" horiz-adv-x="967" d="M73 75q-34 34 -34 81q0 51 40 95.5t117.5 88.5t207.5 100q-144 3 -229 60.5t-85 171.5q0 93 61 189t180 160t283 64q52 0 97 -7q87 170 163 231q60 47 132 47q58 0 92.5 -29t34.5 -84q0 -44 -22 -84.5t-59 -66t-81 -25.5t-70.5 26t-26.5 68q0 32 18 66.5t52 62.5 q-7 4 -15 4q-20 0 -40 -16q-30 -25 -70 -83t-70 -124q92 -21 143.5 -75t51.5 -142q0 -94 -57 -183.5t-161.5 -151.5t-240.5 -76q-97 -42 -147.5 -73.5t-50.5 -60.5q0 -18 22 -31t70 -28l172 -57q109 -36 171 -85.5t62 -130.5q0 -104 -90 -188t-235 -132t-301 -48 q-117 0 -200 19.5t-126 55t-43 83.5q0 68 64.5 107t181.5 80.5t163 60.5l-36 10q-55 16 -89 50zM567 544q49 67 72.5 168.5t24.5 207.5q0 62 -18 95.5t-62 33.5q-70 0 -119 -72.5t-73.5 -176.5t-24.5 -196q0 -70 19 -98.5t60 -28.5q72 0 121 67zM78 -260q0 -96 119 -96 q80 0 165 28.5t141 79t56 111.5q0 23 -15 37t-35 21.5t-71 23.5l-206 60q-154 -129 -154 -265zM792 1313q-87 36 -167 88q-171 -95 -371 -152l-10 29q148 64 277.5 172t211.5 229h37q28 -145 84 -238.5t160 -162.5l-8 -29q-127 28 -214 64z" />
<glyph unicode="&#x11e;" horiz-adv-x="1513" d="M1393 1133q0 48 -6 82t-23 67q-40 77 -121.5 118.5t-193.5 41.5q-196 0 -343 -178t-225 -430.5t-78 -460.5q0 -184 72.5 -272.5t220.5 -88.5q88 0 158 43q33 22 50.5 55t33.5 95l47 180q18 68 18 106q0 36 -17 54.5t-52.5 26t-102.5 10.5l11 41q118 -7 348 -7 q199 0 289 7l-11 -41q-49 -4 -73 -16.5t-40.5 -46.5t-37.5 -113l-109 -406h-41q1 9 1 27q0 42 -14.5 66t-43.5 24q-30 0 -62.5 -13t-64.5 -29.5t-45 -23.5q-151 -80 -297 -80q-177 0 -303.5 55t-193 160t-66.5 254q0 237 127 479.5t352 401t504 158.5q84 0 145 -17t104 -45 t87 -71q19 -19 35 -19q39 0 81 123h46q-67 -175 -132 -471h-45q11 83 11 154zM896.5 1804.5q76.5 -24.5 197.5 -24.5q270 0 467 116l22 -20q-54 -77 -140.5 -145t-189 -110t-200.5 -42q-136 0 -217.5 81.5t-106.5 213.5l31 14q60 -59 136.5 -83.5z" />
<glyph unicode="&#x11f;" horiz-adv-x="967" d="M73 75q-34 34 -34 81q0 51 40 95.5t117.5 88.5t207.5 100q-144 3 -229 60.5t-85 171.5q0 93 61 189t180 160t283 64q52 0 97 -7q87 170 163 231q60 47 132 47q58 0 92.5 -29t34.5 -84q0 -44 -22 -84.5t-59 -66t-81 -25.5t-70.5 26t-26.5 68q0 32 18 66.5t52 62.5 q-7 4 -15 4q-20 0 -40 -16q-30 -25 -70 -83t-70 -124q92 -21 143.5 -75t51.5 -142q0 -94 -57 -183.5t-161.5 -151.5t-240.5 -76q-97 -42 -147.5 -73.5t-50.5 -60.5q0 -18 22 -31t70 -28l172 -57q109 -36 171 -85.5t62 -130.5q0 -104 -90 -188t-235 -132t-301 -48 q-117 0 -200 19.5t-126 55t-43 83.5q0 68 64.5 107t181.5 80.5t163 60.5l-36 10q-55 16 -89 50zM567 544q49 67 72.5 168.5t24.5 207.5q0 62 -18 95.5t-62 33.5q-70 0 -119 -72.5t-73.5 -176.5t-24.5 -196q0 -70 19 -98.5t60 -28.5q72 0 121 67zM78 -260q0 -96 119 -96 q80 0 165 28.5t141 79t56 111.5q0 23 -15 37t-35 21.5t-71 23.5l-206 60q-154 -129 -154 -265zM528.5 1503q58.5 -30 159.5 -30q110 0 219 36.5t197 104.5l22 -21q-49 -82 -128 -155.5t-172 -119.5t-181 -46q-108 0 -171 88t-83 231l31 15q48 -73 106.5 -103z" />
<glyph unicode="&#x120;" horiz-adv-x="1513" d="M1393 1133q0 48 -6 82t-23 67q-40 77 -121.5 118.5t-193.5 41.5q-196 0 -343 -178t-225 -430.5t-78 -460.5q0 -184 72.5 -272.5t220.5 -88.5q88 0 158 43q33 22 50.5 55t33.5 95l47 180q18 68 18 106q0 36 -17 54.5t-52.5 26t-102.5 10.5l11 41q118 -7 348 -7 q199 0 289 7l-11 -41q-49 -4 -73 -16.5t-40.5 -46.5t-37.5 -113l-109 -406h-41q1 9 1 27q0 42 -14.5 66t-43.5 24q-30 0 -62.5 -13t-64.5 -29.5t-45 -23.5q-151 -80 -297 -80q-177 0 -303.5 55t-193 160t-66.5 254q0 237 127 479.5t352 401t504 158.5q84 0 145 -17t104 -45 t87 -71q19 -19 35 -19q39 0 81 123h46q-67 -175 -132 -471h-45q11 83 11 154zM943 1792q27 43 75 66.5t107 23.5q73 0 112 -33.5t39 -93.5q0 -52 -28 -95t-76.5 -68t-108.5 -25q-70 0 -108.5 33t-38.5 92q0 57 27 100z" />
<glyph unicode="&#x121;" horiz-adv-x="967" d="M73 75q-34 34 -34 81q0 51 40 95.5t117.5 88.5t207.5 100q-144 3 -229 60.5t-85 171.5q0 93 61 189t180 160t283 64q52 0 97 -7q87 170 163 231q60 47 132 47q58 0 92.5 -29t34.5 -84q0 -44 -22 -84.5t-59 -66t-81 -25.5t-70.5 26t-26.5 68q0 32 18 66.5t52 62.5 q-7 4 -15 4q-20 0 -40 -16q-30 -25 -70 -83t-70 -124q92 -21 143.5 -75t51.5 -142q0 -94 -57 -183.5t-161.5 -151.5t-240.5 -76q-97 -42 -147.5 -73.5t-50.5 -60.5q0 -18 22 -31t70 -28l172 -57q109 -36 171 -85.5t62 -130.5q0 -104 -90 -188t-235 -132t-301 -48 q-117 0 -200 19.5t-126 55t-43 83.5q0 68 64.5 107t181.5 80.5t163 60.5l-36 10q-55 16 -89 50zM567 544q49 67 72.5 168.5t24.5 207.5q0 62 -18 95.5t-62 33.5q-70 0 -119 -72.5t-73.5 -176.5t-24.5 -196q0 -70 19 -98.5t60 -28.5q72 0 121 67zM78 -260q0 -96 119 -96 q80 0 165 28.5t141 79t56 111.5q0 23 -15 37t-35 21.5t-71 23.5l-206 60q-154 -129 -154 -265zM541 1495.5q27 43.5 74 67.5t107 24q74 0 113 -32.5t39 -92.5q0 -52 -28 -95.5t-77 -69t-108 -25.5q-70 0 -108.5 32t-38.5 91q0 57 27 100.5z" />
<glyph unicode="&#x122;" horiz-adv-x="1513" d="M1393 1133q0 48 -6 82t-23 67q-40 77 -121.5 118.5t-193.5 41.5q-196 0 -343 -178t-225 -430.5t-78 -460.5q0 -184 72.5 -272.5t220.5 -88.5q88 0 158 43q33 22 50.5 55t33.5 95l47 180q18 68 18 106q0 36 -17 54.5t-52.5 26t-102.5 10.5l11 41q118 -7 348 -7 q199 0 289 7l-11 -41q-49 -4 -73 -16.5t-40.5 -46.5t-37.5 -113l-109 -406h-41q1 9 1 27q0 42 -14.5 66t-43.5 24q-30 0 -62.5 -13t-64.5 -29.5t-45 -23.5q-151 -80 -297 -80q-177 0 -303.5 55t-193 160t-66.5 254q0 237 127 479.5t352 401t504 158.5q84 0 145 -17t104 -45 t87 -71q19 -19 35 -19q39 0 81 123h46q-67 -175 -132 -471h-45q11 83 11 154zM672.5 -414.5q56.5 31.5 66.5 78.5q-49 -35 -118 -35q-58 0 -90.5 25.5t-32.5 75.5q0 46 25 83t67.5 57.5t93.5 20.5q58 0 98.5 -33t40.5 -94q0 -107 -77.5 -175t-204.5 -83l-6 39 q81 9 137.5 40.5z" />
<glyph unicode="&#x123;" horiz-adv-x="967" d="M1007 1467.5q-57 -31.5 -67 -78.5q49 35 118 35q58 0 90.5 -25.5t32.5 -75.5q0 -66 -51 -113q-12 -58 -57 -100.5t-102 -42.5q-44 0 -70.5 26t-26.5 68q0 23 9 47q-16 18 -22 42q-64 -73 -112 -179q195 -45 195 -217q0 -94 -57 -183.5t-161.5 -152t-240.5 -75.5 q-97 -42 -147.5 -73.5t-50.5 -60.5q0 -18 22 -31t70 -28l172 -57q109 -36 171 -85.5t62 -130.5q0 -104 -90 -188t-235 -132t-301 -48q-117 0 -200 19.5t-126 55t-43 83.5q0 68 64.5 107t181.5 80.5t163 60.5l-36 10q-55 16 -89 50t-34 81q0 51 40 95.5t117.5 88t207.5 100.5 q-144 3 -229 60.5t-85 171.5q0 93 61 189t180 160t283 64q55 0 97 -7q76 151 145 215q3 101 76 168.5t206 85.5l6 -39q-80 -9 -137 -40.5zM567 544q49 67 72.5 168.5t24.5 207.5q0 62 -18 95.5t-62 33.5q-70 0 -119 -72.5t-73.5 -176.5t-24.5 -196q0 -70 19 -98.5t60 -28.5 q72 0 121 67zM78 -260q0 -96 119 -96q80 0 165 28.5t141 79t56 111.5q0 23 -15 37t-35 21.5t-71 23.5l-206 60q-154 -129 -154 -265z" />
<glyph unicode="&#x124;" horiz-adv-x="1659" d="M1473 1444q224 0 337 6l-10 -41q-75 -3 -111.5 -16t-58 -48t-41.5 -112l-270 -1016q-18 -70 -18 -100t13.5 -45.5t42.5 -22t83 -8.5l-8 -41q-111 6 -336 6q-208 0 -322 -6l8 41q74 3 111 16t58.5 48t41.5 112l131 492h-534l-131 -492q-18 -70 -18 -100t13.5 -45.5 t42.5 -22t83 -8.5l-9 -41q-113 6 -321 6q-223 0 -334 -6l10 41q71 3 107 16t58 48.5t42 111.5l270 1016q17 65 17 99q0 30 -13.5 46t-42 22.5t-81.5 8.5l10 41q103 -6 334 -6q197 0 323 6l-10 -41q-75 -3 -111.5 -16t-58 -48t-41.5 -112l-128 -483h534l129 483q18 63 18 98 q0 31 -14 47t-43 22.5t-82 8.5l10 41q111 -6 320 -6zM1262.5 1629q-88.5 28 -191.5 71q-214 -77 -445 -121l-10 29q169 53 317 138t238 179h37q48 -115 111.5 -190t172.5 -127l-8 -29q-133 22 -221.5 50z" />
<glyph unicode="&#x125;" horiz-adv-x="1167" d="M1024 182q-72 -211 -274 -211q-187 0 -187 167q0 69 31 159l182 553q19 57 19 90q0 45 -39 45q-58 0 -136.5 -106.5t-160 -286.5t-149.5 -393l-51 -173l-1 -6v1l-6 -21h-289l406 1366q10 37 10 57q0 41 -32 59.5t-107 18.5l12 43q267 3 477 84l-279 -951 q72 156 140.5 245.5t139.5 127t157 37.5q96 0 140.5 -44t44.5 -120q0 -66 -28 -145l-200 -604q-12 -37 -12 -59q0 -43 40 -43q69 0 127 161l37 99h39zM1026 1805q-87 36 -167 88q-171 -95 -371 -152l-10 29q148 64 277.5 172t211.5 229h37q28 -145 84 -238.5t160 -162.5 l-8 -29q-127 28 -214 64z" />
<glyph unicode="&#x126;" horiz-adv-x="1659" d="M1691.5 1393q-36.5 -13 -58 -48t-41.5 -112l-37 -141h182l-11 -41h-182l-222 -834q-18 -70 -18 -100t13.5 -45.5t42.5 -22t83 -8.5l-8 -41q-111 6 -336 6q-208 0 -322 -6l8 41q74 3 111 16t58.5 48t41.5 112l131 492h-534l-131 -492q-18 -70 -18 -100t13.5 -45.5 t42.5 -22t83 -8.5l-9 -41q-112 6 -321 6q-223 0 -334 -6l10 41q71 3 107 16t58 48.5t42 111.5l222 834h-170l11 41h170l37 141q17 65 17 99q0 30 -13.5 46t-42 22.5t-81.5 8.5l10 41q104 -6 334 -6q197 0 323 6l-10 -41q-75 -3 -111.5 -16t-58 -48t-41.5 -112l-37 -141h534 l38 141q18 63 18 98q0 31 -14 47t-43 22.5t-82 8.5l10 41q111 -6 320 -6q225 0 337 6l-10 -41q-75 -3 -111.5 -16zM684 1051l-80 -301h534l80 301h-534z" />
<glyph unicode="&#x127;" horiz-adv-x="1167" d="M1024 182q-72 -211 -274 -211q-187 0 -187 167q0 69 31 159l182 553q19 57 19 90q0 45 -39 45q-58 0 -136.5 -106.5t-160 -286.5t-149.5 -393l-51 -173l-1 -6v1l-6 -21h-289l370 1245h-175l12 41h175l24 80q10 37 10 57q0 41 -32 59.5t-107 18.5l12 43q267 3 477 84 l-100 -342h319l-12 -41h-319l-167 -568q72 156 140.5 246t139.5 127t157 37q96 0 140.5 -44t44.5 -120q0 -66 -28 -145l-200 -604q-12 -37 -12 -59q0 -43 40 -43q69 0 127 161l37 99h39z" />
<glyph unicode="&#x128;" d="M441 117q0 -30 13.5 -45.5t42.5 -22t83 -8.5l-9 -41q-118 6 -333 6q-214 0 -322 -6l10 41q71 3 107 16t58 48.5t42 111.5l270 1016q17 65 17 99q0 30 -13.5 46t-42 22.5t-81.5 8.5l10 41q101 -6 321 -6q204 0 336 6l-10 -41q-75 -3 -111.5 -16t-58 -48t-41.5 -112 l-270 -1016q-18 -70 -18 -100zM412.5 1828q91.5 70 193.5 70q73 0 121.5 -21t123 -74.5t144.5 -53.5q44 0 82.5 28t75.5 91l37 -10q-55 -144 -146.5 -214.5t-193.5 -70.5q-72 0 -120 21t-123.5 74.5t-145.5 53.5q-45 0 -83 -27.5t-75 -90.5l-37 10q55 144 146.5 214z" />
<glyph unicode="&#x129;" horiz-adv-x="659" d="M297 945q0 42 -35 42q-39 0 -70 -37.5t-63 -124.5l-39 -104h-39l55 156q76 210 285 210q95 0 138 -46t43 -121q0 -56 -21 -119l-217 -627q-12 -36 -12 -59q0 -43 40 -43q32 0 64 34.5t66 126.5l36 99h39l-51 -150q-74 -211 -276 -211q-187 0 -187 168q0 69 31 158 l201 588q12 38 12 60zM230 1539.5q84 70.5 178 70.5q59 0 97.5 -21.5t98.5 -75t116 -53.5q41 0 75.5 28t69.5 91l37 -10q-53 -144 -137 -214.5t-178 -70.5q-59 0 -97.5 21.5t-98.5 75t-116 53.5q-41 0 -75.5 -28t-69.5 -91l-37 10q53 144 137 214.5z" />
<glyph unicode="&#x12a;" d="M441 117q0 -30 13.5 -45.5t42.5 -22t83 -8.5l-9 -41q-118 6 -333 6q-214 0 -322 -6l10 41q71 3 107 16t58 48.5t42 111.5l270 1016q17 65 17 99q0 30 -13.5 46t-42 22.5t-81.5 8.5l10 41q101 -6 321 -6q204 0 336 6l-10 -41q-75 -3 -111.5 -16t-58 -48t-41.5 -112 l-270 -1016q-18 -70 -18 -100zM257 1677l12 52h820l-13 -52h-819z" />
<glyph unicode="&#x12b;" horiz-adv-x="659" d="M297 945q0 42 -35 42q-39 0 -70 -37.5t-63 -124.5l-39 -104h-39l55 156q76 210 285 210q95 0 138 -46t43 -121q0 -56 -21 -119l-217 -627q-12 -36 -12 -59q0 -43 40 -43q32 0 64 34.5t66 126.5l36 99h39l-51 -150q-74 -211 -276 -211q-187 0 -187 168q0 69 31 158 l201 588q12 38 12 60zM189.345 1407.09l10.2002 51.0029h584.783l-10.2002 -51.0029h-584.783z" />
<glyph unicode="&#x12c;" d="M441 117q0 -30 13.5 -45.5t42.5 -22t83 -8.5l-9 -41q-118 6 -333 6q-214 0 -322 -6l10 41q71 3 107 16t58 48.5t42 111.5l270 1016q17 65 17 99q0 30 -13.5 46t-42 22.5t-81.5 8.5l10 41q101 -6 321 -6q204 0 336 6l-10 -41q-75 -3 -111.5 -16t-58 -48t-41.5 -112 l-270 -1016q-18 -70 -18 -100zM514.5 1804.5q76.5 -24.5 197.5 -24.5q270 0 467 116l22 -20q-54 -77 -140.5 -145t-189 -110t-200.5 -42q-136 0 -217.5 81.5t-106.5 213.5l31 14q60 -59 136.5 -83.5z" />
<glyph unicode="&#x12d;" horiz-adv-x="659" d="M297 945q0 42 -35 42q-39 0 -70 -37.5t-63 -124.5l-39 -104h-39l55 156q76 210 285 210q95 0 138 -46t43 -121q0 -56 -21 -119l-217 -627q-12 -36 -12 -59q0 -43 40 -43q32 0 64 34.5t66 126.5l36 99h39l-51 -150q-74 -211 -276 -211q-187 0 -187 168q0 69 31 158 l201 588q12 38 12 60zM339.5 1503q58.5 -30 159.5 -30q110 0 219 36.5t197 104.5l22 -21q-49 -82 -128 -155.5t-172 -119.5t-181 -46q-108 0 -171 88t-83 231l31 15q48 -73 106.5 -103z" />
<glyph unicode="&#x12e;" d="M441 117q0 -30 13.5 -45.5t42.5 -22t83 -8.5l-9 -41q-118 6 -333 6q-214 0 -322 -6l10 41q71 3 107 16t58 48.5t42 111.5l270 1016q17 65 17 99q0 30 -13.5 46t-42 22.5t-81.5 8.5l10 41q101 -6 321 -6q204 0 336 6l-10 -41q-75 -3 -111.5 -16t-58 -48t-41.5 -112 l-270 -1016q-18 -70 -18 -100zM409.5 -91q-61.5 -62 -61.5 -130q0 -62 67 -62q33 0 74.5 12.5t77.5 32.5l22 -34q-141 -113 -299 -113q-81 0 -126.5 32.5t-45.5 90.5q0 90 114 158.5t280 109.5h53q-94 -35 -155.5 -97z" />
<glyph unicode="&#x12f;" horiz-adv-x="659" d="M389.5 1493.5q27.5 43.5 75 66.5t106.5 23q73 0 112.5 -33.5t39.5 -93.5q0 -54 -28.5 -97t-77 -67t-107.5 -24q-70 0 -109 32.5t-39 88.5q0 61 27.5 104.5zM298 947q0 40 -36 40q-37 0 -68 -37.5t-63 -124.5l-41 -104h-39l58 156q74 210 284 210q95 0 138 -45.5 t43 -119.5q0 -57 -23 -121l-215 -627q-12 -36 -12 -59q0 -43 41 -43q31 0 62 34.5t67 126.5l36 99h39l-53 -150q-72 -211 -276 -211q-186 0 -186 169q0 69 30 157l201 588q13 36 13 62zM226 -90.5q-62 -63.5 -62 -132.5q0 -29 16 -44.5t44 -15.5q32 0 67 17.5t60 44.5 l28 -25q-114 -139 -276 -139q-79 0 -124.5 33t-45.5 90q0 90 114.5 158.5t278.5 109.5h53q-91 -33 -153 -96.5z" />
<glyph unicode="&#x130;" d="M441 117q0 -30 13.5 -45.5t42.5 -22t83 -8.5l-9 -41q-118 6 -333 6q-214 0 -322 -6l10 41q71 3 107 16t58 48.5t42 111.5l270 1016q17 65 17 99q0 30 -13.5 46t-42 22.5t-81.5 8.5l10 41q101 -6 321 -6q204 0 336 6l-10 -41q-75 -3 -111.5 -16t-58 -48t-41.5 -112 l-270 -1016q-18 -70 -18 -100zM561 1792q27 43 75 66.5t107 23.5q73 0 112 -33.5t39 -93.5q0 -52 -28 -95t-76.5 -68t-108.5 -25q-70 0 -108.5 33t-38.5 92q0 57 27 100z" />
<glyph unicode="&#x131;" horiz-adv-x="659" d="M297 945q0 42 -35 42q-39 0 -70 -37.5t-63 -124.5l-39 -104h-39l55 156q76 210 285 210q95 0 138 -46t43 -121q0 -56 -21 -119l-217 -627q-12 -36 -12 -59q0 -43 40 -43q32 0 64 34.5t66 126.5l36 99h39l-51 -150q-74 -211 -276 -211q-187 0 -187 168q0 69 31 158 l201 588q12 38 12 60z" />
<glyph unicode="&#x132;" horiz-adv-x="1753" d="M278 1057q-73 68 -73 180q0 81 41.5 143.5t121.5 97.5t191 35q119 0 208.5 -26.5t264.5 -103t340 -76.5q211 0 406 79q77 120 127 120q14 0 28 -11q13 -11 13 -25q0 -50 -150 -106q-112 -99 -183.5 -246.5t-130.5 -367.5h214l-8 -41h-216l-14 -54l-125 -522 q-56 -232 -201.5 -375t-398.5 -143q-131 0 -210 38t-79 120q0 42 20.5 76.5t59.5 54.5t92 20q71 0 115.5 -33.5t44.5 -93.5q0 -92 -110 -141q18 -6 57 -6q78 0 126 58t77 147t80 288l110 420q20 78 46 146h-267l8 41h275q56 133 136.5 233t175 176t247.5 182 q-86 -26 -207 -79t-197 -77t-176 -24q-82 0 -153 13t-220.5 51.5t-267.5 38.5q-164 0 -164 -115q0 -76 81 -117t212 -41q97 0 168 19t141 57l17 -35q-86 -46 -170 -66l-226 -749q-21 -68 -21 -100q0 -42 31.5 -58t110.5 -18l-8 -41q-120 6 -334 6t-321 -6l10 41 q70 3 104.5 16.5t56 48t46.5 111.5l224 746q-123 26 -196 94z" />
<glyph unicode="&#x133;" horiz-adv-x="1286" d="M381 1491.5q27 43.5 74 67.5t107 24q74 0 113 -32.5t39 -92.5q0 -52 -28 -95.5t-77 -69t-108 -25.5q-70 0 -108.5 32t-38.5 91q0 57 27 100.5zM1050 1491.5q27 43.5 74 67.5t107 24q74 0 113 -32.5t39 -92.5q0 -52 -28 -95.5t-77 -69t-108 -25.5q-70 0 -108.5 32 t-38.5 91q0 57 27 100.5zM325 125q0 -31 18.5 -48.5t53.5 -17.5q46 0 88.5 31.5t71.5 97.5q31 69 48 148t45.5 261t70.5 284q45 110 130 158t189 48q100 0 144.5 -47.5t44.5 -125.5q0 -48 -17 -113l-157 -565q-61 -220 -132.5 -345t-174.5 -186q-122 -90 -293 -90 q-98 0 -146.5 31.5t-48.5 89.5q0 39 21.5 73.5t58 55t78.5 20.5q54 0 87.5 -32t33.5 -76q0 -35 -21.5 -71.5t-58.5 -59.5q78 9 124.5 58t78.5 163l286 1018q8 27 8 45q0 28 -14 42.5t-39 14.5q-49 0 -88 -38t-72 -122q-28 -79 -52 -234t-43.5 -251.5t-61.5 -189.5 q-46 -102 -122 -141.5t-175 -39.5q-114 0 -172.5 48t-58.5 139q0 64 26 139l201 588q13 38 13 62q0 40 -36 40q-39 0 -70 -37.5t-63 -124.5l-39 -104h-39l55 156q76 210 285 210q95 0 138.5 -45.5t43.5 -119.5q0 -53 -22 -121l-217 -627q-9 -27 -9 -49z" />
<glyph unicode="&#x134;" horiz-adv-x="1399" d="M958.5 980.5q86.5 101.5 190.5 183t252 177.5q-77 -26 -185.5 -79t-176.5 -77t-158 -24q-60 0 -113 14t-154.5 51.5t-171.5 37.5q-58 0 -91.5 -30t-33.5 -87q3 -137 232 -158l-6 -39q-162 13 -259.5 87.5t-97.5 208.5q0 79 33 139.5t98.5 94t159.5 33.5q132 0 250 -68.5 t189 -103t182 -34.5q175 0 346 79q77 120 128 120q14 0 27 -11t13 -25q0 -50 -150 -106q-121 -97 -205.5 -250t-147.5 -364h204l-6 -41h-210l-22 -80l-127 -496q-59 -233 -206.5 -375.5t-399.5 -142.5q-130 0 -208.5 37t-78.5 117q0 67 46 111t126 44q70 0 114.5 -32.5 t45.5 -90.5q0 -95 -113 -145q19 -6 58 -6q78 0 127 58t80 148t84 287l110 394q25 92 60 172h-279l6 41h291q61 129 147.5 230.5zM1282.5 1629q-88.5 28 -191.5 71q-214 -77 -445 -121l-10 29q169 53 317 138t238 179h37q48 -115 111.5 -190t172.5 -127l-8 -29 q-133 22 -221.5 50z" />
<glyph unicode="&#x135;" horiz-adv-x="616" d="M252.5 -109q-71.5 -125 -174.5 -186q-122 -90 -293 -90q-98 0 -146.5 31.5t-48.5 89.5q0 39 21.5 73.5t58 55t78.5 20.5q54 0 87.5 -32t33.5 -76q0 -35 -21.5 -71.5t-58.5 -59.5q78 9 124.5 58.5t78.5 162.5l287 1018q11 42 11 63q0 39 -36 39q-35 0 -66.5 -38 t-62.5 -124l-39 -104h-39l55 156q39 112 114.5 161t170.5 49q175 0 175 -161q0 -52 -19 -125l-158 -565q-61 -220 -132.5 -345zM631 1313q-87 36 -167 88q-171 -95 -371 -152l-10 29q148 64 277.5 172t211.5 229h37q28 -145 84 -238.5t160 -162.5l-8 -29q-127 28 -214 64z " />
<glyph unicode="&#x136;" horiz-adv-x="1516" d="M876 602q0 51 -12 81t-40 52q-85 -22 -125 -22q-53 0 -53 34l1 9q6 41 60 41q39 0 120 -21q131 18 191 113.5t116.5 283.5t114.5 246q60 60 146 60q90 0 142 -51.5t50 -135.5q0 -47 -21.5 -93t-64 -75.5t-100.5 -29.5t-96.5 36t-38.5 97t41 118.5t110 88.5q-12 6 -33 6 q-36 0 -59 -11t-45 -34q-50 -55 -105 -230t-111 -275.5t-177 -127.5q107 -12 170 -42.5t92 -86t29 -144.5q0 -40 -4 -77l-23 -215l-1 -14q0 -62 52 -62q39 0 66 30t49 93l35 104h41l-54 -158q-37 -111 -109 -165t-165 -54q-116 0 -177 56t-61 154q0 14 4 48l39 287 q6 51 6 86zM441 117q0 -30 13.5 -45.5t42.5 -22t83 -8.5l-9 -41q-113 6 -321 6q-223 0 -334 -6l10 41q71 3 107 16t58 48.5t42 111.5l270 1016q17 65 17 99q0 30 -13.5 46t-42 22.5t-81.5 8.5l10 41q103 -6 334 -6q197 0 323 6l-10 -41q-75 -3 -111.5 -16t-58 -48 t-41.5 -112l-270 -1016q-18 -70 -18 -100zM592.5 -414.5q56.5 31.5 66.5 78.5q-49 -35 -118 -35q-58 0 -90.5 25.5t-32.5 75.5q0 46 25 83t67.5 57.5t93.5 20.5q58 0 98.5 -33t40.5 -94q0 -107 -77.5 -175t-204.5 -83l-6 39q81 9 137.5 40.5z" />
<glyph unicode="&#x137;" horiz-adv-x="1130" d="M590.5 692.5q50.5 63.5 98 186t95.5 161.5q58 47 127 47q93 0 142 -52t49 -131q0 -51 -21.5 -92t-60.5 -65t-90 -24q-63 0 -98 34t-33 85q0 59 38.5 108t96.5 80q-4 7 -14 12t-19 5q-47 0 -86 -31q-41 -34 -86 -147.5t-89.5 -180t-138.5 -90.5q154 -3 249 -55t95 -170 q0 -32 -7 -64l-31 -151q-6 -29 -6 -46q0 -22 9 -31t28 -9q66 0 125 161l36 99h39l-51 -150q-74 -211 -295 -211q-83 0 -126.5 41.5t-43.5 120.5q0 38 8 74l35 158q12 48 12 83q0 59 -36 90t-119 43l-170 -581h-289l406 1366q10 37 10 57q0 41 -32 59.5t-107 18.5l12 43 q267 3 477 84l-298 -1016q109 17 159.5 80.5zM11 -414.5q57 31.5 67 78.5q-49 -35 -118 -35q-58 0 -90.5 25.5t-32.5 75.5q0 44 24.5 81t66.5 58.5t93 21.5q59 0 100 -32.5t41 -91.5q0 -104 -73 -173.5t-209 -87.5l-6 39q80 9 137 40.5z" />
<glyph unicode="&#x138;" horiz-adv-x="1212" d="M635.5 643q55.5 74 107 215t99.5 182q60 47 129 47q63 0 105.5 -25.5t63 -68t19.5 -94.5q0 -50 -21.5 -90t-60 -63t-88.5 -23q-64 0 -98.5 34t-34.5 85q1 59 40 108.5t97 79.5q-14 17 -32 17q-47 0 -89 -31q-41 -35 -88.5 -164t-95 -206.5t-144.5 -104.5q339 -7 339 -235 q0 -29 -4 -54l-15 -94q-4 -34 -4 -43q0 -24 8.5 -33.5t26.5 -9.5q69 0 127 161l35 99h39l-49 -150q-75 -211 -295 -211q-172 0 -172 160q0 31 8 76l20 100q9 45 9 80q0 64 -37 95.5t-125 42.5l-136 -525h-288l250 885q12 42 12 66q0 36 -35 36q-38 0 -69 -36.5t-64 -125.5 l-39 -104h-39l55 156q40 112 107.5 161t161.5 49q174 0 174 -164q0 -49 -19 -122l-64 -248q118 16 173.5 90z" />
<glyph unicode="&#x139;" horiz-adv-x="1239" d="M1102 262q-31 -105 -55 -262q-140 6 -465 6q-447 0 -670 -6l10 41q74 3 110 16t58 48t43 112l270 1016q17 65 17 99q0 30 -13.5 46t-42 22.5t-81.5 8.5l10 41q108 -6 338 -6q193 0 319 6l-10 -41q-75 -3 -111.5 -16t-58.5 -48t-43 -112l-270 -1016q-18 -70 -18 -100 q0 -29 13.5 -44t42 -20.5t80.5 -5.5h82q146 0 257 89t192 294h45q-24 -64 -49 -168zM684.5 1759.5q84.5 79.5 123.5 114.5t87 61q41 23 88 23q71 0 98 -55q11 -22 11 -42q0 -65 -92 -116q-36 -20 -78.5 -34.5t-165 -49.5t-236.5 -80l-14 25q94 74 178.5 153.5z" />
<glyph unicode="&#x13a;" horiz-adv-x="614" d="M282 122q0 -50 44 -50q63 0 123 161l36 99h39l-51 -150q-39 -115 -112.5 -163t-159.5 -48q-94 0 -140 48t-46 135q0 64 24 143l321 1069q10 37 10 58q0 40 -32 58.5t-107 18.5l15 43q141 1 254 22t221 62l-430 -1454q-9 -31 -9 -52zM572.5 1853.5q84.5 79.5 123.5 114.5 t87 61q41 23 88 23q71 0 98 -55q11 -22 11 -42q0 -65 -92 -116q-36 -20 -78.5 -34.5t-165 -49.5t-236.5 -80l-14 25q94 74 178.5 153.5z" />
<glyph unicode="&#x13b;" horiz-adv-x="1239" d="M1102 262q-31 -105 -55 -262q-140 6 -465 6q-447 0 -670 -6l10 41q74 3 110 16t58 48t43 112l270 1016q17 65 17 99q0 30 -13.5 46t-42 22.5t-81.5 8.5l10 41q108 -6 338 -6q193 0 319 6l-10 -41q-75 -3 -111.5 -16t-58.5 -48t-43 -112l-270 -1016q-18 -70 -18 -100 q0 -29 13.5 -44t42 -20.5t80.5 -5.5h82q146 0 257 89t192 294h45q-24 -64 -49 -168zM572.5 -414.5q56.5 31.5 66.5 78.5q-49 -35 -118 -35q-58 0 -90.5 25.5t-32.5 75.5q0 46 25 83t67.5 57.5t93.5 20.5q58 0 98.5 -33t40.5 -94q0 -107 -77.5 -175t-204.5 -83l-6 39 q81 9 137.5 40.5z" />
<glyph unicode="&#x13c;" horiz-adv-x="614" d="M282 122q0 -50 44 -50q63 0 123 161l36 99h39l-51 -150q-39 -115 -112.5 -163t-159.5 -48q-94 0 -140 48t-46 135q0 64 24 143l321 1069q10 37 10 58q0 40 -32 58.5t-107 18.5l15 43q141 1 254 22t221 62l-430 -1454q-9 -31 -9 -52zM-190 -414.5q57 31.5 67 78.5 q-49 -35 -118 -35q-58 0 -90.5 25.5t-32.5 75.5q0 44 24.5 81t66.5 58.5t93 21.5q59 0 100 -32.5t41 -91.5q0 -104 -73 -173.5t-209 -87.5l-6 39q80 9 137 40.5z" />
<glyph unicode="&#x13d;" horiz-adv-x="1239" d="M1102 262q-31 -105 -55 -262q-140 6 -465 6q-447 0 -670 -6l10 41q74 3 110 16t58 48t43 112l270 1016q17 65 17 99q0 30 -13.5 46t-42 22.5t-81.5 8.5l10 41q108 -6 338 -6q193 0 319 6l-10 -41q-75 -3 -111.5 -16t-58.5 -48t-43 -112l-270 -1016q-18 -70 -18 -100 q0 -29 13.5 -44t42 -20.5t80.5 -5.5h82q146 0 257 89t192 294h45q-24 -64 -49 -168zM1014 1223.5q30 100.5 30 144.5q0 20 -12 29.5t-43 9.5l6 43q24 0 44.5 -1t39.5 -1q101 0 199 25q2 -5 2 -21q0 -74 -87 -197.5t-241 -269.5l-29 8q61 130 91 230.5z" />
<glyph unicode="&#x13e;" horiz-adv-x="614" d="M282 122q0 -50 44 -50q63 0 123 161l36 99h39l-51 -150q-39 -115 -112.5 -163t-159.5 -48q-94 0 -140 48t-46 135q0 64 24 143l321 1069q10 37 10 58q0 40 -32 58.5t-107 18.5l15 43q141 1 254 22t221 62l-430 -1454q-9 -31 -9 -52zM762 1349q31 106 31 152q0 39 -27 39 l7 43q15 0 29 -1t28 -1q102 0 196 25q3 -4 3 -21q0 -77 -88.5 -206.5t-243.5 -280.5l-29 8q63 137 94 243z" />
<glyph unicode="&#x13f;" horiz-adv-x="1272" d="M1102 262q-31 -105 -55 -262q-140 6 -465 6q-447 0 -670 -6l10 41q74 3 110 16t58 48t43 112l270 1016q17 65 17 99q0 30 -13.5 46t-42 22.5t-81.5 8.5l10 41q108 -6 338 -6q193 0 319 6l-10 -41q-75 -3 -111.5 -16t-58.5 -48t-43 -112l-270 -1016q-18 -70 -18 -100 q0 -29 13.5 -44t42 -20.5t80.5 -5.5h82q146 0 257 89t192 294h45q-24 -64 -49 -168zM960.5 818q26.5 44 72.5 69t100 25q64 0 100.5 -32.5t36.5 -89.5q0 -50 -26.5 -95t-72.5 -72t-100 -27q-65 0 -101 33t-36 91q0 54 26.5 98z" />
<glyph unicode="&#x140;" horiz-adv-x="942" d="M282 122q0 -50 44 -50q63 0 123 161l36 99h39l-51 -150q-39 -115 -112.5 -163t-159.5 -48q-94 0 -140 48t-46 135q0 64 24 143l321 1069q10 37 10 58q0 40 -32 58.5t-107 18.5l15 43q141 1 254 22t221 62l-430 -1454q-9 -31 -9 -52zM605.5 665q26.5 44 72.5 69t100 25 q64 0 100.5 -32.5t36.5 -89.5q0 -50 -26.5 -95t-72.5 -72t-100 -27q-65 0 -101 33t-36 91q0 54 26.5 98z" />
<glyph unicode="&#x141;" horiz-adv-x="1241" d="M1105 262q-31 -105 -55 -262q-140 6 -465 6q-447 0 -670 -6l10 41q74 3 110 16t58 48t43 112l81 306l-184 -93l12 47l185 93l176 663q17 65 17 99q0 30 -13.5 46t-42 22.5t-81.5 8.5l10 41q108 -6 338 -6q193 0 319 6l-10 -41q-75 -3 -111.5 -16t-58.5 -48t-43 -112 l-132 -496l461 232l-12 -47l-461 -232l-126 -473q-18 -70 -18 -100q0 -29 13.5 -44t42 -20.5t80.5 -5.5h82q146 0 257 89t192 294h45q-24 -64 -49 -168z" />
<glyph unicode="&#x142;" horiz-adv-x="655" d="M300 122q0 -50 44 -50q63 0 123 161l36 99h39l-51 -150q-39 -115 -112.5 -163t-159.5 -48q-94 0 -140 48t-46 135q0 64 24 143l99 329l-172 -116l8 61l185 124l201 671q10 37 10 58q0 40 -32 58.5t-107 18.5l15 43q141 1 254 22t221 62l-228 -772l249 166l-8 -61 l-262 -174l-181 -613q-9 -31 -9 -52z" />
<glyph unicode="&#x143;" horiz-adv-x="1690" d="M1495 1413q90 131 221 131q61 0 105 -23t67 -62.5t23 -88.5q0 -52 -24 -94.5t-67 -67t-96 -24.5q-67 0 -104 33.5t-37 89.5q0 67 43.5 118t110.5 72q-8 8 -33 8q-98 0 -172 -108q-91 -136 -189 -477t-223 -930h-45l-508 1112q-88 -435 -167 -732t-152 -393 q-45 -60 -95.5 -94.5t-123.5 -34.5q-61 0 -104.5 23t-66 63t-22.5 89q0 52 24 94.5t66.5 67t96.5 24.5q66 0 103.5 -34t37.5 -89q0 -67 -44 -118.5t-112 -71.5q10 -9 35 -9q105 0 172 111q77 120 158.5 431t177.5 802v2q13 62 13 92q0 33 -14.5 50.5t-47.5 24.5t-96 9l10 41 q65 -6 182 -6q95 0 166 6l424 -972q171 738 307 935zM1168.5 1759.5q84.5 79.5 123.5 114.5t87 61q41 23 88 23q71 0 98 -55q11 -22 11 -42q0 -65 -92 -116q-36 -20 -78.5 -34.5t-165 -49.5t-236.5 -80l-14 25q94 74 178.5 153.5z" />
<glyph unicode="&#x144;" horiz-adv-x="1235" d="M1094 182q-74 -211 -275 -211q-115 0 -164 68q-26 40 -26 95q0 62 33 163l184 553q19 59 19 88q0 47 -40 47q-61 0 -148 -124t-175 -327t-153 -428l-27 -106h-289l248 885q12 43 12 65q0 37 -35 37q-38 0 -68 -36t-63 -126l-39 -104h-39l55 156q39 112 105 161t160 49 q176 0 176 -168q0 -52 -17 -118l-64 -249q84 208 161 324.5t155.5 163.5t175.5 47q185 0 185 -164q0 -62 -27 -145l-201 -604q-12 -33 -12 -60q0 -42 39 -42q33 0 64 34t65 127l37 99h39zM764 1444q59 100 87 144.5t66 82.5q51 54 111 54q43 0 75 -31q27 -27 27 -62 q0 -55 -60 -112q-29 -29 -65.5 -55t-144 -94.5t-203.5 -143.5l-21 20q69 97 128 197z" />
<glyph unicode="&#x145;" horiz-adv-x="1690" d="M1495 1413q90 131 221 131q61 0 105 -23t67 -62.5t23 -88.5q0 -52 -24 -94.5t-67 -67t-96 -24.5q-67 0 -104 33.5t-37 89.5q0 67 43.5 118t110.5 72q-8 8 -33 8q-98 0 -172 -108q-91 -136 -189 -477t-223 -930h-45l-508 1112q-88 -435 -167 -732t-152 -393 q-45 -60 -95.5 -94.5t-123.5 -34.5q-61 0 -104.5 23t-66 63t-22.5 89q0 52 24 94.5t66.5 67t96.5 24.5q66 0 103.5 -34t37.5 -89q0 -67 -44 -118.5t-112 -71.5q10 -9 35 -9q105 0 172 111q77 120 158.5 431t177.5 802v2q13 62 13 92q0 33 -14.5 50.5t-47.5 24.5t-96 9l10 41 q65 -6 182 -6q95 0 166 6l424 -972q171 738 307 935zM650.5 -414.5q56.5 31.5 66.5 78.5q-49 -35 -118 -35q-58 0 -90.5 25.5t-32.5 75.5q0 46 25 83t67.5 57.5t93.5 20.5q58 0 98.5 -33t40.5 -94q0 -107 -77.5 -175t-204.5 -83l-6 39q81 9 137.5 40.5z" />
<glyph unicode="&#x146;" horiz-adv-x="1235" d="M1094 182q-74 -211 -275 -211q-115 0 -164 68q-26 40 -26 95q0 62 33 163l184 553q19 59 19 88q0 47 -40 47q-61 0 -148 -124t-175 -327t-153 -428l-27 -106h-289l248 885q12 43 12 65q0 37 -35 37q-38 0 -68 -36t-63 -126l-39 -104h-39l55 156q39 112 105 161t160 49 q176 0 176 -168q0 -52 -17 -118l-64 -249q84 208 161 324.5t155.5 163.5t175.5 47q185 0 185 -164q0 -62 -27 -145l-201 -604q-12 -33 -12 -60q0 -42 39 -42q33 0 64 34t65 127l37 99h39zM59 -414.5q57 31.5 67 78.5q-49 -35 -118 -35q-58 0 -90.5 25.5t-32.5 75.5 q0 44 24.5 81t66.5 58.5t93 21.5q59 0 100 -32.5t41 -91.5q0 -104 -73 -173.5t-209 -87.5l-6 39q80 9 137 40.5z" />
<glyph unicode="&#x147;" horiz-adv-x="1690" d="M1495 1413q90 131 221 131q61 0 105 -23t67 -62.5t23 -88.5q0 -52 -24 -94.5t-67 -67t-96 -24.5q-67 0 -104 33.5t-37 89.5q0 67 43.5 118t110.5 72q-8 8 -33 8q-98 0 -172 -108q-91 -136 -189 -477t-223 -930h-45l-508 1112q-88 -435 -167 -732t-152 -393 q-45 -60 -95.5 -94.5t-123.5 -34.5q-61 0 -104.5 23t-66 63t-22.5 89q0 52 24 94.5t66.5 67t96.5 24.5q66 0 103.5 -34t37.5 -89q0 -67 -44 -118.5t-112 -71.5q10 -9 35 -9q105 0 172 111q77 120 158.5 431t177.5 802v2q13 62 13 92q0 33 -14.5 50.5t-47.5 24.5t-96 9l10 41 q65 -6 182 -6q95 0 166 6l424 -972q171 738 307 935zM1055 1869q89 -28 189 -71q212 77 447 121l10 -29q-170 -53 -317.5 -137.5t-237.5 -179.5h-37q-47 114 -111.5 189.5t-173.5 127.5l9 29q133 -22 222 -50z" />
<glyph unicode="&#x148;" horiz-adv-x="1235" d="M1094 182q-74 -211 -275 -211q-115 0 -164 68q-26 40 -26 95q0 62 33 163l184 553q19 59 19 88q0 47 -40 47q-61 0 -148 -124t-175 -327t-153 -428l-27 -106h-289l248 885q12 43 12 65q0 37 -35 37q-38 0 -68 -36t-63 -126l-39 -104h-39l55 156q39 112 105 161t160 49 q176 0 176 -168q0 -52 -17 -118l-64 -249q84 208 161 324.5t155.5 163.5t175.5 47q185 0 185 -164q0 -62 -27 -145l-201 -604q-12 -33 -12 -60q0 -42 39 -42q33 0 64 34t65 127l37 99h39zM702.5 1615q87.5 -36 167.5 -87q173 95 371 151l10 -28q-148 -65 -278 -173 t-212 -229h-36q-28 145 -83.5 238.5t-160.5 163.5l8 28q126 -28 213.5 -64z" />
<glyph unicode="&#x149;" horiz-adv-x="1235" d="M1094 182q-74 -211 -275 -211q-115 0 -164 68q-26 40 -26 95q0 62 33 163l184 553q19 59 19 88q0 47 -40 47q-61 0 -148 -124t-175 -327t-153 -428l-27 -106h-289l248 885q12 43 12 65q0 37 -35 37q-38 0 -68 -36t-63 -126l-39 -104h-39l55 156q39 112 105 161t160 49 q176 0 176 -168q0 -52 -17 -118l-64 -249q84 208 161 324.5t155.5 163.5t175.5 47q185 0 185 -164q0 -62 -27 -145l-201 -604q-12 -33 -12 -60q0 -42 39 -42q33 0 64 34t65 127l37 99h39zM172 1199q61 73 67 157q-57 -60 -127 -60q-62 0 -94.5 28.5t-32.5 82.5q0 55 29 102 t78 75t106 28q66 0 100.5 -37.5t34.5 -110.5q0 -129 -81.5 -241.5t-223.5 -176.5l-10 33q93 47 154 120z" />
<glyph unicode="&#x14a;" horiz-adv-x="1477" d="M1456 1444q117 0 189 6l-11 -41q-73 -3 -110.5 -18t-59 -51.5t-41.5 -114.5l-309 -1170q-32 -144 -75.5 -239.5t-113 -148t-171.5 -52.5q-100 0 -172.5 38t-73.5 116q0 68 46 111.5t126 43.5q70 0 114.5 -32.5t45.5 -90.5q0 -94 -115 -145q18 -6 43 -6q113 0 179 93 t105 245l-630 1130l-238 -893q-17 -63 -17 -98q0 -32 14.5 -50t45.5 -26t86 -10l-10 -41q-70 6 -192 6q-125 0 -193 -6l8 41q74 3 111.5 18t59.5 51.5t42 114.5l269 1008q16 64 16 94q0 32 -15 49t-47 24t-90 9l11 41q64 -6 182 -6q95 0 166 6l545 -993l200 768 q17 65 17 100q0 32 -14 49.5t-44.5 25t-85.5 9.5l11 41q70 -6 196 -6z" />
<glyph unicode="&#x14b;" horiz-adv-x="1190" d="M616.5 861.5q78.5 125.5 158 175.5t179.5 50q186 0 186 -162q0 -59 -26 -147l-156 -542q-69 -224 -144.5 -354.5t-178.5 -188.5q-60 -42 -134 -60t-143 -18q-97 0 -145 31t-48 88l1 14q2 37 23 68.5t55.5 50t74.5 18.5q39 0 67 -16.5t41.5 -43.5t10.5 -58 q-2 -32 -21.5 -65t-54.5 -56q78 9 123.5 58.5t79.5 162.5l281 983q17 65 17 91q0 44 -38 44q-64 0 -154 -132t-180.5 -346.5t-154.5 -447.5l5 26l-22 -85h-288l250 885q11 44 11 66q0 19 -8 27.5t-26 8.5q-38 0 -69 -36.5t-64 -125.5l-39 -104h-39l55 156q40 112 107.5 161 t161.5 49q174 0 174 -163q0 -49 -19 -123l-75 -291q87 226 165.5 351.5z" />
<glyph unicode="&#x14c;" horiz-adv-x="1591" d="M204.5 932q118.5 237 330.5 392t479 155q174 0 299 -58t191.5 -169t66.5 -267q0 -231 -119 -467.5t-332 -391.5t-479 -155q-173 0 -298 58t-191 168.5t-66 265.5q0 232 118.5 469zM726.5 1294.5q-129.5 -147.5 -209 -381.5t-79.5 -477q0 -131 28 -228t78 -148.5 t115 -51.5q140 0 269 147.5t209 381.5t80 477q0 131 -28.5 228t-78.5 148.5t-115 51.5q-139 0 -268.5 -147.5zM651 1677l12 52h820l-13 -52h-819z" />
<glyph unicode="&#x14d;" horiz-adv-x="1083" d="M101.5 659.5q76.5 181.5 227 304.5t359.5 123q160 0 246 -86t86 -251q0 -169 -76.5 -350.5t-227.5 -305t-360 -123.5q-159 0 -245 86.5t-86 251.5q0 169 76.5 350.5zM511.5 901.5q-89.5 -145.5 -151 -357t-61.5 -392.5q0 -74 17 -107t53 -33q75 0 164 141.5t150.5 351 t61.5 398.5q0 81 -16.5 112.5t-50.5 31.5q-77 0 -166.5 -145.5zM433 1407l12 51h688l-12 -51h-688z" />
<glyph unicode="&#x14e;" horiz-adv-x="1591" d="M204.5 932q118.5 237 330.5 392t479 155q174 0 299 -58t191.5 -169t66.5 -267q0 -231 -119 -467.5t-332 -391.5t-479 -155q-173 0 -298 58t-191 168.5t-66 265.5q0 232 118.5 469zM726.5 1294.5q-129.5 -147.5 -209 -381.5t-79.5 -477q0 -131 28 -228t78 -148.5 t115 -51.5q140 0 269 147.5t209 381.5t80 477q0 131 -28.5 228t-78.5 148.5t-115 51.5q-139 0 -268.5 -147.5zM908.5 1804.5q76.5 -24.5 197.5 -24.5q270 0 467 116l22 -20q-54 -77 -140.5 -145t-189 -110t-200.5 -42q-136 0 -217.5 81.5t-106.5 213.5l31 14 q60 -59 136.5 -83.5z" />
<glyph unicode="&#x14f;" horiz-adv-x="1083" d="M101.5 659.5q76.5 181.5 227 304.5t359.5 123q160 0 246 -86t86 -251q0 -169 -76.5 -350.5t-227.5 -305t-360 -123.5q-159 0 -245 86.5t-86 251.5q0 169 76.5 350.5zM511.5 901.5q-89.5 -145.5 -151 -357t-61.5 -392.5q0 -74 17 -107t53 -33q75 0 164 141.5t150.5 351 t61.5 398.5q0 81 -16.5 112.5t-50.5 31.5q-77 0 -166.5 -145.5zM621.5 1503q58.5 -30 159.5 -30q110 0 219 36.5t197 104.5l22 -21q-49 -82 -128 -155.5t-172 -119.5t-181 -46q-108 0 -171 88t-83 231l31 15q48 -73 106.5 -103z" />
<glyph unicode="&#x150;" horiz-adv-x="1591" d="M204.5 932q118.5 237 330.5 392t479 155q174 0 299 -58t191.5 -169t66.5 -267q0 -231 -119 -467.5t-332 -391.5t-479 -155q-173 0 -298 58t-191 168.5t-66 265.5q0 232 118.5 469zM726.5 1294.5q-129.5 -147.5 -209 -381.5t-79.5 -477q0 -131 28 -228t78 -148.5 t115 -51.5q140 0 269 147.5t209 381.5t80 477q0 131 -28.5 228t-78.5 148.5t-115 51.5q-139 0 -268.5 -147.5zM853 1742.5q59 76.5 88.5 111.5t64.5 61q35 24 77 24q60 0 91 -49q16 -25 16 -52q0 -61 -65 -105q-31 -21 -69 -37t-133.5 -48.5t-170.5 -66.5l-16 23 q58 62 117 138.5zM1284.5 1742q59.5 76 89 111.5t65.5 61.5q34 24 75 24q61 0 93 -49q17 -25 17 -50q0 -29 -18.5 -57.5t-48.5 -49.5q-31 -21 -69 -37t-133 -49t-170 -66l-17 23q57 62 116.5 138z" />
<glyph unicode="&#x151;" horiz-adv-x="1083" d="M101.5 659.5q76.5 181.5 227 304.5t359.5 123q160 0 246 -86t86 -251q0 -169 -76.5 -350.5t-227.5 -305t-360 -123.5q-159 0 -245 86.5t-86 251.5q0 169 76.5 350.5zM511.5 901.5q-89.5 -145.5 -151 -357t-61.5 -392.5q0 -74 17 -107t53 -33q75 0 164 141.5t150.5 351 t61.5 398.5q0 81 -16.5 112.5t-50.5 31.5q-77 0 -166.5 -145.5zM559 1424q31 85 48.5 128.5t40.5 75.5q37 51 97 51q39 0 73 -26q38 -33 38 -81q0 -43 -32 -81q-20 -26 -48 -49t-112 -85t-162 -132l-22 16q48 98 79 183zM900 1362q22 54 53.5 141t58.5 125q39 51 98 51 q40 0 72 -26q39 -34 39 -82q0 -44 -32 -80q-21 -26 -48.5 -49.5t-110.5 -85t-161 -131.5l-25 16q34 67 56 121z" />
<glyph unicode="&#x152;" horiz-adv-x="2036" d="M1866.5 330.5q-12.5 -50.5 -17.5 -68.5q-39 -143 -53 -262q-137 6 -455 6q-327 0 -499 -2q-112 -33 -215 -33q-168 0 -289.5 58t-185.5 168.5t-64 265.5q0 232 116.5 469t325 392t469.5 155q100 0 191 -33q91 -2 297 -2h239q283 0 408 6q-48 -123 -78 -242 q-22 -69 -26 -127h-45q15 84 15 144q0 97 -43 137.5t-138 40.5h-121q-71 0 -106.5 -12t-57 -46.5t-41.5 -111.5l-128 -483h151q57 0 95.5 30.5t62 76t52.5 122.5h46q-28 -85 -70 -250q-31 -113 -53 -250h-45q0 20 5 63t5 63q0 46 -23 73t-84 31h-153l-131 -492 q-18 -70 -18 -100q0 -29 13.5 -44t41.5 -20.5t79 -5.5h142q99 0 162 34t109.5 111t94.5 218h45q-13 -29 -25.5 -79.5zM1181 1323q0 68 -43 93.5t-132 25.5q-147 0 -278 -147t-209.5 -380.5t-78.5 -478.5q0 -133 27 -229.5t77.5 -147.5t119.5 -51q91 0 143 32t74 114 l286 1079q14 54 14 90z" />
<glyph unicode="&#x153;" horiz-adv-x="1591" d="M1233 50.5q-124 -79.5 -277 -79.5q-117 0 -200.5 52.5t-109.5 150.5q-59 -95 -140 -149t-180 -54q-148 0 -231 87t-83 251q0 161 94.5 342t262.5 304.5t376 123.5q89 0 140 -43.5t54 -121.5q193 173 419 173q103 0 166 -43.5t63 -125.5q0 -116 -95 -212.5t-239 -164.5 t-299 -109q-12 -73 -12 -139q0 -108 40.5 -153.5t117.5 -45.5q64 0 142 40t153 128l37 -16q-75 -116 -199 -195.5zM1182 965q-72 -84 -133.5 -219t-88.5 -277q155 64 238 139q77 71 120.5 168.5t43.5 204.5q0 33 -13 50.5t-36 17.5q-59 0 -131 -84zM707.5 584.5 q72.5 168.5 195.5 293.5q-2 56 -32 88.5t-85 32.5q-116 0 -226.5 -109.5t-179.5 -282t-69 -347.5q0 -182 119 -182q51 0 106.5 38t100.5 106q-2 19 -2 38q0 156 72.5 324.5z" />
<glyph unicode="&#x154;" horiz-adv-x="1456" d="M1389 248l-9 -27q-39 -129 -113 -189.5t-200 -60.5q-125 0 -188 54t-63 146q0 19 3 38l31 233q4 32 4 67q0 64 -24 103.5t-82.5 60.5t-162.5 23l-126 -479q-20 -70 -20 -101q0 -38 30.5 -55t108.5 -20l-9 -41q-123 6 -319 6q-228 0 -336 -6l8 41q74 3 110.5 16t58.5 48 t42 112l268 1016q18 65 18 98q0 40 -29.5 57.5t-106.5 20.5l10 41q103 -6 309 -6q67 0 155 2t152 2q250 0 370 -70t120 -215q0 -119 -73.5 -214.5t-209 -157t-317.5 -83.5q122 -12 201.5 -34.5t126.5 -70.5t47 -132q0 -21 -3 -45l-28 -211q-3 -24 -3 -44q0 -99 66 -99 q40 0 68.5 36t56.5 111l10 29h48zM610 733q135 0 239 54t162 158t58 249q0 110 -46.5 162.5t-143.5 52.5q-42 0 -67.5 -12t-42.5 -40.5t-32 -82.5l-142 -541h15zM911.5 1759.5q84.5 79.5 123.5 114.5t87 61q41 23 88 23q71 0 98 -55q11 -22 11 -42q0 -65 -92 -116 q-36 -20 -78.5 -34.5t-165 -49.5t-236.5 -80l-14 25q94 74 178.5 153.5z" />
<glyph unicode="&#x155;" horiz-adv-x="963" d="M611.5 942q51.5 78 109.5 111.5t133 33.5q78 0 122 -46t44 -119q0 -57 -25.5 -106t-70.5 -78t-99 -29q-60 0 -92.5 31.5t-32.5 90.5q0 48 22.5 91t61.5 73t86 41q-24 6 -26 6q-108 0 -216.5 -155t-223.5 -556l-85 -331h-288l250 885q11 41 11 62q0 40 -34 40 q-38 0 -69 -36.5t-64 -125.5l-39 -104h-39l55 156q76 210 283 210q157 0 157 -165q0 -57 -16 -121l-18 -71q52 134 103.5 212zM659 1444q59 100 87 144.5t66 82.5q51 54 111 54q43 0 75 -31q27 -27 27 -62q0 -55 -60 -112q-29 -29 -65.5 -55t-144 -94.5t-203.5 -143.5 l-21 20q69 97 128 197z" />
<glyph unicode="&#x156;" horiz-adv-x="1456" d="M1389 248l-9 -27q-39 -129 -113 -189.5t-200 -60.5q-125 0 -188 54t-63 146q0 19 3 38l31 233q4 32 4 67q0 64 -24 103.5t-82.5 60.5t-162.5 23l-126 -479q-20 -70 -20 -101q0 -38 30.5 -55t108.5 -20l-9 -41q-123 6 -319 6q-228 0 -336 -6l8 41q74 3 110.5 16t58.5 48 t42 112l268 1016q18 65 18 98q0 40 -29.5 57.5t-106.5 20.5l10 41q103 -6 309 -6q67 0 155 2t152 2q250 0 370 -70t120 -215q0 -119 -73.5 -214.5t-209 -157t-317.5 -83.5q122 -12 201.5 -34.5t126.5 -70.5t47 -132q0 -21 -3 -45l-28 -211q-3 -24 -3 -44q0 -99 66 -99 q40 0 68.5 36t56.5 111l10 29h48zM610 733q135 0 239 54t162 158t58 249q0 110 -46.5 162.5t-143.5 52.5q-42 0 -67.5 -12t-42.5 -40.5t-32 -82.5l-142 -541h15zM643.5 -414.5q56.5 31.5 66.5 78.5q-49 -35 -118 -35q-58 0 -90.5 25.5t-32.5 75.5q0 46 25 83t67.5 57.5 t93.5 20.5q58 0 98.5 -33t40.5 -94q0 -107 -77.5 -175t-204.5 -83l-6 39q81 9 137.5 40.5z" />
<glyph unicode="&#x157;" horiz-adv-x="963" d="M611.5 942q51.5 78 109.5 111.5t133 33.5q78 0 122 -46t44 -119q0 -57 -25.5 -106t-70.5 -78t-99 -29q-60 0 -92.5 31.5t-32.5 90.5q0 48 22.5 91t61.5 73t86 41q-24 6 -26 6q-108 0 -216.5 -155t-223.5 -556l-85 -331h-288l250 885q11 41 11 62q0 40 -34 40 q-38 0 -69 -36.5t-64 -125.5l-39 -104h-39l55 156q76 210 283 210q157 0 157 -165q0 -57 -16 -121l-18 -71q52 134 103.5 212zM-226 -414.5q57 31.5 67 78.5q-49 -35 -118 -35q-58 0 -90.5 25.5t-32.5 75.5q0 44 24.5 81t66.5 58.5t93 21.5q59 0 100 -32.5t41 -91.5 q0 -104 -73 -173.5t-209 -87.5l-6 39q80 9 137 40.5z" />
<glyph unicode="&#x158;" horiz-adv-x="1456" d="M1389 248l-9 -27q-39 -129 -113 -189.5t-200 -60.5q-125 0 -188 54t-63 146q0 19 3 38l31 233q4 32 4 67q0 64 -24 103.5t-82.5 60.5t-162.5 23l-126 -479q-20 -70 -20 -101q0 -38 30.5 -55t108.5 -20l-9 -41q-123 6 -319 6q-228 0 -336 -6l8 41q74 3 110.5 16t58.5 48 t42 112l268 1016q18 65 18 98q0 40 -29.5 57.5t-106.5 20.5l10 41q103 -6 309 -6q67 0 155 2t152 2q250 0 370 -70t120 -215q0 -119 -73.5 -214.5t-209 -157t-317.5 -83.5q122 -12 201.5 -34.5t126.5 -70.5t47 -132q0 -21 -3 -45l-28 -211q-3 -24 -3 -44q0 -99 66 -99 q40 0 68.5 36t56.5 111l10 29h48zM610 733q135 0 239 54t162 158t58 249q0 110 -46.5 162.5t-143.5 52.5q-42 0 -67.5 -12t-42.5 -40.5t-32 -82.5l-142 -541h15zM798 1869q89 -28 189 -71q212 77 447 121l10 -29q-170 -53 -317.5 -137.5t-237.5 -179.5h-37 q-47 114 -111.5 189.5t-173.5 127.5l9 29q133 -22 222 -50z" />
<glyph unicode="&#x159;" horiz-adv-x="963" d="M611.5 942q51.5 78 109.5 111.5t133 33.5q78 0 122 -46t44 -119q0 -57 -25.5 -106t-70.5 -78t-99 -29q-60 0 -92.5 31.5t-32.5 90.5q0 48 22.5 91t61.5 73t86 41q-24 6 -26 6q-108 0 -216.5 -155t-223.5 -556l-85 -331h-288l250 885q11 41 11 62q0 40 -34 40 q-38 0 -69 -36.5t-64 -125.5l-39 -104h-39l55 156q76 210 283 210q157 0 157 -165q0 -57 -16 -121l-18 -71q52 134 103.5 212zM597.5 1615q87.5 -36 167.5 -87q173 95 371 151l10 -28q-148 -65 -278 -173t-212 -229h-36q-28 145 -83.5 238.5t-160.5 163.5l8 28 q126 -28 213.5 -64z" />
<glyph unicode="&#x15a;" horiz-adv-x="1202" d="M1149 1047h-41q12 57 12 114q0 123 -76 196t-217 73q-110 0 -178.5 -55t-68.5 -169q0 -141 158.5 -309t240.5 -271.5t82 -244.5q0 -137 -87.5 -229.5t-218 -136.5t-259.5 -44q-92 0 -155 12t-105.5 31t-94.5 52q-45 30 -71 30q-18 0 -31 -10t-24.5 -32.5t-30.5 -67.5h-41 q66 157 139 491h41q-22 -86 -19 -162q7 -146 91 -222.5t243 -76.5q264 0 264 215q0 173 -145 336t-218 259.5t-73 242.5q0 132 75 224.5t191.5 139t237.5 46.5q107 0 182 -25t142 -65q50 -33 67 -33t32 25t36 83h41q-78 -190 -121 -417zM868.5 1759.5q84.5 79.5 123.5 114.5 t87 61q41 23 88 23q71 0 98 -55q11 -22 11 -42q0 -65 -92 -116q-36 -20 -78.5 -34.5t-165 -49.5t-236.5 -80l-14 25q94 74 178.5 153.5z" />
<glyph unicode="&#x15b;" horiz-adv-x="860" d="M231 14q77 0 124.5 47t47.5 129q0 65 -28 134.5t-86 158.5q-8 12 -48 73.5t-59.5 118t-19.5 111.5q0 88 44.5 156t128.5 106.5t200 38.5q132 0 221.5 -48.5t89.5 -164.5q0 -35 -14 -70t-42.5 -58t-68.5 -23q-51 0 -82 38.5t-31 98.5q0 50 18.5 94.5t45.5 75.5 q-29 17 -72 17q-74 0 -116.5 -46t-43.5 -129q0 -53 21.5 -99.5t53.5 -96t48 -74.5q65 -108 93 -177.5t28 -139.5q0 -90 -47 -161t-134.5 -112t-203.5 -41q-146 0 -242 56.5t-96 181.5q0 61 30.5 104t84.5 43t85.5 -45t31.5 -114q0 -41 -10 -77t-19.5 -60.5t-11.5 -30.5 q30 -15 79 -15zM620 1444q59 100 87 144.5t66 82.5q51 54 111 54q43 0 75 -31q27 -27 27 -62q0 -55 -60 -112q-29 -29 -65.5 -55t-144 -94.5t-203.5 -143.5l-21 20q69 97 128 197z" />
<glyph unicode="&#x15c;" horiz-adv-x="1202" d="M1149 1047h-41q12 57 12 114q0 123 -76 196t-217 73q-110 0 -178.5 -55t-68.5 -169q0 -141 158.5 -309t240.5 -271.5t82 -244.5q0 -137 -87.5 -229.5t-218 -136.5t-259.5 -44q-92 0 -155 12t-105.5 31t-94.5 52q-45 30 -71 30q-18 0 -31 -10t-24.5 -32.5t-30.5 -67.5h-41 q66 157 139 491h41q-22 -86 -19 -162q7 -146 91 -222.5t243 -76.5q264 0 264 215q0 173 -145 336t-218 259.5t-73 242.5q0 132 75 224.5t191.5 139t237.5 46.5q107 0 182 -25t142 -65q50 -33 67 -33t32 25t36 83h41q-78 -190 -121 -417zM1023.5 1629q-88.5 28 -191.5 71 q-214 -77 -445 -121l-10 29q169 53 317 138t238 179h37q48 -115 111.5 -190t172.5 -127l-8 -29q-133 22 -221.5 50z" />
<glyph unicode="&#x15d;" horiz-adv-x="860" d="M231 14q77 0 124.5 47t47.5 129q0 65 -28 134.5t-86 158.5q-8 12 -48 73.5t-59.5 118t-19.5 111.5q0 88 44.5 156t128.5 106.5t200 38.5q132 0 221.5 -48.5t89.5 -164.5q0 -35 -14 -70t-42.5 -58t-68.5 -23q-51 0 -82 38.5t-31 98.5q0 50 18.5 94.5t45.5 75.5 q-29 17 -72 17q-74 0 -116.5 -46t-43.5 -129q0 -53 21.5 -99.5t53.5 -96t48 -74.5q65 -108 93 -177.5t28 -139.5q0 -90 -47 -161t-134.5 -112t-203.5 -41q-146 0 -242 56.5t-96 181.5q0 61 30.5 104t84.5 43t85.5 -45t31.5 -114q0 -41 -10 -77t-19.5 -60.5t-11.5 -30.5 q30 -15 79 -15zM754 1313q-87 36 -167 88q-171 -95 -371 -152l-10 29q148 64 277.5 172t211.5 229h37q28 -145 84 -238.5t160 -162.5l-8 -29q-127 28 -214 64z" />
<glyph unicode="&#x15e;" horiz-adv-x="1202" d="M1149 1047h-41q12 57 12 114q0 123 -76 196t-217 73q-110 0 -178.5 -55t-68.5 -169q0 -141 158.5 -309t240.5 -271.5t82 -244.5q0 -137 -87.5 -229.5t-218 -136.5t-259.5 -44q-92 0 -155 12t-105.5 31t-94.5 52q-45 30 -71 30q-18 0 -31 -10t-24.5 -32.5t-30.5 -67.5h-41 q66 157 139 491h41q-22 -86 -19 -162q7 -146 91 -222.5t243 -76.5q264 0 264 215q0 173 -145 336t-218 259.5t-73 242.5q0 132 75 224.5t191.5 139t237.5 46.5q107 0 182 -25t142 -65q50 -33 67 -33t32 25t36 83h41q-78 -190 -121 -417zM554 -109q63 0 100 -25t37 -73 q0 -61 -51 -101t-130.5 -58.5t-164.5 -18.5q-70 0 -130 12.5t-95 28.5l12 31q96 -23 166 -23q68 0 126 20.5t58 73.5q0 47 -65 47q-34 0 -72 -14l100 221h56l-66 -141q58 20 119 20z" />
<glyph unicode="&#x15f;" horiz-adv-x="860" d="M231 14q77 0 124.5 47t47.5 129q0 65 -28 134.5t-86 158.5q-8 12 -48 73.5t-59.5 118t-19.5 111.5q0 88 44.5 156t128.5 106.5t200 38.5q132 0 221.5 -48.5t89.5 -164.5q0 -35 -14 -70t-42.5 -58t-68.5 -23q-51 0 -82 38.5t-31 98.5q0 50 18.5 94.5t45.5 75.5 q-29 17 -72 17q-74 0 -116.5 -46t-43.5 -129q0 -53 21.5 -99.5t53.5 -96t48 -74.5q65 -108 93 -177.5t28 -139.5q0 -90 -47 -161t-134.5 -112t-203.5 -41q-146 0 -242 56.5t-96 181.5q0 61 30.5 104t84.5 43t85.5 -45t31.5 -114q0 -41 -10 -77t-19.5 -60.5t-11.5 -30.5 q30 -15 79 -15zM320 -121q55 0 89 -22.5t34 -63.5q0 -61 -49.5 -101t-126 -58.5t-160.5 -18.5q-58 0 -107.5 12.5t-74.5 28.5l12 31q5 -2 25 -8t46 -10.5t54 -4.5q54 0 107 21t53 73q0 22 -16 34.5t-42 12.5q-35 0 -63 -14l139 209h60l-90 -141q60 20 110 20z" />
<glyph unicode="&#x160;" horiz-adv-x="1202" d="M1149 1047h-41q12 57 12 114q0 123 -76 196t-217 73q-110 0 -178.5 -55t-68.5 -169q0 -141 158.5 -309t240.5 -271.5t82 -244.5q0 -137 -87.5 -229.5t-218 -136.5t-259.5 -44q-92 0 -155 12t-105.5 31t-94.5 52q-45 30 -71 30q-18 0 -31 -10t-24.5 -32.5t-30.5 -67.5h-41 q66 157 139 491h41q-22 -86 -19 -162q7 -146 91 -222.5t243 -76.5q264 0 264 215q0 173 -145 336t-218 259.5t-73 242.5q0 132 75 224.5t191.5 139t237.5 46.5q107 0 182 -25t142 -65q50 -33 67 -33t32 25t36 83h41q-78 -190 -121 -417zM755 1869q89 -28 189 -71 q212 77 447 121l10 -29q-170 -53 -317.5 -137.5t-237.5 -179.5h-37q-47 114 -111.5 189.5t-173.5 127.5l9 29q133 -22 222 -50z" />
<glyph unicode="&#x161;" horiz-adv-x="860" d="M231 14q77 0 124.5 47t47.5 129q0 65 -28 134.5t-86 158.5q-8 12 -48 73.5t-59.5 118t-19.5 111.5q0 88 44.5 156t128.5 106.5t200 38.5q132 0 221.5 -48.5t89.5 -164.5q0 -35 -14 -70t-42.5 -58t-68.5 -23q-51 0 -82 38.5t-31 98.5q0 50 18.5 94.5t45.5 75.5 q-29 17 -72 17q-74 0 -116.5 -46t-43.5 -129q0 -53 21.5 -99.5t53.5 -96t48 -74.5q65 -108 93 -177.5t28 -139.5q0 -90 -47 -161t-134.5 -112t-203.5 -41q-146 0 -242 56.5t-96 181.5q0 61 30.5 104t84.5 43t85.5 -45t31.5 -114q0 -41 -10 -77t-19.5 -60.5t-11.5 -30.5 q30 -15 79 -15zM558.5 1615q87.5 -36 167.5 -87q173 95 371 151l10 -28q-148 -65 -278 -173t-212 -229h-36q-28 145 -83.5 238.5t-160.5 163.5l8 28q126 -28 213.5 -64z" />
<glyph unicode="&#x162;" horiz-adv-x="1395" d="M592 1409q-170 0 -232 -35q54 -15 88.5 -60t34.5 -106q0 -47 -20.5 -86.5t-56.5 -62.5t-82 -23q-69 0 -108.5 46.5t-39.5 115.5q0 57 31.5 111t101.5 88q101 49 275 49q87 0 172 -6t258.5 -22.5t277.5 -16.5q137 0 217 27q-31 29 -51 70.5t-20 90.5q0 75 44 121.5 t117 46.5q49 0 84.5 -20t54.5 -52.5t19 -70.5q0 -126 -141 -195q-124 -59 -342 -59q-52 0 -120 4l-300 -1126q-15 -57 -15 -94t16.5 -58.5t53 -31.5t99.5 -13l-9 -41q-129 6 -378 6q-244 0 -361 -6l8 41q88 3 136 21t75.5 58t48.5 118l309 1156q-155 15 -245 15zM708 -109 q63 0 100 -25t37 -73q0 -61 -51 -101t-130.5 -58.5t-164.5 -18.5q-70 0 -130 12.5t-95 28.5l12 31q96 -23 166 -23q68 0 126 20.5t58 73.5q0 47 -65 47q-34 0 -72 -14l100 221h56l-66 -141q58 20 119 20z" />
<glyph unicode="&#x163;" horiz-adv-x="723" d="M330 133q0 -61 61 -61q45 0 87 44t75 132l31 84h39l-41 -119q-82 -242 -308 -242q-104 0 -156.5 54.5t-52.5 148.5q0 53 19 123l206 715h-186l11 41h187l89 311q177 3 297 29l-98 -340h231l-6 -41h-237l-242 -838q-6 -22 -6 -41zM273 -121q55 0 89 -22.5t34 -63.5 q0 -61 -49.5 -101t-126 -58.5t-160.5 -18.5q-58 0 -107.5 12.5t-74.5 28.5l12 31q5 -2 25 -8t46 -10.5t54 -4.5q54 0 107 21t53 73q0 22 -16 34.5t-42 12.5q-35 0 -63 -14l139 209h60l-90 -141q60 20 110 20z" />
<glyph unicode="&#x164;" horiz-adv-x="1395" d="M592 1409q-170 0 -232 -35q54 -15 88.5 -60t34.5 -106q0 -47 -20.5 -86.5t-56.5 -62.5t-82 -23q-69 0 -108.5 46.5t-39.5 115.5q0 57 31.5 111t101.5 88q101 49 275 49q87 0 172 -6t258.5 -22.5t277.5 -16.5q137 0 217 27q-31 29 -51 70.5t-20 90.5q0 75 44 121.5 t117 46.5q49 0 84.5 -20t54.5 -52.5t19 -70.5q0 -126 -141 -195q-124 -59 -342 -59q-52 0 -120 4l-300 -1126q-15 -57 -15 -94t16.5 -58.5t53 -31.5t99.5 -13l-9 -41q-129 6 -378 6q-244 0 -361 -6l8 41q88 3 136 21t75.5 58t48.5 118l309 1156q-155 15 -245 15zM920 1869 q89 -28 189 -71q212 77 447 121l10 -29q-170 -53 -317.5 -137.5t-237.5 -179.5h-37q-47 114 -111.5 189.5t-173.5 127.5l9 29q133 -22 222 -50z" />
<glyph unicode="&#x165;" horiz-adv-x="723" d="M330 133q0 -61 61 -61q45 0 87 44t75 132l31 84h39l-41 -119q-82 -242 -308 -242q-104 0 -156.5 54.5t-52.5 148.5q0 53 19 123l206 715h-186l11 41h187l89 311q177 3 297 29l-98 -340h231l-6 -41h-237l-242 -838q-6 -22 -6 -41zM905 1349q31 106 31 152q0 39 -27 39 l7 43q15 0 29 -1t28 -1q102 0 196 25q3 -4 3 -21q0 -77 -88.5 -206.5t-243.5 -280.5l-29 8q63 137 94 243z" />
<glyph unicode="&#x166;" horiz-adv-x="1423" d="M594 1409q-170 0 -232 -35q54 -15 88.5 -60t34.5 -106q0 -47 -20.5 -86.5t-56.5 -62.5t-82 -23q-69 0 -108.5 46.5t-39.5 115.5q0 57 31.5 111t101.5 88q101 49 275 49q87 0 172 -6t258.5 -22.5t277.5 -16.5q137 0 217 27q-31 29 -51 70.5t-20 90.5q0 75 44 121.5 t117 46.5q49 0 84.5 -20t54.5 -52.5t19 -70.5q0 -126 -141 -195q-124 -59 -342 -59q-52 0 -120 4l-163 -614h291l-10 -41h-292l-126 -471q-15 -57 -15 -94t16.5 -58.5t53 -31.5t99.5 -13l-9 -41q-129 6 -378 6q-244 0 -361 -6l8 41q88 3 136 21t75.5 58t48.5 118l126 471 h-291l10 41h292l172 644q-155 15 -245 15z" />
<glyph unicode="&#x167;" horiz-adv-x="733" d="M543 862h233l-6 -41h-239l-187 -647q-6 -22 -6 -41q0 -61 61 -61q45 0 87 44t75 132l31 84h39l-41 -119q-82 -242 -308 -242q-104 0 -156.5 54.5t-52.5 148.5q0 53 19 123l151 524h-182l11 41h183l43 150h-186l11 41h187l89 311q177 3 297 29l-98 -340h231l-6 -41h-237z " />
<glyph unicode="&#x168;" horiz-adv-x="1421" d="M1349 1289q0 59 -35 85t-120 35l10 41q77 -6 219 -6q114 0 181 6l-11 -41q-69 -9 -108 -34.5t-64.5 -78.5t-52.5 -157l-139 -543q-73 -283 -201 -434q-75 -88 -185 -139.5t-235 -51.5q-150 0 -250 42.5t-149 119.5q-55 77 -55 191q0 102 45 266l170 643q17 65 17 98 q0 31 -14 47t-42.5 22.5t-81.5 8.5l12 41q105 -6 338 -6q191 0 317 6l-12 -41q-75 -3 -111.5 -16t-58 -48t-41.5 -112l-180 -678q-49 -184 -49 -298q0 -108 44.5 -161t139.5 -53q215 0 339 139.5t190 390.5l141 541q32 122 32 175zM741.5 1828q91.5 70 193.5 70 q73 0 121.5 -21t123 -74.5t144.5 -53.5q44 0 82.5 28t75.5 91l37 -10q-55 -144 -146.5 -214.5t-193.5 -70.5q-72 0 -120 21t-123.5 74.5t-145.5 53.5q-45 0 -83 -27.5t-75 -90.5l-37 10q55 144 146.5 214z" />
<glyph unicode="&#x169;" horiz-adv-x="1223" d="M1137 338l-56 -156q-38 -113 -110.5 -162t-163.5 -49q-54 0 -93.5 18.5t-58.5 51.5q-19 35 -19 84q0 51 21 133l54 209q-79 -193 -152.5 -301t-149.5 -151.5t-169 -43.5q-92 0 -138.5 43.5t-46.5 124.5q0 61 27 142l199 604q12 38 12 59q0 43 -39 43q-33 0 -64 -34.5 t-65 -127.5l-37 -98h-39l51 150q73 210 275 210q187 0 187 -169q0 -63 -30 -156l-184 -553q-18 -55 -18 -87q0 -48 39 -48q60 0 143.5 119t168.5 316.5t151 424.5l32 125q181 3 297 28l-256 -913q-13 -47 -13 -68q0 -34 36 -34q38 0 69 36.5t62 124.5l39 105h39zM495 1539.5 q84 70.5 178 70.5q59 0 97.5 -21.5t98.5 -75t116 -53.5q41 0 75.5 28t69.5 91l37 -10q-53 -144 -137 -214.5t-178 -70.5q-59 0 -97.5 21.5t-98.5 75t-116 53.5q-41 0 -75.5 -28t-69.5 -91l-37 10q53 144 137 214.5z" />
<glyph unicode="&#x16a;" horiz-adv-x="1421" d="M1349 1289q0 59 -35 85t-120 35l10 41q77 -6 219 -6q114 0 181 6l-11 -41q-69 -9 -108 -34.5t-64.5 -78.5t-52.5 -157l-139 -543q-73 -283 -201 -434q-75 -88 -185 -139.5t-235 -51.5q-150 0 -250 42.5t-149 119.5q-55 77 -55 191q0 102 45 266l170 643q17 65 17 98 q0 31 -14 47t-42.5 22.5t-81.5 8.5l12 41q105 -6 338 -6q191 0 317 6l-12 -41q-75 -3 -111.5 -16t-58 -48t-41.5 -112l-180 -678q-49 -184 -49 -298q0 -108 44.5 -161t139.5 -53q215 0 339 139.5t190 390.5l141 541q32 122 32 175zM586 1677l12 52h820l-13 -52h-819z" />
<glyph unicode="&#x16b;" horiz-adv-x="1223" d="M1137 338l-56 -156q-38 -113 -110.5 -162t-163.5 -49q-54 0 -93.5 18.5t-58.5 51.5q-19 35 -19 84q0 51 21 133l54 209q-79 -193 -152.5 -301t-149.5 -151.5t-169 -43.5q-92 0 -138.5 43.5t-46.5 124.5q0 61 27 142l199 604q12 38 12 59q0 43 -39 43q-33 0 -64 -34.5 t-65 -127.5l-37 -98h-39l51 150q73 210 275 210q187 0 187 -169q0 -63 -30 -156l-184 -553q-18 -55 -18 -87q0 -48 39 -48q60 0 143.5 119t168.5 316.5t151 424.5l32 125q181 3 297 28l-256 -913q-13 -47 -13 -68q0 -34 36 -34q38 0 69 36.5t62 124.5l39 105h39zM416 1407 l12 51h688l-12 -51h-688z" />
<glyph unicode="&#x16c;" horiz-adv-x="1421" d="M1349 1289q0 59 -35 85t-120 35l10 41q77 -6 219 -6q114 0 181 6l-11 -41q-69 -9 -108 -34.5t-64.5 -78.5t-52.5 -157l-139 -543q-73 -283 -201 -434q-75 -88 -185 -139.5t-235 -51.5q-150 0 -250 42.5t-149 119.5q-55 77 -55 191q0 102 45 266l170 643q17 65 17 98 q0 31 -14 47t-42.5 22.5t-81.5 8.5l12 41q105 -6 338 -6q191 0 317 6l-12 -41q-75 -3 -111.5 -16t-58 -48t-41.5 -112l-180 -678q-49 -184 -49 -298q0 -108 44.5 -161t139.5 -53q215 0 339 139.5t190 390.5l141 541q32 122 32 175zM843.5 1804.5q76.5 -24.5 197.5 -24.5 q270 0 467 116l22 -20q-54 -77 -140.5 -145t-189 -110t-200.5 -42q-136 0 -217.5 81.5t-106.5 213.5l31 14q60 -59 136.5 -83.5z" />
<glyph unicode="&#x16d;" horiz-adv-x="1223" d="M1137 338l-56 -156q-38 -113 -110.5 -162t-163.5 -49q-54 0 -93.5 18.5t-58.5 51.5q-19 35 -19 84q0 51 21 133l54 209q-79 -193 -152.5 -301t-149.5 -151.5t-169 -43.5q-92 0 -138.5 43.5t-46.5 124.5q0 61 27 142l199 604q12 38 12 59q0 43 -39 43q-33 0 -64 -34.5 t-65 -127.5l-37 -98h-39l51 150q73 210 275 210q187 0 187 -169q0 -63 -30 -156l-184 -553q-18 -55 -18 -87q0 -48 39 -48q60 0 143.5 119t168.5 316.5t151 424.5l32 125q181 3 297 28l-256 -913q-13 -47 -13 -68q0 -34 36 -34q38 0 69 36.5t62 124.5l39 105h39zM604.5 1503 q58.5 -30 159.5 -30q110 0 219 36.5t197 104.5l22 -21q-49 -82 -128 -155.5t-172 -119.5t-181 -46q-108 0 -171 88t-83 231l31 15q48 -73 106.5 -103z" />
<glyph unicode="&#x16e;" horiz-adv-x="1421" d="M1349 1289q0 59 -35 85t-120 35l10 41q77 -6 219 -6q114 0 181 6l-11 -41q-69 -9 -108 -34.5t-64.5 -78.5t-52.5 -157l-139 -543q-73 -283 -201 -434q-75 -88 -185 -139.5t-235 -51.5q-150 0 -250 42.5t-149 119.5q-55 77 -55 191q0 102 45 266l170 643q17 65 17 98 q0 31 -14 47t-42.5 22.5t-81.5 8.5l12 41q105 -6 338 -6q191 0 317 6l-12 -41q-75 -3 -111.5 -16t-58 -48t-41.5 -112l-180 -678q-49 -184 -49 -298q0 -108 44.5 -161t139.5 -53q215 0 339 139.5t190 390.5l141 541q32 122 32 175zM1167 1897.5q46 -21.5 72 -61t26 -91.5 q0 -61 -35.5 -112.5t-94 -82t-124.5 -30.5q-85 0 -140 47.5t-55 128.5q0 62 33.5 113t90 80.5t124.5 29.5q57 0 103 -21.5zM1112.5 1586.5q44.5 23.5 71.5 65t27 91.5q0 43 -22 73t-57.5 45t-73.5 15q-49 0 -92.5 -25t-69 -67t-25.5 -88q0 -42 21 -72t55 -45.5t72 -15.5 q49 0 93.5 23.5z" />
<glyph unicode="&#x16f;" horiz-adv-x="1223" d="M1137 338l-56 -156q-38 -113 -110.5 -162t-163.5 -49q-54 0 -93.5 18.5t-58.5 51.5q-19 35 -19 84q0 51 21 133l54 209q-79 -193 -152.5 -301t-149.5 -151.5t-169 -43.5q-92 0 -138.5 43.5t-46.5 124.5q0 61 27 142l199 604q12 38 12 59q0 43 -39 43q-33 0 -64 -34.5 t-65 -127.5l-37 -98h-39l51 150q73 210 275 210q187 0 187 -169q0 -63 -30 -156l-184 -553q-18 -55 -18 -87q0 -48 39 -48q60 0 143.5 119t168.5 316.5t151 424.5l32 125q181 3 297 28l-256 -913q-13 -47 -13 -68q0 -34 36 -34q38 0 69 36.5t62 124.5l39 105h39zM907 1610.5 q46 -21.5 72.5 -61t26.5 -91.5q0 -61 -35.5 -112.5t-94.5 -82t-126 -30.5q-84 0 -138.5 47.5t-54.5 128.5q0 62 33.5 113t90 80.5t124.5 29.5q56 0 102 -21.5zM853.5 1300q44.5 24 71.5 65.5t27 90.5q0 43 -22.5 73t-58 45t-72.5 15q-49 0 -92.5 -25t-69 -67t-25.5 -88 q0 -42 21 -72t55 -45.5t72 -15.5q49 0 93.5 24z" />
<glyph unicode="&#x170;" horiz-adv-x="1421" d="M1349 1289q0 59 -35 85t-120 35l10 41q77 -6 219 -6q114 0 181 6l-11 -41q-69 -9 -108 -34.5t-64.5 -78.5t-52.5 -157l-139 -543q-73 -283 -201 -434q-75 -88 -185 -139.5t-235 -51.5q-150 0 -250 42.5t-149 119.5q-55 77 -55 191q0 102 45 266l170 643q17 65 17 98 q0 31 -14 47t-42.5 22.5t-81.5 8.5l12 41q105 -6 338 -6q191 0 317 6l-12 -41q-75 -3 -111.5 -16t-58 -48t-41.5 -112l-180 -678q-49 -184 -49 -298q0 -108 44.5 -161t139.5 -53q215 0 339 139.5t190 390.5l141 541q32 122 32 175zM788 1742.5q59 76.5 88.5 111.5t64.5 61 q35 24 77 24q60 0 91 -49q16 -25 16 -52q0 -61 -65 -105q-31 -21 -69 -37t-133.5 -48.5t-170.5 -66.5l-16 23q58 62 117 138.5zM1219.5 1742q59.5 76 89 111.5t65.5 61.5q34 24 75 24q61 0 93 -49q17 -25 17 -50q0 -29 -18.5 -57.5t-48.5 -49.5q-31 -21 -69 -37t-133 -49 t-170 -66l-17 23q57 62 116.5 138z" />
<glyph unicode="&#x171;" horiz-adv-x="1223" d="M1137 338l-56 -156q-38 -113 -110.5 -162t-163.5 -49q-54 0 -93.5 18.5t-58.5 51.5q-19 35 -19 84q0 51 21 133l54 209q-79 -193 -152.5 -301t-149.5 -151.5t-169 -43.5q-92 0 -138.5 43.5t-46.5 124.5q0 61 27 142l199 604q12 38 12 59q0 43 -39 43q-33 0 -64 -34.5 t-65 -127.5l-37 -98h-39l51 150q73 210 275 210q187 0 187 -169q0 -63 -30 -156l-184 -553q-18 -55 -18 -87q0 -48 39 -48q60 0 143.5 119t168.5 316.5t151 424.5l32 125q181 3 297 28l-256 -913q-13 -47 -13 -68q0 -34 36 -34q38 0 69 36.5t62 124.5l39 105h39zM542 1424 q31 85 48.5 128.5t40.5 75.5q37 51 97 51q39 0 73 -26q38 -33 38 -81q0 -43 -32 -81q-20 -26 -48 -49t-112 -85t-162 -132l-22 16q48 98 79 183zM883 1362q22 54 53.5 141t58.5 125q39 51 98 51q40 0 72 -26q39 -34 39 -82q0 -44 -32 -80q-21 -26 -48.5 -49.5t-110.5 -85 t-161 -131.5l-25 16q34 67 56 121z" />
<glyph unicode="&#x172;" horiz-adv-x="1421" d="M1349 1289q0 59 -35 85t-120 35l10 41q77 -6 219 -6q114 0 181 6l-11 -41q-69 -9 -108 -34.5t-64.5 -78.5t-52.5 -157l-139 -543q-73 -283 -201 -434q-75 -88 -185 -139.5t-235 -51.5q-150 0 -250 42.5t-149 119.5q-55 77 -55 191q0 102 45 266l170 643q17 65 17 98 q0 31 -14 47t-42.5 22.5t-81.5 8.5l12 41q105 -6 338 -6q191 0 317 6l-12 -41q-75 -3 -111.5 -16t-58 -48t-41.5 -112l-180 -678q-49 -184 -49 -298q0 -108 44.5 -161t139.5 -53q215 0 339 139.5t190 390.5l141 541q32 122 32 175zM645.5 -91q-61.5 -62 -61.5 -130 q0 -62 67 -62q33 0 74.5 12.5t77.5 32.5l22 -34q-141 -113 -299 -113q-81 0 -126.5 32.5t-45.5 90.5q0 90 114 158.5t280 109.5h53q-94 -35 -155.5 -97z" />
<glyph unicode="&#x173;" horiz-adv-x="1223" d="M1137 338l-56 -156q-38 -113 -110.5 -162t-163.5 -49q-54 0 -93.5 18.5t-58.5 51.5q-19 35 -19 84q0 51 21 133l54 209q-79 -193 -152.5 -301t-149.5 -151.5t-169 -43.5q-92 0 -138.5 43.5t-46.5 124.5q0 61 27 142l199 604q12 38 12 59q0 43 -39 43q-33 0 -64 -34.5 t-65 -127.5l-37 -98h-39l51 150q73 210 275 210q187 0 187 -169q0 -63 -30 -156l-184 -553q-18 -55 -18 -87q0 -48 39 -48q60 0 143.5 119t168.5 316.5t151 424.5l32 125q181 3 297 28l-256 -913q-13 -47 -13 -68q0 -34 36 -34q38 0 69 36.5t62 124.5l39 105h39zM788 -90.5 q-62 -63.5 -62 -132.5q0 -29 16 -44.5t44 -15.5q32 0 67 17.5t60 44.5l28 -25q-114 -139 -276 -139q-79 0 -124.5 33t-45.5 90q0 90 114.5 158.5t278.5 109.5h53q-91 -33 -153 -96.5z" />
<glyph unicode="&#x174;" horiz-adv-x="2011" d="M2079 1444q91 0 155 6l-10 -41q-48 -13 -84.5 -33.5t-76 -64t-81.5 -119.5l-645 -1202h-106l-126 913l-552 -913h-107l-161 1288q-9 69 -40 99t-69 32l10 41q102 -6 287 -6q175 0 266 6l-10 -41q-40 -3 -63 -13.5t-34.5 -35.5t-11.5 -71q0 -23 3 -52l99 -888l374 616 l-43 313q-9 68 -34 98.5t-54 32.5l10 41q95 -6 266 -6q212 0 320 6l-11 -41q-62 -3 -96 -13t-50.5 -34t-16.5 -70q0 -27 4 -55l108 -857l422 777q51 96 51 151q0 52 -42.5 74.5t-129.5 26.5l10 41q84 -6 269 -6zM1485.5 1625q-88.5 28 -191.5 71q-214 -77 -445 -121l-10 29 q169 53 317 138t238 179h37q48 -115 111.5 -190t172.5 -127l-8 -29q-133 22 -221.5 50z" />
<glyph unicode="&#x175;" horiz-adv-x="1393" d="M452 633.5q-135 -232.5 -135 -420.5q0 -79 25 -115.5t80 -36.5q72 0 143 54q-24 58 -24 137q0 119 54 231t132.5 182t142.5 70q78 0 78 -135q0 -110 -44 -215.5t-131 -194.5q51 -94 155 -94q102 0 173.5 81t107 204.5t35.5 248.5q0 35 -3 66q-115 45 -191.5 108.5 t-76.5 164.5q0 50 32.5 84t88.5 34q93 0 137.5 -108.5t52.5 -247.5q4 -52 4 -80q0 -165 -54 -321.5t-161.5 -257.5t-259.5 -101q-166 0 -233 113q-129 -113 -301 -113q-90 0 -152 33t-92.5 89.5t-30.5 127.5q0 121 88 245.5t227.5 245t366.5 290.5q-51 -8 -92.5 -31.5 t-114.5 -78t-121 -54.5q-18 0 -32 5t-39.5 19.5t-46.5 14.5q-28 0 -45.5 -22.5t-34.5 -76.5l-19 -55h-39l45 149q38 117 86.5 163t108.5 46q36 0 79.5 -19t74.5 -29.5t79 -10.5q86 0 158 43l23 39l43 -21q-212 -217 -347 -449.5zM808.5 640.5q-30.5 -49.5 -51 -128.5 t-20.5 -160q0 -68 19 -123q68 78 106.5 174.5t38.5 190.5q0 96 -35 96q-27 0 -57.5 -49.5zM979 1313q-87 36 -167 88q-171 -95 -371 -152l-10 29q148 64 277.5 172t211.5 229h37q28 -145 84 -238.5t160 -162.5l-8 -29q-127 28 -214 64z" />
<glyph unicode="&#x176;" horiz-adv-x="1503" d="M332 1427.5q73 51.5 178 51.5q134 0 210 -83.5t114 -235.5t67 -412q135 382 336 604q116 127 242 127q60 0 103 -23.5t65 -64t22 -89.5q0 -51 -24 -93t-66.5 -66.5t-95.5 -24.5q-68 0 -105 34t-37 91q1 67 44.5 117.5t111.5 71.5q-11 8 -35 8q-60 0 -123 -47 q-57 -41 -129.5 -136.5t-149 -243t-141.5 -335.5l-116 -461q-13 -55 -13 -83q0 -37 16.5 -56t49.5 -26.5t92 -10.5l-10 -41q-117 6 -352 6q-222 0 -330 -6l10 41q75 3 112 16t58.5 48.5t40.5 111.5l111 442q-32 279 -89.5 473.5t-146.5 194.5q-36 0 -57.5 -25t-36.5 -71 l-43 -129h-45l51 158q38 116 111 167.5zM1188.5 1629q-88.5 28 -191.5 71q-214 -77 -445 -121l-10 29q169 53 317 138t238 179h37q48 -115 111.5 -190t172.5 -127l-8 -29q-133 22 -221.5 50z" />
<glyph unicode="&#x177;" horiz-adv-x="987" d="M776.5 426q65.5 134 97.5 258q-83 46 -137 115t-51 149q0 64 37 101.5t100 37.5q135 0 135 -186q0 -123 -56 -283t-148.5 -321t-198.5 -289q-104 -125 -229.5 -221t-259.5 -141q-81 -31 -146 -31q-66 0 -103.5 30.5t-37.5 84.5t39.5 90.5t101.5 36.5q121 0 219 -142 q143 70 267 189l-160 979q-12 56 -22.5 76t-30.5 20q-23 0 -44 -30.5t-53 -121.5l-37 -100h-39l52 150q40 116 103 163t149 47q87 0 136 -48.5t68 -172.5l96 -701q87 127 152.5 261zM792 1313q-87 36 -167 88q-171 -95 -371 -152l-10 29q148 64 277.5 172t211.5 229h37 q28 -145 84 -238.5t160 -162.5l-8 -29q-127 28 -214 64z" />
<glyph unicode="&#x178;" horiz-adv-x="1503" d="M332 1427.5q73 51.5 178 51.5q134 0 210 -83.5t114 -235.5t67 -412q135 382 336 604q116 127 242 127q60 0 103 -23.5t65 -64t22 -89.5q0 -51 -24 -93t-66.5 -66.5t-95.5 -24.5q-68 0 -105 34t-37 91q1 67 44.5 117.5t111.5 71.5q-11 8 -35 8q-60 0 -123 -47 q-57 -41 -129.5 -136.5t-149 -243t-141.5 -335.5l-116 -461q-13 -55 -13 -83q0 -37 16.5 -56t49.5 -26.5t92 -10.5l-10 -41q-117 6 -352 6q-222 0 -330 -6l10 41q75 3 112 16t58.5 48.5t40.5 111.5l111 442q-32 279 -89.5 473.5t-146.5 194.5q-36 0 -57.5 -25t-36.5 -71 l-43 -129h-45l51 158q38 116 111 167.5zM625.5 1796.5q24.5 39.5 64.5 60.5t87 21q64 0 98.5 -37.5t34.5 -99.5q0 -54 -25 -93t-66 -59t-87 -20q-65 0 -98 36.5t-33 98.5q0 53 24.5 92.5zM1115.5 1796.5q24.5 39.5 64.5 60.5t87 21q64 0 98.5 -37.5t34.5 -99.5 q0 -54 -25 -93t-65.5 -59t-85.5 -20q-66 0 -99.5 36.5t-33.5 98.5q0 53 24.5 92.5z" />
<glyph unicode="&#x179;" horiz-adv-x="1348" d="M1069.5 1175q-106.5 -49 -209.5 -49q-72 0 -128 13.5t-146.5 45.5t-149.5 32q-44 0 -68 -21t-24 -61q0 -44 35.5 -73.5t114.5 -45.5l-11 -39q-113 18 -189.5 75t-76.5 162q0 77 36.5 137t104 94t156.5 34q79 0 140 -23t181 -91.5t234 -68.5q55 0 101 13.5t116 42.5 q37 53 78 86t72 33q16 0 30 -11q12 -10 12 -27q0 -28 -38 -62.5t-115 -63.5l-567 -557h311l-16 -41h-336l-580 -570q100 88 207 136.5t211 48.5q71 0 127 -13.5t147 -45.5t150 -32q43 0 67.5 21.5t24.5 60.5q0 87 -149 119l8 39q113 -18 189.5 -75t76.5 -162 q0 -77 -36.5 -137t-104 -94t-156.5 -34q-79 0 -139.5 23t-181 91.5t-234.5 68.5q-55 0 -101 -13.5t-116 -42.5q-36 -53 -78 -86t-73 -33q-16 0 -29 11q-12 10 -12 27q0 28 38 62.5t115 63.5l576 566h-332l14 41h359l571 561q-100 -87 -206.5 -136zM943.5 1759.5 q84.5 79.5 123.5 114.5t87 61q41 23 88 23q71 0 98 -55q11 -22 11 -42q0 -65 -92 -116q-36 -20 -78.5 -34.5t-165 -49.5t-236.5 -80l-14 25q94 74 178.5 153.5z" />
<glyph unicode="&#x17a;" horiz-adv-x="950" d="M195 188q77 50 121 73.5t87 23.5q35 0 61 -9t72.5 -33t84.5 -24q36 0 55.5 20.5t19.5 51.5q0 45 -33.5 75t-84.5 42l12 30q109 -24 163 -78t54 -141q0 -67 -28.5 -122t-87 -87.5t-144.5 -32.5q-85 0 -163.5 37t-125 55.5t-119.5 18.5q-58 0 -101.5 -19t-84.5 -69h-59 l995 956q-59 -26 -146 -84t-136 -85t-95 -27q-34 0 -59.5 9t-72 32.5t-83.5 23.5t-56.5 -18.5t-19.5 -52.5q0 -42 29.5 -69.5t89.5 -47.5l-12 -31q-217 52 -217 213q0 66 32.5 124.5t98.5 95t161 36.5q57 0 100 -13.5t128.5 -53t169.5 -39.5q61 0 103.5 19.5t84.5 68.5h60 l-981 -942q50 23 127 73zM651 1444q59 100 87 144.5t66 82.5q51 54 111 54q43 0 75 -31q27 -27 27 -62q0 -55 -60 -112q-29 -29 -65.5 -55t-144 -94.5t-203.5 -143.5l-21 20q69 97 128 197z" />
<glyph unicode="&#x17b;" horiz-adv-x="1348" d="M1069.5 1175q-106.5 -49 -209.5 -49q-72 0 -128 13.5t-146.5 45.5t-149.5 32q-44 0 -68 -21t-24 -61q0 -44 35.5 -73.5t114.5 -45.5l-11 -39q-113 18 -189.5 75t-76.5 162q0 77 36.5 137t104 94t156.5 34q79 0 140 -23t181 -91.5t234 -68.5q55 0 101 13.5t116 42.5 q37 53 78 86t72 33q16 0 30 -11q12 -10 12 -27q0 -28 -38 -62.5t-115 -63.5l-567 -557h311l-16 -41h-336l-580 -570q100 88 207 136.5t211 48.5q71 0 127 -13.5t147 -45.5t150 -32q43 0 67.5 21.5t24.5 60.5q0 87 -149 119l8 39q113 -18 189.5 -75t76.5 -162 q0 -77 -36.5 -137t-104 -94t-156.5 -34q-79 0 -139.5 23t-181 91.5t-234.5 68.5q-55 0 -101 -13.5t-116 -42.5q-36 -53 -78 -86t-73 -33q-16 0 -29 11q-12 10 -12 27q0 28 38 62.5t115 63.5l576 566h-332l14 41h359l571 561q-100 -87 -206.5 -136zM784 1792q27 43 75 66.5 t107 23.5q73 0 112 -33.5t39 -93.5q0 -52 -28 -95t-76.5 -68t-108.5 -25q-70 0 -108.5 33t-38.5 92q0 57 27 100z" />
<glyph unicode="&#x17c;" horiz-adv-x="950" d="M195 188q77 50 121 73.5t87 23.5q35 0 61 -9t72.5 -33t84.5 -24q36 0 55.5 20.5t19.5 51.5q0 45 -33.5 75t-84.5 42l12 30q109 -24 163 -78t54 -141q0 -67 -28.5 -122t-87 -87.5t-144.5 -32.5q-85 0 -163.5 37t-125 55.5t-119.5 18.5q-58 0 -101.5 -19t-84.5 -69h-59 l995 956q-59 -26 -146 -84t-136 -85t-95 -27q-34 0 -59.5 9t-72 32.5t-83.5 23.5t-56.5 -18.5t-19.5 -52.5q0 -42 29.5 -69.5t89.5 -47.5l-12 -31q-217 52 -217 213q0 66 32.5 124.5t98.5 95t161 36.5q57 0 100 -13.5t128.5 -53t169.5 -39.5q61 0 103.5 19.5t84.5 68.5h60 l-981 -942q50 23 127 73zM534 1495.5q27 43.5 74 67.5t107 24q74 0 113 -32.5t39 -92.5q0 -52 -28 -95.5t-77 -69t-108 -25.5q-70 0 -108.5 32t-38.5 91q0 57 27 100.5z" />
<glyph unicode="&#x17d;" horiz-adv-x="1348" d="M1069.5 1175q-106.5 -49 -209.5 -49q-72 0 -128 13.5t-146.5 45.5t-149.5 32q-44 0 -68 -21t-24 -61q0 -44 35.5 -73.5t114.5 -45.5l-11 -39q-113 18 -189.5 75t-76.5 162q0 77 36.5 137t104 94t156.5 34q79 0 140 -23t181 -91.5t234 -68.5q55 0 101 13.5t116 42.5 q37 53 78 86t72 33q16 0 30 -11q12 -10 12 -27q0 -28 -38 -62.5t-115 -63.5l-567 -557h311l-16 -41h-336l-580 -570q100 88 207 136.5t211 48.5q71 0 127 -13.5t147 -45.5t150 -32q43 0 67.5 21.5t24.5 60.5q0 87 -149 119l8 39q113 -18 189.5 -75t76.5 -162 q0 -77 -36.5 -137t-104 -94t-156.5 -34q-79 0 -139.5 23t-181 91.5t-234.5 68.5q-55 0 -101 -13.5t-116 -42.5q-36 -53 -78 -86t-73 -33q-16 0 -29 11q-12 10 -12 27q0 28 38 62.5t115 63.5l576 566h-332l14 41h359l571 561q-100 -87 -206.5 -136zM830 1869q89 -28 189 -71 q212 77 447 121l10 -29q-170 -53 -317.5 -137.5t-237.5 -179.5h-37q-47 114 -111.5 189.5t-173.5 127.5l9 29q133 -22 222 -50z" />
<glyph unicode="&#x17e;" horiz-adv-x="950" d="M195 188q77 50 121 73.5t87 23.5q35 0 61 -9t72.5 -33t84.5 -24q36 0 55.5 20.5t19.5 51.5q0 45 -33.5 75t-84.5 42l12 30q109 -24 163 -78t54 -141q0 -67 -28.5 -122t-87 -87.5t-144.5 -32.5q-85 0 -163.5 37t-125 55.5t-119.5 18.5q-58 0 -101.5 -19t-84.5 -69h-59 l995 956q-59 -26 -146 -84t-136 -85t-95 -27q-34 0 -59.5 9t-72 32.5t-83.5 23.5t-56.5 -18.5t-19.5 -52.5q0 -42 29.5 -69.5t89.5 -47.5l-12 -31q-217 52 -217 213q0 66 32.5 124.5t98.5 95t161 36.5q57 0 100 -13.5t128.5 -53t169.5 -39.5q61 0 103.5 19.5t84.5 68.5h60 l-981 -942q50 23 127 73zM589.5 1615q87.5 -36 167.5 -87q173 95 371 151l10 -28q-148 -65 -278 -173t-212 -229h-36q-28 145 -83.5 238.5t-160.5 163.5l8 28q126 -28 213.5 -64z" />
<glyph unicode="&#x192;" horiz-adv-x="1079" d="M678 1483q150 119 338 119q78 0 131.5 -26t80 -69.5t26.5 -97.5q0 -50 -22.5 -98t-62.5 -78.5t-90 -30.5q-57 0 -89.5 28.5t-32.5 82.5q0 71 43 132t116 93q-6 14 -26.5 22.5t-49.5 8.5q-70 0 -127 -74q-36 -47 -67 -137t-88 -303l-1 -2h343l-10 -41h-343l-208 -776 q-90 -341 -295 -502q-77 -60 -165.5 -89.5t-172.5 -29.5q-91 0 -140.5 32t-49.5 87l1 12q3 60 48 99.5t108 39.5q39 0 67.5 -16.5t42.5 -43.5t11 -58q-2 -32 -22 -65t-56 -56q84 9 132.5 58.5t78.5 162.5l306 1145h-251l11 41h250l1 2q85 306 234 428z" />
<glyph unicode="&#x1f4;" horiz-adv-x="1513" d="M1393 1133q0 48 -6 82t-23 67q-40 77 -121.5 118.5t-193.5 41.5q-196 0 -343 -178t-225 -430.5t-78 -460.5q0 -184 72.5 -272.5t220.5 -88.5q88 0 158 43q33 22 50.5 55t33.5 95l47 180q18 68 18 106q0 36 -17 54.5t-52.5 26t-102.5 10.5l11 41q118 -7 348 -7 q199 0 289 7l-11 -41q-49 -4 -73 -16.5t-40.5 -46.5t-37.5 -113l-109 -406h-41q1 9 1 27q0 42 -14.5 66t-43.5 24q-30 0 -62.5 -13t-64.5 -29.5t-45 -23.5q-151 -80 -297 -80q-177 0 -303.5 55t-193 160t-66.5 254q0 237 127 479.5t352 401t504 158.5q84 0 145 -17t104 -45 t87 -71q19 -19 35 -19q39 0 81 123h46q-67 -175 -132 -471h-45q11 83 11 154zM1102.5 1759.5q84.5 79.5 123.5 114.5t87 61q41 23 88 23q71 0 98 -55q11 -22 11 -42q0 -65 -92 -116q-36 -20 -78.5 -34.5t-165 -49.5t-236.5 -80l-14 25q94 74 178.5 153.5z" />
<glyph unicode="&#x1f5;" horiz-adv-x="967" d="M73 75q-34 34 -34 81q0 51 40 95.5t117.5 88.5t207.5 100q-144 3 -229 60.5t-85 171.5q0 93 61 189t180 160t283 64q52 0 97 -7q87 170 163 231q60 47 132 47q58 0 92.5 -29t34.5 -84q0 -44 -22 -84.5t-59 -66t-81 -25.5t-70.5 26t-26.5 68q0 32 18 66.5t52 62.5 q-7 4 -15 4q-20 0 -40 -16q-30 -25 -70 -83t-70 -124q92 -21 143.5 -75t51.5 -142q0 -94 -57 -183.5t-161.5 -151.5t-240.5 -76q-97 -42 -147.5 -73.5t-50.5 -60.5q0 -18 22 -31t70 -28l172 -57q109 -36 171 -85.5t62 -130.5q0 -104 -90 -188t-235 -132t-301 -48 q-117 0 -200 19.5t-126 55t-43 83.5q0 68 64.5 107t181.5 80.5t163 60.5l-36 10q-55 16 -89 50zM567 544q49 67 72.5 168.5t24.5 207.5q0 62 -18 95.5t-62 33.5q-70 0 -119 -72.5t-73.5 -176.5t-24.5 -196q0 -70 19 -98.5t60 -28.5q72 0 121 67zM78 -260q0 -96 119 -96 q80 0 165 28.5t141 79t56 111.5q0 23 -15 37t-35 21.5t-71 23.5l-206 60q-154 -129 -154 -265zM658 1444q59 100 87 144.5t66 82.5q51 54 111 54q43 0 75 -31q27 -27 27 -62q0 -55 -60 -112q-29 -29 -65.5 -55t-144 -94.5t-203.5 -143.5l-21 20q69 97 128 197z" />
<glyph unicode="&#x218;" horiz-adv-x="1202" d="M1149 1047h-41q12 57 12 114q0 123 -76 196t-217 73q-110 0 -178.5 -55t-68.5 -169q0 -141 158.5 -309t240.5 -271.5t82 -244.5q0 -137 -87.5 -229.5t-218 -136.5t-259.5 -44q-92 0 -155 12t-105.5 31t-94.5 52q-45 30 -71 30q-18 0 -31 -10t-24.5 -32.5t-30.5 -67.5h-41 q66 157 139 491h41q-22 -86 -19 -162q7 -146 91 -222.5t243 -76.5q264 0 264 215q0 173 -145 336t-218 259.5t-73 242.5q0 132 75 224.5t191.5 139t237.5 46.5q107 0 182 -25t142 -65q50 -33 67 -33t32 25t36 83h41q-78 -190 -121 -417zM457.5 -414.5q56.5 31.5 66.5 78.5 q-49 -35 -118 -35q-58 0 -90.5 25.5t-32.5 75.5q0 46 25 83t67.5 57.5t93.5 20.5q58 0 98.5 -33t40.5 -94q0 -107 -77.5 -175t-204.5 -83l-6 39q81 9 137.5 40.5z" />
<glyph unicode="&#x219;" horiz-adv-x="860" d="M231 14q77 0 124.5 47t47.5 129q0 65 -28 134.5t-86 158.5q-8 12 -48 73.5t-59.5 118t-19.5 111.5q0 88 44.5 156t128.5 106.5t200 38.5q132 0 221.5 -48.5t89.5 -164.5q0 -35 -14 -70t-42.5 -58t-68.5 -23q-51 0 -82 38.5t-31 98.5q0 50 18.5 94.5t45.5 75.5 q-29 17 -72 17q-74 0 -116.5 -46t-43.5 -129q0 -53 21.5 -99.5t53.5 -96t48 -74.5q65 -108 93 -177.5t28 -139.5q0 -90 -47 -161t-134.5 -112t-203.5 -41q-146 0 -242 56.5t-96 181.5q0 61 30.5 104t84.5 43t85.5 -45t31.5 -114q0 -41 -10 -77t-19.5 -60.5t-11.5 -30.5 q30 -15 79 -15zM-127 -414.5q57 31.5 67 78.5q-49 -35 -118 -35q-58 0 -90.5 25.5t-32.5 75.5q0 44 24.5 81t66.5 58.5t93 21.5q59 0 100 -32.5t41 -91.5q0 -104 -73 -173.5t-209 -87.5l-6 39q80 9 137 40.5z" />
<glyph unicode="&#x21a;" horiz-adv-x="1395" d="M592 1409q-170 0 -232 -35q54 -15 88.5 -60t34.5 -106q0 -47 -20.5 -86.5t-56.5 -62.5t-82 -23q-69 0 -108.5 46.5t-39.5 115.5q0 57 31.5 111t101.5 88q101 49 275 49q87 0 172 -6t258.5 -22.5t277.5 -16.5q137 0 217 27q-31 29 -51 70.5t-20 90.5q0 75 44 121.5 t117 46.5q49 0 84.5 -20t54.5 -52.5t19 -70.5q0 -126 -141 -195q-124 -59 -342 -59q-52 0 -120 4l-300 -1126q-15 -57 -15 -94t16.5 -58.5t53 -31.5t99.5 -13l-9 -41q-129 6 -378 6q-244 0 -361 -6l8 41q88 3 136 21t75.5 58t48.5 118l309 1156q-155 15 -245 15z M611.5 -414.5q56.5 31.5 66.5 78.5q-49 -35 -118 -35q-58 0 -90.5 25.5t-32.5 75.5q0 46 25 83t67.5 57.5t93.5 20.5q58 0 98.5 -33t40.5 -94q0 -107 -77.5 -175t-204.5 -83l-6 39q81 9 137.5 40.5z" />
<glyph unicode="&#x21b;" horiz-adv-x="723" d="M330 133q0 -61 61 -61q45 0 87 44t75 132l31 84h39l-41 -119q-82 -242 -308 -242q-104 0 -156.5 54.5t-52.5 148.5q0 53 19 123l206 715h-186l11 41h187l89 311q177 3 297 29l-98 -340h231l-6 -41h-237l-242 -838q-6 -22 -6 -41zM-174 -414.5q57 31.5 67 78.5 q-49 -35 -118 -35q-58 0 -90.5 25.5t-32.5 75.5q0 44 24.5 81t66.5 58.5t93 21.5q59 0 100 -32.5t41 -91.5q0 -104 -73 -173.5t-209 -87.5l-6 39q80 9 137 40.5z" />
<glyph unicode="&#x237;" horiz-adv-x="616" d="M252.5 -109q-71.5 -125 -174.5 -186q-122 -90 -293 -90q-98 0 -146.5 31.5t-48.5 89.5q0 39 21.5 73.5t58 55t78.5 20.5q54 0 87.5 -32t33.5 -76q0 -35 -21.5 -71.5t-58.5 -59.5q78 9 124.5 58.5t78.5 162.5l287 1018q11 42 11 63q0 39 -36 39q-35 0 -66.5 -38 t-62.5 -124l-39 -104h-39l55 156q39 112 114.5 161t170.5 49q175 0 175 -161q0 -52 -19 -125l-158 -565q-61 -220 -132.5 -345z" />
<glyph unicode="&#x2c6;" horiz-adv-x="823" d="M620 1313q-87 36 -167 88q-171 -95 -371 -152l-10 29q148 64 277.5 172t211.5 229h37q28 -145 84 -238.5t160 -162.5l-8 -29q-127 28 -214 64z" />
<glyph unicode="&#x2c7;" horiz-adv-x="823" d="M473.5 1615q87.5 -36 167.5 -87q173 95 371 151l10 -28q-148 -65 -278 -173t-212 -229h-36q-28 145 -83.5 238.5t-160.5 163.5l8 28q126 -28 213.5 -64z" />
<glyph unicode="&#x2d8;" horiz-adv-x="1227" d="M438.5 1503q58.5 -30 159.5 -30q110 0 219 36.5t197 104.5l22 -21q-49 -82 -128 -155.5t-172 -119.5t-181 -46q-108 0 -171 88t-83 231l31 15q48 -73 106.5 -103z" />
<glyph unicode="&#x2d9;" horiz-adv-x="406" d="M50 1495.5q27 43.5 74 67.5t107 24q74 0 113 -32.5t39 -92.5q0 -52 -28 -95.5t-77 -69t-108 -25.5q-70 0 -108.5 32t-38.5 91q0 57 27 100.5z" />
<glyph unicode="&#x2da;" horiz-adv-x="535" d="M393 1610.5q46 -21.5 72.5 -61t26.5 -91.5q0 -61 -35.5 -112.5t-94.5 -82t-126 -30.5q-84 0 -138.5 47.5t-54.5 128.5q0 62 33.5 113t90 80.5t124.5 29.5q56 0 102 -21.5zM339.5 1300q44.5 24 71.5 65.5t27 90.5q0 43 -22.5 73t-58 45t-72.5 15q-49 0 -92.5 -25t-69 -67 t-25.5 -88q0 -42 21 -72t55 -45.5t72 -15.5q49 0 93.5 24z" />
<glyph unicode="&#x2db;" horiz-adv-x="1024" d="M588 -90.5q-62 -63.5 -62 -132.5q0 -29 16 -44.5t44 -15.5q32 0 67 17.5t60 44.5l28 -25q-114 -139 -276 -139q-79 0 -124.5 33t-45.5 90q0 90 114.5 158.5t278.5 109.5h53q-91 -33 -153 -96.5z" />
<glyph unicode="&#x2dc;" horiz-adv-x="842" d="M307 1539.5q84 70.5 178 70.5q59 0 97.5 -21.5t98.5 -75t116 -53.5q41 0 75.5 28t69.5 91l37 -10q-53 -144 -137 -214.5t-178 -70.5q-59 0 -97.5 21.5t-98.5 75t-116 53.5q-41 0 -75.5 -28t-69.5 -91l-37 10q53 144 137 214.5z" />
<glyph unicode="&#x2dd;" horiz-adv-x="831" d="M118 1424q31 85 48.5 128.5t40.5 75.5q37 51 97 51q39 0 73 -26q38 -33 38 -81q0 -43 -32 -81q-20 -26 -48 -49t-112 -85t-162 -132l-22 16q48 98 79 183zM459 1362q22 54 53.5 141t58.5 125q39 51 98 51q40 0 72 -26q39 -34 39 -82q0 -44 -32 -80q-21 -26 -48.5 -49.5 t-110.5 -85t-161 -131.5l-25 16q34 67 56 121z" />
<glyph unicode="&#x326;" horiz-adv-x="0" d="M-276 -414.5q57 31.5 67 78.5q-49 -35 -118 -35q-58 0 -90.5 25.5t-32.5 75.5q0 44 24.5 81t66.5 58.5t93 21.5q59 0 100 -32.5t41 -91.5q0 -104 -73 -173.5t-209 -87.5l-6 39q80 9 137 40.5z" />
<glyph unicode="&#x394;" horiz-adv-x="1147" d="M494 6q-228 0 -455 -6l477 1479h33l395 -1479q-223 6 -450 6zM635 61l-248 902l-287 -902h535z" />
<glyph unicode="&#x3a9;" horiz-adv-x="1739" d="M521 357q-153 191 -222.5 318.5t-69.5 291.5q0 159 76 274t222.5 176.5t353.5 61.5q206 0 352.5 -61.5t222.5 -176.5t76 -274q0 -164 -69.5 -291.5t-222.5 -318.5t-224 -310h108q97 0 165 35.5t112.5 116t66.5 215.5h48q-7 -55 -7 -148q0 -121 15 -266q-78 6 -267 6 q-49 0 -137 -2.5t-155 -3.5v33q95 169 173.5 400t78.5 493q0 253 -78.5 384.5t-257.5 131.5q-180 0 -258 -131t-78 -385q0 -263 78.5 -496t173.5 -397v-33q-67 1 -156 3.5t-139 2.5q-189 0 -266 -6q14 148 14 266q0 90 -6 148h47q22 -135 66.5 -215.5t112.5 -116t165 -35.5 h110q-71 119 -224 310z" />
<glyph unicode="&#x3bc;" horiz-adv-x="1446" d="M1171.5 130q-95.5 -159 -229.5 -159q-65 0 -95 42.5t-30 109.5q0 73 37 202q-82 -149 -181.5 -251.5t-209.5 -102.5q-78 0 -111.5 55.5t-34.5 139.5q-89 -294 -174 -422q-87 -129 -206 -129q-52 0 -80.5 27t-28.5 71q0 40 23 72.5t51.5 55t120.5 87.5q326 234 362 650 q21 130 25.5 209t5.5 94q6 65 37 111.5t80 70.5t108 24q121 0 121 -119q0 -62 -35.5 -110t-152.5 -157t-166 -225q-4 -25 -4 -52q0 -73 37.5 -98t97.5 -25q226 0 368 219l4 -1q34 225 47 333q12 119 71 177t147 58q61 0 93 -28t32 -78q0 -11 -1 -16q-2 -58 -33.5 -99 t-139.5 -133t-169 -209q-14 -50 -18 -92q-2 -11 -2 -30q0 -49 27.5 -75t72.5 -26q76 0 140.5 49.5t121.5 161.5l37 -12q-70 -211 -165.5 -370z" />
<glyph unicode="&#x3c0;" horiz-adv-x="1231" d="M713 400q0 -46 26 -72.5t78 -26.5q76 0 143.5 50t131.5 161l36 -12q-71 -196 -177 -362.5t-246 -166.5q-135 0 -135 148q0 59 22 135q20 70 49 150t76.5 203t58.5 161h-193q-63 -283 -137 -448t-139 -242q-41 -52 -93 -79.5t-108 -27.5q-55 0 -87.5 30.5t-32.5 78.5 q0 65 47 118.5t145 110.5q106 60 161 100t111.5 126t94.5 233h-70q-97 0 -163 -16.5t-120.5 -59.5t-107.5 -123l-33 13q64 155 140.5 257t188 157t269.5 55h590l-80 -283h-342l-90 -291q-14 -44 -14 -77z" />
<glyph unicode="&#x401;" horiz-adv-x="1282" d="M958 1444q291 0 416 6q-54 -147 -78 -242q-11 -46 -26 -127h-45q3 39 3 73q0 93 -22.5 147t-72 78t-134.5 24h-63q-72 0 -108 -12t-57.5 -46.5t-41.5 -111.5l-128 -483h75q102 0 171 71.5t109 173.5h48q-24 -70 -37.5 -118t-23.5 -88.5t-15 -59.5q-25 -91 -60 -266h-45 q2 28 2 44q0 202 -172 202h-63l-131 -492q-19 -68 -19 -100q0 -29 13.5 -44t42 -20.5t79.5 -5.5h76q112 0 187.5 34.5t135 112t120.5 216.5h47q-22 -54 -45 -148q-32 -108 -54 -262q-139 6 -464 6q-443 0 -666 -6l10 41q74 3 110 16t58 48t43 112l270 1016q17 65 17 99 q0 30 -13.5 46t-42 22.5t-81.5 8.5l10 41q223 -6 665 -6zM560.5 1796.5q24.5 39.5 64.5 60.5t87 21q64 0 98.5 -37.5t34.5 -99.5q0 -54 -25 -93t-66 -59t-87 -20q-65 0 -98 36.5t-33 98.5q0 53 24.5 92.5zM1050.5 1796.5q24.5 39.5 64.5 60.5t87 21q64 0 98.5 -37.5 t34.5 -99.5q0 -54 -25 -93t-65.5 -59t-85.5 -20q-66 0 -99.5 36.5t-33.5 98.5q0 53 24.5 92.5z" />
<glyph unicode="&#x402;" horiz-adv-x="1898" d="M1144.5 815.5q120.5 36.5 252.5 36.5q195 0 309.5 -85t114.5 -249q0 -146 -88.5 -272t-235 -200.5t-313.5 -74.5q-77 0 -143 21t-107 65.5t-41 112.5q0 58 31 107t82.5 77.5t111.5 28.5q59 0 91 -29t32 -84q0 -53 -28.5 -99t-76 -78.5t-102.5 -47.5q48 -31 117 -31 q101 0 176 68.5t114.5 177.5t39.5 227q0 285 -256 285q-83 0 -166 -25.5t-137 -66.5l-187 -703q-108 29 -299 29q-108 0 -225 -6l10 41q86 2 134 20.5t74.5 57.5t47.5 114l311 1166q-116 10 -196 10q-168 0 -230 -35q55 -15 90 -59.5t35 -106.5q0 -47 -20.5 -86.5t-57 -62.5 t-83.5 -23q-69 0 -107.5 46.5t-38.5 115.5q0 58 31 111.5t102 87.5q99 49 275 49q87 0 171.5 -6t257.5 -22.5t275 -16.5q122 0 193 29q-30 29 -49 70t-19 89q0 75 44 121.5t118 46.5q71 0 113.5 -41.5t42.5 -107.5q0 -59 -36 -106.5t-100 -78.5q-118 -63 -321 -63 q-72 0 -174 8l-171 -647q91 58 211.5 94.5z" />
<glyph unicode="&#x403;" horiz-adv-x="1143" d="M443 126q0 -34 17 -51.5t53.5 -24.5t104.5 -9l-8 -41q-126 6 -364 6q-226 0 -334 -6l10 41q74 3 110 16t58 48t43 112l270 1016q17 65 17 99q0 30 -13.5 46t-42 22.5t-81.5 8.5l10 41q165 -6 328 -6h337q256 0 367 6q-43 -117 -80 -250q-37 -142 -43 -180h-47q8 61 8 124 q0 139 -50 199t-146 60h-54q-57 0 -88.5 -12.5t-53.5 -48t-42 -109.5l-270 -1016q-16 -61 -16 -91zM826.5 1759.5q84.5 79.5 123.5 114.5t87 61q41 23 88 23q71 0 98 -55q11 -22 11 -42q0 -65 -92 -116q-36 -20 -78.5 -34.5t-165 -49.5t-236.5 -80l-14 25q94 74 178.5 153.5 z" />
<glyph unicode="&#x404;" horiz-adv-x="1432" d="M1367 1139q0 96 -34 157q-72 134 -241 134q-140 0 -270 -107t-223 -286t-128 -385q142 276 313 276q55 0 97 -20t124 -78t156 -58q91 0 172 98l27 -18q-94 -156 -179.5 -232.5t-181.5 -76.5q-57 0 -100.5 20t-129.5 77.5t-165 57.5q-40 0 -73.5 -22t-67.5 -81 q-10 -79 -10 -157q0 -203 72.5 -304t203.5 -101q78 0 162 35.5t145 99.5q54 56 93.5 127.5t91.5 196.5h45q-97 -355 -121 -492h-45q6 44 6 70q0 52 -26 52q-16 0 -42 -18q-93 -64 -188 -98.5t-213 -34.5q-274 0 -411.5 131t-137.5 377q0 242 128 474t353 379t498 147 q80 0 137 -18t94.5 -46t73.5 -69q15 -18 30 -18q38 0 83 122h43q-68 -177 -131 -471h-45q15 88 15 160z" />
<glyph unicode="&#x405;" horiz-adv-x="1202" d="M1149 1047h-41q12 57 12 114q0 123 -76 196t-217 73q-110 0 -178.5 -55t-68.5 -169q0 -141 158.5 -309t240.5 -271.5t82 -244.5q0 -137 -87.5 -229.5t-218 -136.5t-259.5 -44q-92 0 -155 12t-105.5 31t-94.5 52q-45 30 -71 30q-18 0 -31 -10t-24.5 -32.5t-30.5 -67.5h-41 q66 157 139 491h41q-22 -86 -19 -162q7 -146 91 -222.5t243 -76.5q264 0 264 215q0 173 -145 336t-218 259.5t-73 242.5q0 132 75 224.5t191.5 139t237.5 46.5q107 0 182 -25t142 -65q50 -33 67 -33t32 25t36 83h41q-78 -190 -121 -417z" />
<glyph unicode="&#x406;" d="M441 117q0 -30 13.5 -45.5t42.5 -22t83 -8.5l-9 -41q-118 6 -333 6q-214 0 -322 -6l10 41q71 3 107 16t58 48.5t42 111.5l270 1016q17 65 17 99q0 30 -13.5 46t-42 22.5t-81.5 8.5l10 41q101 -6 321 -6q204 0 336 6l-10 -41q-75 -3 -111.5 -16t-58 -48t-41.5 -112 l-270 -1016q-18 -70 -18 -100z" />
<glyph unicode="&#x407;" d="M441 117q0 -30 13.5 -45.5t42.5 -22t83 -8.5l-9 -41q-118 6 -333 6q-214 0 -322 -6l10 41q71 3 107 16t58 48.5t42 111.5l270 1016q17 65 17 99q0 30 -13.5 46t-42 22.5t-81.5 8.5l10 41q101 -6 321 -6q204 0 336 6l-10 -41q-75 -3 -111.5 -16t-58 -48t-41.5 -112 l-270 -1016q-18 -70 -18 -100zM325.5 1796.5q24.5 39.5 64.5 60.5t87 21q64 0 98.5 -37.5t34.5 -99.5q0 -54 -25 -93t-66 -59t-87 -20q-65 0 -98 36.5t-33 98.5q0 53 24.5 92.5zM815.5 1796.5q24.5 39.5 64.5 60.5t87 21q64 0 98.5 -37.5t34.5 -99.5q0 -54 -25 -93 t-65.5 -59t-85.5 -20q-66 0 -99.5 36.5t-33.5 98.5q0 53 24.5 92.5z" />
<glyph unicode="&#x408;" horiz-adv-x="1399" d="M958.5 980.5q86.5 101.5 190.5 183t252 177.5q-77 -26 -185.5 -79t-176.5 -77t-158 -24q-60 0 -113 14t-154.5 51.5t-171.5 37.5q-58 0 -91.5 -30t-33.5 -87q3 -137 232 -158l-6 -39q-162 13 -259.5 87.5t-97.5 208.5q0 79 33 139.5t98.5 94t159.5 33.5q132 0 250 -68.5 t189 -103t182 -34.5q175 0 346 79q77 120 128 120q14 0 27 -11t13 -25q0 -50 -150 -106q-121 -97 -205.5 -250t-147.5 -364h204l-6 -41h-210l-22 -80l-127 -496q-59 -233 -206.5 -375.5t-399.5 -142.5q-130 0 -208.5 37t-78.5 117q0 67 46 111t126 44q70 0 114.5 -32.5 t45.5 -90.5q0 -95 -113 -145q19 -6 58 -6q78 0 127 58t80 148t84 287l110 394q25 92 60 172h-279l6 41h291q61 129 147.5 230.5z" />
<glyph unicode="&#x409;" horiz-adv-x="2019" d="M1697 736q123 -34 176.5 -100t53.5 -167q0 -144 -90.5 -250.5t-244 -162.5t-337.5 -56q-36 0 -147.5 3t-210.5 3q-207 0 -317 -6l8 41q74 3 110.5 16t58.5 48t42 112l270 1016q15 57 15 92q0 48 -27 66t-84 18h-29q-54 0 -84.5 -14t-51 -51t-40.5 -111 q-110 -408 -243.5 -734t-276.5 -456q-82 -72 -185 -72q-60 0 -103.5 23t-66 63.5t-22.5 90.5q0 51 24 93t66.5 66.5t95.5 24.5q67 0 104.5 -34.5t35.5 -90.5q0 -66 -43.5 -117t-110.5 -72q4 -1 13.5 -3.5t19.5 -2.5q80 3 141 56q119 107 251.5 408t258.5 757q17 65 17 98 q0 31 -14 47t-42.5 22.5t-81.5 8.5l10 41q64 -6 191 -6q14 0 59.5 3t98.5 3q85 0 187 -3t138 -3q203 0 326 6l-10 -41q-75 -3 -111.5 -16t-58 -48t-41.5 -112l-123 -463h96q206 0 329 -34zM1107 122q0 -36 22 -55.5t75 -19.5q121 0 207.5 61t131 165t44.5 231 q0 78 -25.5 128.5t-87 76.5t-167.5 26h-45l-138 -518q-17 -66 -17 -95z" />
</font>
</defs>
</svg>
