<?xml version="1.0" standalone="no"?>
<!DOCTYPE svg PUBLIC "-//W3C//DTD SVG 1.1//EN" "http://www.w3.org/Graphics/SVG/1.1/DTD/svg11.dtd" >
<svg xmlns="http://www.w3.org/2000/svg">
<metadata></metadata>
<defs>
<font id="playfair_displayitalic" horiz-adv-x="698" >
<font-face units-per-em="2048" ascent="1638" descent="-410" />
<missing-glyph horiz-adv-x="518" />
<glyph unicode="fi" horiz-adv-x="1186" d="M1235 1449q0 -40 -21.5 -75.5t-57.5 -57.5t-75 -22q-45 0 -74 29.5t-29 73.5q0 15 3 28q8 46 42 82t79 46q-50 18 -133 18q-113 0 -215 -66q-57 -38 -96.5 -98t-69 -141t-64.5 -211l-1 -2h390q117 3 187 28l-277 -907q-14 -48 -14 -76q0 -51 47 -51q42 0 79 46.5 t81 162.5l28 76h39l-53 -150q-40 -111 -107 -161t-145 -50q-143 0 -143 124q0 61 37 163l229 754h-389l-389 -1368q-108 -3 -184 -29l396 1397h-198l13 41h196q40 148 89 244.5t122 158.5q87 74 198.5 110t229.5 36q73 0 135.5 -21.5t96.5 -67.5q18 -29 18 -64z" />
<glyph unicode="fl" horiz-adv-x="1204" d="M1100 332l-51 -150q-74 -211 -246 -211q-141 0 -141 133q0 59 28 154l334 1108q11 36 11 61q0 43 -31.5 64.5t-104.5 21.5h-25q-71 0 -159 -53q-48 -27 -82 -80.5t-59.5 -128t-57.5 -196.5l-1 -2h241l-13 -41h-239l-379 -1368q-108 -3 -184 -29l386 1397h-188l13 41h186 q37 136 80.5 222.5t107.5 141.5q71 62 162 94.5t182 32.5h39q109 1 195.5 22t169.5 62l-428 -1454q-13 -47 -13 -73q0 -54 48 -54q41 0 77 47.5t76 161.5l27 76h39z" />
<glyph unicode="f&#xef;" horiz-adv-x="1165" d="M792 99q0 -52 44 -52q45 0 82.5 48.5t76.5 160.5l27 76h39l-51 -150q-74 -211 -248 -211q-118 0 -118 124q0 61 30 163l229 754h-399l-379 -1368q-108 -3 -184 -29l386 1397h-188l13 41h186q36 141 74.5 234.5t105.5 160.5q111 111 268 111q118 0 189 -72q24 -29 24 -68 q0 -33 -19 -64.5t-50.5 -51t-67.5 -19.5q-46 0 -74.5 29.5t-28.5 75.5q0 39 28.5 76t70.5 51q-32 12 -67 12q-41 0 -78.5 -21t-65.5 -55q-33 -40 -53.5 -102t-41 -148.5t-36.5 -146.5l-1 -2h400q117 3 187 28l-295 -907q-15 -45 -15 -75zM1403.5 1492q29.5 -30 29.5 -73 q0 -33 -19 -64.5t-50.5 -51t-67.5 -19.5q-45 0 -73.5 30t-28.5 75q0 31 19 62t50.5 51t67.5 20q43 0 72.5 -30z" />
<glyph unicode="f&#xec;" horiz-adv-x="1165" d="M1061 332l-51 -150q-74 -211 -248 -211q-118 0 -118 125q0 66 30 162l229 754h-399l-379 -1368q-108 -3 -184 -29l386 1397h-188l13 41h187q44 157 88 252t115 150.5t181 55.5q65 0 114 -25q-64 77 -90 120q-21 34 -21 65q0 41 33 58q15 6 32 6q53 0 89 -64 q25 -43 54 -119t58 -147.5t75 -165.5l-27 -12q-49 69 -100 134q-48 58 -87 81.5t-97 23.5q-88 0 -130 -78t-70.5 -186t-39.5 -147l-1 -2h400q117 3 187 28l-295 -907q-15 -48 -15 -77q0 -50 44 -50q45 0 82.5 48.5t76.5 160.5l27 76h39z" />
<glyph unicode="ffb" horiz-adv-x="2298" d="M1797 970.5q99 110.5 210 110.5q99 0 156 -73t57 -215q0 -166 -73.5 -359.5t-210.5 -328t-316 -134.5q-61 0 -108 36.5t-64 101.5l-174 -142l-31 15q26 52 39 118l338 1266q8 34 8 57q0 45 -30.5 67t-103.5 23q-116 -1 -201.5 -76t-137.5 -253l-36 -131h239l-13 -41h-238 l-380 -1368q-108 -3 -184 -29l386 1397h-425l-379 -1368q-108 -3 -184 -29l386 1397h-188l13 41h187q30 101 77.5 189t103.5 138q151 140 367 140q75 0 144 -28t115 -71q140 123 355 123q109 1 195 22t166 62l-264 -1013q100 245 199 355.5zM946 1075q60 206 173 321 q-89 87 -228 87q-110 0 -181 -54.5t-113 -144t-81 -229.5l-1 -2h425zM1532.5 44.5q35.5 -26.5 85.5 -26.5q109 0 207.5 136t158.5 331t60 353q0 88 -25.5 133t-70.5 45q-58 0 -133 -91t-151.5 -245t-137.5 -337l-55 -211q26 -61 61.5 -87.5z" />
<glyph unicode="ffh" horiz-adv-x="2347" d="M2194 182q-74 -211 -248 -211q-144 0 -144 127q0 59 33 160l195 586q21 68 21 102q0 70 -66 70q-79 0 -172 -105.5t-185 -295t-169 -435.5l-50 -180h-178l385 1366q10 35 10 58q0 89 -141 89q-117 0 -204 -75t-138 -254l-36 -131h239l-13 -41h-238l-380 -1368 q-108 -3 -184 -29l386 1397h-413l-379 -1368q-108 -3 -184 -29l386 1397h-188l13 41h187q30 101 77.5 188t103.5 139q148 140 367 140q153 0 244 -100q140 124 358 124q221 3 377 84l-299 -1066q80 188 157 302t157 165.5t171 51.5q165 0 165 -154q0 -67 -30 -155l-198 -598 q-16 -48 -16 -78q0 -49 49 -49q41 0 79 46.5t78 162.5l27 76h39zM934 1075q56 202 168 318q-80 90 -211 90q-110 0 -180.5 -53.5t-112.5 -143t-82 -231.5l-1 -2h413z" />
<glyph unicode="ffj" horiz-adv-x="1761" d="M417 1240q48 88 103 140q145 140 367 140q150 0 240 -96q15 17 32 32q80 74 190.5 108.5t227.5 34.5q122 0 193 -53q27 -13 42 -39t15 -58q0 -40 -21.5 -75.5t-57.5 -57.5t-75 -22q-45 0 -74 29.5t-29 73.5q0 15 3 28q7 42 37.5 76.5t70.5 47.5q-52 20 -120 20 q-125 0 -208.5 -63.5t-136 -173t-100.5 -277.5l-1 -2h442q117 3 186 28l-238 -845q-141 -506 -399 -601q-59 -20 -121 -20q-46 0 -71 21.5t-25 58.5q0 29 16.5 58.5t44.5 48t60 18.5t49.5 -18t17.5 -46q0 -55 -57 -110q78 9 124.5 58.5t78.5 162.5l322 1145h-441l-285 -1012 h-176l284 1012h-423l-379 -1368q-108 -3 -184 -29l386 1397h-188l13 41h187q30 99 78 187zM1100 1394q-79 89 -209 89q-110 0 -180.5 -53t-112.5 -143t-82 -232l-1 -2h423q61 216 162 341z" />
<glyph unicode="ffk" horiz-adv-x="2304" d="M1784 683.5q64 65.5 120 189t107 161.5q62 47 123 47q63 0 92 -30t29 -79q0 -28 -12.5 -61.5t-39 -57.5t-67.5 -24t-60.5 24t-19.5 59q0 29 19 64.5t47 61.5h-4q-23 0 -39 -7t-37 -21q-43 -35 -95 -146.5t-103.5 -177.5t-156.5 -89q131 -6 214.5 -55t83.5 -152 q0 -25 -6 -54l-41 -205q-5 -27 -5 -40q0 -44 46 -44q41 0 76.5 47.5t74.5 161.5l25 76h39l-50 -150q-68 -211 -243 -211q-59 0 -96 33.5t-37 99.5q0 25 8 62l37 176q9 42 9 75q0 53 -24.5 87.5t-79 54t-145.5 26.5l-164 -585h-178l385 1366q10 35 10 58q0 89 -141 89 q-117 0 -204 -75t-138 -254l-36 -131h239l-13 -41h-238l-380 -1368q-108 -3 -184 -29l386 1397h-413l-379 -1368q-108 -3 -184 -29l386 1397h-188l13 41h187q30 101 77.5 188t103.5 139q148 140 367 140q153 0 244 -100q140 124 358 124q221 3 377 84l-286 -1020 q140 10 204 75.5zM1102 1393q-80 90 -211 90q-110 0 -180.5 -53.5t-112.5 -143t-82 -231.5l-1 -2h413l6 22q56 202 168 318z" />
<glyph unicode="Th" horiz-adv-x="2353" d="M2200 182q-74 -211 -248 -211q-143 0 -143 128q0 63 32 159l195 586q21 61 21 102q0 70 -66 70q-79 0 -172 -105.5t-185 -295t-169 -435.5l-50 -180h-178l388 1382q-104 -43 -277 -43q-129 0 -314 29l-301 -1130q-18 -64 -18 -104q0 -35 17 -54.5t53.5 -28t101.5 -10.5 l-8 -41q-108 6 -306 6q-200 0 -299 -6l9 41q87 3 134.5 21t74.5 58t51 118l308 1159q-159 24 -263 24q-178 0 -230 -35q16 -21 26.5 -54.5t10.5 -63.5q0 -47 -26 -83t-76 -36q-44 0 -67 27.5t-23 74.5q0 107 108 160q96 47 275 47q95 0 181 -10t271 -39t324 -29q91 0 154 11 t122 38l48 170q119 5 186 29l-301 -1071q81 190 158.5 305t157 167t171.5 52q165 0 165 -153q0 -63 -30 -156l-198 -598q-17 -45 -17 -77q0 -50 50 -50q41 0 79 46.5t78 162.5l27 76h39z" />
<glyph unicode="fb" horiz-adv-x="1696" d="M1195 970.5q99 110.5 210 110.5q99 0 156 -73t57 -215q0 -166 -73.5 -359.5t-210.5 -328t-316 -134.5q-61 0 -108 36.5t-64 101.5l-174 -142l-31 15q26 52 39 118l338 1266q8 34 8 57q0 45 -30.5 67t-103.5 23q-116 -1 -201.5 -76t-137.5 -253l-36 -131h239l-13 -41h-238 l-380 -1368q-108 -3 -184 -29l386 1397h-188l13 41h186l6 22q137 469 555 469q109 1 195 22t166 62l-264 -1013q100 245 199 355.5zM930.5 44.5q35.5 -26.5 85.5 -26.5q109 0 207.5 136t158.5 331t60 353q0 88 -25.5 133t-70.5 45q-58 0 -133 -91t-151.5 -245t-137.5 -337 l-55 -211q26 -61 61.5 -87.5z" />
<glyph unicode="fh" horiz-adv-x="1757" d="M1604 182q-74 -211 -248 -211q-144 0 -144 127q0 59 33 160l195 586q21 68 21 102q0 70 -66 70q-79 0 -172 -105.5t-185 -295t-169 -435.5l-50 -180h-178l385 1366q10 35 10 58q0 89 -141 89q-117 0 -204 -75t-138 -254l-36 -131h239l-13 -41h-238l-380 -1368 q-108 -3 -184 -29l386 1397h-188l13 41h186l6 22q130 469 555 469q221 3 377 84l-299 -1066q80 188 157 302t157 165.5t171 51.5q165 0 165 -154q0 -67 -30 -155l-198 -598q-16 -48 -16 -78q0 -49 49 -49q41 0 79 46.5t78 162.5l27 76h39z" />
<glyph unicode="fj" horiz-adv-x="1169" d="M1220 1507.5q15 -25.5 15 -58.5q0 -40 -21.5 -75.5t-57.5 -57.5t-75 -22q-45 0 -74 29.5t-29 73.5q0 15 3 28q7 42 37 76.5t71 47.5q-54 20 -120 20q-125 0 -208.5 -63.5t-136 -173t-100.5 -277.5l-1 -2h442q117 3 186 28l-238 -845q-141 -506 -399 -601 q-59 -20 -121 -20q-46 0 -71 21.5t-25 58.5q0 29 16.5 58.5t44.5 48t60 18.5q31 0 49 -18t18 -46q0 -55 -57 -110q78 9 124.5 58.5t78.5 162.5l322 1145h-441l-285 -1012h-176l284 1012h-198l13 41h196q75 269 221 403q80 74 190.5 108.5t227.5 34.5q122 0 193 -53 q27 -13 42 -38.5z" />
<glyph unicode="fk" horiz-adv-x="1714" d="M1194 683.5q64 65.5 120 189t107 161.5q62 47 123 47q63 0 92 -30t29 -79q0 -28 -12.5 -61.5t-39 -57.5t-67.5 -24t-60.5 24t-19.5 59q0 29 19 64.5t47 61.5h-4q-23 0 -39 -7t-37 -21q-43 -35 -95 -146.5t-103.5 -177.5t-156.5 -89q131 -6 214.5 -55t83.5 -152 q0 -26 -6 -54l-41 -205q-5 -27 -5 -40q0 -44 46 -44q41 0 76.5 47.5t74.5 161.5l25 76h39l-50 -150q-68 -211 -243 -211q-59 0 -96 33.5t-37 99.5q0 25 8 62l37 176q9 42 9 75q0 53 -24.5 87.5t-78.5 54t-146 26.5l-164 -585h-178l385 1366q10 35 10 58q0 89 -141 89 q-117 0 -204 -75t-138 -254l-36 -131h239l-13 -41h-238l-380 -1368q-108 -3 -184 -29l386 1397h-188l13 41h186l6 22q130 469 555 469q221 3 377 84l-286 -1020q140 10 204 75.5z" />
<glyph unicode="&#xd;" horiz-adv-x="0" />
<glyph unicode=" "  horiz-adv-x="518" />
<glyph unicode="&#x09;" horiz-adv-x="518" />
<glyph unicode="&#xa0;" horiz-adv-x="518" />
<glyph unicode="!" horiz-adv-x="539" d="M264.5 728.5q30.5 159.5 75 424.5t72.5 369q10 38 34.5 59t57.5 21q47 0 70.5 -23t23.5 -60q0 -20 -8 -44q-24 -83 -107.5 -309t-144 -400.5t-109.5 -364.5l-36 7q41 161 71.5 320.5zM35 152.5q22 36.5 57.5 58.5t73.5 22q46 0 75 -30.5t29 -76.5q0 -40 -21.5 -75.5 t-57.5 -57.5t-75 -22q-45 0 -74 30t-29 75q0 40 22 76.5z" />
<glyph unicode="&#x22;" horiz-adv-x="606" d="M528 1223q6 72 10 110.5t13 75.5q10 43 33.5 64.5t52.5 21.5q63 0 63 -68q0 -37 -15.5 -74t-64.5 -125.5t-82 -166.5h-28q12 90 18 162zM305 1223q6 72 10 110.5t13 75.5q10 43 33.5 64.5t52.5 21.5q63 0 63 -68q0 -37 -15.5 -74t-64.5 -125.5t-82 -166.5h-28 q12 90 18 162z" />
<glyph unicode="#" horiz-adv-x="1309" d="M827 547h293l-20 -41h-292l-138 -299h-49l138 299h-334l-138 -299h-49l138 299h-300l18 41h301l159 342h-300l16 41h303l140 303h49l-140 -303h334l140 303h49l-140 -303h291l-16 -41h-294zM603 889l-159 -342h334l159 342h-334z" />
<glyph unicode="$" horiz-adv-x="1128" d="M989.5 1412q31.5 -20 71.5 -52q40 -31 73 -90.5t33 -124.5q0 -66 -33.5 -114t-89.5 -48q-51 0 -77.5 39t-26.5 94q0 60 21.5 110t58.5 107q-46 47 -118 75l-178 -641q75 -70 124 -127t81 -124.5t32 -142.5q0 -123 -65.5 -209.5t-169.5 -133t-222 -56.5l-68 -244h-45 l67 241h-16q-81 0 -147 18l-72 -259h-45l76 272q-44 16 -75 36.5t-70 51.5q-46 35 -76.5 92t-30.5 123t33.5 114t89.5 48q52 0 78 -38.5t26 -94.5q0 -60 -21 -109t-58 -108q45 -46 115 -73l188 675q-84 84 -130.5 168t-46.5 192q0 114 53.5 199.5t141.5 135t192 61.5l68 245 h45l-67 -241h18q79 0 145 -17l72 258h45l-75 -271q44 -17 75.5 -37zM729 1440l-31 -1l-141 -509q40 -45 131 -130l173 622q-63 18 -132 18zM498 1351.5q-56 -63.5 -56 -171.5q0 -103 81 -209l128 462q-97 -18 -153 -81.5zM449 12h20l151 543q-21 22 -132 129l-182 -654 q67 -18 143 -18zM688 93q62 63 62 175q0 128 -96 247l-139 -499q111 14 173 77z" />
<glyph unicode="%" horiz-adv-x="1569" d="M-19 -86l1706 1774l31 -27l-1706 -1774zM285.5 1311q56.5 108 154 178t213.5 70q108 0 168 -56t60 -157q0 -109 -56 -217.5t-153 -178t-213 -69.5q-109 0 -169.5 55t-60.5 158q0 109 56.5 217zM494.5 1440.5q-61.5 -81.5 -94.5 -193t-33 -192.5q0 -137 106 -137 q81 0 142.5 81.5t94.5 193t33 193.5q0 136 -106 136q-81 0 -142.5 -81.5zM826 401q56 108 153.5 178t214.5 70q107 0 167 -56t60 -157q0 -109 -55.5 -217t-152.5 -178t-214 -70q-108 0 -168.5 55.5t-60.5 157.5q0 109 56 217zM1034.5 530.5q-61.5 -81.5 -94.5 -193 t-33 -192.5q0 -137 107 -137q81 0 142.5 81.5t94.5 193.5t33 194q0 67 -27.5 101t-78.5 34q-82 0 -143.5 -81.5z" />
<glyph unicode="&#x26;" horiz-adv-x="1673" d="M862 303q-95 0 -158 47t-63 154q0 119 85 197t255 141q47 17 155.5 55.5t207.5 76t167 70.5q101 49 156 102.5t55 125.5q0 49 -26.5 89.5t-73 63.5t-102.5 23q-54 0 -66 -18q21 -12 32 -33t11 -45q0 -31 -19 -58t-50 -43t-66 -16q-41 0 -66.5 23t-25.5 63q0 42 28.5 75.5 t73.5 53.5q68 29 150 29q118 0 187 -58t69 -176q0 -104 -59.5 -184t-190.5 -146q-92 -45 -327 -131q149 -125 149 -307q0 -136 -81.5 -252t-236 -185t-364.5 -69q-180 0 -313 52t-205 149t-72 231q0 120 57 225t157 180t226 110q-69 37 -106 98.5t-37 130.5q0 89 60.5 155 t154.5 101t190 35q76 0 133 -22.5t88 -62.5t31 -93q0 -50 -25.5 -84.5t-65.5 -52t-83 -17.5l4 37q57 0 92 30t35 82q0 68 -56 109t-142 41q-83 0 -149 -39.5t-103 -109t-37 -156.5q0 -95 45 -170q73 12 129 12q74 0 74 -43q0 -22 -19 -32.5t-45 -10.5q-51 0 -141 45 q-93 -27 -164 -87t-110.5 -142t-39.5 -174q0 -120 66 -204.5t182 -127.5t266 -43q159 0 287.5 47t202.5 134t74 200q0 75 -34.5 147t-103.5 122q-210 -77 -260 -97q-92 -36 -153.5 -82.5t-61.5 -120.5q0 -63 50.5 -100t123.5 -37q81 0 132 40t77 81l27 -19 q-82 -135 -244 -135z" />
<glyph unicode="'" horiz-adv-x="383" d="M305 1223q6 72 10 110.5t13 75.5q10 43 33.5 64.5t52.5 21.5q63 0 63 -68q0 -37 -15.5 -74t-64.5 -125.5t-82 -166.5h-28q12 90 18 162z" />
<glyph unicode="(" horiz-adv-x="739" d="M236 -124q-75 121 -116.5 264t-41.5 317q0 222 115 443.5t315.5 414t456.5 336.5l20 -27q-360 -243 -554.5 -532.5t-194.5 -657.5q0 -464 225 -780l-37 -27q-113 128 -188 249z" />
<glyph unicode=")" horiz-adv-x="739" d="M522 1402q75 -121 116.5 -264t41.5 -317q0 -222 -115 -443.5t-315.5 -414t-456.5 -336.5l-20 27q360 243 554.5 532.5t194.5 657.5q0 464 -225 780l37 27q113 -128 188 -249z" />
<glyph unicode="*" horiz-adv-x="1014" d="M1048 1257q0 -54 -87 -100q-36 -17 -77.5 -29.5t-120.5 -32t-128 -32.5q44 -14 116 -34.5t108 -33t61 -28.5q49 -31 49 -73q0 -28 -19 -50q-23 -32 -63 -32q-33 0 -68 24q-26 16 -49.5 41.5t-66 79t-71.5 87.5q2 -56 5.5 -127t3.5 -108q0 -42 -4 -70q-15 -57 -43.5 -83.5 t-61.5 -26.5q-23 0 -37.5 16t-14.5 50q0 23 5 44q7 40 26.5 86.5t53 113t57.5 116.5h-1q-53 -43 -113.5 -94t-99 -80.5t-70.5 -46.5q-47 -23 -80 -23q-43 0 -55 35q-4 12 -4 19q0 51 88 100q36 17 77.5 29.5t120 32t126.5 32.5q-43 14 -114.5 34.5t-108 33t-60.5 28.5 q-50 31 -50 74q0 27 19 49q23 32 64 32q33 0 67 -24q26 -17 49.5 -42.5t68 -82t76.5 -93.5q-2 37 -8.5 114.5t-6.5 124.5q0 46 5 75q13 57 41.5 84t59.5 27q24 0 39 -16t15 -51q0 -23 -5 -44q-6 -36 -22.5 -77t-51.5 -115t-54 -118q53 44 112 93t95.5 77.5t67.5 45.5 q47 23 80 23q43 0 55 -35q4 -12 4 -19z" />
<glyph unicode="+" horiz-adv-x="1198" d="M743 1241h74l-137 -483h475l-18 -62h-475l-138 -481h-73l137 481h-477l18 62h477z" />
<glyph unicode="," horiz-adv-x="516" d="M107 -117q57 70 63 140q-59 -52 -107 -52q-36 0 -56.5 19.5t-20.5 52.5q0 43 27.5 87.5t71.5 73.5t89 29t67.5 -35t22.5 -85q0 -71 -36 -143t-104 -135.5t-161 -108.5l-10 28q97 59 154 129z" />
<glyph unicode="-" horiz-adv-x="1032" d="M848 461h-739l30 119h740z" />
<glyph unicode="." horiz-adv-x="500" d="M19 152.5q22 36.5 57.5 58.5t73.5 22q46 0 75 -30.5t29 -76.5q0 -40 -21.5 -75.5t-57.5 -57.5t-75 -22q-45 0 -74 30t-29 75q0 40 22 76.5z" />
<glyph unicode="/" horiz-adv-x="958" d="M1108 1479l-1122 -1508h-68l1122 1508h68z" />
<glyph unicode="0" horiz-adv-x="1157" d="M968.5 988q82.5 -95 82.5 -267q0 -183 -89 -357.5t-239.5 -283.5t-323.5 -109q-103 0 -179 42t-116.5 124t-40.5 199q0 182 93 356t247 282.5t326 108.5q157 0 239.5 -95zM478.5 943.5q-101.5 -103.5 -164 -272.5t-62.5 -354q0 -309 186 -309q115 0 212.5 108.5 t154.5 281.5t57 354q0 158 -45 226.5t-127 68.5q-110 0 -211.5 -103.5z" />
<glyph unicode="1" horiz-adv-x="700" d="M147 0l263 887q-121 -68 -308 -125l7 43q119 36 208.5 80.5t149.5 87t135 104.5h41l-317 -1077h-179z" />
<glyph unicode="2" horiz-adv-x="1030" d="M423.5 589q-59.5 -24 -114.5 -24q-63 0 -108 31t-45 109q0 90 64 177.5t172 143t231 55.5q126 0 201 -53t75 -149q0 -143 -146 -282t-325.5 -263.5t-216.5 -155.5q57 0 155 -17.5t163 -28.5t116 -11q141 0 141 98q0 75 -90 117l27 26q113 -52 113 -161q0 -57 -27 -105 t-84.5 -78t-144.5 -30q-66 0 -149.5 20.5t-135 31t-119.5 10.5q-61 0 -108.5 -11.5t-110.5 -38.5l10 43q36 28 252.5 180.5t355 315t138.5 317.5q0 84 -40.5 132t-117.5 48q-74 0 -156.5 -49t-138 -125.5t-55.5 -154.5q0 -51 28 -75t91 -24q53 0 95 20t93 64l25 -28 q-54 -51 -113.5 -75z" />
<glyph unicode="3" horiz-adv-x="993" d="M328 633q-64 0 -109 30.5t-45 108.5q0 75 61 148.5t164 120t222 46.5q126 0 201 -53t75 -149q0 -88 -65 -164t-162.5 -129.5t-196.5 -79.5q93 -2 167.5 -29t117.5 -79t43 -125q0 -176 -155 -309t-381 -204.5t-429 -74.5l10 37q176 11 352.5 79.5t294 192.5t117.5 293 q0 82 -46 132t-128 54q-48 -19 -72 -27t-47 -8q-36 0 -36 21q0 2 2 10q8 38 97 38q26 0 40 -1q82 31 150.5 84t109.5 120.5t41 141.5q0 86 -45 135t-123 49q-70 0 -148 -39.5t-130 -102t-52 -126.5q0 -50 28 -74t91 -24q69 0 127 31l23 -31q-80 -43 -164 -43z" />
<glyph unicode="4" horiz-adv-x="1055" d="M583 70l-96 -359h-178l96 359h-509l12 43l893 970h53l-240 -897h275l-33 -116h-273zM603 813l-574 -627h407z" />
<glyph unicode="5" horiz-adv-x="940" d="M618 862q-25 0 -50.5 9.5t-79.5 36.5t-85 27q-8 0 -12 -1l-229 -469q66 35 134 52.5t153 17.5q157 0 235 -64t78 -170q0 -188 -150 -322.5t-366.5 -204.5t-411.5 -77l10 37q166 1 333.5 68t278.5 194.5t111 300.5q0 82 -52.5 129t-162.5 47q-108 0 -227 -55l-21 10 l308 633q54 3 108 -14.5t90 -27t95 -9.5q116 0 169 92l25 -15q-103 -225 -281 -225z" />
<glyph unicode="6" horiz-adv-x="1079" d="M696.5 1223q-191.5 -168 -314 -416.5t-122.5 -525.5q0 -150 37.5 -209.5t110.5 -59.5q108 0 192 100t130 246t46 273q0 207 -133 207q-67 0 -131 -58.5t-111 -191.5l-32 12q50 159 143.5 228t198.5 69q77 0 135 -36t90.5 -105t32.5 -166q0 -159 -82 -302t-219 -230 t-293 -87q-154 0 -227.5 92t-73.5 275q0 290 164.5 538t400 406.5t434.5 196.5l12 -41q-197 -47 -388.5 -215z" />
<glyph unicode="7" horiz-adv-x="997" d="M869 766.5q-183 -211.5 -302.5 -398.5t-177.5 -405q-11 -38 -20.5 -91t-14.5 -71q-13 -44 -46.5 -74t-80.5 -30q-64 0 -64 69q0 18 5 46q32 187 195.5 409.5t366.5 450t253 288.5q-130 -88 -301 -88q-57 0 -101.5 8.5t-121.5 30t-133 21.5q-80 0 -128 -35t-48 -102 q0 -86 69 -143.5t215 -92.5l-12 -31q-322 62 -322 289q0 62 31.5 119t96.5 93t161 36q63 0 116.5 -13t163 -51.5t196.5 -38.5q61 0 107 20.5t83 70.5h53q-56 -75 -239 -286.5z" />
<glyph unicode="8" horiz-adv-x="1114" d="M694 811q82 -79 129 -132.5t81 -125.5t34 -158q0 -127 -74 -223t-201 -148.5t-280 -52.5q-166 0 -264.5 65.5t-98.5 199.5q0 167 144 300.5t347 221.5q-60 58 -99.5 106.5t-64.5 108t-25 129.5q0 110 70 196t183 133.5t236 47.5q130 0 209.5 -55t79.5 -162 q0 -237 -406 -451zM802 950q60 69 96 151.5t36 166.5q0 174 -160 174q-76 0 -141 -37.5t-103 -105t-38 -152.5q0 -60 23.5 -113.5t61 -99t94.5 -101.5q71 48 131 117zM726 497q-30 66 -73.5 116t-117.5 122q-98 -54 -173.5 -135.5t-118 -180.5t-42.5 -202q0 -99 46.5 -154 t153.5 -55q93 0 174.5 41t131 119.5t49.5 183.5q0 79 -30 145z" />
<glyph unicode="9" horiz-adv-x="1051" d="M516 224.5q-93 -68.5 -199 -68.5q-77 0 -135 35.5t-90.5 104.5t-32.5 167q0 158 82 301t219 230t293 87q154 0 227.5 -91.5t73.5 -274.5q0 -281 -161 -520t-392 -391.5t-426 -188.5l-12 41q192 45 379 206.5t306.5 402t119.5 507.5q0 150 -37 209t-110 59 q-109 0 -193 -100t-130 -245.5t-46 -272.5q0 -207 133 -207q67 0 131 58.5t111 191.5l32 -12q-50 -160 -143 -228.5z" />
<glyph unicode=":" horiz-adv-x="569" d="M54 152.5q22 36.5 57.5 58.5t73.5 22q46 0 75 -30.5t29 -76.5q0 -40 -21.5 -75.5t-57.5 -57.5t-75 -22q-45 0 -74 30t-29 75q0 40 22 76.5zM259 1000.5q22 36.5 57.5 58.5t73.5 22q46 0 75 -30.5t29 -76.5q0 -40 -21.5 -75.5t-57.5 -57.5t-75 -22q-45 0 -74 30t-29 75 q0 40 22 76.5z" />
<glyph unicode=";" horiz-adv-x="588" d="M261 1000.5q22 36.5 57.5 58.5t73.5 22q46 0 75 -30.5t29 -76.5q0 -40 -21.5 -75.5t-57.5 -57.5t-75 -22q-45 0 -74 30t-29 75q0 40 22 76.5zM148 -117q57 70 63 140q-59 -52 -107 -52q-36 0 -56.5 19.5t-20.5 52.5q0 43 27.5 87.5t71.5 73.5t89 29t67.5 -35t22.5 -85 q0 -71 -36 -143t-104 -135.5t-161 -108.5l-10 28q97 59 154 129z" />
<glyph unicode="&#x3c;" horiz-adv-x="1233" d="M258 719l678 -357l-33 -65l-799 430l1131 465l20 -59z" />
<glyph unicode="=" horiz-adv-x="1358" d="M1270 901l-19 -61h-1026l19 61h1026zM1188 614l-19 -61h-1026l19 61h1026z" />
<glyph unicode="&#x3e;" horiz-adv-x="1233" d="M1049 770l-758 406l33 59l878 -473l-1075 -445l-21 60z" />
<glyph unicode="?" horiz-adv-x="897" d="M504 1540.5q-65 -26.5 -80 -74.5q19 -5 35 -28.5t16 -53.5q0 -44 -31 -72t-77 -28q-41 0 -61.5 23t-20.5 63q0 66 55.5 119t145 83t184.5 30q137 0 220 -63t83 -179q0 -65 -31.5 -130t-105.5 -141.5t-201 -175.5q-56 -42 -156 -116t-137 -124t-37 -112t35.5 -101.5 t110.5 -39.5q60 0 117.5 24.5t78.5 65.5q-19 2 -36.5 24t-16.5 48q0 32 26 58t66 26q31 0 50.5 -17.5t19.5 -54.5q0 -61 -53 -109t-133.5 -74t-157.5 -26q-108 0 -172 51.5t-64 147.5q0 106 74 186.5t174 154.5t133 99q102 78 157.5 130.5t82 104t26.5 115.5 q0 88 -46.5 140.5t-139.5 52.5q-68 0 -133 -26.5zM240 152.5q22 36.5 57.5 58.5t73.5 22q46 0 75 -30.5t29 -76.5q0 -40 -21.5 -75.5t-57.5 -57.5t-75 -22q-45 0 -74 30t-29 75q0 40 22 76.5z" />
<glyph unicode="@" horiz-adv-x="1737" d="M958.5 -297.5q-113.5 -32.5 -245.5 -32.5q-196 0 -342.5 66.5t-229 206t-82.5 350.5q0 273 133.5 522t361 401t495.5 152q185 0 328.5 -59.5t227 -185.5t83.5 -318q0 -217 -95 -389t-234.5 -267.5t-264.5 -95.5q-148 0 -148 133q0 48 19 114q-62 -127 -133 -187t-170 -60 q-110 0 -160.5 67.5t-50.5 180.5q0 152 80 311t204.5 263t247.5 104q62 0 96 -31.5t39 -101.5l29 104q117 0 184 29l-217 -752q-13 -42 -13 -70q0 -29 14.5 -41t45.5 -12q78 0 195 87.5t204 247.5t87 368q0 182 -79.5 299t-213.5 171t-303 54q-247 0 -466.5 -142.5 t-352 -381t-132.5 -510.5q0 -204 78 -336t216 -193t321 -61q237 0 422 111l14 -27q-79 -56 -192.5 -88.5zM991 932q-95 0 -179.5 -93.5t-135.5 -238t-51 -287.5q0 -198 106 -198q77 0 149.5 106t153.5 325l68 242q-2 144 -111 144z" />
<glyph unicode="A" horiz-adv-x="1288" d="M1066.5 74q29.5 -31 66.5 -33l-9 -41q-82 6 -223 6q-165 0 -246 -6l9 41q70 3 108 17.5t54.5 50t13.5 104.5l-19 336h-503l-154 -217q-96 -136 -96 -204q0 -84 151 -87l-10 -41q-114 6 -234 6q-89 0 -153 -6l10 41q94 20 205 178l883 1241h30l82 -1288q5 -67 34.5 -98z M785 1209l-438 -619h472z" />
<glyph unicode="B" horiz-adv-x="1294" d="M555 1444q46 0 141 2t148 2q190 0 287.5 -70t97.5 -192q0 -100 -59 -183.5t-154 -142.5t-207 -94q336 -55 336 -334q0 -139 -88 -237t-228 -146.5t-294 -48.5q-49 0 -163 3t-190 3q-163 0 -250 -6l9 41q74 3 110.5 16t58.5 48t42 112l270 1016q17 68 17 98q0 41 -30 59 t-108 19l10 41q84 -6 244 -6zM623 770q119 0 211 55.5t142 147.5t50 198q0 122 -52.5 180t-168.5 58q-62 0 -96.5 -12t-54.5 -42t-36 -91l-130 -494h135zM323 117q0 -38 27 -54t96 -16q261 0 377.5 105t116.5 311q0 272 -293 272h-168l-137 -518q-19 -73 -19 -100z" />
<glyph unicode="C" horiz-adv-x="1372" d="M1327 979h-45q12 80 12 140q0 96 -32 163q-38 76 -110.5 118t-158.5 42q-170 0 -328.5 -160t-257 -402.5t-98.5 -469.5q0 -198 77.5 -300t215.5 -102q90 0 190.5 42t174.5 118q52 53 91.5 124t92.5 200h45q-93 -340 -121 -492h-45q6 44 6 70q0 52 -24 52q-16 0 -43 -18 q-73 -47 -122.5 -73t-114.5 -43t-150 -17q-228 0 -353 123t-125 359t118 475.5t323.5 395t451.5 155.5q83 0 139 -18t90.5 -44.5t76.5 -70.5q18 -18 31 -18q36 0 81 122h43q-68 -177 -131 -471z" />
<glyph unicode="D" horiz-adv-x="1485" d="M505 1443l50 1q282 6 309 6q288 0 433 -115t145 -338q0 -256 -126.5 -486t-349 -370.5t-495.5 -140.5q-28 0 -133.5 3t-153.5 3q-165 0 -245 -6l6 41q70 3 105.5 16t57.5 48.5t42 111.5l268 1016q19 74 19 101q0 40 -30 56.5t-108 18.5l6 41q110 -7 200 -7zM321 112 q0 -39 28 -57t97 -18q254 0 434.5 138.5t272.5 369t92 504.5q0 185 -104 274.5t-334 89.5q-64 0 -100 -14.5t-58 -51.5t-41 -110l-268 -1024q-19 -71 -19 -101z" />
<glyph unicode="E" horiz-adv-x="1249" d="M907 1444q287 0 408 6q-54 -148 -78 -242q-23 -80 -29 -127h-47q18 110 18 165q0 59 -19 92.5t-63.5 49t-123.5 15.5h-150q-73 0 -109.5 -12t-58.5 -46.5t-43 -111.5l-129 -483h135q102 0 153 61t76 125t34 84h47q-42 -129 -60.5 -201t-23.5 -90q-27 -96 -66 -291h-47 q2 14 9 59t7 80q0 63 -31 97.5t-110 34.5h-134l-132 -492q-18 -64 -18 -99q0 -30 14 -45t43 -20.5t82 -5.5h149q128 0 203.5 34t125.5 109t103 220h48q-20 -50 -46 -148q-30 -110 -55 -262q-139 6 -469 6q-393 0 -592 -6l11 41q74 3 110 16t58 48t43 112l272 1016 q18 65 18 100q0 30 -13.5 45.5t-42 22t-81.5 8.5l10 41q201 -6 594 -6z" />
<glyph unicode="F" horiz-adv-x="1159" d="M907 1444q287 0 408 6q-53 -149 -84 -262q-22 -76 -39 -168h-47q23 136 23 204q0 67 -21.5 105.5t-72.5 56t-142 17.5h-109q-73 0 -109.5 -12t-58.5 -46.5t-43 -111.5l-135 -504h150q104 0 155 62.5t75.5 126t31.5 81.5h47q-41 -125 -60 -197.5t-24 -92.5 q-43 -181 -66 -291h-47q3 18 10 63.5t7 78.5q0 61 -31 94.5t-109 33.5h-150l-126 -471q-16 -61 -16 -91q0 -34 17 -51.5t54 -24.5t105 -9l-11 -41q-106 6 -301 6q-173 0 -260 -6l11 41q74 3 110 16t58 48t43 112l272 1016q18 65 18 100q0 30 -13.5 45.5t-42 22t-81.5 8.5 l10 41q201 -6 594 -6z" />
<glyph unicode="G" horiz-adv-x="1444" d="M1331 1133q0 94 -28 149q-43 75 -128 117.5t-188 42.5q-212 0 -369.5 -178t-241 -430t-83.5 -461q0 -184 87 -272.5t267 -88.5q67 0 128 19t106 45q41 24 61.5 55t32.5 74l47 180q18 68 18 106q0 36 -17 54.5t-52.5 26t-102.5 10.5l11 41q99 -7 286 -7q146 0 215 7 l-10 -41q-49 -4 -73 -16.5t-40.5 -46.5t-37.5 -113l-109 -406h-41q6 32 6 54q0 63 -31 63q-13 0 -27.5 -6.5t-49.5 -28.5q-86 -55 -169.5 -83t-179.5 -28q-250 0 -383 122t-133 347q0 237 116 479.5t321.5 401t459.5 158.5q85 0 146 -17t103.5 -45t86.5 -71q19 -19 36 -19 q39 0 81 123h45q-68 -177 -131 -471h-45q10 88 10 154z" />
<glyph unicode="H" horiz-adv-x="1546" d="M1415 1444q175 0 264 6l-10 -41q-75 -3 -111.5 -16t-58 -48t-41.5 -112l-270 -1016q-18 -70 -18 -100t13.5 -45.5t42.5 -22t83 -8.5l-9 -41q-86 6 -262 6q-164 0 -260 -6l8 41q74 3 111 16t58.5 48t41.5 112l131 492h-657l-131 -492q-17 -66 -17 -99q0 -30 13.5 -46 t42.5 -22.5t82 -8.5l-8 -41q-96 6 -260 6q-171 0 -261 -6l11 41q72 3 108 16t57.5 48.5t41.5 111.5l270 1016q17 65 17 98q0 31 -14 47t-42.5 22.5t-81.5 8.5l10 41q84 -6 260 -6q164 0 262 6l-10 -41q-75 -3 -111.5 -16t-58 -48t-41.5 -112l-128 -483h657l129 483 q18 63 18 98q0 31 -14 47t-43 22.5t-82 8.5l10 41q93 -6 258 -6z" />
<glyph unicode="I" d="M323 118q0 -30 13.5 -46t42.5 -22.5t82 -8.5l-8 -41q-96 6 -260 6q-171 0 -261 -6l11 41q72 3 108 16t57.5 48.5t41.5 111.5l270 1016q17 65 17 98q0 31 -14 47t-42.5 22.5t-81.5 8.5l10 41q84 -6 260 -6q165 0 262 6l-10 -41q-75 -3 -111.5 -16t-58 -48t-41.5 -112 l-270 -1016q-17 -66 -17 -99z" />
<glyph unicode="J" horiz-adv-x="1303" d="M918.5 984.5q84.5 105.5 183.5 190.5t235 183q-237 -123 -405 -123q-99 0 -200.5 38.5t-160.5 57.5t-143 19q-68 0 -102 -36t-31 -100q1 -60 40 -97.5t111 -51.5l-6 -41q-93 16 -157.5 73t-67.5 165q-3 73 25 130t83 89t130 32t134 -27.5t177 -109.5t227 -82 q66 0 122.5 11t107 29t133.5 52q77 120 127 120q14 0 28 -11q13 -11 13 -25q0 -50 -150 -106q-287 -192 -426 -614h203l-6 -41h-210q-11 -39 -22 -80l-127 -496q-58 -229 -179.5 -373.5t-303.5 -144.5q-96 0 -152.5 30t-56.5 87q0 29 14.5 55.5t40.5 43.5t58 17 q37 0 61.5 -24.5t24.5 -60.5q0 -34 -23 -61.5t-59 -43.5q30 -10 72 -10q132 0 196.5 129.5t105.5 295t56 224.5l61 240q23 91 57 172h-272l7 41h283q59 129 143.5 234.5z" />
<glyph unicode="K" horiz-adv-x="1382" d="M791 519q0 91 -18 136.5t-57 78.5q-72 -19 -118 -19q-63 0 -63 41t61 41q42 0 125 -21q148 18 219 119t137 293t127 244q61 47 123 47q63 0 92 -30.5t29 -79.5q0 -27 -12.5 -60.5t-39 -57.5t-67.5 -24q-40 0 -60 24t-20 58q0 29 19 64.5t47 62.5h-6q-41 -2 -74 -29 q-53 -48 -118 -232.5t-137 -292t-224 -125.5q74 -17 118 -42.5t70 -86.5t26 -173l-1 -35l-8 -232l-1 -24q0 -40 13 -60t49 -20q52 0 87 38t65 122l34 104h41l-53 -158q-38 -112 -99.5 -165.5t-150.5 -53.5q-173 0 -173 203q0 23 1 35l14 231q3 43 3 79zM323 118 q0 -30 13.5 -46t42.5 -22.5t82 -8.5l-8 -41q-96 6 -260 6q-171 0 -261 -6l11 41q72 3 108 16t57.5 48.5t41.5 111.5l270 1016q17 65 17 98q0 31 -14 47t-42.5 22.5t-81.5 8.5l10 41q84 -6 260 -6q164 0 262 6l-10 -41q-75 -3 -111.5 -16t-58 -48t-41.5 -112l-270 -1016 q-17 -66 -17 -99z" />
<glyph unicode="L" horiz-adv-x="1200" d="M1044 262q-30 -110 -55 -262q-139 6 -469 6q-393 0 -592 -6l11 41q74 3 110 16t58 48t43 112l272 1016q18 65 18 100q0 30 -13.5 45.5t-42 22t-81.5 8.5l10 41q87 -6 262 -6q165 0 261 6l-11 -41q-75 -3 -111.5 -16t-58.5 -48t-43 -112l-272 -1016q-18 -64 -18 -99 q0 -30 14 -45t43 -20.5t82 -5.5h149q128 0 204 36t127.5 115.5t107.5 231.5h47q-13 -34 -52 -168z" />
<glyph unicode="M" horiz-adv-x="1778" d="M1911 1450l-10 -41q-75 -3 -111.5 -16t-58 -48t-41.5 -112l-271 -1016q-17 -65 -17 -98q0 -31 14 -47t42.5 -22.5t81.5 -8.5l-8 -41q-96 6 -254 6q-180 0 -266 -6l8 41q75 3 111.5 16t58 48t41.5 112l297 1104l-850 -1331h-45l-139 1347l-291 -1099q-18 -70 -18 -103 q0 -50 34.5 -70.5t120.5 -23.5l-10 -41q-70 6 -207 6q-122 0 -193 -6l11 41q72 3 110.5 20.5t61 57.5t43.5 119l266 995q17 65 17 98q0 31 -14 47t-42.5 22.5t-81.5 8.5l10 41q65 -6 183 -6q109 0 180 6l112 -1214l770 1208h99q157 0 256 6z" />
<glyph unicode="N" horiz-adv-x="1577" d="M1271 1001q84 286 171 412q90 131 221 131q66 0 94.5 -29t28.5 -75q0 -36 -14 -70t-41.5 -56t-65.5 -22q-41 0 -59.5 24t-18.5 56q0 33 19 67.5t47 61.5h-6q-100 -3 -168 -104q-91 -136 -189 -477t-223 -930h-45l-467 1319q-101 -516 -190 -870t-170 -462 q-47 -60 -96.5 -94.5t-123.5 -34.5q-122 0 -122 107q0 35 14 68.5t41 55t65 21.5q42 0 60 -24t18 -56q0 -33 -18.5 -67.5t-46.5 -61.5h6q106 4 170 107q78 123 161.5 444.5t182.5 835.5q4 24 4 46q0 34 -14.5 51.5t-47.5 24.5t-96 9l10 41q66 -6 183 -6q96 0 166 6 l387 -1132q89 397 173 683z" />
<glyph unicode="O" horiz-adv-x="1493" d="M220 932q109 237 304.5 392t440.5 155q151 0 259.5 -58t166 -169t57.5 -267q0 -231 -110 -467.5t-306 -391.5t-440 -155q-151 0 -259 58t-165 168.5t-57 265.5q0 232 109 469zM648.5 1294.5q-143.5 -147.5 -232 -381.5t-88.5 -477q0 -132 35.5 -228.5t99.5 -148 t147 -51.5q155 0 298.5 147.5t232 381.5t88.5 477q0 132 -36 228.5t-100 148t-147 51.5q-154 0 -297.5 -147.5z" />
<glyph unicode="P" horiz-adv-x="1206" d="M563 1444q49 0 148.5 2t150.5 2q201 0 304.5 -82.5t103.5 -226.5q0 -160 -97.5 -286.5t-273.5 -198.5t-401 -72h-61l-97 -365q-20 -78 -20 -103q0 -38 30.5 -54.5t110.5 -18.5l-8 -41q-96 6 -254 6q-180 0 -267 -6l9 41q74 3 110.5 16t58.5 48t42 112l270 1016 q18 65 18 98q0 42 -30.5 59.5t-108.5 18.5l10 41q84 -6 252 -6zM934 772.5q129 149.5 129 398.5q0 122 -62 180t-198 58q-62 0 -96.5 -15t-56 -52t-40.5 -109l-162 -610h70q287 0 416 149.5z" />
<glyph unicode="Q" horiz-adv-x="1599" d="M1398.5 71q28.5 -31 28.5 -85q0 -90 -79.5 -176.5t-202 -140.5t-242.5 -54q-100 0 -186.5 39t-155 96.5t-148.5 142.5q-171 -61 -292 -61q-101 0 -157 40.5t-56 111.5q0 53 32.5 94.5t89.5 64.5t128 23q72 0 136 -24t116.5 -60t129.5 -97q203 102 383.5 274t292 378 t111.5 405q0 120 -40.5 210t-119.5 140t-190 50q-151 0 -270 -88t-184.5 -228t-65.5 -288q0 -147 63.5 -220t169.5 -73q90 0 164 49t116 124.5t42 149.5q0 57 -15 82q-21 -42 -63.5 -67t-87.5 -25t-70.5 26.5t-25.5 69.5q0 54 40 89.5t101 35.5q73 0 117.5 -55t44.5 -145 q0 -101 -56.5 -188.5t-157.5 -140t-227 -52.5q-115 0 -197 45t-124.5 126t-42.5 187q0 175 109.5 318t286 224t368.5 81q162 0 281.5 -51t183 -146.5t63.5 -226.5q0 -207 -142.5 -419t-365.5 -388t-460 -289q80 -63 149 -106t157.5 -71t194.5 -28q102 0 175.5 31.5 t119.5 108.5q-29 -13 -63 -13q-47 0 -74 28t-27 71q0 31 16 59.5t43.5 45.5t61.5 17q45 0 73.5 -31zM389 -81q-66 70 -108.5 109.5t-89.5 66t-95 26.5q-37 0 -71.5 -16t-56 -46.5t-21.5 -70.5q0 -121 196 -121q103 0 246 52z" />
<glyph unicode="R" horiz-adv-x="1360" d="M1260 248l-9 -27q-36 -129 -92.5 -189.5t-150.5 -60.5q-61 0 -103 24.5t-62.5 65.5t-20.5 89l1 18l17 229q3 34 3 64q0 87 -31 134.5t-112 69.5t-235 23l-125 -471q-19 -71 -19 -100q0 -41 30.5 -58t109.5 -18l-8 -41q-96 6 -254 6q-180 0 -267 -6l9 41q74 3 110.5 16 t58.5 48t42 112l270 1016q18 65 18 96q0 43 -31 61t-108 19l10 41q84 -6 252 -6q49 0 148.5 2t150.5 2q201 0 304.5 -77.5t103.5 -211.5q0 -111 -65.5 -204.5t-186.5 -158t-283 -91.5q34 -4 72 -11q80 -15 128.5 -39.5t73.5 -69.5t25 -118q0 -13 -2 -43l-16 -209 q-2 -28 -2 -42q0 -126 64 -126q36 0 63.5 41.5t60.5 130.5l10 29h48zM539 729q276 0 400 120.5t124 321.5q0 122 -62 180t-198 58q-62 0 -96.5 -15t-56 -52t-40.5 -109l-134 -504h63z" />
<glyph unicode="S" horiz-adv-x="1135" d="M1059 1047h-41q12 57 12 116q0 78 -30.5 140.5t-96 99.5t-164.5 37q-129 0 -207.5 -66t-78.5 -194q0 -151 171.5 -310.5t259 -257t87.5 -239.5q0 -134 -77 -224.5t-195.5 -134t-245.5 -43.5q-108 0 -173.5 26.5t-117.5 68.5q-39 30 -74 30q-24 0 -41 -24t-43 -86h-41 q69 163 139 491h41q-11 -61 -15 -94.5t-3 -71.5q13 -299 334 -299q139 0 220 63.5t81 192.5q0 168 -156.5 316.5t-236.5 242t-80 252.5q0 126 64 216.5t167.5 137t218.5 46.5q84 0 145.5 -20.5t121.5 -65.5q47 -37 67 -37q17 0 32 25t36 83h41q-74 -180 -121 -417z" />
<glyph unicode="T" horiz-adv-x="1350" d="M588 1421q-178 0 -230 -35q16 -21 26.5 -54.5t10.5 -63.5q0 -47 -26 -83t-76 -36q-44 0 -67 27.5t-23 74.5q0 107 108 160q96 47 275 47q81 0 156 -7t237.5 -28.5t280.5 -21.5q91 0 152.5 10t110.5 35q-50 51 -50 115q0 46 25.5 79t74.5 33q45 0 68.5 -28t23.5 -70 q0 -45 -26.5 -83t-69.5 -65q-109 -67 -324 -67q-91 0 -210 14l-302 -1136q-18 -64 -18 -104q0 -35 17 -54.5t53.5 -28t101.5 -10.5l-8 -41q-108 6 -306 6q-200 0 -299 -6l9 41q87 3 134.5 21t74.5 58t51 118l309 1160q-166 23 -264 23z" />
<glyph unicode="U" horiz-adv-x="1397" d="M1306 1303q0 56 -35 79t-116 27l10 41q70 -6 207 -6q123 0 193 6l-11 -41q-72 -3 -111.5 -21t-63 -58t-42.5 -118l-159 -616q-75 -285 -201 -434q-75 -88 -185 -139.5t-235 -51.5q-219 0 -315 111q-72 80 -72 208q0 106 51 300l170 643q17 65 17 98q0 31 -13.5 47 t-42.5 22.5t-82 8.5l13 41q82 -6 264 -6q157 0 256 6l-12 -41q-75 -3 -112 -16t-58 -48t-41 -112l-181 -678q-45 -177 -45 -277q0 -113 55.5 -174t186.5 -61q215 0 338.5 139.5t189.5 390.5l168 639q14 56 14 91z" />
<glyph unicode="V" horiz-adv-x="1294" d="M1364 1444q91 0 156 6l-11 -41q-109 -23 -206 -178l-807 -1241h-31l-162 1288q-8 67 -39 98t-67 33l10 41q80 -6 221 -6q156 0 246 6l-10 -41q-64 -3 -98 -11.5t-52 -33t-18 -74.5q0 -13 4 -53l116 -989l568 870q88 135 88 203q0 45 -37.5 65.5t-114.5 22.5l10 41 q114 -6 234 -6z" />
<glyph unicode="W" horiz-adv-x="1847" d="M1880 1444q92 0 156 6l-11 -41q-121 -25 -194 -178l-612 -1241h-33l-147 933l-556 -933h-32l-162 1288q-18 127 -113 131l8 41q84 -6 203 -6q148 0 221 6l-8 -41q-63 -4 -90.5 -28.5t-27.5 -90.5q0 -23 3 -53l115 -977l429 726l-46 292q-20 127 -92 131l8 41 q73 -6 182 -6q177 0 262 6l-8 -41q-62 -3 -95.5 -12t-49.5 -31t-16 -64q0 -27 6 -65l146 -931l400 812q68 136 68 200q0 50 -38 69.5t-120 21.5l11 41q112 -6 233 -6z" />
<glyph unicode="X" horiz-adv-x="1432" d="M1020.5 1172.5q108.5 156.5 204.5 234.5q93 72 188 72q63 0 92.5 -29.5t29.5 -76.5q0 -30 -13 -64t-40.5 -58t-68.5 -24q-39 0 -58.5 22.5t-19.5 55.5q0 31 18.5 67.5t47.5 63.5h-6q-71 0 -131 -43q-92 -67 -206 -226t-219 -386l54 -464q12 -108 49 -170.5t113 -62.5 q60 0 97 37.5t67 122.5l34 104h41l-53 -158q-38 -112 -99.5 -165.5t-150.5 -53.5q-134 0 -192.5 90t-75.5 230l-37 322q-54 -112 -130 -224t-158.5 -203t-155.5 -143q-95 -72 -189 -72q-63 0 -92.5 29.5t-29.5 76.5q0 30 13 64t40.5 58t68.5 24q40 0 59 -22.5t19 -55.5 q0 -30 -18 -67t-47 -64h8q69 3 129 43q106 70 234 230t241 393l-53 453q-13 108 -50 170.5t-112 62.5q-60 0 -97 -37.5t-67 -122.5l-35 -104h-41l53 158q39 112 100.5 165.5t149.5 53.5q134 0 192.5 -89.5t76.5 -230.5l37 -316q80 173 188.5 329.5z" />
<glyph unicode="Y" horiz-adv-x="1372" d="M312 1402q24 38 61 57.5t94 19.5q108 0 174.5 -88t103.5 -245.5t64 -408.5q148 372 383 609q133 133 242 133q60 0 87 -31.5t27 -78.5q0 -30 -13 -63t-40.5 -56t-67.5 -23q-77 0 -77 81q0 33 18 67t47 61h-6q-55 -3 -113 -45q-108 -78 -231.5 -251.5t-236.5 -447.5 l-119 -475q-17 -66 -17 -99q0 -30 13.5 -46t42 -22.5t81.5 -8.5l-10 -41q-92 6 -254 6q-180 0 -268 -6l10 41q74 3 111 16t59 48.5t41 111.5l120 478q-73 671 -239 671q-35 0 -58 -22t-40 -74l-57 -168h-45l67 198q22 64 46 102z" />
<glyph unicode="Z" horiz-adv-x="1335" d="M915 1200q-87 0 -174.5 38.5t-139 57.5t-124.5 19q-68 0 -103.5 -35.5t-35.5 -99.5q0 -120 147 -150l-8 -41q-92 17 -154.5 73.5t-62.5 164.5q0 73 30 130t86.5 89.5t131.5 32.5q67 0 118.5 -27.5t152.5 -109.5t198 -82q79 0 142 21t161 71q37 53 77.5 86t72.5 33 q16 0 30 -11q12 -10 12 -27q0 -28 -38 -62.5t-115 -63.5l-567 -557h311l-16 -41h-336l-580 -570q188 111 354 111q87 0 175 -38.5t139.5 -57.5t124.5 -19q68 0 103.5 35.5t35.5 99.5q0 120 -148 150l9 41q92 -17 154.5 -73.5t62.5 -164.5q0 -73 -30 -130t-86.5 -89.5 t-131.5 -32.5q-68 0 -119 28t-152.5 109.5t-197.5 81.5q-79 0 -142.5 -21.5t-160.5 -70.5q-37 -53 -78.5 -86t-72.5 -33q-16 0 -29 11q-12 10 -12 27q0 28 38 62.5t115 63.5l576 566h-332l14 41h359l571 561q-188 -111 -355 -111z" />
<glyph unicode="[" horiz-adv-x="614" d="M784 1581l-8 -39h-166l-469 -1874h166l-8 -39h-349l486 1952h348z" />
<glyph unicode="\" horiz-adv-x="1008" d="M733 -29l-463 1508h64l467 -1508h-68z" />
<glyph unicode="]" horiz-adv-x="614" d="M-170 -371l8 39h166l469 1874h-166l8 39h349l-486 -1952h-348z" />
<glyph unicode="^" horiz-adv-x="1096" d="M742.5 771q-98.5 67 -150.5 134q-78 -68 -189 -134.5t-221 -111.5l-8 29q147 63 277 169t211 224h36q18 -118 91.5 -224t187.5 -169l-25 -29q-111 45 -209.5 112z" />
<glyph unicode="_" horiz-adv-x="1524" d="M1126 -327h-1229l21 82h1231z" />
<glyph unicode="`" horiz-adv-x="457" d="M333 1352.5q-42 53.5 -107.5 131.5t-92.5 122q-21 34 -21 65q0 41 33 58q15 6 32 6q53 0 89 -64q25 -43 54 -119t58 -147.5t75 -165.5l-27 -12q-51 72 -93 125.5z" />
<glyph unicode="a" horiz-adv-x="1071" d="M971 334l-51 -150q-42 -114 -105 -163.5t-131 -49.5q-38 0 -67.5 14.5t-45.5 39.5q-17 30 -17 72q0 30 7 62.5t15 62t10 38.5l37 149q-98 -230 -199.5 -334t-212.5 -104q-94 0 -143.5 67.5t-49.5 180.5q0 166 88.5 371t229 348t287.5 143q54 0 89.5 -40t41.5 -113l32 125 q114 3 189 28l-256 -905q-15 -54 -15 -76q0 -51 46 -51q90 0 157 209l25 76h39zM729 864q0 82 -29.5 130t-83.5 48q-87 0 -185.5 -135.5t-165 -335.5t-66.5 -376q0 -85 18 -121.5t53 -36.5q57 0 136.5 87.5t156 233.5t126.5 312l38 149q2 32 2 45z" />
<glyph unicode="b" horiz-adv-x="1032" d="M541.5 981q94.5 100 199.5 100q99 0 156 -73t57 -215q0 -166 -73.5 -359.5t-210.5 -328t-316 -134.5q-61 0 -107.5 36t-64.5 101l-174 -141l-31 15q25 48 39 118l359 1266q8 34 8 55q0 42 -31 61t-106 19l10 43q109 1 195 22t165 62l-265 -967q96 220 190.5 320z M267.5 44.5q35.5 -26.5 84.5 -26.5q109 0 207.5 136t158.5 331t60 353q0 88 -25.5 133t-70.5 45q-55 0 -126.5 -83.5t-145 -227t-133.5 -316.5l-71 -257q26 -61 61.5 -87.5z" />
<glyph unicode="c" horiz-adv-x="885" d="M613 111.5q-64 -62.5 -143.5 -101.5t-162.5 -39q-126 0 -198 77t-72 224q0 166 78 357t219 321.5t321 130.5q61 0 111.5 -21t80.5 -60.5t30 -92.5q0 -40 -18 -78t-51.5 -62t-76.5 -24q-41 0 -62.5 23t-21.5 57q0 58 45.5 100.5t108.5 53.5q-44 63 -139 63 q-103 0 -204.5 -110.5t-166 -292.5t-64.5 -383q0 -100 38 -148.5t106 -48.5q166 0 307 205l41 -16q-42 -72 -106 -134.5z" />
<glyph unicode="d" horiz-adv-x="1110" d="M1006 332l-48 -150q-35 -114 -99.5 -162.5t-137.5 -48.5q-63 0 -96 33t-33 95q0 55 26 159l27 103q-97 -206 -196 -298t-211 -92q-100 0 -156.5 68t-56.5 203q0 169 89 367.5t241 335t331 136.5q40 0 75 -26t50 -72l102 383q9 32 9 55q0 41 -32 60.5t-108 19.5l13 43 q109 1 195 22t167 62l-401 -1454q-12 -41 -12 -70q0 -57 49 -57q41 0 75.5 47.5t73.5 161.5l25 76h39zM754.5 1008.5q-29.5 25.5 -66.5 25.5q-124 0 -235 -132.5t-178.5 -326t-67.5 -360.5q0 -178 90 -178q59 0 138.5 83.5t157 224t128.5 301.5l76 284q-13 53 -42.5 78.5z " />
<glyph unicode="e" horiz-adv-x="879" d="M601 111.5q-64 -62.5 -143.5 -101.5t-162.5 -39q-127 0 -198.5 74.5t-71.5 214.5q0 155 91 350.5t246.5 333t337.5 137.5q66 0 109 -35t43 -100q0 -166 -185 -289t-427 -205q-23 -102 -23 -198q0 -197 141 -197q175 0 316 205l33 -16q-42 -72 -106 -134.5zM508 965.5 q-81 -76.5 -151.5 -204t-107.5 -270.5q202 71 279 132q76 59 118 143.5t42 183.5q0 55 -8 73.5t-25 18.5q-66 0 -147 -76.5z" />
<glyph unicode="f" horiz-adv-x="657" d="M427 1327.5q49 105.5 116 171.5q47 48 115 75.5t141 27.5q91 0 142.5 -41t51.5 -105q0 -35 -18 -67.5t-49.5 -53t-69.5 -20.5q-39 0 -61 18t-21 51q0 49 32 85.5t85 52.5q0 19 -27.5 34t-66.5 15q-60 0 -119 -53q-42 -40 -72 -126.5t-56.5 -189.5t-37.5 -147l-1 -2h243 l-13 -41h-241l-367 -1368q-108 -3 -184 -29l374 1397h-186l13 41h183l1 2q44 167 93 272.5z" />
<glyph unicode="g" horiz-adv-x="920" d="M616.5 113.5q49.5 -21.5 77 -53.5t27.5 -80q0 -80 -69.5 -168.5t-207.5 -149.5t-331 -61q-154 0 -232 40.5t-78 108.5q0 160 349 297q-78 33 -78 107q0 44 24.5 83.5t93 87.5t197.5 111q-129 3 -203.5 59t-74.5 164q0 86 48 184.5t152 168t262 69.5q58 0 105 -10 q65 104 133 154q67 45 133 45q88 0 88 -72q0 -29 -16 -56.5t-42 -45t-56 -17.5q-26 0 -42 16t-16 44q0 41 27 73q-4 4 -12 4q-17 0 -50 -20q-54 -35 -112 -134q153 -47 153 -210q0 -94 -51 -184.5t-144 -153t-211 -75.5q-33 -18 -103.5 -56t-105 -66t-34.5 -53 q0 -38 123 -69l149 -39q78 -21 127.5 -42.5zM578 544.5q61 71.5 83.5 170t22.5 196.5q0 133 -121 133q-104 0 -165 -86.5t-85 -190.5t-24 -161q0 -71 31.5 -102t91.5 -31q105 0 166 71.5zM-25 -215q0 -72 54 -111t141 -39q94 0 190.5 36t159 97t62.5 134q0 23 -20 33t-55 19 t-48 13l-275 70q-209 -112 -209 -252z" />
<glyph unicode="h" horiz-adv-x="1098" d="M944 182q-72 -211 -248 -211q-144 0 -144 126q0 62 34 161l194 586q22 62 22 102q0 70 -67 70q-75 0 -162 -94.5t-174.5 -266.5t-163.5 -398l-75 -257h-178l405 1366q10 35 10 56q0 41 -33 60t-108 19l12 43q213 3 369 84l-297 -1015q76 169 149.5 272t150 149.5 t163.5 46.5q165 0 165 -155q0 -62 -30 -154l-199 -598q-15 -50 -15 -78q0 -49 48 -49q41 0 79 46.5t79 162.5l26 76h39z" />
<glyph unicode="i" horiz-adv-x="618" d="M406 1475.5q22 36.5 57.5 58.5t73.5 22q46 0 75 -30.5t29 -76.5q0 -40 -21.5 -75.5t-57.5 -57.5t-75 -22q-45 0 -74 30t-29 75q0 40 22 76.5zM339 954q0 52 -44 52q-47 0 -84 -49.5t-78 -159.5l-29 -76h-38l53 149q42 117 110 164t144 47q136 0 136 -128q0 -60 -34 -158 l-219 -621q-16 -44 -16 -75q0 -52 49 -52q42 0 79 46.5t81 162.5l28 76h39l-53 -150q-40 -111 -107 -161t-145 -50q-143 0 -143 125q0 63 36 162l220 621q15 45 15 75z" />
<glyph unicode="j" horiz-adv-x="565" d="M400 1475.5q22 36.5 57 58.5t73 22q47 0 76 -30.5t29 -76.5q0 -8 -2 -24q-11 -54 -55 -92.5t-97 -38.5q-45 0 -74 30t-29 75q0 40 22 76.5zM-86 -365q-59 -20 -121 -20q-46 0 -71 21.5t-25 58.5q0 29 16.5 58.5t44.5 48t60 18.5q31 0 49 -18t18 -46q0 -55 -57 -110 q78 9 124.5 58.5t78.5 162.5l284 1012q15 51 15 80q0 47 -45 47q-42 0 -79 -48t-77 -161l-27 -76h-39l50 149q70 211 252 211q136 0 136 -125q0 -54 -30 -161l-158 -559q-141 -506 -399 -601z" />
<glyph unicode="k" horiz-adv-x="1055" d="M536 685q62 65 118 188t108 161q62 47 123 47q66 0 95 -33.5t26 -86.5q-5 -48 -34.5 -90t-84.5 -42q-41 0 -60.5 24t-19.5 59q0 29 18.5 64.5t46.5 61.5h-4q-36 0 -75 -28q-43 -35 -95 -146.5t-103.5 -177.5t-156.5 -89q130 -6 213.5 -55t83.5 -152q0 -26 -6 -54 l-41 -205q-5 -27 -5 -40q0 -44 46 -44q41 0 77 47.5t75 161.5l24 76h39l-49 -150q-68 -211 -244 -211q-58 0 -95 33.5t-37 99.5q0 30 7 62l37 176q9 42 9 76q0 52 -23.5 85.5t-76 53.5t-141.5 28l-171 -585h-178l405 1366q10 35 10 56q0 41 -33 60t-108 19l12 43 q213 3 369 84l-299 -1019q136 11 198 76z" />
<glyph unicode="l" horiz-adv-x="567" d="M196 102q0 -55 48 -55q41 0 77 47.5t76 161.5l27 76h39l-51 -150q-74 -211 -246 -211q-141 0 -141 133q0 59 28 154l334 1108q10 37 10 57q0 41 -32 59.5t-107 18.5l14 43q109 1 195.5 22t169.5 62l-428 -1454q-13 -45 -13 -72z" />
<glyph unicode="m" horiz-adv-x="1657" d="M1503 182q-72 -211 -248 -211q-91 0 -127 56q-17 27 -17 70q0 56 34 161l194 586q21 67 21 108q0 64 -45 64q-79 0 -172.5 -124t-189.5 -344t-185 -507l2 10l-14 -51h-185l256 844q21 65 21 105q0 67 -57 67q-75 0 -167.5 -117t-183 -319.5t-159.5 -447.5l-33 -132h-178 l245 879q15 51 15 75q0 52 -43 52q-46 0 -83.5 -48.5t-76.5 -160.5l-27 -76h-39l52 149q72 211 247 211q119 0 119 -123q0 -61 -30 -163l-65 -258q82 201 157 320t151.5 171.5t165.5 52.5q134 0 134 -144q0 -65 -27 -165l-73 -271q86 214 161.5 339.5t154 183t174.5 57.5 q76 0 110 -41.5t34 -111.5q0 -69 -29 -156l-199 -598q-15 -48 -15 -78q0 -49 48 -49q42 0 80 46.5t78 162.5l27 76h38z" />
<glyph unicode="n" horiz-adv-x="1188" d="M1034 182q-72 -211 -248 -211q-92 0 -129 60q-16 26 -16 67q0 58 35 160l194 586q21 61 21 101q0 71 -66 71q-79 0 -178 -114.5t-194.5 -314.5t-166.5 -444l-36 -143h-178l245 879q15 49 15 77q0 50 -45 50q-31 0 -55.5 -19.5t-49 -64.5t-53.5 -125l-27 -76h-39l52 149 q72 211 243 211q121 0 121 -121q0 -55 -28 -165l-71 -280q88 208 169.5 332t164.5 179t179 55q165 0 165 -154q0 -61 -30 -155l-199 -598q-16 -48 -16 -77q0 -50 49 -50q42 0 80 46.5t78 162.5l27 76h38z" />
<glyph unicode="o" horiz-adv-x="999" d="M114.5 639.5q71.5 185.5 206.5 313.5t314 128q131 0 205.5 -81t74.5 -240q0 -161 -71.5 -346.5t-206 -314t-313.5 -128.5q-131 0 -206 81.5t-75 240.5q0 161 71.5 346.5zM424.5 907q-93.5 -133 -149.5 -333t-56 -384q0 -178 117 -178q105 0 198 133t149 332.5t56 384.5 q0 92 -28.5 135t-87.5 43q-105 0 -198.5 -133z" />
<glyph unicode="p" horiz-adv-x="1128" d="M635 977.5q95 103.5 203 103.5q99 0 156 -73t57 -215q0 -166 -73.5 -359.5t-210.5 -328t-316 -134.5q-56 0 -101 31t-66 87l-77 -269q-8 -29 -8 -49q0 -54 45 -76.5t129 -22.5l-13 -43q-24 1 -107.5 5t-166.5 4q-66 0 -138 -4t-89 -5l12 43q50 0 79.5 11.5t48 39 t32.5 76.5l383 1365q-61 -136 -144.5 -241.5t-201.5 -217.5l-23 26q97 95 160.5 168t128.5 179t129 258l8 30q112 3 186 29l-214 -749q97 228 192 331.5zM361 46q36 -28 88 -28q109 0 207 136t158 331t60 353q0 88 -25 133t-71 45q-58 0 -134.5 -93.5t-154 -251 t-137.5 -343.5l-53 -187q26 -67 62 -95z" />
<glyph unicode="q" horiz-adv-x="1038" d="M660 -233q0 -95 133 -95l-13 -43q-24 1 -108 5t-166 4q-66 0 -138 -4t-89 -5l12 43q63 0 102 11.5t62 39t37 76.5l141 539q-92 -196 -185.5 -281.5t-197.5 -85.5q-99 0 -156 73.5t-57 215.5q0 165 73.5 358.5t210.5 328t316 134.5q61 0 107.5 -36t64.5 -100l174 140 l33 -14q-27 -52 -43 -119l-305 -1132q-8 -27 -8 -53zM724 1008q-35 26 -85 26q-109 0 -207.5 -136t-158.5 -331t-60 -352q0 -89 25.5 -133.5t70.5 -44.5q56 0 130 76.5t144.5 204t115.5 273.5l86 331q-26 60 -61 86z" />
<glyph unicode="r" horiz-adv-x="872" d="M524.5 855q66.5 119 135 172.5t149.5 53.5q56 0 88.5 -32.5t32.5 -83.5q0 -40 -20 -74t-53 -54t-71 -20q-36 0 -58.5 19.5t-22.5 54.5q0 92 92 131q-8 8 -23 8q-73 0 -156 -108t-167 -302t-160 -449l-43 -171h-178l245 879q15 51 15 80q0 47 -43 47q-46 0 -83.5 -48.5 t-76.5 -160.5l-27 -76h-39l52 149q72 211 247 211q118 0 118 -119q0 -33 -7 -69t-22 -98l-66 -260q75 201 141.5 320z" />
<glyph unicode="s" horiz-adv-x="780" d="M215 12q93 0 150 55.5t57 155.5q0 65 -24.5 128t-82.5 143q-49 67 -72.5 103t-42 86t-18.5 108q0 85 42.5 151t115.5 102.5t160 36.5q106 0 178 -39.5t72 -138.5q0 -22 -10 -46.5t-31.5 -42t-53.5 -17.5q-35 0 -58.5 24t-23.5 62q0 66 58 137q-41 24 -103 24 q-78 0 -128 -52t-50 -142q0 -54 18 -92.5t52 -87t53 -76.5q61 -95 91 -162t30 -139q0 -93 -48 -166.5t-128.5 -114.5t-175.5 -41q-118 0 -197.5 50t-79.5 153q0 36 19.5 64t60.5 28q46 0 68 -37t22 -92q0 -36 -14 -106q38 -19 94 -19z" />
<glyph unicode="t" horiz-adv-x="688" d="M241 128q0 -41 24.5 -61t64.5 -20q51 0 95.5 44t86.5 161l29 80h39l-43 -129q-43 -127 -112 -179.5t-169 -52.5q-92 0 -137.5 45t-45.5 125q0 49 19 117l217 754h-184l10 41h186l89 311q113 3 184 29l-97 -340h271l-6 -41h-276l-238 -838q-7 -24 -7 -46z" />
<glyph unicode="u" horiz-adv-x="1161" d="M1061 332l-51 -150q-74 -211 -248 -211q-34 0 -62.5 14.5t-42.5 41.5q-12 25 -12 63q0 54 29 168l65 257q-82 -198 -158.5 -317.5t-154 -173t-166.5 -53.5q-173 0 -173 158q0 64 30 152l198 598q16 50 16 77q0 50 -48 50q-42 0 -80 -46.5t-78 -162.5l-27 -76h-39l52 149 q72 211 247 211q144 0 144 -127q0 -56 -33 -159l-195 -586q-20 -60 -20 -102q0 -70 65 -70q78 0 173.5 114t188 318t162.5 462l31 122q117 3 187 28l-254 -907q-15 -52 -15 -80q0 -47 44 -47q45 0 82.5 48.5t76.5 160.5l27 76h39z" />
<glyph unicode="v" horiz-adv-x="1092" d="M456.5 675.5q-92.5 -202.5 -110.5 -415.5q-2 -34 -2 -48q0 -173 90 -173q150 0 270 125t190 299.5t77 312.5q-68 34 -112 90.5t-38 130.5q3 44 30 65t60 21q58 0 87 -55.5t29 -151.5q0 -33 -5 -81q-25 -212 -107.5 -400t-220.5 -306t-319 -118q-121 0 -178 66.5 t-57 165.5l1 22q12 169 140.5 375.5t334.5 403.5q-37 -14 -100.5 -53t-100.5 -58t-69 -19q-18 0 -33 7t-44.5 26t-51.5 19q-32 0 -53.5 -27.5t-46.5 -99.5l-23 -76h-39l45 149q57 209 193 209q39 0 74.5 -26.5t57 -40t54.5 -13.5q102 0 172 64l21 39l43 -21 q-166 -205 -258.5 -407.5z" />
<glyph unicode="w" horiz-adv-x="1403" d="M380.5 658q-153.5 -215 -153.5 -441q0 -99 29 -141.5t84 -42.5q104 0 212 98q-15 52 -15 121q0 115 50 227t121 184t128 72q40 0 55.5 -42.5t15.5 -100.5q0 -112 -59.5 -223.5t-175.5 -202.5q46 -135 164 -135q130 0 221.5 100.5t137 248t45.5 286.5q0 80 -15 135 q-45 8 -89.5 30.5t-75 60.5t-30.5 91q0 50 26 74t60 24q108 0 152 -241q17 -79 17 -171q0 -166 -54.5 -326.5t-168.5 -266t-282 -105.5q-161 0 -216 126q-137 -126 -283 -126q-132 0 -193 66.5t-61 167.5q0 174 172.5 378t416.5 387q-23 -14 -66.5 -40.5t-76 -41 t-57.5 -14.5q-17 0 -32 6.5t-44.5 26t-52.5 19.5q-33 0 -55.5 -28t-45.5 -99l-24 -76h-39l47 149q37 114 84.5 161.5t105.5 47.5q39 0 75.5 -26.5t58.5 -40t55 -13.5q91 0 164 64l28 39l43 -21q-250 -210 -403.5 -425zM746 637q-41 -53 -70 -136t-29 -167q0 -72 14 -131 q91 76 145 181t54 210q0 96 -39 96q-34 0 -75 -53z" />
<glyph unicode="x" horiz-adv-x="1077" d="M774 956q58 67 105.5 96t99.5 29q39 0 64.5 -20.5t25.5 -54.5q0 -40 -30.5 -69.5t-77.5 -29.5q-69 0 -130 49q-127 -117 -220 -358l48 -438q8 -52 25 -73t45 -21q35 0 67 39.5t70 148.5l27 76h39l-51 -150q-76 -209 -234 -209q-148 0 -170 189l-30 266 q-81 -182 -218 -328q-63 -66 -111.5 -96.5t-94.5 -30.5t-69.5 20t-23.5 56q0 39 31 68.5t76 29.5q66 0 129 -49q84 78 155.5 186.5t117.5 215.5l-44 395q-13 94 -69 94q-34 0 -66.5 -40t-71.5 -148l-26 -76h-39l51 149q41 115 100.5 162t133.5 47q75 0 116.5 -42.5 t53.5 -145.5l23 -211q69 158 173 274z" />
<glyph unicode="y" horiz-adv-x="985" d="M768 449q82 172 115 339q-63 33 -109.5 81t-46.5 108q0 49 29 76.5t75 27.5q107 0 107 -166q0 -131 -58 -295t-150.5 -325t-194.5 -289q-192 -239 -404 -340q-107 -51 -178 -51q-44 0 -73.5 22t-29.5 62q0 42 33 67t78 25q43 0 83 -21t87 -59q161 85 307 245l-151 918 q-11 63 -25.5 88t-40.5 25t-54 -40t-67 -148l-26 -76h-39l51 149q72 209 236 209q43 0 72 -17t47 -58t28 -113l105 -770q112 154 194 326z" />
<glyph unicode="z" horiz-adv-x="911" d="M200 162q57 24 111 24q49 0 103 -20t92 -32.5t82 -12.5q53 0 82.5 25.5t29.5 76.5q0 54 -44.5 93.5t-116.5 54.5l12 30q96 -21 147.5 -71t51.5 -127q0 -58 -24.5 -106.5t-77.5 -78.5t-136 -30q-70 0 -136.5 29t-108 44t-107.5 15q-57 0 -100 -16.5t-85 -59.5h-55l924 973 q-93 -59 -149.5 -83t-110.5 -24q-49 0 -103 20.5t-92 33t-82 12.5q-53 0 -82.5 -26t-29.5 -77q0 -54 44.5 -93.5t116.5 -53.5l-12 -31q-199 46 -199 199q0 58 24.5 106.5t77.5 78.5t136 30q70 0 136.5 -29t108 -44t107.5 -15q57 0 100 16.5t85 59.5h55l-924 -973 q92 58 149 82z" />
<glyph unicode="{" horiz-adv-x="627" d="M113.5 -328q-61.5 57 -61.5 164q0 83 42 253q68 269 68 376q-1 62 -24.5 90t-71.5 31h-10l6 37h10q66 5 109.5 49.5t82.5 147t89 301.5q48 190 106.5 293t142 145.5t215.5 42.5l-10 -39q-72 -1 -111 -29t-74 -118t-85 -295q-43 -173 -108 -279.5t-141.5 -158.5 t-170.5 -78q198 -60 198 -282q0 -92 -36 -234q-63 -253 -60 -332q0 -59 27.5 -80t89.5 -23l-10 -39q-151 0 -212.5 57z" />
<glyph unicode="|" horiz-adv-x="651" d="M305 -399v2156h82v-2156h-82z" />
<glyph unicode="}" horiz-adv-x="627" d="M515.5 1545q61.5 -57 61.5 -164q0 -83 -42 -253q-68 -269 -68 -376q1 -62 24.5 -90t71.5 -31h10l-6 -37h-10q-66 -5 -109.5 -49.5t-82.5 -147t-89 -301.5q-48 -190 -106.5 -293t-142 -145.5t-215.5 -42.5l10 39q72 1 111 29t74 118t85 295q43 173 108 279.5t141.5 158.5 t170.5 78q-198 60 -198 282q0 92 36 234q63 253 60 332q0 59 -27.5 80t-89.5 23l10 39q151 0 212.5 -57z" />
<glyph unicode="~" horiz-adv-x="1329" d="M1062.5 543.5q-89.5 -58.5 -202.5 -58.5q-71 0 -125.5 20.5t-160 80t-199.5 59.5q-133 0 -207 -119l-29 11q47 102 136.5 160.5t201.5 58.5q71 0 125.5 -20.5t160 -80t200.5 -59.5q132 0 206 119l29 -10q-46 -103 -135.5 -161.5z" />
<glyph unicode="&#xa1;" horiz-adv-x="510" d="M238 1000.5q22 36.5 57.5 58.5t73.5 22q46 0 75 -30.5t29 -76.5q0 -40 -21.5 -75.5t-57.5 -57.5t-75 -22q-45 0 -74 30t-29 75q0 40 22 76.5zM231 368.5q-25 -139.5 -60.5 -363t-57.5 -310.5q-9 -39 -34.5 -59.5t-58.5 -20.5q-46 0 -69.5 23t-23.5 61q0 22 7 43 q21 71 95.5 263t128 339.5t96.5 308.5l37 -6q-35 -139 -60 -278.5z" />
<glyph unicode="&#xa2;" horiz-adv-x="887" d="M649 1081q61 0 111.5 -21t80.5 -60.5t30 -92.5q0 -40 -18 -78t-51.5 -62t-76.5 -24q-41 0 -62.5 23t-21.5 57q0 58 45.5 100.5t108.5 53.5q-44 63 -139 63q-20 0 -40 -4l-263 -979h12q166 0 307 205l41 -16q-39 -68 -98.5 -127.5t-133 -99.5t-151.5 -47l-92 -343h-45 l92 342q-119 5 -186.5 82t-67.5 219q0 155 68.5 334t194.5 312t288 158l100 374h45l-99 -370zM396.5 861.5q-79.5 -114.5 -127.5 -274.5t-48 -333q0 -153 89 -188l256 952q-90 -42 -169.5 -156.5z" />
<glyph unicode="&#xa3;" horiz-adv-x="1278" d="M621.5 1342q150.5 165 394.5 165q70 0 118 -19t71.5 -50.5t23.5 -69.5q0 -34 -16.5 -63.5t-45.5 -47.5t-65 -18q-32 0 -53 19t-21 51q0 41 27.5 73.5t70.5 44.5q0 20 -35 35t-79 15q-122 0 -199.5 -71t-120.5 -176.5t-90 -277.5l-26 -98h278l-12 -41h-277l-43 -164h277 l-13 -41h-276q-28 -88 -73 -162t-101 -138.5t-143 -151.5q139 65 258 65q69 0 150.5 -30.5t130.5 -46t114 -15.5q46 0 86.5 19t65 53.5t24.5 79.5q0 58 -35 93.5t-98 47.5l12 35q89 -16 148 -69t59 -140q0 -67 -40.5 -131.5t-108.5 -105t-144 -40.5q-94 0 -184 64t-144 96.5 t-135 32.5q-85 0 -178 -41q-52 -72 -104 -112t-93 -40q-14 0 -20 4.5t-6 16.5q0 20 24.5 48t71 55.5t107.5 45.5q42 82 75.5 167.5t69.5 219.5l21 80h-199l12 41h198l43 164h-198l12 41h197l12 45q74 278 224.5 443z" />
<glyph unicode="&#xa4;" horiz-adv-x="1165" d="M199 614q0 141 88 246l-90 90l57 58l90 -90q107 86 244 86t243 -89l93 93l57 -58l-92 -92q86 -109 86 -244q0 -138 -86 -243l90 -88l-57 -60l-91 90q-109 -86 -243 -86q-139 0 -244 84l-88 -88l-59 60l88 88q-86 104 -86 243zM324.5 458.5q41.5 -71.5 111.5 -113.5 t152 -42t151.5 42t110.5 113.5t41 155.5q0 83 -41 155t-111 115.5t-151 43.5q-82 0 -152.5 -43t-111.5 -115t-41 -156t41.5 -155.5z" />
<glyph unicode="&#xa5;" horiz-adv-x="1440" d="M328 1402q24 38 61 57.5t94 19.5q108 0 174.5 -88t103.5 -245.5t64 -408.5q148 372 383 609q133 133 242 133q60 0 87 -31.5t27 -78.5q0 -30 -13 -63t-40.5 -56t-67.5 -23q-77 0 -77 81q0 33 18 67t47 61h-6q-55 -3 -113 -45q-107 -78 -230.5 -251.5t-237.5 -447.5 l-21 -84h289l-10 -41h-289l-31 -123h285l-10 -41h-285l-47 -186q-17 -66 -17 -99q0 -30 13.5 -46t42 -22.5t81.5 -8.5l-10 -41q-91 6 -254 6q-179 0 -268 -6l10 41q74 3 111 16t59 48.5t41 111.5l47 186h-288l10 41h288l31 123h-284l10 41h284l22 87q-73 671 -239 671 q-35 0 -58 -22t-40 -74l-57 -168h-45l67 198q22 64 46 102z" />
<glyph unicode="&#xa6;" horiz-adv-x="659" d="M309 786v971h82v-971h-82zM391 668v-1067h-82v1067h82z" />
<glyph unicode="&#xa7;" horiz-adv-x="1040" d="M876 1439q34 35 85 50q-13 41 -67.5 57.5t-113.5 16.5q-74 0 -140 -26.5t-108.5 -88t-42.5 -158.5q0 -62 35 -118t75 -93.5t140 -122.5q74 -62 118.5 -108.5t69.5 -97.5t25 -111q0 -131 -91 -235t-238 -176q88 -101 88 -210q0 -111 -63 -203.5t-167 -146t-221 -53.5 q-67 0 -133 19.5t-110 62t-44 108.5q0 35 18.5 67.5t50 52.5t69.5 20q40 0 64 -22t24 -60q0 -49 -34 -85t-85 -50q12 -39 68 -56.5t112 -17.5q76 0 141.5 27t107.5 88.5t42 160.5q0 62 -35 117t-77 93.5t-138 119.5q-74 63 -118.5 109.5t-69.5 97.5t-25 111 q0 131 91.5 234.5t238.5 175.5q-88 101 -88 210q0 111 63 203.5t166.5 146.5t220.5 54q65 0 132 -19.5t112 -61.5t45 -104q0 -37 -18 -70.5t-49.5 -54t-71.5 -20.5t-64 23t-24 63q0 46 34 81zM440 963q-219 -117 -219 -271q0 -52 28.5 -100.5t71.5 -91t115 -103.5 q120 -99 164 -144q219 118 219 271q0 53 -28.5 102t-71.5 91t-115 102q-121 100 -164 144z" />
<glyph unicode="&#xa8;" horiz-adv-x="799" d="M80 1451q19 31 51 51t68 20q43 0 72.5 -30t29.5 -73q0 -33 -19 -64.5t-50.5 -51t-67.5 -19.5q-46 0 -74.5 29.5t-28.5 75.5q0 31 19 62zM515 1451q19 31 50.5 51t67.5 20q43 0 72.5 -30t29.5 -73q0 -33 -19 -64.5t-50.5 -51t-67.5 -19.5q-45 0 -73.5 30t-28.5 75 q0 31 19 62z" />
<glyph unicode="&#xa9;" horiz-adv-x="1892" d="M289.5 1195.5q109.5 187.5 297 297t408.5 109.5q222 0 409 -109.5t296.5 -297t109.5 -409.5q0 -221 -109.5 -408.5t-296.5 -297t-409 -109.5q-221 0 -408.5 109.5t-297 297t-109.5 408.5q0 222 109.5 409.5zM360.5 411q98.5 -172 267 -273t367.5 -101q200 0 368.5 101 t267 273t98.5 375q0 204 -98.5 376t-267 273t-368.5 101q-199 0 -367.5 -101t-267 -273t-98.5 -376q0 -203 98.5 -375zM1309.5 378.5q-47.5 -64.5 -124.5 -106t-179 -41.5q-129 0 -232.5 66t-163 189t-59.5 288q0 166 60.5 295.5t169 201.5t249.5 72q86 0 162.5 -27.5 t123 -78.5t46.5 -117q0 -53 -30.5 -83.5t-78.5 -30.5q-47 0 -79.5 30t-32.5 80q0 42 23 69t63 36q-20 37 -73 61.5t-112 24.5q-75 0 -141 -47.5t-108.5 -161t-42.5 -299.5q0 -169 39.5 -276t105 -155.5t147.5 -48.5q90 0 169.5 51t129.5 160l39 -14q-23 -73 -70.5 -137.5z " />
<glyph unicode="&#xaa;" horiz-adv-x="930" d="M932 979l-37 -100q-29 -80 -73 -111t-111 -31q-45 0 -67 19.5t-22 64.5q0 43 19 109l25 86q-138 -279 -308 -279q-74 0 -116.5 45.5t-42.5 118.5q0 118 78.5 255t196.5 230t226 93q29 0 51.5 -18t25.5 -56l16 55q83 0 143 19l-193 -598q-10 -30 -10 -51q0 -33 33 -33 q34 0 58.5 29t49.5 102l19 51h39zM711 1430q-71 0 -157 -80t-146 -206.5t-60 -258.5q0 -46 13 -71.5t38 -25.5q44 0 106.5 60.5t122 159.5t95.5 209l39 135q-3 78 -51 78z" />
<glyph unicode="&#xab;" horiz-adv-x="1059" d="M531 875q-78 -116 -166.5 -218.5t-161.5 -156.5q57 -47 116.5 -141t106 -200t66.5 -188h-37q-181 353 -406 527v4q157 110 294 253t271 326h37q-42 -90 -120 -206zM872.5 877q-77.5 -116 -167.5 -219.5t-164 -157.5q56 -47 115.5 -141t106.5 -200.5t66 -187.5h-36 q-181 353 -406 527v4q157 110 294 253t271 326h37q-39 -88 -116.5 -204z" />
<glyph unicode="&#xac;" horiz-adv-x="1354" d="M1237 758l-121 -420h-74l103 358h-952l18 62h1026z" />
<glyph unicode="&#xad;" horiz-adv-x="1032" />
<glyph unicode="&#xae;" horiz-adv-x="1432" d="M1115.5 1525q131.5 -77 208.5 -208.5t77 -286.5t-77 -286t-208.5 -208t-286.5 -77t-286 77t-208 208t-77 286t77 286.5t208 208.5t286 77t286.5 -77zM1073.5 592.5q111.5 68.5 176.5 185t65 252.5q0 137 -65 253t-176.5 184.5t-244.5 68.5t-244 -68.5t-176 -184.5 t-65 -253q0 -136 65 -252.5t176.5 -185t243.5 -68.5q133 0 244.5 68.5zM1079 784.5q4 -20.5 11.5 -30t19.5 -9.5q15 0 25 17l20 -14q-12 -24 -33.5 -33.5t-56.5 -9.5q-52 0 -76.5 19t-36.5 64l-34 152q-9 41 -23.5 59t-49 26t-108.5 9v-207q0 -32 3.5 -47t13 -20.5 t30.5 -7.5v-31q-20 0 -46.5 1t-57.5 1q-35 0 -62 -1t-45 -1v31q21 2 30.5 7.5t13.5 20.5t4 47v449q0 33 -4 48.5t-13.5 21.5t-30.5 8v30q25 -2 99 -2q68 0 111.5 1t64.5 1q116 0 176.5 -42t60.5 -119q0 -139 -198 -174q81 -9 116 -37t46 -82l24 -117q2 -8 6 -28.5z M922.5 1102q35.5 35 35.5 100q0 79 -32.5 115.5t-110.5 36.5q-33 0 -49.5 -5.5t-22.5 -19.5t-6 -43v-219h49q101 0 136.5 35z" />
<glyph unicode="&#xaf;" horiz-adv-x="741" d="M236 1407l12 51h639l-13 -51h-638z" />
<glyph unicode="&#xb0;" horiz-adv-x="686" d="M659 1649q57 -30 91 -86t34 -129q0 -75 -34 -131t-91 -86.5t-124 -30.5t-123.5 30.5t-90.5 86.5t-34 131q0 73 34 129t90.5 86t123.5 30t124 -30zM629.5 1244.5q45.5 23.5 74.5 71.5t29 116q0 66 -29.5 114.5t-75 73.5t-93.5 25t-93.5 -25t-74.5 -73.5t-29 -114.5 q0 -68 29 -116t74 -71.5t94 -23.5t94.5 23.5z" />
<glyph unicode="&#xb1;" horiz-adv-x="1300" d="M1026 62l-19 -62h-1026l19 62h1026zM786 1241h74l-137 -483h475l-18 -62h-475l-138 -481h-73l137 481h-477l18 62h477z" />
<glyph unicode="&#xb2;" d="M420.5 1500q82.5 44 181.5 44q75 0 118.5 -28.5t43.5 -88.5q0 -89 -81.5 -168.5t-192 -155.5t-138.5 -99q23 0 58.5 -5.5t101 -18.5t98.5 -13q43 0 70 19t27 52q0 24 -9 39l35 15q21 -33 21 -66q0 -39 -22 -70.5t-63.5 -50t-99.5 -18.5q-43 0 -91.5 11.5t-87.5 19 t-89 7.5q-38 0 -65 -7t-70 -23l8 37q20 13 155 98t224.5 178t89.5 178q0 89 -111 89q-125 0 -219 -107l-28 23q53 65 135.5 109z" />
<glyph unicode="&#xb3;" horiz-adv-x="668" d="M431 1497.5q85 46.5 181 46.5q74 0 119 -28t45 -82q0 -55 -45 -103t-111 -82t-128 -49q96 -3 159.5 -39.5t63.5 -111.5q0 -96 -98.5 -170t-244 -117t-284.5 -53v36q124 10 240 51t190 110.5t74 158.5q0 103 -113 106q-37 -20 -65 -20q-37 0 -37 27q0 37 90 34 q88 32 139 81.5t51 111.5q0 38 -25 57t-71 19q-122 0 -237 -115l-29 25q51 60 136 106.5z" />
<glyph unicode="&#xb4;" horiz-adv-x="457" d="M357.5 1365q41.5 54 105.5 141.5t104 127.5q40 46 84 46q25 0 45 -15q16 -16 16 -40q0 -41 -46 -87q-36 -38 -106 -89t-134 -100.5t-145 -121.5l-21 18q56 66 97.5 120z" />
<glyph unicode="&#xb6;" horiz-adv-x="1311" d="M784 -231q-124 -154 -307 -154q-94 0 -151 29t-58 84q0 29 17 58.5t45 48t59 18.5q32 0 50 -18t18 -46q0 -66 -72 -131q30 -10 72 -10q70 0 119.5 40.5t83.5 110.5t65 174q-339 0 -495 131t-156 365q0 268 128.5 493.5t349.5 357.5t486 132q59 0 160 -3t148 -3 q81 0 122 4l-10 -39q-65 -3 -103 -18.5t-58 -44t-33 -76.5l-285 -1082q-71 -267 -195 -421zM783.5 345q-24.5 -159 -24.5 -225q0 -22 3 -22q52 193 192 716.5t142 528.5q-7 0 -45.5 -86.5t-87.5 -223t-91 -283.5q-144 0 -276 -6t-218 -14t-87 -11q-1 -4 79 -11t210 -12.5 t276 -5.5q-48 -186 -72.5 -345z" />
<glyph unicode="&#xb7;" horiz-adv-x="528" d="M134 564.5q22 36.5 57.5 58.5t73.5 22q46 0 75 -30.5t29 -76.5q0 -40 -21.5 -75.5t-57.5 -57.5t-75 -22q-45 0 -74 30t-29 75q0 40 22 76.5z" />
<glyph unicode="&#xb8;" horiz-adv-x="467" d="M326 -133q41 0 64.5 -22t23.5 -60q0 -56 -39 -94.5t-97.5 -57t-115.5 -18.5q-53 0 -97.5 13.5t-66.5 31.5l14 31q30 -13 55 -20t68 -7q27 0 61.5 10t60.5 33.5t26 61.5q0 49 -58 49q-33 0 -63 -15l94 197h55l-69 -147q39 14 84 14z" />
<glyph unicode="&#xb9;" horiz-adv-x="518" d="M319 895l166 514q-63 -37 -119.5 -63t-138.5 -48l11 39q91 28 157.5 61.5t107 62.5t105.5 81h39l-207 -647h-121z" />
<glyph unicode="&#xba;" horiz-adv-x="842" d="M271.5 1184q52.5 124 151 209.5t230.5 85.5q111 0 173.5 -54.5t62.5 -160.5q0 -108 -52.5 -231.5t-151 -208.5t-230.5 -85q-111 0 -173.5 54t-62.5 159q0 108 52.5 232zM507 1358q-64 -84 -102 -212t-38 -251q0 -61 24 -90t74 -29q72 0 136 83.5t102 212t38 251.5 q0 61 -24 90t-74 29q-72 0 -136 -84z" />
<glyph unicode="&#xbb;" horiz-adv-x="1057" d="M633 553v-2q-157 -112 -294.5 -254.5t-270.5 -325.5h-37q42 90 120 206t166.5 219t161.5 157q-57 47 -116.5 140.5t-106 199.5t-66.5 188h37q181 -354 406 -528zM971 553v-2q-300 -213 -565 -580h-37q42 90 120 206t166.5 219t161.5 157q-57 47 -116.5 140.5t-106 199.5 t-66.5 188h37q181 -354 406 -528z" />
<glyph unicode="&#xbc;" horiz-adv-x="1241" d="M-203 -113l-31 27l1706 1774l31 -27zM319 895l166 514q-63 -37 -119.5 -63t-138.5 -48l11 39q91 28 157.5 61.5t107 62.5t105.5 81h39l-207 -647h-121zM921 149l-23 -83h-116l-70 -240h-107l70 240h-387l10 36l615 547h39l-146 -500h115zM799 496l-392 -347h292z" />
<glyph unicode="&#xbd;" horiz-adv-x="1241" d="M-203 -113l-31 27l1706 1774l31 -27zM319 895l166 514q-63 -37 -119.5 -63t-138.5 -48l11 39q91 28 157.5 61.5t107 62.5t105.5 81h39l-207 -647h-121zM741.5 605q82.5 44 181.5 44q75 0 118.5 -28.5t43.5 -88.5q0 -89 -81.5 -168.5t-192 -155.5t-138.5 -99 q23 0 58.5 -5.5t101 -18.5t98.5 -13q43 0 70 19t27 52q0 24 -9 39l35 15q21 -33 21 -66q0 -39 -22 -70.5t-63.5 -50t-99.5 -18.5q-43 0 -91.5 11.5t-87.5 19t-89 7.5q-38 0 -65 -7t-70 -23l8 37q20 13 155 98t224.5 178t89.5 178q0 89 -111 89q-125 0 -219 -107l-28 23 q53 65 135.5 109z" />
<glyph unicode="&#xbe;" horiz-adv-x="1446" d="M2 -113l-31 27l1706 1774l31 -27zM431 1497.5q85 46.5 181 46.5q74 0 119 -28t45 -82q0 -55 -45 -103t-111 -82t-128 -49q96 -3 159.5 -39.5t63.5 -111.5q0 -96 -98.5 -170t-244 -117t-284.5 -53v36q124 10 240 51t190 110.5t74 158.5q0 103 -113 106q-37 -20 -65 -20 q-37 0 -37 27q0 37 90 34q88 32 139 81.5t51 111.5q0 38 -25 57t-71 19q-122 0 -237 -115l-29 25q51 60 136 106.5zM1126 149l-23 -83h-116l-70 -240h-107l70 240h-387l10 36l615 547h39l-146 -500h115zM1004 496l-392 -347h292z" />
<glyph unicode="&#xbf;" horiz-adv-x="913" d="M431 1000.5q22 36.5 57.5 58.5t73.5 22q46 0 75 -30.5t29 -76.5q0 -40 -21.5 -75.5t-57.5 -57.5t-75 -22q-45 0 -74 30t-29 75q0 40 22 76.5zM408 -324q77 26 96 74q-19 5 -35 28.5t-16 53.5q0 44 31 72t77 28q40 0 61 -23t21 -63q0 -66 -61.5 -119t-161 -82.5 t-207.5 -29.5q-135 0 -217 52.5t-82 148.5q0 62 32 112.5t100.5 105.5t205.5 146q36 26 125.5 88t122 106.5t32.5 98.5q0 37 -17.5 69t-49 51t-72.5 19q-65 0 -127.5 -24.5t-87.5 -65.5q20 -2 37 -23.5t16 -47.5q0 -33 -26 -58.5t-66 -25.5q-69 0 -69 71q0 61 56 109t141 74 t167 26q107 0 171.5 -51t64.5 -145q0 -73 -41.5 -133t-96 -102t-202.5 -148q-99 -66 -151.5 -108t-78.5 -82.5t-26 -88.5q0 -60 47 -99.5t131 -39.5q79 0 156 26z" />
<glyph unicode="&#xc0;" horiz-adv-x="1288" d="M1066.5 74q29.5 -31 66.5 -33l-9 -41q-82 6 -223 6q-165 0 -246 -6l9 41q70 3 108 17.5t54.5 50t13.5 104.5l-19 336h-503l-154 -217q-96 -136 -96 -204q0 -84 151 -87l-10 -41q-114 6 -234 6q-89 0 -153 -6l10 41q94 20 205 178l883 1241h30l82 -1288q5 -67 34.5 -98z M785 1209l-438 -619h472zM893 1653q-45 33 -118 84.5t-105 83.5q-16 16 -27.5 37.5t-11.5 42.5q0 23 14 41q17 20 46 20q23 0 47.5 -12t41.5 -31q29 -31 68 -90t75.5 -112.5t90.5 -121.5l-21 -20q-55 45 -100 78z" />
<glyph unicode="&#xc1;" horiz-adv-x="1288" d="M1066.5 74q29.5 -31 66.5 -33l-9 -41q-82 6 -223 6q-165 0 -246 -6l9 41q70 3 108 17.5t54.5 50t13.5 104.5l-19 336h-503l-154 -217q-96 -136 -96 -204q0 -84 151 -87l-10 -41q-114 6 -234 6q-89 0 -153 -6l10 41q94 20 205 178l883 1241h30l82 -1288q5 -67 34.5 -98z M785 1209l-438 -619h472zM938 1695.5q56 41.5 140 106.5t130 92q39 24 78 24q43 0 58 -34q4 -9 4 -20q0 -25 -21.5 -49.5t-50.5 -40.5q-44 -26 -125.5 -56t-157 -60t-172.5 -77l-14 23q75 50 131 91.5z" />
<glyph unicode="&#xc2;" horiz-adv-x="1288" d="M1066.5 74q29.5 -31 66.5 -33l-9 -41q-82 6 -223 6q-165 0 -246 -6l9 41q70 3 108 17.5t54.5 50t13.5 104.5l-19 336h-503l-154 -217q-96 -136 -96 -204q0 -84 151 -87l-10 -41q-114 6 -234 6q-89 0 -153 -6l10 41q94 20 205 178l883 1241h30l82 -1288q5 -67 34.5 -98z M785 1209l-438 -619h472zM1146 1629.5q-68 27.5 -117.5 55t-65.5 35.5q-226 -95 -422 -139l-10 29q147 45 274.5 116t206.5 150h37q57 -99 122 -163t163 -103l-9 -29q-111 21 -179 48.5z" />
<glyph unicode="&#xc3;" horiz-adv-x="1288" d="M1066.5 74q29.5 -31 66.5 -33l-9 -41q-82 6 -223 6q-165 0 -246 -6l9 41q70 3 108 17.5t54.5 50t13.5 104.5l-19 336h-503l-154 -217q-96 -136 -96 -204q0 -84 151 -87l-10 -41q-114 6 -234 6q-89 0 -153 -6l10 41q94 20 205 178l883 1241h30l82 -1288q5 -67 34.5 -98z M785 1209l-438 -619h472zM706.5 1781.5q71.5 51.5 150.5 51.5q66 0 109 -21t111 -75t134 -54q78 0 143 119l37 -10q-45 -107 -116.5 -159t-149.5 -52q-66 0 -109 21t-111 75t-134 54q-79 0 -144 -119l-37 10q45 108 116.5 159.5z" />
<glyph unicode="&#xc4;" horiz-adv-x="1288" d="M1066.5 74q29.5 -31 66.5 -33l-9 -41q-82 6 -223 6q-165 0 -246 -6l9 41q70 3 108 17.5t54.5 50t13.5 104.5l-19 336h-503l-154 -217q-96 -136 -96 -204q0 -84 151 -87l-10 -41q-114 6 -234 6q-89 0 -153 -6l10 41q94 20 205 178l883 1241h30l82 -1288q5 -67 34.5 -98z M785 1209l-438 -619h472zM625 1748q19 31 51 51t68 20q43 0 72.5 -30t29.5 -73q0 -33 -19 -64.5t-50.5 -51t-67.5 -19.5q-46 0 -74.5 29.5t-28.5 75.5q0 31 19 62zM1060 1748q19 31 50.5 51t67.5 20q43 0 72.5 -30t29.5 -73q0 -33 -19 -64.5t-50.5 -51t-67.5 -19.5 q-45 0 -73.5 30t-28.5 75q0 31 19 62z" />
<glyph unicode="&#xc5;" horiz-adv-x="1288" d="M1066.5 74q29.5 -31 66.5 -33l-9 -41q-82 6 -223 6q-165 0 -246 -6l9 41q70 3 108 17.5t54.5 50t13.5 104.5l-19 336h-503l-154 -217q-96 -136 -96 -204q0 -84 151 -87l-10 -41q-114 6 -234 6q-89 0 -153 -6l10 41q94 20 205 178l883 1241h30l82 -1288q5 -67 34.5 -98z M785 1209l-438 -619h472zM1085 1874q40 -20 63.5 -57t23.5 -86q0 -56 -32 -104.5t-85 -77.5t-112 -29q-74 0 -122 44t-48 119q0 58 30 106.5t81 76.5t112 28q49 0 89 -20zM1033 1585q39 22 62.5 61t23.5 87q0 37 -19 63.5t-49 40.5t-63 14q-41 0 -78.5 -23.5t-60.5 -61.5 t-23 -80q0 -58 37 -90.5t88 -32.5q43 0 82 22z" />
<glyph unicode="&#xc6;" horiz-adv-x="1837" d="M1354.5 1444h134.5q295 0 424 6q-32 -89 -78 -242q-19 -68 -27 -127h-45q15 86 15 145q0 96 -42.5 136.5t-138.5 40.5h-190q-71 0 -106.5 -12t-57 -46.5t-41.5 -111.5l-128 -483h220q58 0 96.5 30.5t62 76t52.5 122.5h45q-26 -81 -69 -250q-22 -75 -54 -250h-45 q0 20 5.5 63t5.5 64q0 45 -23 72t-84 31h-223l-131 -492q-18 -70 -18 -100q0 -29 13.5 -44t41.5 -20.5t80 -5.5h211q99 0 162 34t109.5 111t94.5 218h45q-19 -50 -43 -148q-35 -127 -53 -262q-139 6 -463 6q-389 0 -590 -6l8 41q74 3 111 16t58.5 48t41.5 112l131 492h-333 l-457 -516q-59 -67 -59 -97q0 -45 127 -55v-41q-55 6 -177 6q-87 0 -137 -6v41q65 3 176 131l1017 1150q2 34 -11 52t-42.5 25.5t-84.5 9.5l10 41q99 -3 237 -4l122 137h53l-122 -138q87 -1 163.5 -1zM1012 1233l4 14l-441 -497h308z" />
<glyph unicode="&#xc7;" horiz-adv-x="1372" d="M1327 979h-45q12 80 12 140q0 96 -32 163q-38 76 -110.5 118t-158.5 42q-170 0 -328.5 -160t-257 -402.5t-98.5 -469.5q0 -198 77.5 -300t215.5 -102q90 0 190.5 42t174.5 118q52 53 91.5 124t92.5 200h45q-93 -340 -121 -492h-45q6 44 6 70q0 52 -24 52q-16 0 -43 -18 q-73 -47 -122.5 -73t-114.5 -43t-150 -17q-228 0 -353 123t-125 359t118 475.5t323.5 395t451.5 155.5q83 0 139 -18t90.5 -44.5t76.5 -70.5q18 -18 31 -18q36 0 81 122h43q-68 -177 -131 -471zM649 -133q51 0 80 -22t29 -60q0 -56 -48.5 -94.5t-121 -57t-143.5 -18.5 q-67 0 -121 13t-84 32l14 31q71 -27 164 -27q38 0 87 10t85.5 33.5t36.5 61.5q0 49 -78 49q-42 0 -84 -15l98 205h56l-74 -155q51 14 104 14z" />
<glyph unicode="&#xc8;" horiz-adv-x="1249" d="M907 1444q287 0 408 6q-54 -148 -78 -242q-23 -80 -29 -127h-47q18 110 18 165q0 59 -19 92.5t-63.5 49t-123.5 15.5h-150q-73 0 -109.5 -12t-58.5 -46.5t-43 -111.5l-129 -483h135q102 0 153 61t76 125t34 84h47q-42 -129 -60.5 -201t-23.5 -90q-27 -96 -66 -291h-47 q2 14 9 59t7 80q0 63 -31 97.5t-110 34.5h-134l-132 -492q-18 -64 -18 -99q0 -30 14 -45t43 -20.5t82 -5.5h149q128 0 203.5 34t125.5 109t103 220h48q-20 -50 -46 -148q-30 -110 -55 -262q-139 6 -469 6q-393 0 -592 -6l11 41q74 3 110 16t58 48t43 112l272 1016 q18 65 18 100q0 30 -13.5 45.5t-42 22t-81.5 8.5l10 41q201 -6 594 -6zM821 1653q-45 33 -118 84.5t-105 83.5q-16 16 -27.5 37.5t-11.5 42.5q0 23 14 41q17 20 46 20q23 0 47.5 -12t41.5 -31q29 -31 68 -90t75.5 -112.5t90.5 -121.5l-21 -20q-55 45 -100 78z" />
<glyph unicode="&#xc9;" horiz-adv-x="1249" d="M907 1444q287 0 408 6q-54 -148 -78 -242q-23 -80 -29 -127h-47q18 110 18 165q0 59 -19 92.5t-63.5 49t-123.5 15.5h-150q-73 0 -109.5 -12t-58.5 -46.5t-43 -111.5l-129 -483h135q102 0 153 61t76 125t34 84h47q-42 -129 -60.5 -201t-23.5 -90q-27 -96 -66 -291h-47 q2 14 9 59t7 80q0 63 -31 97.5t-110 34.5h-134l-132 -492q-18 -64 -18 -99q0 -30 14 -45t43 -20.5t82 -5.5h149q128 0 203.5 34t125.5 109t103 220h48q-20 -50 -46 -148q-30 -110 -55 -262q-139 6 -469 6q-393 0 -592 -6l11 41q74 3 110 16t58 48t43 112l272 1016 q18 65 18 100q0 30 -13.5 45.5t-42 22t-81.5 8.5l10 41q201 -6 594 -6zM866 1695.5q56 41.5 140 106.5t130 92q39 24 78 24q43 0 58 -34q4 -9 4 -20q0 -25 -21.5 -49.5t-50.5 -40.5q-44 -26 -125.5 -56t-157 -60t-172.5 -77l-14 23q75 50 131 91.5z" />
<glyph unicode="&#xca;" horiz-adv-x="1249" d="M907 1444q287 0 408 6q-54 -148 -78 -242q-23 -80 -29 -127h-47q18 110 18 165q0 59 -19 92.5t-63.5 49t-123.5 15.5h-150q-73 0 -109.5 -12t-58.5 -46.5t-43 -111.5l-129 -483h135q102 0 153 61t76 125t34 84h47q-42 -129 -60.5 -201t-23.5 -90q-27 -96 -66 -291h-47 q2 14 9 59t7 80q0 63 -31 97.5t-110 34.5h-134l-132 -492q-18 -64 -18 -99q0 -30 14 -45t43 -20.5t82 -5.5h149q128 0 203.5 34t125.5 109t103 220h48q-20 -50 -46 -148q-30 -110 -55 -262q-139 6 -469 6q-393 0 -592 -6l11 41q74 3 110 16t58 48t43 112l272 1016 q18 65 18 100q0 30 -13.5 45.5t-42 22t-81.5 8.5l10 41q201 -6 594 -6zM1074 1629.5q-68 27.5 -117.5 55t-65.5 35.5q-226 -95 -422 -139l-10 29q147 45 274.5 116t206.5 150h37q57 -99 122 -163t163 -103l-9 -29q-111 21 -179 48.5z" />
<glyph unicode="&#xcb;" horiz-adv-x="1249" d="M907 1444q287 0 408 6q-54 -148 -78 -242q-23 -80 -29 -127h-47q18 110 18 165q0 59 -19 92.5t-63.5 49t-123.5 15.5h-150q-73 0 -109.5 -12t-58.5 -46.5t-43 -111.5l-129 -483h135q102 0 153 61t76 125t34 84h47q-42 -129 -60.5 -201t-23.5 -90q-27 -96 -66 -291h-47 q2 14 9 59t7 80q0 63 -31 97.5t-110 34.5h-134l-132 -492q-18 -64 -18 -99q0 -30 14 -45t43 -20.5t82 -5.5h149q128 0 203.5 34t125.5 109t103 220h48q-20 -50 -46 -148q-30 -110 -55 -262q-139 6 -469 6q-393 0 -592 -6l11 41q74 3 110 16t58 48t43 112l272 1016 q18 65 18 100q0 30 -13.5 45.5t-42 22t-81.5 8.5l10 41q201 -6 594 -6zM553 1748q19 31 51 51t68 20q43 0 72.5 -30t29.5 -73q0 -33 -19 -64.5t-50.5 -51t-67.5 -19.5q-46 0 -74.5 29.5t-28.5 75.5q0 31 19 62zM988 1748q19 31 50.5 51t67.5 20q43 0 72.5 -30t29.5 -73 q0 -33 -19 -64.5t-50.5 -51t-67.5 -19.5q-45 0 -73.5 30t-28.5 75q0 31 19 62z" />
<glyph unicode="&#xcc;" d="M323 118q0 -30 13.5 -46t42.5 -22.5t82 -8.5l-8 -41q-96 6 -260 6q-171 0 -261 -6l11 41q72 3 108 16t57.5 48.5t41.5 111.5l270 1016q17 65 17 98q0 31 -14 47t-42.5 22.5t-81.5 8.5l10 41q84 -6 260 -6q165 0 262 6l-10 -41q-75 -3 -111.5 -16t-58 -48t-41.5 -112 l-270 -1016q-17 -66 -17 -99zM571 1653q-45 33 -118 84.5t-105 83.5q-16 16 -27.5 37.5t-11.5 42.5q0 23 14 41q17 20 46 20q23 0 47.5 -12t41.5 -31q29 -31 68 -90t75.5 -112.5t90.5 -121.5l-21 -20q-55 45 -100 78z" />
<glyph unicode="&#xcd;" d="M323 118q0 -30 13.5 -46t42.5 -22.5t82 -8.5l-8 -41q-96 6 -260 6q-171 0 -261 -6l11 41q72 3 108 16t57.5 48.5t41.5 111.5l270 1016q17 65 17 98q0 31 -14 47t-42.5 22.5t-81.5 8.5l10 41q84 -6 260 -6q165 0 262 6l-10 -41q-75 -3 -111.5 -16t-58 -48t-41.5 -112 l-270 -1016q-17 -66 -17 -99zM616 1695.5q56 41.5 140 106.5t130 92q39 24 78 24q43 0 58 -34q4 -9 4 -20q0 -25 -21.5 -49.5t-50.5 -40.5q-44 -26 -125.5 -56t-157 -60t-172.5 -77l-14 23q75 50 131 91.5z" />
<glyph unicode="&#xce;" d="M323 118q0 -30 13.5 -46t42.5 -22.5t82 -8.5l-8 -41q-96 6 -260 6q-171 0 -261 -6l11 41q72 3 108 16t57.5 48.5t41.5 111.5l270 1016q17 65 17 98q0 31 -14 47t-42.5 22.5t-81.5 8.5l10 41q84 -6 260 -6q165 0 262 6l-10 -41q-75 -3 -111.5 -16t-58 -48t-41.5 -112 l-270 -1016q-17 -66 -17 -99zM824 1629.5q-68 27.5 -117.5 55t-65.5 35.5q-226 -95 -422 -139l-10 29q147 45 274.5 116t206.5 150h37q57 -99 122 -163t163 -103l-9 -29q-111 21 -179 48.5z" />
<glyph unicode="&#xcf;" d="M323 118q0 -30 13.5 -46t42.5 -22.5t82 -8.5l-8 -41q-96 6 -260 6q-171 0 -261 -6l11 41q72 3 108 16t57.5 48.5t41.5 111.5l270 1016q17 65 17 98q0 31 -14 47t-42.5 22.5t-81.5 8.5l10 41q84 -6 260 -6q165 0 262 6l-10 -41q-75 -3 -111.5 -16t-58 -48t-41.5 -112 l-270 -1016q-17 -66 -17 -99zM303 1748q19 31 51 51t68 20q43 0 72.5 -30t29.5 -73q0 -33 -19 -64.5t-50.5 -51t-67.5 -19.5q-46 0 -74.5 29.5t-28.5 75.5q0 31 19 62zM738 1748q19 31 50.5 51t67.5 20q43 0 72.5 -30t29.5 -73q0 -33 -19 -64.5t-50.5 -51t-67.5 -19.5 q-45 0 -73.5 30t-28.5 75q0 31 19 62z" />
<glyph unicode="&#xd0;" horiz-adv-x="1485" d="M505 1443l50 1q282 6 309 6q288 0 433 -115t145 -338q0 -256 -126.5 -486t-349 -370.5t-495.5 -140.5q-28 0 -133.5 3t-153.5 3q-165 0 -245 -6l6 41q70 3 105.5 16t57.5 48.5t42 111.5l268 1016q19 74 19 101q0 40 -30 56.5t-108 18.5l6 41q110 -7 200 -7zM321 112 q0 -39 28 -57t97 -18q254 0 434.5 138.5t272.5 369t92 504.5q0 185 -104 274.5t-334 89.5q-64 0 -100 -14.5t-58 -51.5t-41 -110l-268 -1024q-19 -71 -19 -101zM135 707l12 52h721l-12 -52h-721z" />
<glyph unicode="&#xd1;" horiz-adv-x="1577" d="M1271 1001q84 286 171 412q90 131 221 131q66 0 94.5 -29t28.5 -75q0 -36 -14 -70t-41.5 -56t-65.5 -22q-41 0 -59.5 24t-18.5 56q0 33 19 67.5t47 61.5h-6q-100 -3 -168 -104q-91 -136 -189 -477t-223 -930h-45l-467 1319q-101 -516 -190 -870t-170 -462 q-47 -60 -96.5 -94.5t-123.5 -34.5q-122 0 -122 107q0 35 14 68.5t41 55t65 21.5q42 0 60 -24t18 -56q0 -33 -18.5 -67.5t-46.5 -61.5h6q106 4 170 107q78 123 161.5 444.5t182.5 835.5q4 24 4 46q0 34 -14.5 51.5t-47.5 24.5t-96 9l10 41q66 -6 183 -6q96 0 166 6 l387 -1132q89 397 173 683zM835.5 1781.5q71.5 51.5 150.5 51.5q66 0 109 -21t111 -75t134 -54q78 0 143 119l37 -10q-45 -107 -116.5 -159t-149.5 -52q-66 0 -109 21t-111 75t-134 54q-79 0 -144 -119l-37 10q45 108 116.5 159.5z" />
<glyph unicode="&#xd2;" horiz-adv-x="1493" d="M220 932q109 237 304.5 392t440.5 155q151 0 259.5 -58t166 -169t57.5 -267q0 -231 -110 -467.5t-306 -391.5t-440 -155q-151 0 -259 58t-165 168.5t-57 265.5q0 232 109 469zM648.5 1294.5q-143.5 -147.5 -232 -381.5t-88.5 -477q0 -132 35.5 -228.5t99.5 -148 t147 -51.5q155 0 298.5 147.5t232 381.5t88.5 477q0 132 -36 228.5t-100 148t-147 51.5q-154 0 -297.5 -147.5zM971 1653q-45 33 -118 84.5t-105 83.5q-16 16 -27.5 37.5t-11.5 42.5q0 23 14 41q17 20 46 20q23 0 47.5 -12t41.5 -31q29 -31 68 -90t75.5 -112.5t90.5 -121.5 l-21 -20q-55 45 -100 78z" />
<glyph unicode="&#xd3;" horiz-adv-x="1493" d="M220 932q109 237 304.5 392t440.5 155q151 0 259.5 -58t166 -169t57.5 -267q0 -231 -110 -467.5t-306 -391.5t-440 -155q-151 0 -259 58t-165 168.5t-57 265.5q0 232 109 469zM648.5 1294.5q-143.5 -147.5 -232 -381.5t-88.5 -477q0 -132 35.5 -228.5t99.5 -148 t147 -51.5q155 0 298.5 147.5t232 381.5t88.5 477q0 132 -36 228.5t-100 148t-147 51.5q-154 0 -297.5 -147.5zM1016 1695.5q56 41.5 140 106.5t130 92q39 24 78 24q43 0 58 -34q4 -9 4 -20q0 -25 -21.5 -49.5t-50.5 -40.5q-44 -26 -125.5 -56t-157 -60t-172.5 -77l-14 23 q75 50 131 91.5z" />
<glyph unicode="&#xd4;" horiz-adv-x="1493" d="M220 932q109 237 304.5 392t440.5 155q151 0 259.5 -58t166 -169t57.5 -267q0 -231 -110 -467.5t-306 -391.5t-440 -155q-151 0 -259 58t-165 168.5t-57 265.5q0 232 109 469zM648.5 1294.5q-143.5 -147.5 -232 -381.5t-88.5 -477q0 -132 35.5 -228.5t99.5 -148 t147 -51.5q155 0 298.5 147.5t232 381.5t88.5 477q0 132 -36 228.5t-100 148t-147 51.5q-154 0 -297.5 -147.5zM1224 1629.5q-68 27.5 -117.5 55t-65.5 35.5q-226 -95 -422 -139l-10 29q147 45 274.5 116t206.5 150h37q57 -99 122 -163t163 -103l-9 -29q-111 21 -179 48.5z " />
<glyph unicode="&#xd5;" horiz-adv-x="1493" d="M220 932q109 237 304.5 392t440.5 155q151 0 259.5 -58t166 -169t57.5 -267q0 -231 -110 -467.5t-306 -391.5t-440 -155q-151 0 -259 58t-165 168.5t-57 265.5q0 232 109 469zM648.5 1294.5q-143.5 -147.5 -232 -381.5t-88.5 -477q0 -132 35.5 -228.5t99.5 -148 t147 -51.5q155 0 298.5 147.5t232 381.5t88.5 477q0 132 -36 228.5t-100 148t-147 51.5q-154 0 -297.5 -147.5zM784.5 1781.5q71.5 51.5 150.5 51.5q66 0 109 -21t111 -75t134 -54q78 0 143 119l37 -10q-45 -107 -116.5 -159t-149.5 -52q-66 0 -109 21t-111 75t-134 54 q-79 0 -144 -119l-37 10q45 108 116.5 159.5z" />
<glyph unicode="&#xd6;" horiz-adv-x="1493" d="M220 932q109 237 304.5 392t440.5 155q151 0 259.5 -58t166 -169t57.5 -267q0 -231 -110 -467.5t-306 -391.5t-440 -155q-151 0 -259 58t-165 168.5t-57 265.5q0 232 109 469zM648.5 1294.5q-143.5 -147.5 -232 -381.5t-88.5 -477q0 -132 35.5 -228.5t99.5 -148 t147 -51.5q155 0 298.5 147.5t232 381.5t88.5 477q0 132 -36 228.5t-100 148t-147 51.5q-154 0 -297.5 -147.5zM703 1748q19 31 51 51t68 20q43 0 72.5 -30t29.5 -73q0 -33 -19 -64.5t-50.5 -51t-67.5 -19.5q-46 0 -74.5 29.5t-28.5 75.5q0 31 19 62zM1138 1748 q19 31 50.5 51t67.5 20q43 0 72.5 -30t29.5 -73q0 -33 -19 -64.5t-50.5 -51t-67.5 -19.5q-45 0 -73.5 30t-28.5 75q0 31 19 62z" />
<glyph unicode="&#xd7;" horiz-adv-x="1051" d="M256 1085l53 37l252 -358l465 362l33 -45l-465 -360l256 -354l-51 -37l-254 354l-459 -356l-31 45l457 354z" />
<glyph unicode="&#xd8;" horiz-adv-x="1493" d="M1448 985q0 -231 -110 -467.5t-306 -391.5t-440 -155q-232 0 -359 134l-239 -255l-35 29l245 260q-93 125 -93 324q0 232 109 469t304.5 392t440.5 155q247 0 374 -149l242 253l31 -27l-247 -261q83 -122 83 -310zM1106 1379.5q-68 62.5 -160 62.5q-154 0 -297.5 -147.5 t-232 -381.5t-88.5 -477q0 -88 17 -163l861 930q-32 114 -100 176.5zM457.5 64q65.5 -56 152.5 -56q155 0 298.5 147.5t232 381.5t88.5 477q0 74 -12 138l-858 -930q33 -102 98.5 -158z" />
<glyph unicode="&#xd9;" horiz-adv-x="1397" d="M1306 1303q0 56 -35 79t-116 27l10 41q70 -6 207 -6q123 0 193 6l-11 -41q-72 -3 -111.5 -21t-63 -58t-42.5 -118l-159 -616q-75 -285 -201 -434q-75 -88 -185 -139.5t-235 -51.5q-219 0 -315 111q-72 80 -72 208q0 106 51 300l170 643q17 65 17 98q0 31 -13.5 47 t-42.5 22.5t-82 8.5l13 41q82 -6 264 -6q157 0 256 6l-12 -41q-75 -3 -112 -16t-58 -48t-41 -112l-181 -678q-45 -177 -45 -277q0 -113 55.5 -174t186.5 -61q215 0 338.5 139.5t189.5 390.5l168 639q14 56 14 91zM930 1653q-45 33 -118 84.5t-105 83.5q-16 16 -27.5 37.5 t-11.5 42.5q0 23 14 41q17 20 46 20q23 0 47.5 -12t41.5 -31q29 -31 68 -90t75.5 -112.5t90.5 -121.5l-21 -20q-55 45 -100 78z" />
<glyph unicode="&#xda;" horiz-adv-x="1397" d="M1306 1303q0 56 -35 79t-116 27l10 41q70 -6 207 -6q123 0 193 6l-11 -41q-72 -3 -111.5 -21t-63 -58t-42.5 -118l-159 -616q-75 -285 -201 -434q-75 -88 -185 -139.5t-235 -51.5q-219 0 -315 111q-72 80 -72 208q0 106 51 300l170 643q17 65 17 98q0 31 -13.5 47 t-42.5 22.5t-82 8.5l13 41q82 -6 264 -6q157 0 256 6l-12 -41q-75 -3 -112 -16t-58 -48t-41 -112l-181 -678q-45 -177 -45 -277q0 -113 55.5 -174t186.5 -61q215 0 338.5 139.5t189.5 390.5l168 639q14 56 14 91zM975 1695.5q56 41.5 140 106.5t130 92q39 24 78 24 q43 0 58 -34q4 -9 4 -20q0 -25 -21.5 -49.5t-50.5 -40.5q-44 -26 -125.5 -56t-157 -60t-172.5 -77l-14 23q75 50 131 91.5z" />
<glyph unicode="&#xdb;" horiz-adv-x="1397" d="M1306 1303q0 56 -35 79t-116 27l10 41q70 -6 207 -6q123 0 193 6l-11 -41q-72 -3 -111.5 -21t-63 -58t-42.5 -118l-159 -616q-75 -285 -201 -434q-75 -88 -185 -139.5t-235 -51.5q-219 0 -315 111q-72 80 -72 208q0 106 51 300l170 643q17 65 17 98q0 31 -13.5 47 t-42.5 22.5t-82 8.5l13 41q82 -6 264 -6q157 0 256 6l-12 -41q-75 -3 -112 -16t-58 -48t-41 -112l-181 -678q-45 -177 -45 -277q0 -113 55.5 -174t186.5 -61q215 0 338.5 139.5t189.5 390.5l168 639q14 56 14 91zM1183 1629.5q-68 27.5 -117.5 55t-65.5 35.5 q-226 -95 -422 -139l-10 29q147 45 274.5 116t206.5 150h37q57 -99 122 -163t163 -103l-9 -29q-111 21 -179 48.5z" />
<glyph unicode="&#xdc;" horiz-adv-x="1397" d="M1306 1303q0 56 -35 79t-116 27l10 41q70 -6 207 -6q123 0 193 6l-11 -41q-72 -3 -111.5 -21t-63 -58t-42.5 -118l-159 -616q-75 -285 -201 -434q-75 -88 -185 -139.5t-235 -51.5q-219 0 -315 111q-72 80 -72 208q0 106 51 300l170 643q17 65 17 98q0 31 -13.5 47 t-42.5 22.5t-82 8.5l13 41q82 -6 264 -6q157 0 256 6l-12 -41q-75 -3 -112 -16t-58 -48t-41 -112l-181 -678q-45 -177 -45 -277q0 -113 55.5 -174t186.5 -61q215 0 338.5 139.5t189.5 390.5l168 639q14 56 14 91zM662 1748q19 31 51 51t68 20q43 0 72.5 -30t29.5 -73 q0 -33 -19 -64.5t-50.5 -51t-67.5 -19.5q-46 0 -74.5 29.5t-28.5 75.5q0 31 19 62zM1097 1748q19 31 50.5 51t67.5 20q43 0 72.5 -30t29.5 -73q0 -33 -19 -64.5t-50.5 -51t-67.5 -19.5q-45 0 -73.5 30t-28.5 75q0 31 19 62z" />
<glyph unicode="&#xdd;" horiz-adv-x="1372" d="M312 1402q24 38 61 57.5t94 19.5q108 0 174.5 -88t103.5 -245.5t64 -408.5q148 372 383 609q133 133 242 133q60 0 87 -31.5t27 -78.5q0 -30 -13 -63t-40.5 -56t-67.5 -23q-77 0 -77 81q0 33 18 67t47 61h-6q-55 -3 -113 -45q-108 -78 -231.5 -251.5t-236.5 -447.5 l-119 -475q-17 -66 -17 -99q0 -30 13.5 -46t42 -22.5t81.5 -8.5l-10 -41q-92 6 -254 6q-180 0 -268 -6l10 41q74 3 111 16t59 48.5t41 111.5l120 478q-73 671 -239 671q-35 0 -58 -22t-40 -74l-57 -168h-45l67 198q22 64 46 102zM967 1695.5q56 41.5 140 106.5t130 92 q39 24 78 24q43 0 58 -34q4 -9 4 -20q0 -25 -21.5 -49.5t-50.5 -40.5q-44 -26 -125.5 -56t-157 -60t-172.5 -77l-14 23q75 50 131 91.5z" />
<glyph unicode="&#xde;" horiz-adv-x="1239" d="M340 217q-17 -66 -17 -99q0 -30 13.5 -46t42.5 -22.5t82 -8.5l-8 -41q-96 6 -260 6q-171 0 -261 -6l11 41q72 3 108 16t57.5 48.5t41.5 111.5l270 1016q17 65 17 98q0 31 -14 47t-42.5 22.5t-81.5 8.5l10 41q84 -6 260 -6q165 0 262 6l-10 -41q-75 -3 -111.5 -16t-58 -48 t-41.5 -112l-15 -58q198 3 216 3q201 0 304.5 -83t103.5 -227q0 -159 -97.5 -286t-273.5 -199t-402 -72l-81 1zM467 352q286 0 415.5 150t129.5 399q0 122 -62 180t-198 58q-90 0 -169 -7l-207 -780h91z" />
<glyph unicode="&#xdf;" horiz-adv-x="1120" d="M384.5 1355.5q60.5 120.5 155.5 183.5t240 63q98 0 160 -28.5t90.5 -75t28.5 -103.5q0 -89 -56.5 -162.5t-123.5 -135t-91 -83.5q-69 -63 -69 -154q0 -61 25 -108.5t59.5 -91.5t50.5 -66q58 -78 89.5 -149.5t31.5 -147.5q0 -96 -49 -170t-133 -115t-185 -41 q-68 0 -127.5 19.5t-97 59t-37.5 97.5q0 45 22.5 72t57.5 27q49 0 68.5 -44.5t19.5 -95.5q0 -29 -12 -77q42 -17 86 -17q62 0 110.5 25.5t76.5 73.5t28 114q0 133 -107 269q-11 13 -49.5 60t-61 98t-22.5 104q0 66 31 109t90.5 94.5t85.5 78.5q131 138 131 316 q0 108 -41 162.5t-110 54.5q-59 0 -103 -36.5t-80 -115.5t-71 -213l-412 -1562q-108 -3 -184 -29l372 1423q52 197 112.5 317.5z" />
<glyph unicode="&#xe0;" horiz-adv-x="1071" d="M971 334l-51 -150q-42 -114 -105 -163.5t-131 -49.5q-38 0 -67.5 14.5t-45.5 39.5q-17 30 -17 72q0 30 7 62.5t15 62t10 38.5l37 149q-98 -230 -199.5 -334t-212.5 -104q-94 0 -143.5 67.5t-49.5 180.5q0 166 88.5 371t229 348t287.5 143q54 0 89.5 -40t41.5 -113l32 125 q114 3 189 28l-256 -905q-15 -54 -15 -76q0 -51 46 -51q90 0 157 209l25 76h39zM729 864q0 82 -29.5 130t-83.5 48q-87 0 -185.5 -135.5t-165 -335.5t-66.5 -376q0 -85 18 -121.5t53 -36.5q57 0 136.5 87.5t156 233.5t126.5 312l38 149q2 32 2 45zM630 1352.5 q-42 53.5 -107.5 131.5t-92.5 122q-21 34 -21 65q0 41 33 58q15 6 32 6q53 0 89 -64q25 -43 54 -119t58 -147.5t75 -165.5l-27 -12q-51 72 -93 125.5z" />
<glyph unicode="&#xe1;" horiz-adv-x="1071" d="M971 334l-51 -150q-42 -114 -105 -163.5t-131 -49.5q-38 0 -67.5 14.5t-45.5 39.5q-17 30 -17 72q0 30 7 62.5t15 62t10 38.5l37 149q-98 -230 -199.5 -334t-212.5 -104q-94 0 -143.5 67.5t-49.5 180.5q0 166 88.5 371t229 348t287.5 143q54 0 89.5 -40t41.5 -113l32 125 q114 3 189 28l-256 -905q-15 -54 -15 -76q0 -51 46 -51q90 0 157 209l25 76h39zM729 864q0 82 -29.5 130t-83.5 48q-87 0 -185.5 -135.5t-165 -335.5t-66.5 -376q0 -85 18 -121.5t53 -36.5q57 0 136.5 87.5t156 233.5t126.5 312l38 149q2 32 2 45zM699.5 1365 q41.5 54 105.5 141.5t104 127.5q40 46 84 46q25 0 45 -15q16 -16 16 -40q0 -41 -46 -87q-36 -38 -106 -89t-134 -100.5t-145 -121.5l-21 18q56 66 97.5 120z" />
<glyph unicode="&#xe2;" horiz-adv-x="1071" d="M971 334l-51 -150q-42 -114 -105 -163.5t-131 -49.5q-38 0 -67.5 14.5t-45.5 39.5q-17 30 -17 72q0 30 7 62.5t15 62t10 38.5l37 149q-98 -230 -199.5 -334t-212.5 -104q-94 0 -143.5 67.5t-49.5 180.5q0 166 88.5 371t229 348t287.5 143q54 0 89.5 -40t41.5 -113l32 125 q114 3 189 28l-256 -905q-15 -54 -15 -76q0 -51 46 -51q90 0 157 209l25 76h39zM729 864q0 82 -29.5 130t-83.5 48q-87 0 -185.5 -135.5t-165 -335.5t-66.5 -376q0 -85 18 -121.5t53 -36.5q57 0 136.5 87.5t156 233.5t126.5 312l38 149q2 32 2 45zM857 1346q-77 51 -148 129 q-179 -141 -359 -213l-10 28q133 57 249.5 151.5t191.5 200.5h36q22 -128 78 -210.5t166 -141.5l-8 -28q-119 33 -196 84z" />
<glyph unicode="&#xe3;" horiz-adv-x="1071" d="M971 334l-51 -150q-42 -114 -105 -163.5t-131 -49.5q-38 0 -67.5 14.5t-45.5 39.5q-17 30 -17 72q0 30 7 62.5t15 62t10 38.5l37 149q-98 -230 -199.5 -334t-212.5 -104q-94 0 -143.5 67.5t-49.5 180.5q0 166 88.5 371t229 348t287.5 143q54 0 89.5 -40t41.5 -113l32 125 q114 3 189 28l-256 -905q-15 -54 -15 -76q0 -51 46 -51q90 0 157 209l25 76h39zM729 864q0 82 -29.5 130t-83.5 48q-87 0 -185.5 -135.5t-165 -335.5t-66.5 -376q0 -85 18 -121.5t53 -36.5q57 0 136.5 87.5t156 233.5t126.5 312l38 149q2 32 2 45zM482.5 1521 q71.5 52 150.5 52q59 0 97 -21t98 -75t118 -54q78 0 143 119l37 -10q-45 -107 -116.5 -159t-149.5 -52q-59 0 -97.5 21t-98.5 74.5t-118 53.5q-79 0 -143 -118l-37 10q45 107 116.5 159z" />
<glyph unicode="&#xe4;" horiz-adv-x="1071" d="M971 334l-51 -150q-42 -114 -105 -163.5t-131 -49.5q-38 0 -67.5 14.5t-45.5 39.5q-17 30 -17 72q0 30 7 62.5t15 62t10 38.5l37 149q-98 -230 -199.5 -334t-212.5 -104q-94 0 -143.5 67.5t-49.5 180.5q0 166 88.5 371t229 348t287.5 143q54 0 89.5 -40t41.5 -113l32 125 q114 3 189 28l-256 -905q-15 -54 -15 -76q0 -51 46 -51q90 0 157 209l25 76h39zM729 864q0 82 -29.5 130t-83.5 48q-87 0 -185.5 -135.5t-165 -335.5t-66.5 -376q0 -85 18 -121.5t53 -36.5q57 0 136.5 87.5t156 233.5t126.5 312l38 149q2 32 2 45zM447 1451q19 31 51 51 t68 20q43 0 72.5 -30t29.5 -73q0 -33 -19 -64.5t-50.5 -51t-67.5 -19.5q-46 0 -74.5 29.5t-28.5 75.5q0 31 19 62zM882 1451q19 31 50.5 51t67.5 20q43 0 72.5 -30t29.5 -73q0 -33 -19 -64.5t-50.5 -51t-67.5 -19.5q-45 0 -73.5 30t-28.5 75q0 31 19 62z" />
<glyph unicode="&#xe5;" horiz-adv-x="1071" d="M971 334l-51 -150q-42 -114 -105 -163.5t-131 -49.5q-38 0 -67.5 14.5t-45.5 39.5q-17 30 -17 72q0 30 7 62.5t15 62t10 38.5l37 149q-98 -230 -199.5 -334t-212.5 -104q-94 0 -143.5 67.5t-49.5 180.5q0 166 88.5 371t229 348t287.5 143q54 0 89.5 -40t41.5 -113l32 125 q114 3 189 28l-256 -905q-15 -54 -15 -76q0 -51 46 -51q90 0 157 209l25 76h39zM729 864q0 82 -29.5 130t-83.5 48q-87 0 -185.5 -135.5t-165 -335.5t-66.5 -376q0 -85 18 -121.5t53 -36.5q57 0 136.5 87.5t156 233.5t126.5 312l38 149q2 32 2 45zM890 1599.5 q40 -20.5 63.5 -57.5t23.5 -86q0 -56 -32 -104.5t-85 -77.5t-112 -29q-74 0 -122 44.5t-48 119.5q0 58 30 106.5t81 76.5t112 28q49 0 89 -20.5zM838 1310.5q39 22.5 62.5 61.5t23.5 86q0 37 -19 64t-49 41t-63 14q-41 0 -78.5 -23.5t-60.5 -62t-23 -80.5q0 -58 37 -90.5 t88 -32.5q43 0 82 22.5z" />
<glyph unicode="&#xe6;" horiz-adv-x="1350" d="M1070 111.5q-64 -62.5 -143.5 -101.5t-162.5 -39q-100 0 -166.5 46.5t-90.5 136.5q-118 -183 -296 -183q-102 0 -153.5 62t-51.5 166q0 176 112 380t282.5 343t332.5 139q89 0 135 -72q126 92 260 92q86 0 139.5 -40t53.5 -115q0 -161 -185 -279t-430 -196 q-20 -102 -20 -197q0 -197 141 -197q167 0 308 205l41 -16q-42 -72 -106 -134.5zM950 965q-73 -77 -137.5 -204.5t-97.5 -270.5q205 72 282 133q76 59 118 143.5t42 183.5q0 44 -19.5 68t-54.5 24q-60 0 -133 -77zM386 76.5q59 39.5 112 123.5q-4 29 -4 60q0 107 44 241 t123 260t180 208q-36 49 -93 49q-110 0 -243.5 -124t-226 -320t-92.5 -400q0 -64 22 -100.5t68 -36.5q51 0 110 39.5z" />
<glyph unicode="&#xe7;" horiz-adv-x="885" d="M613 111.5q-64 -62.5 -143.5 -101.5t-162.5 -39q-126 0 -198 77t-72 224q0 166 78 357t219 321.5t321 130.5q61 0 111.5 -21t80.5 -60.5t30 -92.5q0 -40 -18 -78t-51.5 -62t-76.5 -24q-41 0 -62.5 23t-21.5 57q0 58 45.5 100.5t108.5 53.5q-44 63 -139 63 q-103 0 -204.5 -110.5t-166 -292.5t-64.5 -383q0 -100 38 -148.5t106 -48.5q166 0 307 205l41 -16q-42 -72 -106 -134.5zM336 -133q41 0 64.5 -22t23.5 -60q0 -56 -39 -94.5t-97.5 -57t-115.5 -18.5q-53 0 -97.5 13.5t-66.5 31.5l14 31q30 -13 55 -20t68 -7q27 0 61.5 10 t60.5 33.5t26 61.5q0 49 -58 49q-33 0 -63 -15l94 197h55l-69 -147q39 14 84 14z" />
<glyph unicode="&#xe8;" horiz-adv-x="879" d="M601 111.5q-64 -62.5 -143.5 -101.5t-162.5 -39q-127 0 -198.5 74.5t-71.5 214.5q0 155 91 350.5t246.5 333t337.5 137.5q66 0 109 -35t43 -100q0 -166 -185 -289t-427 -205q-23 -102 -23 -198q0 -197 141 -197q175 0 316 205l33 -16q-42 -72 -106 -134.5zM508 965.5 q-81 -76.5 -151.5 -204t-107.5 -270.5q202 71 279 132q76 59 118 143.5t42 183.5q0 55 -8 73.5t-25 18.5q-66 0 -147 -76.5zM579 1352.5q-42 53.5 -107.5 131.5t-92.5 122q-21 34 -21 65q0 41 33 58q15 6 32 6q53 0 89 -64q25 -43 54 -119t58 -147.5t75 -165.5l-27 -12 q-51 72 -93 125.5z" />
<glyph unicode="&#xe9;" horiz-adv-x="879" d="M601 111.5q-64 -62.5 -143.5 -101.5t-162.5 -39q-127 0 -198.5 74.5t-71.5 214.5q0 155 91 350.5t246.5 333t337.5 137.5q66 0 109 -35t43 -100q0 -166 -185 -289t-427 -205q-23 -102 -23 -198q0 -197 141 -197q175 0 316 205l33 -16q-42 -72 -106 -134.5zM508 965.5 q-81 -76.5 -151.5 -204t-107.5 -270.5q202 71 279 132q76 59 118 143.5t42 183.5q0 55 -8 73.5t-25 18.5q-66 0 -147 -76.5zM648.5 1365q41.5 54 105.5 141.5t104 127.5q40 46 84 46q25 0 45 -15q16 -16 16 -40q0 -41 -46 -87q-36 -38 -106 -89t-134 -100.5t-145 -121.5 l-21 18q56 66 97.5 120z" />
<glyph unicode="&#xea;" horiz-adv-x="879" d="M601 111.5q-64 -62.5 -143.5 -101.5t-162.5 -39q-127 0 -198.5 74.5t-71.5 214.5q0 155 91 350.5t246.5 333t337.5 137.5q66 0 109 -35t43 -100q0 -166 -185 -289t-427 -205q-23 -102 -23 -198q0 -197 141 -197q175 0 316 205l33 -16q-42 -72 -106 -134.5zM508 965.5 q-81 -76.5 -151.5 -204t-107.5 -270.5q202 71 279 132q76 59 118 143.5t42 183.5q0 55 -8 73.5t-25 18.5q-66 0 -147 -76.5zM806 1346q-77 51 -148 129q-179 -141 -359 -213l-10 28q133 57 249.5 151.5t191.5 200.5h36q22 -128 78 -210.5t166 -141.5l-8 -28q-119 33 -196 84 z" />
<glyph unicode="&#xeb;" horiz-adv-x="879" d="M601 111.5q-64 -62.5 -143.5 -101.5t-162.5 -39q-127 0 -198.5 74.5t-71.5 214.5q0 155 91 350.5t246.5 333t337.5 137.5q66 0 109 -35t43 -100q0 -166 -185 -289t-427 -205q-23 -102 -23 -198q0 -197 141 -197q175 0 316 205l33 -16q-42 -72 -106 -134.5zM508 965.5 q-81 -76.5 -151.5 -204t-107.5 -270.5q202 71 279 132q76 59 118 143.5t42 183.5q0 55 -8 73.5t-25 18.5q-66 0 -147 -76.5zM396 1451q19 31 51 51t68 20q43 0 72.5 -30t29.5 -73q0 -33 -19 -64.5t-50.5 -51t-67.5 -19.5q-46 0 -74.5 29.5t-28.5 75.5q0 31 19 62zM831 1451 q19 31 50.5 51t67.5 20q43 0 72.5 -30t29.5 -73q0 -33 -19 -64.5t-50.5 -51t-67.5 -19.5q-45 0 -73.5 30t-28.5 75q0 31 19 62z" />
<glyph unicode="&#xec;" horiz-adv-x="618" d="M339 954q0 52 -44 52q-47 0 -84 -49.5t-78 -159.5l-29 -76h-38l53 149q42 117 110 164t144 47q136 0 136 -128q0 -60 -34 -158l-219 -621q-16 -44 -16 -75q0 -52 49 -52q42 0 79 46.5t81 162.5l28 76h39l-53 -150q-40 -111 -107 -161t-145 -50q-143 0 -143 125 q0 63 36 162l220 621q15 45 15 75zM362 1352.5q-42 53.5 -107.5 131.5t-92.5 122q-21 34 -21 65q0 41 33 58q15 6 32 6q53 0 89 -64q25 -43 54 -119t58 -147.5t75 -165.5l-27 -12q-51 72 -93 125.5z" />
<glyph unicode="&#xed;" horiz-adv-x="618" d="M339 954q0 52 -44 52q-47 0 -84 -49.5t-78 -159.5l-29 -76h-38l53 149q42 117 110 164t144 47q136 0 136 -128q0 -60 -34 -158l-219 -621q-16 -44 -16 -75q0 -52 49 -52q42 0 79 46.5t81 162.5l28 76h39l-53 -150q-40 -111 -107 -161t-145 -50q-143 0 -143 125 q0 63 36 162l220 621q15 45 15 75zM431.5 1365q41.5 54 105.5 141.5t104 127.5q40 46 84 46q25 0 45 -15q16 -16 16 -40q0 -41 -46 -87q-36 -38 -106 -89t-134 -100.5t-145 -121.5l-21 18q56 66 97.5 120z" />
<glyph unicode="&#xee;" horiz-adv-x="618" d="M339 954q0 52 -44 52q-47 0 -84 -49.5t-78 -159.5l-29 -76h-38l53 149q42 117 110 164t144 47q136 0 136 -128q0 -60 -34 -158l-219 -621q-16 -44 -16 -75q0 -52 49 -52q42 0 79 46.5t81 162.5l28 76h39l-53 -150q-40 -111 -107 -161t-145 -50q-143 0 -143 125 q0 63 36 162l220 621q15 45 15 75zM589 1346q-77 51 -148 129q-179 -141 -359 -213l-10 28q133 57 249.5 151.5t191.5 200.5h36q22 -128 78 -210.5t166 -141.5l-8 -28q-119 33 -196 84z" />
<glyph unicode="&#xef;" horiz-adv-x="618" d="M339 954q0 52 -44 52q-47 0 -84 -49.5t-78 -159.5l-29 -76h-38l53 149q42 117 110 164t144 47q136 0 136 -128q0 -60 -34 -158l-219 -621q-16 -44 -16 -75q0 -52 49 -52q42 0 79 46.5t81 162.5l28 76h39l-53 -150q-40 -111 -107 -161t-145 -50q-143 0 -143 125 q0 63 36 162l220 621q15 45 15 75zM179 1451q19 31 51 51t68 20q43 0 72.5 -30t29.5 -73q0 -33 -19 -64.5t-50.5 -51t-67.5 -19.5q-46 0 -74.5 29.5t-28.5 75.5q0 31 19 62zM614 1451q19 31 50.5 51t67.5 20q43 0 72.5 -30t29.5 -73q0 -33 -19 -64.5t-50.5 -51t-67.5 -19.5 q-45 0 -73.5 30t-28.5 75q0 31 19 62z" />
<glyph unicode="&#xf0;" horiz-adv-x="997" d="M915 807q0 -184 -71 -379t-205.5 -326t-314.5 -131q-131 0 -206 81.5t-75 240.5q0 160 70.5 346t201.5 314t301 128q63 0 108 -31q-28 167 -113 289l-378 -168l-12 37l367 162q-91 115 -250 197l24 35q190 -71 316 -190l328 144l12 -36l-311 -137q208 -219 208 -576z M534 145q93 133 149 332.5t56 384.5q0 78 -9 148q-39 30 -114 30q-102 0 -193.5 -133.5t-147.5 -333.5t-56 -383q0 -178 117 -178q105 0 198 133z" />
<glyph unicode="&#xf1;" horiz-adv-x="1188" d="M1034 182q-72 -211 -248 -211q-92 0 -129 60q-16 26 -16 67q0 58 35 160l194 586q21 61 21 101q0 71 -66 71q-79 0 -178 -114.5t-194.5 -314.5t-166.5 -444l-36 -143h-178l245 879q15 49 15 77q0 50 -45 50q-31 0 -55.5 -19.5t-49 -64.5t-53.5 -125l-27 -76h-39l52 149 q72 211 243 211q121 0 121 -121q0 -55 -28 -165l-71 -280q88 208 169.5 332t164.5 179t179 55q165 0 165 -154q0 -61 -30 -155l-199 -598q-16 -48 -16 -77q0 -50 49 -50q42 0 80 46.5t78 162.5l27 76h38zM507.5 1521q71.5 52 150.5 52q59 0 97 -21t98 -75t118 -54 q78 0 143 119l37 -10q-45 -107 -116.5 -159t-149.5 -52q-59 0 -97.5 21t-98.5 74.5t-118 53.5q-79 0 -143 -118l-37 10q45 107 116.5 159z" />
<glyph unicode="&#xf2;" horiz-adv-x="999" d="M114.5 639.5q71.5 185.5 206.5 313.5t314 128q131 0 205.5 -81t74.5 -240q0 -161 -71.5 -346.5t-206 -314t-313.5 -128.5q-131 0 -206 81.5t-75 240.5q0 161 71.5 346.5zM424.5 907q-93.5 -133 -149.5 -333t-56 -384q0 -178 117 -178q105 0 198 133t149 332.5t56 384.5 q0 92 -28.5 135t-87.5 43q-105 0 -198.5 -133zM620 1352.5q-42 53.5 -107.5 131.5t-92.5 122q-21 34 -21 65q0 41 33 58q15 6 32 6q53 0 89 -64q25 -43 54 -119t58 -147.5t75 -165.5l-27 -12q-51 72 -93 125.5z" />
<glyph unicode="&#xf3;" horiz-adv-x="999" d="M114.5 639.5q71.5 185.5 206.5 313.5t314 128q131 0 205.5 -81t74.5 -240q0 -161 -71.5 -346.5t-206 -314t-313.5 -128.5q-131 0 -206 81.5t-75 240.5q0 161 71.5 346.5zM424.5 907q-93.5 -133 -149.5 -333t-56 -384q0 -178 117 -178q105 0 198 133t149 332.5t56 384.5 q0 92 -28.5 135t-87.5 43q-105 0 -198.5 -133zM689.5 1365q41.5 54 105.5 141.5t104 127.5q40 46 84 46q25 0 45 -15q16 -16 16 -40q0 -41 -46 -87q-36 -38 -106 -89t-134 -100.5t-145 -121.5l-21 18q56 66 97.5 120z" />
<glyph unicode="&#xf4;" horiz-adv-x="999" d="M114.5 639.5q71.5 185.5 206.5 313.5t314 128q131 0 205.5 -81t74.5 -240q0 -161 -71.5 -346.5t-206 -314t-313.5 -128.5q-131 0 -206 81.5t-75 240.5q0 161 71.5 346.5zM424.5 907q-93.5 -133 -149.5 -333t-56 -384q0 -178 117 -178q105 0 198 133t149 332.5t56 384.5 q0 92 -28.5 135t-87.5 43q-105 0 -198.5 -133zM847 1346q-77 51 -148 129q-179 -141 -359 -213l-10 28q133 57 249.5 151.5t191.5 200.5h36q22 -128 78 -210.5t166 -141.5l-8 -28q-119 33 -196 84z" />
<glyph unicode="&#xf5;" horiz-adv-x="999" d="M114.5 639.5q71.5 185.5 206.5 313.5t314 128q131 0 205.5 -81t74.5 -240q0 -161 -71.5 -346.5t-206 -314t-313.5 -128.5q-131 0 -206 81.5t-75 240.5q0 161 71.5 346.5zM424.5 907q-93.5 -133 -149.5 -333t-56 -384q0 -178 117 -178q105 0 198 133t149 332.5t56 384.5 q0 92 -28.5 135t-87.5 43q-105 0 -198.5 -133zM472.5 1521q71.5 52 150.5 52q59 0 97 -21t98 -75t118 -54q78 0 143 119l37 -10q-45 -107 -116.5 -159t-149.5 -52q-59 0 -97.5 21t-98.5 74.5t-118 53.5q-79 0 -143 -118l-37 10q45 107 116.5 159z" />
<glyph unicode="&#xf6;" horiz-adv-x="999" d="M114.5 639.5q71.5 185.5 206.5 313.5t314 128q131 0 205.5 -81t74.5 -240q0 -161 -71.5 -346.5t-206 -314t-313.5 -128.5q-131 0 -206 81.5t-75 240.5q0 161 71.5 346.5zM424.5 907q-93.5 -133 -149.5 -333t-56 -384q0 -178 117 -178q105 0 198 133t149 332.5t56 384.5 q0 92 -28.5 135t-87.5 43q-105 0 -198.5 -133zM437 1451q19 31 51 51t68 20q43 0 72.5 -30t29.5 -73q0 -33 -19 -64.5t-50.5 -51t-67.5 -19.5q-46 0 -74.5 29.5t-28.5 75.5q0 31 19 62zM872 1451q19 31 50.5 51t67.5 20q43 0 72.5 -30t29.5 -73q0 -33 -19 -64.5t-50.5 -51 t-67.5 -19.5q-45 0 -73.5 30t-28.5 75q0 31 19 62z" />
<glyph unicode="&#xf7;" horiz-adv-x="1346" d="M740.5 1101.5q42.5 33.5 88.5 33.5q39 0 63 -23t24 -59q0 -13 -5 -31q-13 -48 -56 -80.5t-91 -32.5q-38 0 -61.5 22.5t-23.5 58.5q0 14 5 32q14 46 56.5 79.5zM1223 758l-19 -62h-1026l19 62h1026zM570 511.5q43 33.5 89 33.5q39 0 63 -22.5t24 -58.5q0 -14 -5 -32 q-14 -47 -57 -81t-90 -34q-38 0 -61.5 23.5t-23.5 59.5q0 14 5 32q13 46 56 79.5z" />
<glyph unicode="&#xf8;" horiz-adv-x="999" d="M915 760q0 -161 -71.5 -346.5t-206 -314t-313.5 -128.5q-130 0 -204 79l-165 -200l-29 27l169 205q-52 81 -52 211q0 161 71.5 346.5t206.5 313.5t314 128q139 0 211 -88l172 207l26 -24l-175 -215q46 -78 46 -201zM706.5 1002.5q-28.5 37.5 -83.5 37.5 q-103 0 -195 -128.5t-148.5 -322.5t-60.5 -377l520 672q-4 81 -32.5 118.5zM336 12q102 0 192 124t147 313t63 372l-517 -674q12 -135 115 -135z" />
<glyph unicode="&#xf9;" horiz-adv-x="1161" d="M1061 332l-51 -150q-74 -211 -248 -211q-34 0 -62.5 14.5t-42.5 41.5q-12 25 -12 63q0 54 29 168l65 257q-82 -198 -158.5 -317.5t-154 -173t-166.5 -53.5q-173 0 -173 158q0 64 30 152l198 598q16 50 16 77q0 50 -48 50q-42 0 -80 -46.5t-78 -162.5l-27 -76h-39l52 149 q72 211 247 211q144 0 144 -127q0 -56 -33 -159l-195 -586q-20 -60 -20 -102q0 -70 65 -70q78 0 173.5 114t188 318t162.5 462l31 122q117 3 187 28l-254 -907q-15 -52 -15 -80q0 -47 44 -47q45 0 82.5 48.5t76.5 160.5l27 76h39zM599 1352.5q-42 53.5 -107.5 131.5 t-92.5 122q-21 34 -21 65q0 41 33 58q15 6 32 6q53 0 89 -64q25 -43 54 -119t58 -147.5t75 -165.5l-27 -12q-51 72 -93 125.5z" />
<glyph unicode="&#xfa;" horiz-adv-x="1161" d="M1061 332l-51 -150q-74 -211 -248 -211q-34 0 -62.5 14.5t-42.5 41.5q-12 25 -12 63q0 54 29 168l65 257q-82 -198 -158.5 -317.5t-154 -173t-166.5 -53.5q-173 0 -173 158q0 64 30 152l198 598q16 50 16 77q0 50 -48 50q-42 0 -80 -46.5t-78 -162.5l-27 -76h-39l52 149 q72 211 247 211q144 0 144 -127q0 -56 -33 -159l-195 -586q-20 -60 -20 -102q0 -70 65 -70q78 0 173.5 114t188 318t162.5 462l31 122q117 3 187 28l-254 -907q-15 -52 -15 -80q0 -47 44 -47q45 0 82.5 48.5t76.5 160.5l27 76h39zM668.5 1365q41.5 54 105.5 141.5t104 127.5 q40 46 84 46q25 0 45 -15q16 -16 16 -40q0 -41 -46 -87q-36 -38 -106 -89t-134 -100.5t-145 -121.5l-21 18q56 66 97.5 120z" />
<glyph unicode="&#xfb;" horiz-adv-x="1161" d="M1061 332l-51 -150q-74 -211 -248 -211q-34 0 -62.5 14.5t-42.5 41.5q-12 25 -12 63q0 54 29 168l65 257q-82 -198 -158.5 -317.5t-154 -173t-166.5 -53.5q-173 0 -173 158q0 64 30 152l198 598q16 50 16 77q0 50 -48 50q-42 0 -80 -46.5t-78 -162.5l-27 -76h-39l52 149 q72 211 247 211q144 0 144 -127q0 -56 -33 -159l-195 -586q-20 -60 -20 -102q0 -70 65 -70q78 0 173.5 114t188 318t162.5 462l31 122q117 3 187 28l-254 -907q-15 -52 -15 -80q0 -47 44 -47q45 0 82.5 48.5t76.5 160.5l27 76h39zM826 1346q-77 51 -148 129 q-179 -141 -359 -213l-10 28q133 57 249.5 151.5t191.5 200.5h36q22 -128 78 -210.5t166 -141.5l-8 -28q-119 33 -196 84z" />
<glyph unicode="&#xfc;" horiz-adv-x="1161" d="M1061 332l-51 -150q-74 -211 -248 -211q-34 0 -62.5 14.5t-42.5 41.5q-12 25 -12 63q0 54 29 168l65 257q-82 -198 -158.5 -317.5t-154 -173t-166.5 -53.5q-173 0 -173 158q0 64 30 152l198 598q16 50 16 77q0 50 -48 50q-42 0 -80 -46.5t-78 -162.5l-27 -76h-39l52 149 q72 211 247 211q144 0 144 -127q0 -56 -33 -159l-195 -586q-20 -60 -20 -102q0 -70 65 -70q78 0 173.5 114t188 318t162.5 462l31 122q117 3 187 28l-254 -907q-15 -52 -15 -80q0 -47 44 -47q45 0 82.5 48.5t76.5 160.5l27 76h39zM416 1451q19 31 51 51t68 20q43 0 72.5 -30 t29.5 -73q0 -33 -19 -64.5t-50.5 -51t-67.5 -19.5q-46 0 -74.5 29.5t-28.5 75.5q0 31 19 62zM851 1451q19 31 50.5 51t67.5 20q43 0 72.5 -30t29.5 -73q0 -33 -19 -64.5t-50.5 -51t-67.5 -19.5q-45 0 -73.5 30t-28.5 75q0 31 19 62z" />
<glyph unicode="&#xfd;" horiz-adv-x="985" d="M768 449q82 172 115 339q-63 33 -109.5 81t-46.5 108q0 49 29 76.5t75 27.5q107 0 107 -166q0 -131 -58 -295t-150.5 -325t-194.5 -289q-192 -239 -404 -340q-107 -51 -178 -51q-44 0 -73.5 22t-29.5 62q0 42 33 67t78 25q43 0 83 -21t87 -59q161 85 307 245l-151 918 q-11 63 -25.5 88t-40.5 25t-54 -40t-67 -148l-26 -76h-39l51 149q72 209 236 209q43 0 72 -17t47 -58t28 -113l105 -770q112 154 194 326zM603.5 1365q41.5 54 105.5 141.5t104 127.5q40 46 84 46q25 0 45 -15q16 -16 16 -40q0 -41 -46 -87q-36 -38 -106 -89t-134 -100.5 t-145 -121.5l-21 18q56 66 97.5 120z" />
<glyph unicode="&#xfe;" horiz-adv-x="1128" d="M645.5 998.5q89.5 82.5 192.5 82.5q99 0 156 -73t57 -215q0 -166 -73.5 -359.5t-210.5 -328t-316 -134.5q-56 0 -101 31t-66 87l-77 -269q-8 -29 -8 -49q0 -54 45 -76.5t129 -22.5l-13 -43q-24 1 -107.5 5t-166.5 4q-66 0 -138 -4t-89 -5l12 43q50 0 79.5 11.5t48 39 t32.5 76.5l386 1366q-62 -136 -146 -241.5t-203 -218.5l-23 26q98 96 162 168.5t129 178.5t129 259l74 262q113 5 186 29l-259 -903q90 191 179.5 273.5zM361 46q36 -28 88 -28q109 0 207 136t158 331t60 353q0 88 -25 133t-71 45q-53 0 -123 -69.5t-137.5 -187.5 t-114.5 -255l-104 -363q26 -67 62 -95z" />
<glyph unicode="&#xff;" horiz-adv-x="985" d="M768 449q82 172 115 339q-63 33 -109.5 81t-46.5 108q0 49 29 76.5t75 27.5q107 0 107 -166q0 -131 -58 -295t-150.5 -325t-194.5 -289q-192 -239 -404 -340q-107 -51 -178 -51q-44 0 -73.5 22t-29.5 62q0 42 33 67t78 25q43 0 83 -21t87 -59q161 85 307 245l-151 918 q-11 63 -25.5 88t-40.5 25t-54 -40t-67 -148l-26 -76h-39l51 149q72 209 236 209q43 0 72 -17t47 -58t28 -113l105 -770q112 154 194 326zM351 1451q19 31 51 51t68 20q43 0 72.5 -30t29.5 -73q0 -33 -19 -64.5t-50.5 -51t-67.5 -19.5q-46 0 -74.5 29.5t-28.5 75.5 q0 31 19 62zM786 1451q19 31 50.5 51t67.5 20q43 0 72.5 -30t29.5 -73q0 -33 -19 -64.5t-50.5 -51t-67.5 -19.5q-45 0 -73.5 30t-28.5 75q0 31 19 62z" />
<glyph unicode="&#x100;" horiz-adv-x="1288" d="M1066.5 74q29.5 -31 66.5 -33l-9 -41q-82 6 -223 6q-165 0 -246 -6l9 41q70 3 108 17.5t54.5 50t13.5 104.5l-19 336h-503l-154 -217q-96 -136 -96 -204q0 -84 151 -87l-10 -41q-114 6 -234 6q-89 0 -153 -6l10 41q94 20 205 178l883 1241h30l82 -1288q5 -67 34.5 -98z M785 1209l-438 -619h472zM571 1677l12 52h721l-12 -52h-721z" />
<glyph unicode="&#x101;" horiz-adv-x="1071" d="M971 334l-51 -150q-42 -114 -105 -163.5t-131 -49.5q-38 0 -67.5 14.5t-45.5 39.5q-17 30 -17 72q0 30 7 62.5t15 62t10 38.5l37 149q-98 -230 -199.5 -334t-212.5 -104q-94 0 -143.5 67.5t-49.5 180.5q0 166 88.5 371t229 348t287.5 143q54 0 89.5 -40t41.5 -113l32 125 q114 3 189 28l-256 -905q-15 -54 -15 -76q0 -51 46 -51q90 0 157 209l25 76h39zM729 864q0 82 -29.5 130t-83.5 48q-87 0 -185.5 -135.5t-165 -335.5t-66.5 -376q0 -85 18 -121.5t53 -36.5q57 0 136.5 87.5t156 233.5t126.5 312l38 149q2 32 2 45zM437 1407l12 51h639 l-13 -51h-638z" />
<glyph unicode="&#x102;" horiz-adv-x="1288" d="M1066.5 74q29.5 -31 66.5 -33l-9 -41q-82 6 -223 6q-165 0 -246 -6l9 41q70 3 108 17.5t54.5 50t13.5 104.5l-19 336h-503l-154 -217q-96 -136 -96 -204q0 -84 151 -87l-10 -41q-114 6 -234 6q-89 0 -153 -6l10 41q94 20 205 178l883 1241h30l82 -1288q5 -67 34.5 -98z M785 1209l-438 -619h472zM791.5 1763.5q71.5 -24.5 187.5 -24.5q110 0 233.5 31t218.5 88l21 -23q-55 -55 -143 -109t-185.5 -89t-179.5 -35q-85 0 -150 31t-105 85t-54 121l33 10q52 -61 123.5 -85.5z" />
<glyph unicode="&#x103;" horiz-adv-x="1071" d="M971 334l-51 -150q-42 -114 -105 -163.5t-131 -49.5q-38 0 -67.5 14.5t-45.5 39.5q-17 30 -17 72q0 30 7 62.5t15 62t10 38.5l37 149q-98 -230 -199.5 -334t-212.5 -104q-94 0 -143.5 67.5t-49.5 180.5q0 166 88.5 371t229 348t287.5 143q54 0 89.5 -40t41.5 -113l32 125 q114 3 189 28l-256 -905q-15 -54 -15 -76q0 -51 46 -51q90 0 157 209l25 76h39zM729 864q0 82 -29.5 130t-83.5 48q-87 0 -185.5 -135.5t-165 -335.5t-66.5 -376q0 -85 18 -121.5t53 -36.5q57 0 136.5 87.5t156 233.5t126.5 312l38 149q2 32 2 45zM560.5 1503.5 q34.5 -37.5 80 -53.5t111.5 -16q101 0 219.5 48.5t204.5 131.5l20 -23q-50 -70 -133.5 -138.5t-176.5 -112.5t-169 -44q-108 0 -172 83t-84 216l33 11q32 -65 66.5 -102.5z" />
<glyph unicode="&#x104;" horiz-adv-x="1288" d="M1066.5 74q29.5 -31 66.5 -33l-9 -41q-82 6 -223 6q-165 0 -246 -6l9 41q70 3 108 17.5t54.5 50t13.5 104.5l-19 336h-503l-154 -217q-96 -136 -96 -204q0 -84 151 -87l-10 -41q-114 6 -234 6q-89 0 -153 -6l10 41q94 20 205 178l883 1241h30l82 -1288q5 -67 34.5 -98z M785 1209l-438 -619h472zM954.5 -76.5q-73.5 -56.5 -73.5 -134.5q0 -76 80 -76q39 0 84.5 16.5t73.5 37.5l22 -35q-123 -117 -264 -117q-74 0 -113 32t-39 87q0 92 97 161t223 111h78q-95 -26 -168.5 -82.5z" />
<glyph unicode="&#x105;" horiz-adv-x="1071" d="M971 334l-51 -150q-42 -114 -105 -163.5t-131 -49.5q-38 0 -67.5 14.5t-45.5 39.5q-17 30 -17 72q0 30 7 62.5t15 62t10 38.5l37 149q-98 -230 -199.5 -334t-212.5 -104q-94 0 -143.5 67.5t-49.5 180.5q0 166 88.5 371t229 348t287.5 143q54 0 89.5 -40t41.5 -113l32 125 q114 3 189 28l-256 -905q-15 -54 -15 -76q0 -51 46 -51q90 0 157 209l25 76h39zM729 864q0 82 -29.5 130t-83.5 48q-87 0 -185.5 -135.5t-165 -335.5t-66.5 -376q0 -85 18 -121.5t53 -36.5q57 0 136.5 87.5t156 233.5t126.5 312l38 149q2 32 2 45zM685 -37q-56 -30 -94 -74 t-38 -98q0 -38 20.5 -58t57.5 -20q38 0 77 18t62 46l25 -23q-116 -139 -250 -139q-70 0 -109 33t-39 88q0 90 97.5 159t222.5 111h78q-54 -13 -110 -43z" />
<glyph unicode="&#x106;" horiz-adv-x="1372" d="M1327 979h-45q12 80 12 140q0 96 -32 163q-38 76 -110.5 118t-158.5 42q-170 0 -328.5 -160t-257 -402.5t-98.5 -469.5q0 -198 77.5 -300t215.5 -102q90 0 190.5 42t174.5 118q52 53 91.5 124t92.5 200h45q-93 -340 -121 -492h-45q6 44 6 70q0 52 -24 52q-16 0 -43 -18 q-73 -47 -122.5 -73t-114.5 -43t-150 -17q-228 0 -353 123t-125 359t118 475.5t323.5 395t451.5 155.5q83 0 139 -18t90.5 -44.5t76.5 -70.5q18 -18 31 -18q36 0 81 122h43q-68 -177 -131 -471zM1012 1695.5q56 41.5 140 106.5t130 92q39 24 78 24q43 0 58 -34q4 -9 4 -20 q0 -25 -21.5 -49.5t-50.5 -40.5q-44 -26 -125.5 -56t-157 -60t-172.5 -77l-14 23q75 50 131 91.5z" />
<glyph unicode="&#x107;" horiz-adv-x="885" d="M613 111.5q-64 -62.5 -143.5 -101.5t-162.5 -39q-126 0 -198 77t-72 224q0 166 78 357t219 321.5t321 130.5q61 0 111.5 -21t80.5 -60.5t30 -92.5q0 -40 -18 -78t-51.5 -62t-76.5 -24q-41 0 -62.5 23t-21.5 57q0 58 45.5 100.5t108.5 53.5q-44 63 -139 63 q-103 0 -204.5 -110.5t-166 -292.5t-64.5 -383q0 -100 38 -148.5t106 -48.5q166 0 307 205l41 -16q-42 -72 -106 -134.5zM650.5 1365q41.5 54 105.5 141.5t104 127.5q40 46 84 46q25 0 45 -15q16 -16 16 -40q0 -41 -46 -87q-36 -38 -106 -89t-134 -100.5t-145 -121.5l-21 18 q56 66 97.5 120z" />
<glyph unicode="&#x108;" horiz-adv-x="1372" d="M1327 979h-45q12 80 12 140q0 96 -32 163q-38 76 -110.5 118t-158.5 42q-170 0 -328.5 -160t-257 -402.5t-98.5 -469.5q0 -198 77.5 -300t215.5 -102q90 0 190.5 42t174.5 118q52 53 91.5 124t92.5 200h45q-93 -340 -121 -492h-45q6 44 6 70q0 52 -24 52q-16 0 -43 -18 q-73 -47 -122.5 -73t-114.5 -43t-150 -17q-228 0 -353 123t-125 359t118 475.5t323.5 395t451.5 155.5q83 0 139 -18t90.5 -44.5t76.5 -70.5q18 -18 31 -18q36 0 81 122h43q-68 -177 -131 -471zM1220 1629.5q-68 27.5 -117.5 55t-65.5 35.5q-226 -95 -422 -139l-10 29 q147 45 274.5 116t206.5 150h37q57 -99 122 -163t163 -103l-9 -29q-111 21 -179 48.5z" />
<glyph unicode="&#x109;" horiz-adv-x="885" d="M613 111.5q-64 -62.5 -143.5 -101.5t-162.5 -39q-126 0 -198 77t-72 224q0 166 78 357t219 321.5t321 130.5q61 0 111.5 -21t80.5 -60.5t30 -92.5q0 -40 -18 -78t-51.5 -62t-76.5 -24q-41 0 -62.5 23t-21.5 57q0 58 45.5 100.5t108.5 53.5q-44 63 -139 63 q-103 0 -204.5 -110.5t-166 -292.5t-64.5 -383q0 -100 38 -148.5t106 -48.5q166 0 307 205l41 -16q-42 -72 -106 -134.5zM808 1346q-77 51 -148 129q-179 -141 -359 -213l-10 28q133 57 249.5 151.5t191.5 200.5h36q22 -128 78 -210.5t166 -141.5l-8 -28q-119 33 -196 84z " />
<glyph unicode="&#x10a;" horiz-adv-x="1372" d="M1327 979h-45q12 80 12 140q0 96 -32 163q-38 76 -110.5 118t-158.5 42q-170 0 -328.5 -160t-257 -402.5t-98.5 -469.5q0 -198 77.5 -300t215.5 -102q90 0 190.5 42t174.5 118q52 53 91.5 124t92.5 200h45q-93 -340 -121 -492h-45q6 44 6 70q0 52 -24 52q-16 0 -43 -18 q-73 -47 -122.5 -73t-114.5 -43t-150 -17q-228 0 -353 123t-125 359t118 475.5t323.5 395t451.5 155.5q83 0 139 -18t90.5 -44.5t76.5 -70.5q18 -18 31 -18q36 0 81 122h43q-68 -177 -131 -471zM970.5 1761.5q20.5 35.5 55.5 58.5t76 23q47 0 75.5 -30.5t28.5 -77.5 q0 -37 -20.5 -73t-56 -58.5t-76.5 -22.5q-46 0 -74.5 31t-28.5 78q0 36 20.5 71.5z" />
<glyph unicode="&#x10b;" horiz-adv-x="885" d="M613 111.5q-64 -62.5 -143.5 -101.5t-162.5 -39q-126 0 -198 77t-72 224q0 166 78 357t219 321.5t321 130.5q61 0 111.5 -21t80.5 -60.5t30 -92.5q0 -40 -18 -78t-51.5 -62t-76.5 -24q-41 0 -62.5 23t-21.5 57q0 58 45.5 100.5t108.5 53.5q-44 63 -139 63 q-103 0 -204.5 -110.5t-166 -292.5t-64.5 -383q0 -100 38 -148.5t106 -48.5q166 0 307 205l41 -16q-42 -72 -106 -134.5zM610 1482.5q20 36.5 54.5 60.5t76.5 24q47 0 76 -29.5t29 -75.5q0 -37 -20.5 -73.5t-56 -60t-77.5 -23.5q-45 0 -73.5 29.5t-28.5 74.5q0 37 20 73.5z " />
<glyph unicode="&#x10c;" horiz-adv-x="1372" d="M1327 979h-45q12 80 12 140q0 96 -32 163q-38 76 -110.5 118t-158.5 42q-170 0 -328.5 -160t-257 -402.5t-98.5 -469.5q0 -198 77.5 -300t215.5 -102q90 0 190.5 42t174.5 118q52 53 91.5 124t92.5 200h45q-93 -340 -121 -492h-45q6 44 6 70q0 52 -24 52q-16 0 -43 -18 q-73 -47 -122.5 -73t-114.5 -43t-150 -17q-228 0 -353 123t-125 359t118 475.5t323.5 395t451.5 155.5q83 0 139 -18t90.5 -44.5t76.5 -70.5q18 -18 31 -18q36 0 81 122h43q-68 -177 -131 -471zM892 1844.5q68 -27.5 117.5 -55t66.5 -36.5q229 97 422 139l10 -28 q-148 -46 -275.5 -117t-205.5 -150h-37q-58 99 -123 163.5t-162 103.5l8 28q111 -20 179 -47.5z" />
<glyph unicode="&#x10d;" horiz-adv-x="885" d="M613 111.5q-64 -62.5 -143.5 -101.5t-162.5 -39q-126 0 -198 77t-72 224q0 166 78 357t219 321.5t321 130.5q61 0 111.5 -21t80.5 -60.5t30 -92.5q0 -40 -18 -78t-51.5 -62t-76.5 -24q-41 0 -62.5 23t-21.5 57q0 58 45.5 100.5t108.5 53.5q-44 63 -139 63 q-103 0 -204.5 -110.5t-166 -292.5t-64.5 -383q0 -100 38 -148.5t106 -48.5q166 0 307 205l41 -16q-42 -72 -106 -134.5zM605.5 1558.5q77.5 -50.5 148.5 -128.5q179 139 359 212l10 -28q-133 -57 -249.5 -151.5t-190.5 -200.5h-37q-22 129 -78 211t-166 141l8 28 q118 -33 195.5 -83.5z" />
<glyph unicode="&#x10e;" horiz-adv-x="1485" d="M505 1443l50 1q282 6 309 6q288 0 433 -115t145 -338q0 -256 -126.5 -486t-349 -370.5t-495.5 -140.5q-28 0 -133.5 3t-153.5 3q-165 0 -245 -6l6 41q70 3 105.5 16t57.5 48.5t42 111.5l268 1016q19 74 19 101q0 40 -30 56.5t-108 18.5l6 41q110 -7 200 -7zM321 112 q0 -39 28 -57t97 -18q254 0 434.5 138.5t272.5 369t92 504.5q0 185 -104 274.5t-334 89.5q-64 0 -100 -14.5t-58 -51.5t-41 -110l-268 -1024q-19 -71 -19 -101zM726 1844.5q68 -27.5 117.5 -55t66.5 -36.5q229 97 422 139l10 -28q-148 -46 -275.5 -117t-205.5 -150h-37 q-58 99 -123 163.5t-162 103.5l8 28q111 -20 179 -47.5z" />
<glyph unicode="&#x10f;" horiz-adv-x="1110" d="M1006 332l-48 -150q-35 -114 -99.5 -162.5t-137.5 -48.5q-63 0 -96 33t-33 95q0 55 26 159l27 103q-97 -206 -196 -298t-211 -92q-100 0 -156.5 68t-56.5 203q0 169 89 367.5t241 335t331 136.5q40 0 75 -26t50 -72l102 383q9 32 9 55q0 41 -32 60.5t-108 19.5l13 43 q109 1 195 22t167 62l-401 -1454q-12 -41 -12 -70q0 -57 49 -57q41 0 75.5 47.5t73.5 161.5l25 76h39zM754.5 1008.5q-29.5 25.5 -66.5 25.5q-124 0 -235 -132.5t-178.5 -326t-67.5 -360.5q0 -178 90 -178q59 0 138.5 83.5t157 224t128.5 301.5l76 284q-13 53 -42.5 78.5z M1247 1349q31 106 31 152q0 39 -27 39l7 43q12 0 22 -1t21 -1q74 0 149 25q2 -4 2 -17q0 -79 -70.5 -206.5t-199.5 -284.5l-29 8q63 137 94 243z" />
<glyph unicode="&#x110;" horiz-adv-x="1485" d="M505 1443l50 1q282 6 309 6q288 0 433 -115t145 -338q0 -256 -126.5 -486t-349 -370.5t-495.5 -140.5q-28 0 -133.5 3t-153.5 3q-165 0 -245 -6l6 41q70 3 105.5 16t57.5 48.5t42 111.5l268 1016q19 74 19 101q0 40 -30 56.5t-108 18.5l6 41q110 -7 200 -7zM321 112 q0 -39 28 -57t97 -18q254 0 434.5 138.5t272.5 369t92 504.5q0 185 -104 274.5t-334 89.5q-64 0 -100 -14.5t-58 -51.5t-41 -110l-268 -1024q-19 -71 -19 -101zM135 707l12 52h721l-12 -52h-721z" />
<glyph unicode="&#x111;" horiz-adv-x="1110" d="M744 104q0 -57 49 -57q41 0 75.5 47.5t73.5 161.5l25 76h39l-48 -150q-35 -114 -99.5 -162.5t-137.5 -48.5q-63 0 -96 33t-33 95q0 55 26 159l27 103q-97 -206 -196 -298t-211 -92q-100 0 -156.5 68t-56.5 203q0 169 89 367.5t241 335t331 136.5q40 0 75.5 -26t49.5 -72 l70 262h-342l12 41h341l21 80q9 32 9 55q0 41 -32 60.5t-108 19.5l13 43q109 1 195 22t167 62l-94 -342h192l-12 -41h-192l-295 -1071q-12 -41 -12 -70zM755 1008.5q-29 25.5 -67 25.5q-124 0 -235 -132.5t-178.5 -326t-67.5 -360.5q0 -178 90 -178q59 0 139 83.5t157 224 t128 301.5l76 284q-13 53 -42 78.5z" />
<glyph unicode="&#x112;" horiz-adv-x="1249" d="M907 1444q287 0 408 6q-54 -148 -78 -242q-23 -80 -29 -127h-47q18 110 18 165q0 59 -19 92.5t-63.5 49t-123.5 15.5h-150q-73 0 -109.5 -12t-58.5 -46.5t-43 -111.5l-129 -483h135q102 0 153 61t76 125t34 84h47q-42 -129 -60.5 -201t-23.5 -90q-27 -96 -66 -291h-47 q2 14 9 59t7 80q0 63 -31 97.5t-110 34.5h-134l-132 -492q-18 -64 -18 -99q0 -30 14 -45t43 -20.5t82 -5.5h149q128 0 203.5 34t125.5 109t103 220h48q-20 -50 -46 -148q-30 -110 -55 -262q-139 6 -469 6q-393 0 -592 -6l11 41q74 3 110 16t58 48t43 112l272 1016 q18 65 18 100q0 30 -13.5 45.5t-42 22t-81.5 8.5l10 41q201 -6 594 -6zM499 1677l12 52h721l-12 -52h-721z" />
<glyph unicode="&#x113;" horiz-adv-x="879" d="M601 111.5q-64 -62.5 -143.5 -101.5t-162.5 -39q-127 0 -198.5 74.5t-71.5 214.5q0 155 91 350.5t246.5 333t337.5 137.5q66 0 109 -35t43 -100q0 -166 -185 -289t-427 -205q-23 -102 -23 -198q0 -197 141 -197q175 0 316 205l33 -16q-42 -72 -106 -134.5zM508 965.5 q-81 -76.5 -151.5 -204t-107.5 -270.5q202 71 279 132q76 59 118 143.5t42 183.5q0 55 -8 73.5t-25 18.5q-66 0 -147 -76.5zM386 1407l12 51h639l-13 -51h-638z" />
<glyph unicode="&#x114;" horiz-adv-x="1249" d="M907 1444q287 0 408 6q-54 -148 -78 -242q-23 -80 -29 -127h-47q18 110 18 165q0 59 -19 92.5t-63.5 49t-123.5 15.5h-150q-73 0 -109.5 -12t-58.5 -46.5t-43 -111.5l-129 -483h135q102 0 153 61t76 125t34 84h47q-42 -129 -60.5 -201t-23.5 -90q-27 -96 -66 -291h-47 q2 14 9 59t7 80q0 63 -31 97.5t-110 34.5h-134l-132 -492q-18 -64 -18 -99q0 -30 14 -45t43 -20.5t82 -5.5h149q128 0 203.5 34t125.5 109t103 220h48q-20 -50 -46 -148q-30 -110 -55 -262q-139 6 -469 6q-393 0 -592 -6l11 41q74 3 110 16t58 48t43 112l272 1016 q18 65 18 100q0 30 -13.5 45.5t-42 22t-81.5 8.5l10 41q201 -6 594 -6zM719.5 1763.5q71.5 -24.5 187.5 -24.5q110 0 233.5 31t218.5 88l21 -23q-55 -55 -143 -109t-185.5 -89t-179.5 -35q-85 0 -150 31t-105 85t-54 121l33 10q52 -61 123.5 -85.5z" />
<glyph unicode="&#x115;" horiz-adv-x="879" d="M601 111.5q-64 -62.5 -143.5 -101.5t-162.5 -39q-127 0 -198.5 74.5t-71.5 214.5q0 155 91 350.5t246.5 333t337.5 137.5q66 0 109 -35t43 -100q0 -166 -185 -289t-427 -205q-23 -102 -23 -198q0 -197 141 -197q175 0 316 205l33 -16q-42 -72 -106 -134.5zM508 965.5 q-81 -76.5 -151.5 -204t-107.5 -270.5q202 71 279 132q76 59 118 143.5t42 183.5q0 55 -8 73.5t-25 18.5q-66 0 -147 -76.5zM509.5 1503.5q34.5 -37.5 80 -53.5t111.5 -16q101 0 219.5 48.5t204.5 131.5l20 -23q-50 -70 -133.5 -138.5t-176.5 -112.5t-169 -44 q-108 0 -172 83t-84 216l33 11q32 -65 66.5 -102.5z" />
<glyph unicode="&#x116;" horiz-adv-x="1249" d="M907 1444q287 0 408 6q-54 -148 -78 -242q-23 -80 -29 -127h-47q18 110 18 165q0 59 -19 92.5t-63.5 49t-123.5 15.5h-150q-73 0 -109.5 -12t-58.5 -46.5t-43 -111.5l-129 -483h135q102 0 153 61t76 125t34 84h47q-42 -129 -60.5 -201t-23.5 -90q-27 -96 -66 -291h-47 q2 14 9 59t7 80q0 63 -31 97.5t-110 34.5h-134l-132 -492q-18 -64 -18 -99q0 -30 14 -45t43 -20.5t82 -5.5h149q128 0 203.5 34t125.5 109t103 220h48q-20 -50 -46 -148q-30 -110 -55 -262q-139 6 -469 6q-393 0 -592 -6l11 41q74 3 110 16t58 48t43 112l272 1016 q18 65 18 100q0 30 -13.5 45.5t-42 22t-81.5 8.5l10 41q201 -6 594 -6zM824.5 1761.5q20.5 35.5 55.5 58.5t76 23q47 0 75.5 -30.5t28.5 -77.5q0 -37 -20.5 -73t-56 -58.5t-76.5 -22.5q-46 0 -74.5 31t-28.5 78q0 36 20.5 71.5z" />
<glyph unicode="&#x117;" horiz-adv-x="879" d="M601 111.5q-64 -62.5 -143.5 -101.5t-162.5 -39q-127 0 -198.5 74.5t-71.5 214.5q0 155 91 350.5t246.5 333t337.5 137.5q66 0 109 -35t43 -100q0 -166 -185 -289t-427 -205q-23 -102 -23 -198q0 -197 141 -197q175 0 316 205l33 -16q-42 -72 -106 -134.5zM508 965.5 q-81 -76.5 -151.5 -204t-107.5 -270.5q202 71 279 132q76 59 118 143.5t42 183.5q0 55 -8 73.5t-25 18.5q-66 0 -147 -76.5zM608 1482.5q20 36.5 54.5 60.5t76.5 24q47 0 76 -29.5t29 -75.5q0 -37 -20.5 -73.5t-56 -60t-77.5 -23.5q-45 0 -73.5 29.5t-28.5 74.5 q0 37 20 73.5z" />
<glyph unicode="&#x118;" horiz-adv-x="1249" d="M907 1444q287 0 408 6q-54 -148 -78 -242q-23 -80 -29 -127h-47q18 110 18 165q0 59 -19 92.5t-63.5 49t-123.5 15.5h-150q-73 0 -109.5 -12t-58.5 -46.5t-43 -111.5l-129 -483h135q102 0 153 61t76 125t34 84h47q-42 -129 -60.5 -201t-23.5 -90q-27 -96 -66 -291h-47 q2 14 9 59t7 80q0 63 -31 97.5t-110 34.5h-134l-132 -492q-18 -64 -18 -99q0 -30 14 -45t43 -20.5t82 -5.5h149q128 0 203.5 34t125.5 109t103 220h48q-20 -50 -46 -148q-30 -110 -55 -262q-139 6 -469 6q-393 0 -592 -6l11 41q74 3 110 16t58 48t43 112l272 1016 q18 65 18 100q0 30 -13.5 45.5t-42 22t-81.5 8.5l10 41q201 -6 594 -6zM813.5 -76.5q-73.5 -56.5 -73.5 -134.5q0 -76 80 -76q39 0 84.5 16.5t73.5 37.5l22 -35q-123 -117 -264 -117q-74 0 -113 32t-39 87q0 92 97 161t223 111h78q-95 -26 -168.5 -82.5z" />
<glyph unicode="&#x119;" horiz-adv-x="879" d="M601 111.5q-64 -62.5 -143.5 -101.5t-162.5 -39q-127 0 -198.5 74.5t-71.5 214.5q0 155 91 350.5t246.5 333t337.5 137.5q66 0 109 -35t43 -100q0 -166 -185 -289t-427 -205q-23 -102 -23 -198q0 -197 141 -197q175 0 316 205l33 -16q-42 -72 -106 -134.5zM508 965.5 q-81 -76.5 -151.5 -204t-107.5 -270.5q202 71 279 132q76 59 118 143.5t42 183.5q0 55 -8 73.5t-25 18.5q-66 0 -147 -76.5zM337 -37q-56 -30 -94 -74t-38 -98q0 -38 20.5 -58t57.5 -20q38 0 77 18t62 46l25 -23q-116 -139 -250 -139q-70 0 -109 33t-39 88q0 90 97.5 159 t222.5 111h78q-54 -13 -110 -43z" />
<glyph unicode="&#x11a;" horiz-adv-x="1249" d="M907 1444q287 0 408 6q-54 -148 -78 -242q-23 -80 -29 -127h-47q18 110 18 165q0 59 -19 92.5t-63.5 49t-123.5 15.5h-150q-73 0 -109.5 -12t-58.5 -46.5t-43 -111.5l-129 -483h135q102 0 153 61t76 125t34 84h47q-42 -129 -60.5 -201t-23.5 -90q-27 -96 -66 -291h-47 q2 14 9 59t7 80q0 63 -31 97.5t-110 34.5h-134l-132 -492q-18 -64 -18 -99q0 -30 14 -45t43 -20.5t82 -5.5h149q128 0 203.5 34t125.5 109t103 220h48q-20 -50 -46 -148q-30 -110 -55 -262q-139 6 -469 6q-393 0 -592 -6l11 41q74 3 110 16t58 48t43 112l272 1016 q18 65 18 100q0 30 -13.5 45.5t-42 22t-81.5 8.5l10 41q201 -6 594 -6zM746 1844.5q68 -27.5 117.5 -55t66.5 -36.5q229 97 422 139l10 -28q-148 -46 -275.5 -117t-205.5 -150h-37q-58 99 -123 163.5t-162 103.5l8 28q111 -20 179 -47.5z" />
<glyph unicode="&#x11b;" horiz-adv-x="879" d="M601 111.5q-64 -62.5 -143.5 -101.5t-162.5 -39q-127 0 -198.5 74.5t-71.5 214.5q0 155 91 350.5t246.5 333t337.5 137.5q66 0 109 -35t43 -100q0 -166 -185 -289t-427 -205q-23 -102 -23 -198q0 -197 141 -197q175 0 316 205l33 -16q-42 -72 -106 -134.5zM508 965.5 q-81 -76.5 -151.5 -204t-107.5 -270.5q202 71 279 132q76 59 118 143.5t42 183.5q0 55 -8 73.5t-25 18.5q-66 0 -147 -76.5zM603.5 1558.5q77.5 -50.5 148.5 -128.5q179 139 359 212l10 -28q-133 -57 -249.5 -151.5t-190.5 -200.5h-37q-22 129 -78 211t-166 141l8 28 q118 -33 195.5 -83.5z" />
<glyph unicode="&#x11c;" horiz-adv-x="1444" d="M1331 1133q0 94 -28 149q-43 75 -128 117.5t-188 42.5q-212 0 -369.5 -178t-241 -430t-83.5 -461q0 -184 87 -272.5t267 -88.5q67 0 128 19t106 45q41 24 61.5 55t32.5 74l47 180q18 68 18 106q0 36 -17 54.5t-52.5 26t-102.5 10.5l11 41q99 -7 286 -7q146 0 215 7 l-10 -41q-49 -4 -73 -16.5t-40.5 -46.5t-37.5 -113l-109 -406h-41q6 32 6 54q0 63 -31 63q-13 0 -27.5 -6.5t-49.5 -28.5q-86 -55 -169.5 -83t-179.5 -28q-250 0 -383 122t-133 347q0 237 116 479.5t321.5 401t459.5 158.5q85 0 146 -17t103.5 -45t86.5 -71q19 -19 36 -19 q39 0 81 123h45q-68 -177 -131 -471h-45q10 88 10 154zM1213 1629.5q-68 27.5 -117.5 55t-65.5 35.5q-226 -95 -422 -139l-10 29q147 45 274.5 116t206.5 150h37q57 -99 122 -163t163 -103l-9 -29q-111 21 -179 48.5z" />
<glyph unicode="&#x11d;" horiz-adv-x="920" d="M616.5 113.5q49.5 -21.5 77 -53.5t27.5 -80q0 -80 -69.5 -168.5t-207.5 -149.5t-331 -61q-154 0 -232 40.5t-78 108.5q0 160 349 297q-78 33 -78 107q0 44 24.5 83.5t93 87.5t197.5 111q-129 3 -203.5 59t-74.5 164q0 86 48 184.5t152 168t262 69.5q58 0 105 -10 q65 104 133 154q67 45 133 45q88 0 88 -72q0 -29 -16 -56.5t-42 -45t-56 -17.5q-26 0 -42 16t-16 44q0 41 27 73q-4 4 -12 4q-17 0 -50 -20q-54 -35 -112 -134q153 -47 153 -210q0 -94 -51 -184.5t-144 -153t-211 -75.5q-33 -18 -103.5 -56t-105 -66t-34.5 -53 q0 -38 123 -69l149 -39q78 -21 127.5 -42.5zM578 544.5q61 71.5 83.5 170t22.5 196.5q0 133 -121 133q-104 0 -165 -86.5t-85 -190.5t-24 -161q0 -71 31.5 -102t91.5 -31q105 0 166 71.5zM-25 -215q0 -72 54 -111t141 -39q94 0 190.5 36t159 97t62.5 134q0 23 -20 33t-55 19 t-48 13l-275 70q-209 -112 -209 -252zM759 1346q-77 51 -148 129q-179 -141 -359 -213l-10 28q133 57 249.5 151.5t191.5 200.5h36q22 -128 78 -210.5t166 -141.5l-8 -28q-119 33 -196 84z" />
<glyph unicode="&#x11e;" horiz-adv-x="1444" d="M1331 1133q0 94 -28 149q-43 75 -128 117.5t-188 42.5q-212 0 -369.5 -178t-241 -430t-83.5 -461q0 -184 87 -272.5t267 -88.5q67 0 128 19t106 45q41 24 61.5 55t32.5 74l47 180q18 68 18 106q0 36 -17 54.5t-52.5 26t-102.5 10.5l11 41q99 -7 286 -7q146 0 215 7 l-10 -41q-49 -4 -73 -16.5t-40.5 -46.5t-37.5 -113l-109 -406h-41q6 32 6 54q0 63 -31 63q-13 0 -27.5 -6.5t-49.5 -28.5q-86 -55 -169.5 -83t-179.5 -28q-250 0 -383 122t-133 347q0 237 116 479.5t321.5 401t459.5 158.5q85 0 146 -17t103.5 -45t86.5 -71q19 -19 36 -19 q39 0 81 123h45q-68 -177 -131 -471h-45q10 88 10 154zM858.5 1763.5q71.5 -24.5 187.5 -24.5q110 0 233.5 31t218.5 88l21 -23q-55 -55 -143 -109t-185.5 -89t-179.5 -35q-85 0 -150 31t-105 85t-54 121l33 10q52 -61 123.5 -85.5z" />
<glyph unicode="&#x11f;" horiz-adv-x="920" d="M616.5 113.5q49.5 -21.5 77 -53.5t27.5 -80q0 -80 -69.5 -168.5t-207.5 -149.5t-331 -61q-154 0 -232 40.5t-78 108.5q0 160 349 297q-78 33 -78 107q0 44 24.5 83.5t93 87.5t197.5 111q-129 3 -203.5 59t-74.5 164q0 86 48 184.5t152 168t262 69.5q58 0 105 -10 q65 104 133 154q67 45 133 45q88 0 88 -72q0 -29 -16 -56.5t-42 -45t-56 -17.5q-26 0 -42 16t-16 44q0 41 27 73q-4 4 -12 4q-17 0 -50 -20q-54 -35 -112 -134q153 -47 153 -210q0 -94 -51 -184.5t-144 -153t-211 -75.5q-33 -18 -103.5 -56t-105 -66t-34.5 -53 q0 -38 123 -69l149 -39q78 -21 127.5 -42.5zM578 544.5q61 71.5 83.5 170t22.5 196.5q0 133 -121 133q-104 0 -165 -86.5t-85 -190.5t-24 -161q0 -71 31.5 -102t91.5 -31q105 0 166 71.5zM-25 -215q0 -72 54 -111t141 -39q94 0 190.5 36t159 97t62.5 134q0 23 -20 33t-55 19 t-48 13l-275 70q-209 -112 -209 -252zM462.5 1503.5q34.5 -37.5 80 -53.5t111.5 -16q101 0 219.5 48.5t204.5 131.5l20 -23q-50 -70 -133.5 -138.5t-176.5 -112.5t-169 -44q-108 0 -172 83t-84 216l33 11q32 -65 66.5 -102.5z" />
<glyph unicode="&#x120;" horiz-adv-x="1444" d="M1331 1133q0 94 -28 149q-43 75 -128 117.5t-188 42.5q-212 0 -369.5 -178t-241 -430t-83.5 -461q0 -184 87 -272.5t267 -88.5q67 0 128 19t106 45q41 24 61.5 55t32.5 74l47 180q18 68 18 106q0 36 -17 54.5t-52.5 26t-102.5 10.5l11 41q99 -7 286 -7q146 0 215 7 l-10 -41q-49 -4 -73 -16.5t-40.5 -46.5t-37.5 -113l-109 -406h-41q6 32 6 54q0 63 -31 63q-13 0 -27.5 -6.5t-49.5 -28.5q-86 -55 -169.5 -83t-179.5 -28q-250 0 -383 122t-133 347q0 237 116 479.5t321.5 401t459.5 158.5q85 0 146 -17t103.5 -45t86.5 -71q19 -19 36 -19 q39 0 81 123h45q-68 -177 -131 -471h-45q10 88 10 154zM963.5 1761.5q20.5 35.5 55.5 58.5t76 23q47 0 75.5 -30.5t28.5 -77.5q0 -37 -20.5 -73t-56 -58.5t-76.5 -22.5q-46 0 -74.5 31t-28.5 78q0 36 20.5 71.5z" />
<glyph unicode="&#x121;" horiz-adv-x="920" d="M616.5 113.5q49.5 -21.5 77 -53.5t27.5 -80q0 -80 -69.5 -168.5t-207.5 -149.5t-331 -61q-154 0 -232 40.5t-78 108.5q0 160 349 297q-78 33 -78 107q0 44 24.5 83.5t93 87.5t197.5 111q-129 3 -203.5 59t-74.5 164q0 86 48 184.5t152 168t262 69.5q58 0 105 -10 q65 104 133 154q67 45 133 45q88 0 88 -72q0 -29 -16 -56.5t-42 -45t-56 -17.5q-26 0 -42 16t-16 44q0 41 27 73q-4 4 -12 4q-17 0 -50 -20q-54 -35 -112 -134q153 -47 153 -210q0 -94 -51 -184.5t-144 -153t-211 -75.5q-33 -18 -103.5 -56t-105 -66t-34.5 -53 q0 -38 123 -69l149 -39q78 -21 127.5 -42.5zM578 544.5q61 71.5 83.5 170t22.5 196.5q0 133 -121 133q-104 0 -165 -86.5t-85 -190.5t-24 -161q0 -71 31.5 -102t91.5 -31q105 0 166 71.5zM-25 -215q0 -72 54 -111t141 -39q94 0 190.5 36t159 97t62.5 134q0 23 -20 33t-55 19 t-48 13l-275 70q-209 -112 -209 -252zM561 1482.5q20 36.5 54.5 60.5t76.5 24q47 0 76 -29.5t29 -75.5q0 -37 -20.5 -73.5t-56 -60t-77.5 -23.5q-45 0 -73.5 29.5t-28.5 74.5q0 37 20 73.5z" />
<glyph unicode="&#x122;" horiz-adv-x="1444" d="M1331 1133q0 94 -28 149q-43 75 -128 117.5t-188 42.5q-212 0 -369.5 -178t-241 -430t-83.5 -461q0 -184 87 -272.5t267 -88.5q67 0 128 19t106 45q41 24 61.5 55t32.5 74l47 180q18 68 18 106q0 36 -17 54.5t-52.5 26t-102.5 10.5l11 41q99 -7 286 -7q146 0 215 7 l-10 -41q-49 -4 -73 -16.5t-40.5 -46.5t-37.5 -113l-109 -406h-41q6 32 6 54q0 63 -31 63q-13 0 -27.5 -6.5t-49.5 -28.5q-86 -55 -169.5 -83t-179.5 -28q-250 0 -383 122t-133 347q0 237 116 479.5t321.5 401t459.5 158.5q85 0 146 -17t103.5 -45t86.5 -71q19 -19 36 -19 q39 0 81 123h45q-68 -177 -131 -471h-45q10 88 10 154zM632.5 -407.5q45.5 34.5 49.5 79.5q-16 -14 -40.5 -23t-49.5 -9q-41 0 -66.5 23t-25.5 65q0 34 17.5 64.5t48 48.5t67.5 18q53 0 83 -34t30 -87q0 -160 -201 -232l-14 35q56 17 101.5 51.5z" />
<glyph unicode="&#x123;" horiz-adv-x="920" d="M975.5 1460.5q-45.5 -34.5 -49.5 -79.5q16 14 40.5 23t49.5 9q41 0 66.5 -22.5t25.5 -63.5q0 -35 -20.5 -69.5t-55.5 -51.5v-8q0 -29 -16 -56.5t-42 -45t-56 -17.5q-26 0 -42 16t-16 44q0 41 27 73q-4 4 -12 4q-18 0 -50 -20q-56 -36 -112 -134q153 -48 153 -210 q0 -93 -51.5 -184t-144 -153.5t-210.5 -75.5q-34 -19 -104.5 -56.5t-104.5 -65.5t-34 -53q0 -38 123 -69l149 -39q78 -21 127.5 -42.5t77 -53.5t27.5 -80q0 -80 -69.5 -168.5t-207.5 -149.5t-331 -61q-154 0 -232 40.5t-78 108.5q0 160 349 297q-78 34 -78 107 q0 44 24.5 83.5t93 87.5t197.5 111q-129 3 -203.5 59t-74.5 164q0 86 48 184.5t152 168t262 69.5q61 0 105 -10q65 105 133 154q31 21 62 32q-11 25 -11 56q0 77 42.5 135.5t158.5 98.5l14 -35q-56 -17 -101.5 -51.5zM578 544.5q61 71.5 83.5 170t22.5 196.5q0 133 -121 133 q-104 0 -165 -86.5t-85 -190.5t-24 -161q0 -71 31.5 -102t91.5 -31q105 0 166 71.5zM-25 -215q0 -72 54 -111t141 -39q94 0 190.5 36t159 97t62.5 134q0 23 -20 33t-55 19t-48 13l-275 70q-209 -112 -209 -252z" />
<glyph unicode="&#x124;" horiz-adv-x="1546" d="M1415 1444q175 0 264 6l-10 -41q-75 -3 -111.5 -16t-58 -48t-41.5 -112l-270 -1016q-18 -70 -18 -100t13.5 -45.5t42.5 -22t83 -8.5l-9 -41q-86 6 -262 6q-164 0 -260 -6l8 41q74 3 111 16t58.5 48t41.5 112l131 492h-657l-131 -492q-17 -66 -17 -99q0 -30 13.5 -46 t42.5 -22.5t82 -8.5l-8 -41q-96 6 -260 6q-171 0 -261 -6l11 41q72 3 108 16t57.5 48.5t41.5 111.5l270 1016q17 65 17 98q0 31 -14 47t-42.5 22.5t-81.5 8.5l10 41q84 -6 260 -6q164 0 262 6l-10 -41q-75 -3 -111.5 -16t-58 -48t-41.5 -112l-128 -483h657l129 483 q18 63 18 98q0 31 -14 47t-43 22.5t-82 8.5l10 41q93 -6 258 -6zM1211 1629.5q-68 27.5 -117.5 55t-65.5 35.5q-226 -95 -422 -139l-10 29q147 45 274.5 116t206.5 150h37q57 -99 122 -163t163 -103l-9 -29q-111 21 -179 48.5z" />
<glyph unicode="&#x125;" horiz-adv-x="1098" d="M944 182q-72 -211 -248 -211q-144 0 -144 126q0 62 34 161l194 586q22 62 22 102q0 70 -67 70q-75 0 -162 -94.5t-174.5 -266.5t-163.5 -398l-75 -257h-178l405 1366q10 35 10 56q0 41 -33 60t-108 19l12 43q213 3 369 84l-297 -1015q76 169 149.5 272t150 149.5 t163.5 46.5q165 0 165 -155q0 -62 -30 -154l-199 -598q-15 -50 -15 -78q0 -49 48 -49q41 0 79 46.5t79 162.5l26 76h39zM998 1838q-77 51 -148 129q-179 -141 -359 -213l-10 28q133 57 249.5 151.5t191.5 200.5h36q22 -128 78 -210.5t166 -141.5l-8 -28q-119 33 -196 84z " />
<glyph unicode="&#x126;" horiz-adv-x="1550" d="M1561.5 1393q-36.5 -13 -58 -48t-41.5 -112l-37 -141h191l-10 -41h-192l-222 -834q-18 -70 -18 -100t13.5 -45.5t42.5 -22t83 -8.5l-9 -41q-85 6 -262 6q-164 0 -260 -6l8 41q74 3 111 16t58.5 48t41.5 112l131 492h-657l-131 -492q-17 -66 -17 -99q0 -30 13.5 -46 t42.5 -22.5t82 -8.5l-8 -41q-96 6 -260 6q-171 0 -261 -6l11 41q72 3 108 16t57.5 48.5t41.5 111.5l222 834h-149l11 41h149l37 141q17 65 17 98q0 31 -14 47t-42.5 22.5t-81.5 8.5l10 41q84 -6 260 -6q165 0 262 6l-10 -41q-75 -3 -111.5 -16t-58 -48t-41.5 -112l-37 -141 h657l38 141q18 63 18 98q0 31 -14 47t-43 22.5t-82 8.5l10 41q93 -6 258 -6q176 0 264 6l-10 -41q-75 -3 -111.5 -16zM566 1051l-80 -301h657l80 301h-657z" />
<glyph unicode="&#x127;" horiz-adv-x="1098" d="M944 182q-72 -211 -248 -211q-144 0 -144 126q0 62 34 161l194 586q22 62 22 102q0 70 -67 70q-75 0 -162 -94.5t-174.5 -266.5t-163.5 -398l-75 -257h-178l369 1245h-185l12 41h185l24 80q10 35 10 56q0 41 -33 60t-108 19l12 43q213 3 369 84l-100 -342h346l-13 -41 h-345l-185 -632q76 169 149.5 272t150 149.5t163.5 46.5q165 0 165 -155q0 -62 -30 -154l-199 -598q-15 -50 -15 -78q0 -49 48 -49q41 0 79 46.5t79 162.5l26 76h39z" />
<glyph unicode="&#x128;" d="M323 118q0 -30 13.5 -46t42.5 -22.5t82 -8.5l-8 -41q-96 6 -260 6q-171 0 -261 -6l11 41q72 3 108 16t57.5 48.5t41.5 111.5l270 1016q17 65 17 98q0 31 -14 47t-42.5 22.5t-81.5 8.5l10 41q84 -6 260 -6q165 0 262 6l-10 -41q-75 -3 -111.5 -16t-58 -48t-41.5 -112 l-270 -1016q-17 -66 -17 -99zM384.5 1781.5q71.5 51.5 150.5 51.5q66 0 109 -21t111 -75t134 -54q78 0 143 119l37 -10q-45 -107 -116.5 -159t-149.5 -52q-66 0 -109 21t-111 75t-134 54q-79 0 -144 -119l-37 10q45 108 116.5 159.5z" />
<glyph unicode="&#x129;" horiz-adv-x="618" d="M339 954q0 52 -44 52q-47 0 -84 -49.5t-78 -159.5l-29 -76h-38l53 149q42 117 110 164t144 47q136 0 136 -128q0 -60 -34 -158l-219 -621q-16 -44 -16 -75q0 -52 49 -52q42 0 79 46.5t81 162.5l28 76h39l-53 -150q-40 -111 -107 -161t-145 -50q-143 0 -143 125 q0 63 36 162l220 621q15 45 15 75zM214.5 1521q71.5 52 150.5 52q59 0 97 -21t98 -75t118 -54q78 0 143 119l37 -10q-45 -107 -116.5 -159t-149.5 -52q-59 0 -97.5 21t-98.5 74.5t-118 53.5q-79 0 -143 -118l-37 10q45 107 116.5 159z" />
<glyph unicode="&#x12a;" d="M323 118q0 -30 13.5 -46t42.5 -22.5t82 -8.5l-8 -41q-96 6 -260 6q-171 0 -261 -6l11 41q72 3 108 16t57.5 48.5t41.5 111.5l270 1016q17 65 17 98q0 31 -14 47t-42.5 22.5t-81.5 8.5l10 41q84 -6 260 -6q165 0 262 6l-10 -41q-75 -3 -111.5 -16t-58 -48t-41.5 -112 l-270 -1016q-17 -66 -17 -99zM249 1677l12 52h721l-12 -52h-721z" />
<glyph unicode="&#x12b;" horiz-adv-x="618" d="M339 954q0 52 -44 52q-47 0 -84 -49.5t-78 -159.5l-29 -76h-38l53 149q42 117 110 164t144 47q136 0 136 -128q0 -60 -34 -158l-219 -621q-16 -44 -16 -75q0 -52 49 -52q42 0 79 46.5t81 162.5l28 76h39l-53 -150q-40 -111 -107 -161t-145 -50q-143 0 -143 125 q0 63 36 162l220 621q15 45 15 75zM205.594 1407l10.2002 51h543.135l-11.0498 -51h-542.285z" />
<glyph unicode="&#x12c;" d="M323 118q0 -30 13.5 -46t42.5 -22.5t82 -8.5l-8 -41q-96 6 -260 6q-171 0 -261 -6l11 41q72 3 108 16t57.5 48.5t41.5 111.5l270 1016q17 65 17 98q0 31 -14 47t-42.5 22.5t-81.5 8.5l10 41q84 -6 260 -6q165 0 262 6l-10 -41q-75 -3 -111.5 -16t-58 -48t-41.5 -112 l-270 -1016q-17 -66 -17 -99zM469.5 1763.5q71.5 -24.5 187.5 -24.5q110 0 233.5 31t218.5 88l21 -23q-55 -55 -143 -109t-185.5 -89t-179.5 -35q-85 0 -150 31t-105 85t-54 121l33 10q52 -61 123.5 -85.5z" />
<glyph unicode="&#x12d;" horiz-adv-x="618" d="M339 954q0 52 -44 52q-47 0 -84 -49.5t-78 -159.5l-29 -76h-38l53 149q42 117 110 164t144 47q136 0 136 -128q0 -60 -34 -158l-219 -621q-16 -44 -16 -75q0 -52 49 -52q42 0 79 46.5t81 162.5l28 76h39l-53 -150q-40 -111 -107 -161t-145 -50q-143 0 -143 125 q0 63 36 162l220 621q15 45 15 75zM292.5 1503.5q34.5 -37.5 80 -53.5t111.5 -16q101 0 219.5 48.5t204.5 131.5l20 -23q-50 -70 -133.5 -138.5t-176.5 -112.5t-169 -44q-108 0 -172 83t-84 216l33 11q32 -65 66.5 -102.5z" />
<glyph unicode="&#x12e;" d="M323 118q0 -30 13.5 -46t42.5 -22.5t82 -8.5l-8 -41q-96 6 -260 6q-171 0 -261 -6l11 41q72 3 108 16t57.5 48.5t41.5 111.5l270 1016q17 65 17 98q0 31 -14 47t-42.5 22.5t-81.5 8.5l10 41q84 -6 260 -6q165 0 262 6l-10 -41q-75 -3 -111.5 -16t-58 -48t-41.5 -112 l-270 -1016q-17 -66 -17 -99zM305.5 -76.5q-73.5 -56.5 -73.5 -134.5q0 -76 80 -76q39 0 84.5 16.5t73.5 37.5l22 -35q-123 -117 -264 -117q-74 0 -113 32t-39 87q0 92 97 161t223 111h78q-95 -26 -168.5 -82.5z" />
<glyph unicode="&#x12f;" horiz-adv-x="618" d="M406 1475.5q22 36.5 57.5 58.5t73.5 22q46 0 75 -30.5t29 -76.5q0 -40 -21.5 -75.5t-57.5 -57.5t-75 -22q-45 0 -74 30t-29 75q0 40 22 76.5zM339 954q0 52 -44 52q-47 0 -84 -49.5t-78 -159.5l-29 -76h-38l53 149q42 117 110 164t144 47q136 0 136 -128q0 -60 -34 -158 l-219 -621q-16 -44 -16 -75q0 -52 49 -52q42 0 79 46.5t81 162.5l28 76h39l-53 -150q-40 -111 -107 -161t-145 -50q-143 0 -143 125q0 63 36 162l220 621q15 45 15 75zM222 -37q-56 -30 -94 -74t-38 -98q0 -38 20.5 -58t57.5 -20q38 0 77 18t62 46l25 -23 q-116 -139 -250 -139q-70 0 -109 33t-39 88q0 90 97.5 159t222.5 111h78q-54 -13 -110 -43z" />
<glyph unicode="&#x130;" d="M323 118q0 -30 13.5 -46t42.5 -22.5t82 -8.5l-8 -41q-96 6 -260 6q-171 0 -261 -6l11 41q72 3 108 16t57.5 48.5t41.5 111.5l270 1016q17 65 17 98q0 31 -14 47t-42.5 22.5t-81.5 8.5l10 41q84 -6 260 -6q165 0 262 6l-10 -41q-75 -3 -111.5 -16t-58 -48t-41.5 -112 l-270 -1016q-17 -66 -17 -99zM574.5 1761.5q20.5 35.5 55.5 58.5t76 23q47 0 75.5 -30.5t28.5 -77.5q0 -37 -20.5 -73t-56 -58.5t-76.5 -22.5q-46 0 -74.5 31t-28.5 78q0 36 20.5 71.5z" />
<glyph unicode="&#x131;" horiz-adv-x="618" d="M339 954q0 52 -44 52q-47 0 -84 -49.5t-78 -159.5l-29 -76h-38l53 149q42 117 110 164t144 47q136 0 136 -128q0 -60 -34 -158l-219 -621q-16 -44 -16 -75q0 -52 49 -52q42 0 79 46.5t81 162.5l28 76h39l-53 -150q-40 -111 -107 -161t-145 -50q-143 0 -143 125 q0 63 36 162l220 621q15 45 15 75z" />
<glyph unicode="&#x132;" horiz-adv-x="1683" d="M311.5 1085.5q-90.5 54.5 -90.5 167.5q0 73 38.5 132.5t105.5 93.5t151 34q111 0 200 -27.5t270 -109.5t343 -82q66 0 121.5 11t104.5 28.5t133 52.5q75 120 124 120q13 0 27 -11q14 -12 14 -26q0 -48 -147 -105q-127 -107 -200 -248.5t-126 -365.5h222l-9 -41h-222 l-3 -13l-125 -563q-31 -145 -92 -261.5t-155.5 -186.5t-217.5 -70q-97 0 -155 30.5t-58 89.5q0 45 31 79t78 34q39 0 64.5 -26t25.5 -62q0 -33 -22 -59.5t-56 -42.5q32 -10 72 -10q134 0 194.5 131t95 297.5t46.5 220.5l65 307q12 55 26 105h-249l8 41h254q46 140 114 241.5 t138.5 168.5t222.5 198q-233 -123 -401 -123q-152 0 -308 38.5t-247 57.5t-219 19q-87 0 -139 -33t-52 -96q0 -60 48.5 -96t119 -51t141.5 -15q68 0 138 20.5t129 59.5l16 -31q-74 -49 -174 -73l-238 -818q-19 -65 -19 -99q0 -42 31.5 -59t108.5 -18l-8 -41q-94 6 -260 6 q-171 0 -260 -6l10 41q71 3 106.5 16.5t57 48t43.5 111.5l234 804q-129 10 -219.5 64.5z" />
<glyph unicode="&#x133;" horiz-adv-x="1245" d="M405 1472.5q20 36.5 54.5 60.5t76.5 24q47 0 76 -29.5t29 -75.5q0 -37 -20.5 -73.5t-56 -60t-77.5 -23.5q-45 0 -73.5 29.5t-28.5 74.5q0 37 20 73.5zM1081 1472.5q20 36.5 54.5 60.5t76.5 24q47 0 76 -29.5t29 -75.5q0 -37 -20.5 -73.5t-56 -60t-77.5 -23.5 q-45 0 -73.5 29.5t-28.5 74.5q0 37 20 73.5zM247 127q0 -37 25 -58.5t72 -21.5q55 0 100.5 30t79.5 109q43 100 72 262t47.5 253t56.5 178q90 202 306 202q168 0 168 -157q0 -55 -21 -129l-158 -559q-141 -506 -399 -601q-59 -20 -121 -20q-46 0 -71 21.5t-25 58.5 q0 29 16.5 58.5t44.5 48t60 18.5t49.5 -18t17.5 -46q0 -55 -57 -110q78 9 124.5 58.5t78.5 162.5l284 1012q9 30 9 53q0 74 -80 74q-65 0 -113.5 -38t-89.5 -143q-32 -83 -59.5 -237.5t-48 -249.5t-62.5 -188q-81 -179 -285 -179q-92 0 -139 45.5t-47 124.5q0 51 22 117 l220 621q18 51 18 81q0 46 -47 46t-84 -49.5t-78 -159.5l-29 -76h-38l53 149q42 117 110 164t144 47q136 0 136 -126q0 -65 -34 -160l-219 -621q-9 -25 -9 -47z" />
<glyph unicode="&#x134;" horiz-adv-x="1303" d="M918.5 984.5q84.5 105.5 183.5 190.5t235 183q-237 -123 -405 -123q-99 0 -200.5 38.5t-160.5 57.5t-143 19q-68 0 -102 -36t-31 -100q1 -60 40 -97.5t111 -51.5l-6 -41q-93 16 -157.5 73t-67.5 165q-3 73 25 130t83 89t130 32t134 -27.5t177 -109.5t227 -82 q66 0 122.5 11t107 29t133.5 52q77 120 127 120q14 0 28 -11q13 -11 13 -25q0 -50 -150 -106q-287 -192 -426 -614h203l-6 -41h-210q-11 -39 -22 -80l-127 -496q-58 -229 -179.5 -373.5t-303.5 -144.5q-96 0 -152.5 30t-56.5 87q0 29 14.5 55.5t40.5 43.5t58 17 q37 0 61.5 -24.5t24.5 -60.5q0 -34 -23 -61.5t-59 -43.5q30 -10 72 -10q132 0 196.5 129.5t105.5 295t56 224.5l61 240q23 91 57 172h-272l7 41h283q59 129 143.5 234.5zM1197 1629.5q-68 27.5 -117.5 55t-65.5 35.5q-226 -95 -422 -139l-10 29q147 45 274.5 116t206.5 150 h37q57 -99 122 -163t163 -103l-9 -29q-111 21 -179 48.5z" />
<glyph unicode="&#x135;" horiz-adv-x="565" d="M-86 -365q-59 -20 -121 -20q-46 0 -71 21.5t-25 58.5q0 29 16.5 58.5t44.5 48t60 18.5q31 0 49 -18t18 -46q0 -55 -57 -110q78 9 124.5 58.5t78.5 162.5l284 1012q15 51 15 80q0 47 -45 47q-42 0 -79 -48t-77 -161l-27 -76h-39l50 149q70 211 252 211q136 0 136 -125 q0 -54 -30 -161l-158 -559q-141 -506 -399 -601zM601 1346q-77 51 -148 129q-179 -141 -359 -213l-10 28q133 57 249.5 151.5t191.5 200.5h36q22 -128 78 -210.5t166 -141.5l-8 -28q-119 33 -196 84z" />
<glyph unicode="&#x136;" horiz-adv-x="1382" d="M791 519q0 91 -18 136.5t-57 78.5q-72 -19 -118 -19q-63 0 -63 41t61 41q42 0 125 -21q148 18 219 119t137 293t127 244q61 47 123 47q63 0 92 -30.5t29 -79.5q0 -27 -12.5 -60.5t-39 -57.5t-67.5 -24q-40 0 -60 24t-20 58q0 29 19 64.5t47 62.5h-6q-41 -2 -74 -29 q-53 -48 -118 -232.5t-137 -292t-224 -125.5q74 -17 118 -42.5t70 -86.5t26 -173l-1 -35l-8 -232l-1 -24q0 -40 13 -60t49 -20q52 0 87 38t65 122l34 104h41l-53 -158q-38 -112 -99.5 -165.5t-150.5 -53.5q-173 0 -173 203q0 23 1 35l14 231q3 43 3 79zM323 118 q0 -30 13.5 -46t42.5 -22.5t82 -8.5l-8 -41q-96 6 -260 6q-171 0 -261 -6l11 41q72 3 108 16t57.5 48.5t41.5 111.5l270 1016q17 65 17 98q0 31 -14 47t-42.5 22.5t-81.5 8.5l10 41q84 -6 260 -6q164 0 262 6l-10 -41q-75 -3 -111.5 -16t-58 -48t-41.5 -112l-270 -1016 q-17 -66 -17 -99zM534.5 -407.5q45.5 34.5 49.5 79.5q-16 -14 -40.5 -23t-49.5 -9q-41 0 -66.5 23t-25.5 65q0 34 17.5 64.5t48 48.5t67.5 18q53 0 83 -34t30 -87q0 -160 -201 -232l-14 35q56 17 101.5 51.5z" />
<glyph unicode="&#x137;" horiz-adv-x="1055" d="M536 685q62 65 118 188t108 161q62 47 123 47q66 0 95 -33.5t26 -86.5q-5 -48 -34.5 -90t-84.5 -42q-41 0 -60.5 24t-19.5 59q0 29 18.5 64.5t46.5 61.5h-4q-36 0 -75 -28q-43 -35 -95 -146.5t-103.5 -177.5t-156.5 -89q130 -6 213.5 -55t83.5 -152q0 -26 -6 -54 l-41 -205q-5 -27 -5 -40q0 -44 46 -44q41 0 77 47.5t75 161.5l24 76h39l-49 -150q-68 -211 -244 -211q-58 0 -95 33.5t-37 99.5q0 30 7 62l37 176q9 42 9 76q0 52 -23.5 85.5t-76 53.5t-141.5 28l-171 -585h-178l405 1366q10 35 10 56q0 41 -33 60t-108 19l12 43 q213 3 369 84l-299 -1019q136 11 198 76zM-41.5 -407.5q45.5 34.5 49.5 79.5q-16 -14 -40.5 -23t-49.5 -9q-41 0 -66.5 22.5t-25.5 63.5q0 31 16 62t46 51t71 20q53 0 83 -33.5t30 -85.5q0 -77 -42.5 -135.5t-158.5 -98.5l-14 35q56 17 101.5 51.5z" />
<glyph unicode="&#x138;" horiz-adv-x="1143" d="M592 635q65 74 122.5 214.5t110.5 184.5q62 47 123 47q63 0 92 -30t29 -79q0 -28 -12.5 -61.5t-39 -57.5t-67.5 -24t-60.5 24t-19.5 59q0 29 19 64.5t47 61.5h-4q-23 0 -39 -7t-37 -21q-45 -39 -99.5 -167.5t-108.5 -204.5t-165 -102q130 -5 211 -55.5t81 -161.5 q0 -21 -3 -45l-20 -143q-3 -23 -3 -38q0 -25 10 -35.5t34 -10.5q41 0 76.5 47.5t74.5 161.5l25 76h39l-50 -150q-68 -211 -243 -211q-129 0 -129 140q0 28 4 55l16 115q6 37 6 69q0 55 -21.5 90t-72 55t-138.5 27l-132 -522h-178l245 879q15 55 15 79q0 48 -43 48 q-46 0 -83.5 -48.5t-76.5 -160.5l-27 -76h-39l52 149q72 211 247 211q63 0 90 -30t27 -88q0 -61 -28 -168l-62 -247q140 13 205 87z" />
<glyph unicode="&#x139;" horiz-adv-x="1200" d="M1044 262q-30 -110 -55 -262q-139 6 -469 6q-393 0 -592 -6l11 41q74 3 110 16t58 48t43 112l272 1016q18 65 18 100q0 30 -13.5 45.5t-42 22t-81.5 8.5l10 41q87 -6 262 -6q165 0 261 6l-11 -41q-75 -3 -111.5 -16t-58.5 -48t-43 -112l-272 -1016q-18 -64 -18 -99 q0 -30 14 -45t43 -20.5t82 -5.5h149q128 0 204 36t127.5 115.5t107.5 231.5h47q-13 -34 -52 -168zM581 1695.5q56 41.5 140 106.5t130 92q39 24 78 24q43 0 58 -34q4 -9 4 -20q0 -25 -21.5 -49.5t-50.5 -40.5q-44 -26 -125.5 -56t-157 -60t-172.5 -77l-14 23q75 50 131 91.5 z" />
<glyph unicode="&#x13a;" horiz-adv-x="567" d="M196 102q0 -55 48 -55q41 0 77 47.5t76 161.5l27 76h39l-51 -150q-74 -211 -246 -211q-141 0 -141 133q0 59 28 154l334 1108q10 37 10 57q0 41 -32 59.5t-107 18.5l14 43q109 1 195.5 22t169.5 62l-428 -1454q-13 -45 -13 -72zM498 1789.5q56 41.5 140 106.5t130 92 q39 24 78 24q43 0 58 -34q4 -9 4 -20q0 -25 -21.5 -49.5t-50.5 -40.5q-44 -26 -125.5 -56t-157 -60t-172.5 -77l-14 23q75 50 131 91.5z" />
<glyph unicode="&#x13b;" horiz-adv-x="1200" d="M1044 262q-30 -110 -55 -262q-139 6 -469 6q-393 0 -592 -6l11 41q74 3 110 16t58 48t43 112l272 1016q18 65 18 100q0 30 -13.5 45.5t-42 22t-81.5 8.5l10 41q87 -6 262 -6q165 0 261 6l-11 -41q-75 -3 -111.5 -16t-58.5 -48t-43 -112l-272 -1016q-18 -64 -18 -99 q0 -30 14 -45t43 -20.5t82 -5.5h149q128 0 204 36t127.5 115.5t107.5 231.5h47q-13 -34 -52 -168zM525.5 -407.5q45.5 34.5 49.5 79.5q-16 -14 -40.5 -23t-49.5 -9q-41 0 -66.5 23t-25.5 65q0 34 17.5 64.5t48 48.5t67.5 18q53 0 83 -34t30 -87q0 -160 -201 -232l-14 35 q56 17 101.5 51.5z" />
<glyph unicode="&#x13c;" horiz-adv-x="567" d="M196 102q0 -55 48 -55q41 0 77 47.5t76 161.5l27 76h39l-51 -150q-74 -211 -246 -211q-141 0 -141 133q0 59 28 154l334 1108q10 37 10 57q0 41 -32 59.5t-107 18.5l14 43q109 1 195.5 22t169.5 62l-428 -1454q-13 -45 -13 -72zM-211.5 -407.5q45.5 34.5 49.5 79.5 q-16 -14 -40.5 -23t-49.5 -9q-41 0 -66.5 22.5t-25.5 63.5q0 31 16 62t46 51t71 20q53 0 83 -33.5t30 -85.5q0 -77 -42.5 -135.5t-158.5 -98.5l-14 35q56 17 101.5 51.5z" />
<glyph unicode="&#x13d;" horiz-adv-x="1200" d="M1044 262q-30 -110 -55 -262q-139 6 -469 6q-393 0 -592 -6l11 41q74 3 110 16t58 48t43 112l272 1016q18 65 18 100q0 30 -13.5 45.5t-42 22t-81.5 8.5l10 41q87 -6 262 -6q165 0 261 6l-11 -41q-75 -3 -111.5 -16t-58.5 -48t-43 -112l-272 -1016q-18 -64 -18 -99 q0 -30 14 -45t43 -20.5t82 -5.5h149q128 0 204 36t127.5 115.5t107.5 231.5h47q-13 -34 -52 -168zM956 1224.5q36 100.5 36 143.5q0 20 -14.5 29.5t-52.5 9.5l6 43q24 0 44.5 -1t39.5 -1q76 0 149 25q2 -5 2 -17q0 -76 -76 -198t-214 -273l-29 8q73 131 109 231.5z" />
<glyph unicode="&#x13e;" horiz-adv-x="567" d="M196 102q0 -55 48 -55q41 0 77 47.5t76 161.5l27 76h39l-51 -150q-74 -211 -246 -211q-141 0 -141 133q0 59 28 154l334 1108q10 37 10 57q0 41 -32 59.5t-107 18.5l14 43q109 1 195.5 22t169.5 62l-428 -1454q-13 -45 -13 -72zM692 1349q31 106 31 152q0 39 -27 39l7 43 q12 0 22 -1t21 -1q74 0 149 25q2 -4 2 -17q0 -79 -70.5 -206.5t-199.5 -284.5l-29 8q63 137 94 243z" />
<glyph unicode="&#x13f;" horiz-adv-x="1223" d="M1044 262q-30 -110 -55 -262q-139 6 -469 6q-393 0 -592 -6l11 41q74 3 110 16t58 48t43 112l272 1016q18 65 18 100q0 30 -13.5 45.5t-42 22t-81.5 8.5l10 41q87 -6 262 -6q165 0 261 6l-11 -41q-75 -3 -111.5 -16t-58.5 -48t-43 -112l-272 -1016q-18 -64 -18 -99 q0 -30 14 -45t43 -20.5t82 -5.5h149q128 0 204 36t127.5 115.5t107.5 231.5h47q-13 -34 -52 -168zM959 777.5q22 36.5 57.5 58.5t73.5 22q46 0 75 -30.5t29 -76.5q0 -40 -21.5 -75.5t-57.5 -57.5t-75 -22q-45 0 -74 30t-29 75q0 40 22 76.5z" />
<glyph unicode="&#x140;" horiz-adv-x="848" d="M196 102q0 -55 48 -55q41 0 77 47.5t76 161.5l27 76h39l-51 -150q-74 -211 -246 -211q-141 0 -141 133q0 59 28 154l334 1108q10 37 10 57q0 41 -32 59.5t-107 18.5l14 43q109 1 195.5 22t169.5 62l-428 -1454q-13 -45 -13 -72zM574 654.5q22 36.5 57.5 58.5t73.5 22 q46 0 75 -30.5t29 -76.5q0 -40 -21.5 -75.5t-57.5 -57.5t-75 -22q-45 0 -74 30t-29 75q0 40 22 76.5z" />
<glyph unicode="&#x141;" horiz-adv-x="1202" d="M1048 262q-30 -110 -55 -262q-139 6 -469 6q-393 0 -592 -6l11 41q74 3 110 16t58 48t43 112l85 318l-208 -105l12 47l209 105l174 651q18 65 18 100q0 30 -13.5 45.5t-42 22t-81.5 8.5l10 41q87 -6 262 -6q165 0 261 6l-11 -41q-75 -3 -111.5 -16t-58.5 -48t-43 -112 l-150 -561l591 297l-13 -47l-591 -298l-109 -407q-18 -64 -18 -99q0 -30 14 -45t43 -20.5t82 -5.5h149q128 0 204 36t127.5 115.5t107.5 231.5h47q-13 -34 -52 -168z" />
<glyph unicode="&#x142;" horiz-adv-x="631" d="M227 102q0 -55 48 -55q41 0 77 47.5t76 161.5l27 76h39l-51 -150q-74 -211 -246 -211q-141 0 -141 133q0 59 28 154l121 402l-205 -138l8 62l218 146l192 636q10 37 10 57q0 41 -32 59.5t-107 18.5l14 43q109 1 195.5 22t169.5 62l-235 -797l282 187l-8 -62l-294 -195 l-173 -587q-13 -45 -13 -72z" />
<glyph unicode="&#x143;" horiz-adv-x="1577" d="M1271 1001q84 286 171 412q90 131 221 131q66 0 94.5 -29t28.5 -75q0 -36 -14 -70t-41.5 -56t-65.5 -22q-41 0 -59.5 24t-18.5 56q0 33 19 67.5t47 61.5h-6q-100 -3 -168 -104q-91 -136 -189 -477t-223 -930h-45l-467 1319q-101 -516 -190 -870t-170 -462 q-47 -60 -96.5 -94.5t-123.5 -34.5q-122 0 -122 107q0 35 14 68.5t41 55t65 21.5q42 0 60 -24t18 -56q0 -33 -18.5 -67.5t-46.5 -61.5h6q106 4 170 107q78 123 161.5 444.5t182.5 835.5q4 24 4 46q0 34 -14.5 51.5t-47.5 24.5t-96 9l10 41q66 -6 183 -6q96 0 166 6 l387 -1132q89 397 173 683zM1067 1695.5q56 41.5 140 106.5t130 92q39 24 78 24q43 0 58 -34q4 -9 4 -20q0 -25 -21.5 -49.5t-50.5 -40.5q-44 -26 -125.5 -56t-157 -60t-172.5 -77l-14 23q75 50 131 91.5z" />
<glyph unicode="&#x144;" horiz-adv-x="1188" d="M1034 182q-72 -211 -248 -211q-92 0 -129 60q-16 26 -16 67q0 58 35 160l194 586q21 61 21 101q0 71 -66 71q-79 0 -178 -114.5t-194.5 -314.5t-166.5 -444l-36 -143h-178l245 879q15 49 15 77q0 50 -45 50q-31 0 -55.5 -19.5t-49 -64.5t-53.5 -125l-27 -76h-39l52 149 q72 211 243 211q121 0 121 -121q0 -55 -28 -165l-71 -280q88 208 169.5 332t164.5 179t179 55q165 0 165 -154q0 -61 -30 -155l-199 -598q-16 -48 -16 -77q0 -50 49 -50q42 0 80 46.5t78 162.5l27 76h38zM724.5 1365q41.5 54 105.5 141.5t104 127.5q40 46 84 46q25 0 45 -15 q16 -16 16 -40q0 -41 -46 -87q-36 -38 -106 -89t-134 -100.5t-145 -121.5l-21 18q56 66 97.5 120z" />
<glyph unicode="&#x145;" horiz-adv-x="1577" d="M1271 1001q84 286 171 412q90 131 221 131q66 0 94.5 -29t28.5 -75q0 -36 -14 -70t-41.5 -56t-65.5 -22q-41 0 -59.5 24t-18.5 56q0 33 19 67.5t47 61.5h-6q-100 -3 -168 -104q-91 -136 -189 -477t-223 -930h-45l-467 1319q-101 -516 -190 -870t-170 -462 q-47 -60 -96.5 -94.5t-123.5 -34.5q-122 0 -122 107q0 35 14 68.5t41 55t65 21.5q42 0 60 -24t18 -56q0 -33 -18.5 -67.5t-46.5 -61.5h6q106 4 170 107q78 123 161.5 444.5t182.5 835.5q4 24 4 46q0 34 -14.5 51.5t-47.5 24.5t-96 9l10 41q66 -6 183 -6q96 0 166 6 l387 -1132q89 397 173 683zM589.5 -407.5q45.5 34.5 49.5 79.5q-16 -14 -40.5 -23t-49.5 -9q-41 0 -66.5 23t-25.5 65q0 34 17.5 64.5t48 48.5t67.5 18q53 0 83 -34t30 -87q0 -160 -201 -232l-14 35q56 17 101.5 51.5z" />
<glyph unicode="&#x146;" horiz-adv-x="1188" d="M1034 182q-72 -211 -248 -211q-92 0 -129 60q-16 26 -16 67q0 58 35 160l194 586q21 61 21 101q0 71 -66 71q-79 0 -178 -114.5t-194.5 -314.5t-166.5 -444l-36 -143h-178l245 879q15 49 15 77q0 50 -45 50q-31 0 -55.5 -19.5t-49 -64.5t-53.5 -125l-27 -76h-39l52 149 q72 211 243 211q121 0 121 -121q0 -55 -28 -165l-71 -280q88 208 169.5 332t164.5 179t179 55q165 0 165 -154q0 -61 -30 -155l-199 -598q-16 -48 -16 -77q0 -50 49 -50q42 0 80 46.5t78 162.5l27 76h38zM42.5 -407.5q45.5 34.5 49.5 79.5q-16 -14 -40.5 -23t-49.5 -9 q-41 0 -66.5 22.5t-25.5 63.5q0 31 16 62t46 51t71 20q53 0 83 -33.5t30 -85.5q0 -77 -42.5 -135.5t-158.5 -98.5l-14 35q56 17 101.5 51.5z" />
<glyph unicode="&#x147;" horiz-adv-x="1577" d="M1271 1001q84 286 171 412q90 131 221 131q66 0 94.5 -29t28.5 -75q0 -36 -14 -70t-41.5 -56t-65.5 -22q-41 0 -59.5 24t-18.5 56q0 33 19 67.5t47 61.5h-6q-100 -3 -168 -104q-91 -136 -189 -477t-223 -930h-45l-467 1319q-101 -516 -190 -870t-170 -462 q-47 -60 -96.5 -94.5t-123.5 -34.5q-122 0 -122 107q0 35 14 68.5t41 55t65 21.5q42 0 60 -24t18 -56q0 -33 -18.5 -67.5t-46.5 -61.5h6q106 4 170 107q78 123 161.5 444.5t182.5 835.5q4 24 4 46q0 34 -14.5 51.5t-47.5 24.5t-96 9l10 41q66 -6 183 -6q96 0 166 6 l387 -1132q89 397 173 683zM947 1844.5q68 -27.5 117.5 -55t66.5 -36.5q229 97 422 139l10 -28q-148 -46 -275.5 -117t-205.5 -150h-37q-58 99 -123 163.5t-162 103.5l8 28q111 -20 179 -47.5z" />
<glyph unicode="&#x148;" horiz-adv-x="1188" d="M1034 182q-72 -211 -248 -211q-92 0 -129 60q-16 26 -16 67q0 58 35 160l194 586q21 61 21 101q0 71 -66 71q-79 0 -178 -114.5t-194.5 -314.5t-166.5 -444l-36 -143h-178l245 879q15 49 15 77q0 50 -45 50q-31 0 -55.5 -19.5t-49 -64.5t-53.5 -125l-27 -76h-39l52 149 q72 211 243 211q121 0 121 -121q0 -55 -28 -165l-71 -280q88 208 169.5 332t164.5 179t179 55q165 0 165 -154q0 -61 -30 -155l-199 -598q-16 -48 -16 -77q0 -50 49 -50q42 0 80 46.5t78 162.5l27 76h38zM679.5 1558.5q77.5 -50.5 148.5 -128.5q179 139 359 212l10 -28 q-133 -57 -249.5 -151.5t-190.5 -200.5h-37q-22 129 -78 211t-166 141l8 28q118 -33 195.5 -83.5z" />
<glyph unicode="&#x149;" horiz-adv-x="1188" d="M1034 182q-72 -211 -248 -211q-92 0 -129 60q-16 26 -16 67q0 58 35 160l194 586q21 61 21 101q0 71 -66 71q-79 0 -178 -114.5t-194.5 -314.5t-166.5 -444l-36 -143h-178l245 879q15 49 15 77q0 50 -45 50q-31 0 -55.5 -19.5t-49 -64.5t-53.5 -125l-27 -76h-39l52 149 q72 211 243 211q121 0 121 -121q0 -55 -28 -165l-71 -280q88 208 169.5 332t164.5 179t179 55q165 0 165 -154q0 -61 -30 -155l-199 -598q-16 -48 -16 -77q0 -50 49 -50q42 0 80 46.5t78 162.5l27 76h38zM97 1208q57 70 63 140q-59 -52 -107 -52q-36 0 -56.5 19.5 t-20.5 52.5q0 43 27.5 87.5t71.5 73.5t89 29t67.5 -35t22.5 -85q0 -71 -36 -143t-104 -135.5t-161 -108.5l-10 28q97 59 154 129z" />
<glyph unicode="&#x14a;" horiz-adv-x="1436" d="M1393 1444q121 0 192 6l-10 -41q-72 -3 -110.5 -20.5t-61 -57.5t-43.5 -119l-285 -1075q-60 -265 -160 -393.5t-247 -128.5q-75 0 -130 30t-55 87q0 30 15 57t41 43t57 16q37 0 61.5 -24.5t24.5 -60.5q0 -34 -23.5 -61t-58.5 -44q30 -10 72 -10q110 0 189 93t130 249 l-497 1347l-289 -1099q-18 -70 -18 -103q0 -50 34.5 -70.5t120.5 -23.5l-10 -41q-70 6 -207 6q-121 0 -193 -6l11 41q72 3 110.5 20.5t61 57.5t43.5 119l264 995q17 65 17 98q0 31 -14 47t-42.5 22.5t-81.5 8.5l10 41q65 -6 183 -6q94 0 165 6l414 -1151l240 913 q17 65 17 102q0 51 -34 71.5t-120 23.5l10 41q70 -6 207 -6z" />
<glyph unicode="&#x14b;" horiz-adv-x="1124" d="M536.5 823q83.5 137 169 197.5t185.5 60.5q86 0 124.5 -37.5t38.5 -110.5q0 -61 -28 -161l-152 -536q-142 -506 -399 -601q-59 -20 -121 -20q-46 0 -71.5 20.5t-25.5 57.5q0 13 5 33q12 36 44.5 65t72.5 29q31 0 49 -17.5t18 -45.5q0 -7 -4 -25q-15 -52 -53 -86 q79 9 125 58t78 163l276 977q20 72 20 106q0 66 -65 66q-79 0 -178 -114.5t-194.5 -314.5t-166.5 -444l-36 -143h-178l245 879q14 51 14 80q0 47 -42 47q-46 0 -83.5 -48.5t-76.5 -160.5l-27 -76h-39l52 149q72 211 247 211q63 0 90.5 -29.5t27.5 -87.5q0 -56 -29 -169 l-86 -341q90 232 173.5 369z" />
<glyph unicode="&#x14c;" horiz-adv-x="1493" d="M220 932q109 237 304.5 392t440.5 155q151 0 259.5 -58t166 -169t57.5 -267q0 -231 -110 -467.5t-306 -391.5t-440 -155q-151 0 -259 58t-165 168.5t-57 265.5q0 232 109 469zM648.5 1294.5q-143.5 -147.5 -232 -381.5t-88.5 -477q0 -132 35.5 -228.5t99.5 -148 t147 -51.5q155 0 298.5 147.5t232 381.5t88.5 477q0 132 -36 228.5t-100 148t-147 51.5q-154 0 -297.5 -147.5zM649 1677l12 52h721l-12 -52h-721z" />
<glyph unicode="&#x14d;" horiz-adv-x="999" d="M114.5 639.5q71.5 185.5 206.5 313.5t314 128q131 0 205.5 -81t74.5 -240q0 -161 -71.5 -346.5t-206 -314t-313.5 -128.5q-131 0 -206 81.5t-75 240.5q0 161 71.5 346.5zM424.5 907q-93.5 -133 -149.5 -333t-56 -384q0 -178 117 -178q105 0 198 133t149 332.5t56 384.5 q0 92 -28.5 135t-87.5 43q-105 0 -198.5 -133zM427 1407l12 51h639l-13 -51h-638z" />
<glyph unicode="&#x14e;" horiz-adv-x="1493" d="M220 932q109 237 304.5 392t440.5 155q151 0 259.5 -58t166 -169t57.5 -267q0 -231 -110 -467.5t-306 -391.5t-440 -155q-151 0 -259 58t-165 168.5t-57 265.5q0 232 109 469zM648.5 1294.5q-143.5 -147.5 -232 -381.5t-88.5 -477q0 -132 35.5 -228.5t99.5 -148 t147 -51.5q155 0 298.5 147.5t232 381.5t88.5 477q0 132 -36 228.5t-100 148t-147 51.5q-154 0 -297.5 -147.5zM869.5 1763.5q71.5 -24.5 187.5 -24.5q110 0 233.5 31t218.5 88l21 -23q-55 -55 -143 -109t-185.5 -89t-179.5 -35q-85 0 -150 31t-105 85t-54 121l33 10 q52 -61 123.5 -85.5z" />
<glyph unicode="&#x14f;" horiz-adv-x="999" d="M114.5 639.5q71.5 185.5 206.5 313.5t314 128q131 0 205.5 -81t74.5 -240q0 -161 -71.5 -346.5t-206 -314t-313.5 -128.5q-131 0 -206 81.5t-75 240.5q0 161 71.5 346.5zM424.5 907q-93.5 -133 -149.5 -333t-56 -384q0 -178 117 -178q105 0 198 133t149 332.5t56 384.5 q0 92 -28.5 135t-87.5 43q-105 0 -198.5 -133zM550.5 1503.5q34.5 -37.5 80 -53.5t111.5 -16q101 0 219.5 48.5t204.5 131.5l20 -23q-50 -70 -133.5 -138.5t-176.5 -112.5t-169 -44q-108 0 -172 83t-84 216l33 11q32 -65 66.5 -102.5z" />
<glyph unicode="&#x150;" horiz-adv-x="1493" d="M220 932q109 237 304.5 392t440.5 155q151 0 259.5 -58t166 -169t57.5 -267q0 -231 -110 -467.5t-306 -391.5t-440 -155q-151 0 -259 58t-165 168.5t-57 265.5q0 232 109 469zM648.5 1294.5q-143.5 -147.5 -232 -381.5t-88.5 -477q0 -132 35.5 -228.5t99.5 -148 t147 -51.5q155 0 298.5 147.5t232 381.5t88.5 477q0 132 -36 228.5t-100 148t-147 51.5q-154 0 -297.5 -147.5zM1247.5 1717.5q65.5 63.5 107 103t81.5 67.5q39 29 76 29q31 0 49 -25q10 -14 10 -31q0 -45 -67 -94q-34 -23 -74 -43t-136 -62.5t-161 -80.5l-12 25 q61 48 126.5 111.5zM864.5 1717.5q65.5 63.5 107 103t81.5 67.5q38 28 76 28q35 0 51 -28q7 -13 7 -28q0 -45 -66 -93q-34 -23 -74 -43t-136.5 -62.5t-160.5 -80.5l-12 25q61 48 126.5 111.5z" />
<glyph unicode="&#x151;" horiz-adv-x="999" d="M114.5 639.5q71.5 185.5 206.5 313.5t314 128q131 0 205.5 -81t74.5 -240q0 -161 -71.5 -346.5t-206 -314t-313.5 -128.5q-131 0 -206 81.5t-75 240.5q0 161 71.5 346.5zM424.5 907q-93.5 -133 -149.5 -333t-56 -384q0 -178 117 -178q105 0 198 133t149 332.5t56 384.5 q0 92 -28.5 135t-87.5 43q-105 0 -198.5 -133zM526 1370q31 56 75 141t73 123q35 46 78 46q25 0 45 -15q28 -23 28 -57q0 -33 -28 -70q-30 -38 -89 -89.5t-113 -100.5t-122 -121l-22 18q44 69 75 125zM889.5 1367.5q30.5 54.5 75 141t74.5 125.5q35 46 78 46q26 0 45 -15 q27 -22 27 -58q0 -33 -27 -69q-30 -38 -89 -89.5t-113 -100.5t-122 -121l-22 18q43 68 73.5 122.5z" />
<glyph unicode="&#x152;" horiz-adv-x="1958" d="M1768.5 336q-12.5 -48 -19.5 -74q-39 -143 -53 -262q-133 6 -443 6q-307 0 -489 -4q-110 -31 -209 -31q-139 0 -237.5 57.5t-150.5 168t-52 266.5q0 232 103.5 469t289.5 392t420 155q114 0 207 -31q190 -4 516 -4q266 0 383 6q-26 -68 -78 -242q-27 -70 -27 -127h-45 q15 86 15 145q0 96 -42.5 136.5t-138.5 40.5h-170q-71 0 -106.5 -12t-57 -46.5t-41.5 -111.5l-128 -483h200q58 0 96.5 30.5t62 76t52.5 122.5h45q-28 -85 -45 -154.5t-24 -95.5q-28 -97 -54 -250h-45q0 20 5.5 63t5.5 64q0 45 -23 72t-84 31h-203l-131 -492 q-17 -66 -17 -99q0 -30 13.5 -45t41.5 -20.5t79 -5.5h190q99 0 163 34t110.5 111t93.5 218h45q-11 -26 -23.5 -74zM1164 1309q0 79 -59 106t-171 27q-156 0 -295 -147t-223 -380.5t-84 -478.5q0 -132 30.5 -228.5t85 -148t125.5 -51.5q90 0 150 18t99.5 63.5t60.5 127.5 l270 1016q11 40 11 76z" />
<glyph unicode="&#x153;" horiz-adv-x="1473" d="M1193 111.5q-64 -62.5 -143.5 -101.5t-162.5 -39q-120 0 -191.5 67.5t-78.5 194.5q-130 -262 -336 -262q-114 0 -182 82t-68 240q0 152 89 334t242.5 308t337.5 126q90 0 135.5 -38.5t45.5 -105.5q0 -13 -2 -30q81 91 175.5 142.5t196.5 51.5q86 0 139.5 -40t53.5 -115 q0 -161 -185 -279t-430 -196q-20 -102 -20 -197q0 -197 141 -197q168 0 307 205l41 -16q-41 -72 -105 -134.5zM1073 965q-73 -77 -137.5 -204.5t-97.5 -270.5q205 72 282 133q76 59 118 143.5t42 183.5q0 44 -19.5 68t-54.5 24q-60 0 -133 -77zM684.5 568.5 q48.5 120.5 120.5 225.5q25 62 25 110q0 50 -27.5 80t-87.5 30q-135 0 -252 -128.5t-186.5 -321.5t-69.5 -374q0 -89 23.5 -128t72.5 -39q91 0 175.5 85.5t143.5 231.5q14 108 62.5 228.5z" />
<glyph unicode="&#x154;" horiz-adv-x="1360" d="M1260 248l-9 -27q-36 -129 -92.5 -189.5t-150.5 -60.5q-61 0 -103 24.5t-62.5 65.5t-20.5 89l1 18l17 229q3 34 3 64q0 87 -31 134.5t-112 69.5t-235 23l-125 -471q-19 -71 -19 -100q0 -41 30.5 -58t109.5 -18l-8 -41q-96 6 -254 6q-180 0 -267 -6l9 41q74 3 110.5 16 t58.5 48t42 112l270 1016q18 65 18 96q0 43 -31 61t-108 19l10 41q84 -6 252 -6q49 0 148.5 2t150.5 2q201 0 304.5 -77.5t103.5 -211.5q0 -111 -65.5 -204.5t-186.5 -158t-283 -91.5q34 -4 72 -11q80 -15 128.5 -39.5t73.5 -69.5t25 -118q0 -13 -2 -43l-16 -209 q-2 -28 -2 -42q0 -126 64 -126q36 0 63.5 41.5t60.5 130.5l10 29h48zM539 729q276 0 400 120.5t124 321.5q0 122 -62 180t-198 58q-62 0 -96.5 -15t-56 -52t-40.5 -109l-134 -504h63zM833 1695.5q56 41.5 140 106.5t130 92q39 24 78 24q43 0 58 -34q4 -9 4 -20 q0 -25 -21.5 -49.5t-50.5 -40.5q-44 -26 -125.5 -56t-157 -60t-172.5 -77l-14 23q75 50 131 91.5z" />
<glyph unicode="&#x155;" horiz-adv-x="872" d="M524.5 855q66.5 119 135 172.5t149.5 53.5q56 0 88.5 -32.5t32.5 -83.5q0 -40 -20 -74t-53 -54t-71 -20q-36 0 -58.5 19.5t-22.5 54.5q0 92 92 131q-8 8 -23 8q-73 0 -156 -108t-167 -302t-160 -449l-43 -171h-178l245 879q15 51 15 80q0 47 -43 47q-46 0 -83.5 -48.5 t-76.5 -160.5l-27 -76h-39l52 149q72 211 247 211q118 0 118 -119q0 -33 -7 -69t-22 -98l-66 -260q75 201 141.5 320zM617.5 1365q41.5 54 105.5 141.5t104 127.5q40 46 84 46q25 0 45 -15q16 -16 16 -40q0 -41 -46 -87q-36 -38 -106 -89t-134 -100.5t-145 -121.5l-21 18 q56 66 97.5 120z" />
<glyph unicode="&#x156;" horiz-adv-x="1360" d="M1260 248l-9 -27q-36 -129 -92.5 -189.5t-150.5 -60.5q-61 0 -103 24.5t-62.5 65.5t-20.5 89l1 18l17 229q3 34 3 64q0 87 -31 134.5t-112 69.5t-235 23l-125 -471q-19 -71 -19 -100q0 -41 30.5 -58t109.5 -18l-8 -41q-96 6 -254 6q-180 0 -267 -6l9 41q74 3 110.5 16 t58.5 48t42 112l270 1016q18 65 18 96q0 43 -31 61t-108 19l10 41q84 -6 252 -6q49 0 148.5 2t150.5 2q201 0 304.5 -77.5t103.5 -211.5q0 -111 -65.5 -204.5t-186.5 -158t-283 -91.5q34 -4 72 -11q80 -15 128.5 -39.5t73.5 -69.5t25 -118q0 -13 -2 -43l-16 -209 q-2 -28 -2 -42q0 -126 64 -126q36 0 63.5 41.5t60.5 130.5l10 29h48zM539 729q276 0 400 120.5t124 321.5q0 122 -62 180t-198 58q-62 0 -96.5 -15t-56 -52t-40.5 -109l-134 -504h63zM597.5 -407.5q45.5 34.5 49.5 79.5q-16 -14 -40.5 -23t-49.5 -9q-41 0 -66.5 23t-25.5 65 q0 34 17.5 64.5t48 48.5t67.5 18q53 0 83 -34t30 -87q0 -160 -201 -232l-14 35q56 17 101.5 51.5z" />
<glyph unicode="&#x157;" horiz-adv-x="872" d="M524.5 855q66.5 119 135 172.5t149.5 53.5q56 0 88.5 -32.5t32.5 -83.5q0 -40 -20 -74t-53 -54t-71 -20q-36 0 -58.5 19.5t-22.5 54.5q0 92 92 131q-8 8 -23 8q-73 0 -156 -108t-167 -302t-160 -449l-43 -171h-178l245 879q15 51 15 80q0 47 -43 47q-46 0 -83.5 -48.5 t-76.5 -160.5l-27 -76h-39l52 149q72 211 247 211q118 0 118 -119q0 -33 -7 -69t-22 -98l-66 -260q75 201 141.5 320zM-231.5 -407.5q45.5 34.5 49.5 79.5q-16 -14 -40.5 -23t-49.5 -9q-41 0 -66.5 22.5t-25.5 63.5q0 31 16 62t46 51t71 20q53 0 83 -33.5t30 -85.5 q0 -77 -42.5 -135.5t-158.5 -98.5l-14 35q56 17 101.5 51.5z" />
<glyph unicode="&#x158;" horiz-adv-x="1360" d="M1260 248l-9 -27q-36 -129 -92.5 -189.5t-150.5 -60.5q-61 0 -103 24.5t-62.5 65.5t-20.5 89l1 18l17 229q3 34 3 64q0 87 -31 134.5t-112 69.5t-235 23l-125 -471q-19 -71 -19 -100q0 -41 30.5 -58t109.5 -18l-8 -41q-96 6 -254 6q-180 0 -267 -6l9 41q74 3 110.5 16 t58.5 48t42 112l270 1016q18 65 18 96q0 43 -31 61t-108 19l10 41q84 -6 252 -6q49 0 148.5 2t150.5 2q201 0 304.5 -77.5t103.5 -211.5q0 -111 -65.5 -204.5t-186.5 -158t-283 -91.5q34 -4 72 -11q80 -15 128.5 -39.5t73.5 -69.5t25 -118q0 -13 -2 -43l-16 -209 q-2 -28 -2 -42q0 -126 64 -126q36 0 63.5 41.5t60.5 130.5l10 29h48zM539 729q276 0 400 120.5t124 321.5q0 122 -62 180t-198 58q-62 0 -96.5 -15t-56 -52t-40.5 -109l-134 -504h63zM713 1844.5q68 -27.5 117.5 -55t66.5 -36.5q229 97 422 139l10 -28q-148 -46 -275.5 -117 t-205.5 -150h-37q-58 99 -123 163.5t-162 103.5l8 28q111 -20 179 -47.5z" />
<glyph unicode="&#x159;" horiz-adv-x="872" d="M524.5 855q66.5 119 135 172.5t149.5 53.5q56 0 88.5 -32.5t32.5 -83.5q0 -40 -20 -74t-53 -54t-71 -20q-36 0 -58.5 19.5t-22.5 54.5q0 92 92 131q-8 8 -23 8q-73 0 -156 -108t-167 -302t-160 -449l-43 -171h-178l245 879q15 51 15 80q0 47 -43 47q-46 0 -83.5 -48.5 t-76.5 -160.5l-27 -76h-39l52 149q72 211 247 211q118 0 118 -119q0 -33 -7 -69t-22 -98l-66 -260q75 201 141.5 320zM572.5 1558.5q77.5 -50.5 148.5 -128.5q179 139 359 212l10 -28q-133 -57 -249.5 -151.5t-190.5 -200.5h-37q-22 129 -78 211t-166 141l8 28 q118 -33 195.5 -83.5z" />
<glyph unicode="&#x15a;" horiz-adv-x="1135" d="M1059 1047h-41q12 57 12 116q0 78 -30.5 140.5t-96 99.5t-164.5 37q-129 0 -207.5 -66t-78.5 -194q0 -151 171.5 -310.5t259 -257t87.5 -239.5q0 -134 -77 -224.5t-195.5 -134t-245.5 -43.5q-108 0 -173.5 26.5t-117.5 68.5q-39 30 -74 30q-24 0 -41 -24t-43 -86h-41 q69 163 139 491h41q-11 -61 -15 -94.5t-3 -71.5q13 -299 334 -299q139 0 220 63.5t81 192.5q0 168 -156.5 316.5t-236.5 242t-80 252.5q0 126 64 216.5t167.5 137t218.5 46.5q84 0 145.5 -20.5t121.5 -65.5q47 -37 67 -37q17 0 32 25t36 83h41q-74 -180 -121 -417z M792 1695.5q56 41.5 140 106.5t130 92q39 24 78 24q43 0 58 -34q4 -9 4 -20q0 -25 -21.5 -49.5t-50.5 -40.5q-44 -26 -125.5 -56t-157 -60t-172.5 -77l-14 23q75 50 131 91.5z" />
<glyph unicode="&#x15b;" horiz-adv-x="780" d="M215 12q93 0 150 55.5t57 155.5q0 65 -24.5 128t-82.5 143q-49 67 -72.5 103t-42 86t-18.5 108q0 85 42.5 151t115.5 102.5t160 36.5q106 0 178 -39.5t72 -138.5q0 -22 -10 -46.5t-31.5 -42t-53.5 -17.5q-35 0 -58.5 24t-23.5 62q0 66 58 137q-41 24 -103 24 q-78 0 -128 -52t-50 -142q0 -54 18 -92.5t52 -87t53 -76.5q61 -95 91 -162t30 -139q0 -93 -48 -166.5t-128.5 -114.5t-175.5 -41q-118 0 -197.5 50t-79.5 153q0 36 19.5 64t60.5 28q46 0 68 -37t22 -92q0 -36 -14 -106q38 -19 94 -19zM560.5 1365q41.5 54 105.5 141.5 t104 127.5q40 46 84 46q25 0 45 -15q16 -16 16 -40q0 -41 -46 -87q-36 -38 -106 -89t-134 -100.5t-145 -121.5l-21 18q56 66 97.5 120z" />
<glyph unicode="&#x15c;" horiz-adv-x="1135" d="M1059 1047h-41q12 57 12 116q0 78 -30.5 140.5t-96 99.5t-164.5 37q-129 0 -207.5 -66t-78.5 -194q0 -151 171.5 -310.5t259 -257t87.5 -239.5q0 -134 -77 -224.5t-195.5 -134t-245.5 -43.5q-108 0 -173.5 26.5t-117.5 68.5q-39 30 -74 30q-24 0 -41 -24t-43 -86h-41 q69 163 139 491h41q-11 -61 -15 -94.5t-3 -71.5q13 -299 334 -299q139 0 220 63.5t81 192.5q0 168 -156.5 316.5t-236.5 242t-80 252.5q0 126 64 216.5t167.5 137t218.5 46.5q84 0 145.5 -20.5t121.5 -65.5q47 -37 67 -37q17 0 32 25t36 83h41q-74 -180 -121 -417z M1000 1629.5q-68 27.5 -117.5 55t-65.5 35.5q-226 -95 -422 -139l-10 29q147 45 274.5 116t206.5 150h37q57 -99 122 -163t163 -103l-9 -29q-111 21 -179 48.5z" />
<glyph unicode="&#x15d;" horiz-adv-x="780" d="M215 12q93 0 150 55.5t57 155.5q0 65 -24.5 128t-82.5 143q-49 67 -72.5 103t-42 86t-18.5 108q0 85 42.5 151t115.5 102.5t160 36.5q106 0 178 -39.5t72 -138.5q0 -22 -10 -46.5t-31.5 -42t-53.5 -17.5q-35 0 -58.5 24t-23.5 62q0 66 58 137q-41 24 -103 24 q-78 0 -128 -52t-50 -142q0 -54 18 -92.5t52 -87t53 -76.5q61 -95 91 -162t30 -139q0 -93 -48 -166.5t-128.5 -114.5t-175.5 -41q-118 0 -197.5 50t-79.5 153q0 36 19.5 64t60.5 28q46 0 68 -37t22 -92q0 -36 -14 -106q38 -19 94 -19zM718 1346q-77 51 -148 129 q-179 -141 -359 -213l-10 28q133 57 249.5 151.5t191.5 200.5h36q22 -128 78 -210.5t166 -141.5l-8 -28q-119 33 -196 84z" />
<glyph unicode="&#x15e;" horiz-adv-x="1135" d="M1059 1047h-41q12 57 12 116q0 78 -30.5 140.5t-96 99.5t-164.5 37q-129 0 -207.5 -66t-78.5 -194q0 -151 171.5 -310.5t259 -257t87.5 -239.5q0 -134 -77 -224.5t-195.5 -134t-245.5 -43.5q-108 0 -173.5 26.5t-117.5 68.5q-39 30 -74 30q-24 0 -41 -24t-43 -86h-41 q69 163 139 491h41q-11 -61 -15 -94.5t-3 -71.5q13 -299 334 -299q139 0 220 63.5t81 192.5q0 168 -156.5 316.5t-236.5 242t-80 252.5q0 126 64 216.5t167.5 137t218.5 46.5q84 0 145.5 -20.5t121.5 -65.5q47 -37 67 -37q17 0 32 25t36 83h41q-74 -180 -121 -417zM499 -133 q51 0 80 -22t29 -60q0 -56 -48.5 -94.5t-121 -57t-143.5 -18.5q-67 0 -121 13t-84 32l14 31q71 -27 164 -27q38 0 87 10t85.5 33.5t36.5 61.5q0 49 -78 49q-42 0 -84 -15l98 205h56l-74 -155q51 14 104 14z" />
<glyph unicode="&#x15f;" horiz-adv-x="780" d="M215 12q93 0 150 55.5t57 155.5q0 65 -24.5 128t-82.5 143q-49 67 -72.5 103t-42 86t-18.5 108q0 85 42.5 151t115.5 102.5t160 36.5q106 0 178 -39.5t72 -138.5q0 -22 -10 -46.5t-31.5 -42t-53.5 -17.5q-35 0 -58.5 24t-23.5 62q0 66 58 137q-41 24 -103 24 q-78 0 -128 -52t-50 -142q0 -54 18 -92.5t52 -87t53 -76.5q61 -95 91 -162t30 -139q0 -93 -48 -166.5t-128.5 -114.5t-175.5 -41q-118 0 -197.5 50t-79.5 153q0 36 19.5 64t60.5 28q46 0 68 -37t22 -92q0 -36 -14 -106q38 -19 94 -19zM274 -133q41 0 64.5 -22t23.5 -60 q0 -56 -39 -94.5t-97.5 -57t-115.5 -18.5q-53 0 -97.5 13.5t-66.5 31.5l14 31q30 -13 55 -20t68 -7q27 0 61.5 10t60.5 33.5t26 61.5q0 49 -58 49q-33 0 -63 -15l94 197h55l-69 -147q39 14 84 14z" />
<glyph unicode="&#x160;" horiz-adv-x="1135" d="M1059 1047h-41q12 57 12 116q0 78 -30.5 140.5t-96 99.5t-164.5 37q-129 0 -207.5 -66t-78.5 -194q0 -151 171.5 -310.5t259 -257t87.5 -239.5q0 -134 -77 -224.5t-195.5 -134t-245.5 -43.5q-108 0 -173.5 26.5t-117.5 68.5q-39 30 -74 30q-24 0 -41 -24t-43 -86h-41 q69 163 139 491h41q-11 -61 -15 -94.5t-3 -71.5q13 -299 334 -299q139 0 220 63.5t81 192.5q0 168 -156.5 316.5t-236.5 242t-80 252.5q0 126 64 216.5t167.5 137t218.5 46.5q84 0 145.5 -20.5t121.5 -65.5q47 -37 67 -37q17 0 32 25t36 83h41q-74 -180 -121 -417z M672 1844.5q68 -27.5 117.5 -55t66.5 -36.5q229 97 422 139l10 -28q-148 -46 -275.5 -117t-205.5 -150h-37q-58 99 -123 163.5t-162 103.5l8 28q111 -20 179 -47.5z" />
<glyph unicode="&#x161;" horiz-adv-x="780" d="M215 12q93 0 150 55.5t57 155.5q0 65 -24.5 128t-82.5 143q-49 67 -72.5 103t-42 86t-18.5 108q0 85 42.5 151t115.5 102.5t160 36.5q106 0 178 -39.5t72 -138.5q0 -22 -10 -46.5t-31.5 -42t-53.5 -17.5q-35 0 -58.5 24t-23.5 62q0 66 58 137q-41 24 -103 24 q-78 0 -128 -52t-50 -142q0 -54 18 -92.5t52 -87t53 -76.5q61 -95 91 -162t30 -139q0 -93 -48 -166.5t-128.5 -114.5t-175.5 -41q-118 0 -197.5 50t-79.5 153q0 36 19.5 64t60.5 28q46 0 68 -37t22 -92q0 -36 -14 -106q38 -19 94 -19zM515.5 1558.5q77.5 -50.5 148.5 -128.5 q179 139 359 212l10 -28q-133 -57 -249.5 -151.5t-190.5 -200.5h-37q-22 129 -78 211t-166 141l8 28q118 -33 195.5 -83.5z" />
<glyph unicode="&#x162;" horiz-adv-x="1350" d="M588 1421q-178 0 -230 -35q16 -21 26.5 -54.5t10.5 -63.5q0 -47 -26 -83t-76 -36q-44 0 -67 27.5t-23 74.5q0 107 108 160q96 47 275 47q81 0 156 -7t237.5 -28.5t280.5 -21.5q91 0 152.5 10t110.5 35q-50 51 -50 115q0 46 25.5 79t74.5 33q45 0 68.5 -28t23.5 -70 q0 -45 -26.5 -83t-69.5 -65q-109 -67 -324 -67q-91 0 -210 14l-302 -1136q-18 -64 -18 -104q0 -35 17 -54.5t53.5 -28t101.5 -10.5l-8 -41q-108 6 -306 6q-200 0 -299 -6l9 41q87 3 134.5 21t74.5 58t51 118l309 1160q-166 23 -264 23zM634 -133q51 0 80 -22t29 -60 q0 -56 -48.5 -94.5t-121 -57t-143.5 -18.5q-67 0 -121 13t-84 32l14 31q71 -27 164 -27q38 0 87 10t85.5 33.5t36.5 61.5q0 49 -78 49q-42 0 -84 -15l98 205h56l-74 -155q51 14 104 14z" />
<glyph unicode="&#x163;" horiz-adv-x="688" d="M241 128q0 -41 24.5 -61t64.5 -20q51 0 95.5 44t86.5 161l29 80h39l-43 -129q-43 -127 -112 -179.5t-169 -52.5q-92 0 -137.5 45t-45.5 125q0 49 19 117l217 754h-184l10 41h186l89 311q113 3 184 29l-97 -340h271l-6 -41h-276l-238 -838q-7 -24 -7 -46zM236 -133 q41 0 64.5 -22t23.5 -60q0 -56 -39 -94.5t-97.5 -57t-115.5 -18.5q-53 0 -97.5 13.5t-66.5 31.5l14 31q30 -13 55 -20t68 -7q27 0 61.5 10t60.5 33.5t26 61.5q0 49 -58 49q-33 0 -63 -15l94 197h55l-69 -147q39 14 84 14z" />
<glyph unicode="&#x164;" horiz-adv-x="1350" d="M588 1421q-178 0 -230 -35q16 -21 26.5 -54.5t10.5 -63.5q0 -47 -26 -83t-76 -36q-44 0 -67 27.5t-23 74.5q0 107 108 160q96 47 275 47q81 0 156 -7t237.5 -28.5t280.5 -21.5q91 0 152.5 10t110.5 35q-50 51 -50 115q0 46 25.5 79t74.5 33q45 0 68.5 -28t23.5 -70 q0 -45 -26.5 -83t-69.5 -65q-109 -67 -324 -67q-91 0 -210 14l-302 -1136q-18 -64 -18 -104q0 -35 17 -54.5t53.5 -28t101.5 -10.5l-8 -41q-108 6 -306 6q-200 0 -299 -6l9 41q87 3 134.5 21t74.5 58t51 118l309 1160q-166 23 -264 23zM842 1844.5q68 -27.5 117.5 -55 t66.5 -36.5q229 97 422 139l10 -28q-148 -46 -275.5 -117t-205.5 -150h-37q-58 99 -123 163.5t-162 103.5l8 28q111 -20 179 -47.5z" />
<glyph unicode="&#x165;" horiz-adv-x="688" d="M241 128q0 -41 24.5 -61t64.5 -20q51 0 95.5 44t86.5 161l29 80h39l-43 -129q-43 -127 -112 -179.5t-169 -52.5q-92 0 -137.5 45t-45.5 125q0 49 19 117l217 754h-184l10 41h186l89 311q113 3 184 29l-97 -340h271l-6 -41h-276l-238 -838q-7 -24 -7 -46zM864 1349 q31 106 31 152q0 39 -27 39l7 43q12 0 22 -1t21 -1q74 0 149 25q2 -4 2 -17q0 -79 -70.5 -206.5t-199.5 -284.5l-29 8q63 137 94 243z" />
<glyph unicode="&#x166;" horiz-adv-x="1382" d="M592 1421q-178 0 -230 -35q16 -21 26.5 -54.5t10.5 -63.5q0 -47 -26 -83t-76 -36q-44 0 -67 27.5t-23 74.5q0 107 108 160q96 47 275 47q81 0 156 -7t237.5 -28.5t280.5 -21.5q91 0 152.5 10t110.5 35q-50 51 -50 115q0 46 25.5 79t74.5 33q45 0 68.5 -28t23.5 -70 q0 -45 -26.5 -83t-69.5 -65q-109 -67 -324 -67q-91 0 -210 14l-166 -624h329l-10 -41h-330l-125 -471q-18 -64 -18 -104q0 -35 17 -54.5t53.5 -28t101.5 -10.5l-8 -41q-108 6 -306 6q-200 0 -299 -6l9 41q87 3 134.5 21t74.5 58t51 118l125 471h-328l10 41h329l173 648 q-166 23 -264 23z" />
<glyph unicode="&#x167;" d="M451 862h276l-6 -41h-281l-184 -647q-7 -24 -7 -46q0 -41 24.5 -61t64.5 -20q51 0 95.5 44t86.5 161l29 80h39l-43 -129q-43 -127 -112 -179.5t-169 -52.5q-92 0 -137.5 45t-45.5 125q0 49 19 117l162 563h-178l10 41h180l43 150h-184l10 41h186l89 311q113 3 184 29 l-97 -340h271l-6 -41h-276z" />
<glyph unicode="&#x168;" horiz-adv-x="1397" d="M1306 1303q0 56 -35 79t-116 27l10 41q70 -6 207 -6q123 0 193 6l-11 -41q-72 -3 -111.5 -21t-63 -58t-42.5 -118l-159 -616q-75 -285 -201 -434q-75 -88 -185 -139.5t-235 -51.5q-219 0 -315 111q-72 80 -72 208q0 106 51 300l170 643q17 65 17 98q0 31 -13.5 47 t-42.5 22.5t-82 8.5l13 41q82 -6 264 -6q157 0 256 6l-12 -41q-75 -3 -112 -16t-58 -48t-41 -112l-181 -678q-45 -177 -45 -277q0 -113 55.5 -174t186.5 -61q215 0 338.5 139.5t189.5 390.5l168 639q14 56 14 91zM743.5 1781.5q71.5 51.5 150.5 51.5q66 0 109 -21t111 -75 t134 -54q78 0 143 119l37 -10q-45 -107 -116.5 -159t-149.5 -52q-66 0 -109 21t-111 75t-134 54q-79 0 -144 -119l-37 10q45 108 116.5 159.5z" />
<glyph unicode="&#x169;" horiz-adv-x="1161" d="M1061 332l-51 -150q-74 -211 -248 -211q-34 0 -62.5 14.5t-42.5 41.5q-12 25 -12 63q0 54 29 168l65 257q-82 -198 -158.5 -317.5t-154 -173t-166.5 -53.5q-173 0 -173 158q0 64 30 152l198 598q16 50 16 77q0 50 -48 50q-42 0 -80 -46.5t-78 -162.5l-27 -76h-39l52 149 q72 211 247 211q144 0 144 -127q0 -56 -33 -159l-195 -586q-20 -60 -20 -102q0 -70 65 -70q78 0 173.5 114t188 318t162.5 462l31 122q117 3 187 28l-254 -907q-15 -52 -15 -80q0 -47 44 -47q45 0 82.5 48.5t76.5 160.5l27 76h39zM451.5 1521q71.5 52 150.5 52q59 0 97 -21 t98 -75t118 -54q78 0 143 119l37 -10q-45 -107 -116.5 -159t-149.5 -52q-59 0 -97.5 21t-98.5 74.5t-118 53.5q-79 0 -143 -118l-37 10q45 107 116.5 159z" />
<glyph unicode="&#x16a;" horiz-adv-x="1397" d="M1306 1303q0 56 -35 79t-116 27l10 41q70 -6 207 -6q123 0 193 6l-11 -41q-72 -3 -111.5 -21t-63 -58t-42.5 -118l-159 -616q-75 -285 -201 -434q-75 -88 -185 -139.5t-235 -51.5q-219 0 -315 111q-72 80 -72 208q0 106 51 300l170 643q17 65 17 98q0 31 -13.5 47 t-42.5 22.5t-82 8.5l13 41q82 -6 264 -6q157 0 256 6l-12 -41q-75 -3 -112 -16t-58 -48t-41 -112l-181 -678q-45 -177 -45 -277q0 -113 55.5 -174t186.5 -61q215 0 338.5 139.5t189.5 390.5l168 639q14 56 14 91zM608 1677l12 52h721l-12 -52h-721z" />
<glyph unicode="&#x16b;" horiz-adv-x="1161" d="M1061 332l-51 -150q-74 -211 -248 -211q-34 0 -62.5 14.5t-42.5 41.5q-12 25 -12 63q0 54 29 168l65 257q-82 -198 -158.5 -317.5t-154 -173t-166.5 -53.5q-173 0 -173 158q0 64 30 152l198 598q16 50 16 77q0 50 -48 50q-42 0 -80 -46.5t-78 -162.5l-27 -76h-39l52 149 q72 211 247 211q144 0 144 -127q0 -56 -33 -159l-195 -586q-20 -60 -20 -102q0 -70 65 -70q78 0 173.5 114t188 318t162.5 462l31 122q117 3 187 28l-254 -907q-15 -52 -15 -80q0 -47 44 -47q45 0 82.5 48.5t76.5 160.5l27 76h39zM406 1407l12 51h639l-13 -51h-638z" />
<glyph unicode="&#x16c;" horiz-adv-x="1397" d="M1306 1303q0 56 -35 79t-116 27l10 41q70 -6 207 -6q123 0 193 6l-11 -41q-72 -3 -111.5 -21t-63 -58t-42.5 -118l-159 -616q-75 -285 -201 -434q-75 -88 -185 -139.5t-235 -51.5q-219 0 -315 111q-72 80 -72 208q0 106 51 300l170 643q17 65 17 98q0 31 -13.5 47 t-42.5 22.5t-82 8.5l13 41q82 -6 264 -6q157 0 256 6l-12 -41q-75 -3 -112 -16t-58 -48t-41 -112l-181 -678q-45 -177 -45 -277q0 -113 55.5 -174t186.5 -61q215 0 338.5 139.5t189.5 390.5l168 639q14 56 14 91zM828.5 1763.5q71.5 -24.5 187.5 -24.5q110 0 233.5 31 t218.5 88l21 -23q-55 -55 -143 -109t-185.5 -89t-179.5 -35q-85 0 -150 31t-105 85t-54 121l33 10q52 -61 123.5 -85.5z" />
<glyph unicode="&#x16d;" horiz-adv-x="1161" d="M1061 332l-51 -150q-74 -211 -248 -211q-34 0 -62.5 14.5t-42.5 41.5q-12 25 -12 63q0 54 29 168l65 257q-82 -198 -158.5 -317.5t-154 -173t-166.5 -53.5q-173 0 -173 158q0 64 30 152l198 598q16 50 16 77q0 50 -48 50q-42 0 -80 -46.5t-78 -162.5l-27 -76h-39l52 149 q72 211 247 211q144 0 144 -127q0 -56 -33 -159l-195 -586q-20 -60 -20 -102q0 -70 65 -70q78 0 173.5 114t188 318t162.5 462l31 122q117 3 187 28l-254 -907q-15 -52 -15 -80q0 -47 44 -47q45 0 82.5 48.5t76.5 160.5l27 76h39zM529.5 1503.5q34.5 -37.5 80 -53.5 t111.5 -16q101 0 219.5 48.5t204.5 131.5l20 -23q-50 -70 -133.5 -138.5t-176.5 -112.5t-169 -44q-108 0 -172 83t-84 216l33 11q32 -65 66.5 -102.5z" />
<glyph unicode="&#x16e;" horiz-adv-x="1397" d="M1306 1303q0 56 -35 79t-116 27l10 41q70 -6 207 -6q123 0 193 6l-11 -41q-72 -3 -111.5 -21t-63 -58t-42.5 -118l-159 -616q-75 -285 -201 -434q-75 -88 -185 -139.5t-235 -51.5q-219 0 -315 111q-72 80 -72 208q0 106 51 300l170 643q17 65 17 98q0 31 -13.5 47 t-42.5 22.5t-82 8.5l13 41q82 -6 264 -6q157 0 256 6l-12 -41q-75 -3 -112 -16t-58 -48t-41 -112l-181 -678q-45 -177 -45 -277q0 -113 55.5 -174t186.5 -61q215 0 338.5 139.5t189.5 390.5l168 639q14 56 14 91zM1122 1874q40 -20 63.5 -57t23.5 -86q0 -56 -32 -104.5 t-85 -77.5t-112 -29q-74 0 -122 44t-48 119q0 58 30 106.5t81 76.5t112 28q49 0 89 -20zM1070 1585q39 22 62.5 61t23.5 87q0 37 -19 63.5t-49 40.5t-63 14q-41 0 -78.5 -23.5t-60.5 -61.5t-23 -80q0 -58 37 -90.5t88 -32.5q43 0 82 22z" />
<glyph unicode="&#x16f;" horiz-adv-x="1161" d="M1061 332l-51 -150q-74 -211 -248 -211q-34 0 -62.5 14.5t-42.5 41.5q-12 25 -12 63q0 54 29 168l65 257q-82 -198 -158.5 -317.5t-154 -173t-166.5 -53.5q-173 0 -173 158q0 64 30 152l198 598q16 50 16 77q0 50 -48 50q-42 0 -80 -46.5t-78 -162.5l-27 -76h-39l52 149 q72 211 247 211q144 0 144 -127q0 -56 -33 -159l-195 -586q-20 -60 -20 -102q0 -70 65 -70q78 0 173.5 114t188 318t162.5 462l31 122q117 3 187 28l-254 -907q-15 -52 -15 -80q0 -47 44 -47q45 0 82.5 48.5t76.5 160.5l27 76h39zM859 1599.5q40 -20.5 63.5 -57.5t23.5 -86 q0 -56 -32 -104.5t-85 -77.5t-112 -29q-74 0 -122 44.5t-48 119.5q0 58 30 106.5t81 76.5t112 28q49 0 89 -20.5zM807 1310.5q39 22.5 62.5 61.5t23.5 86q0 37 -19 64t-49 41t-63 14q-41 0 -78.5 -23.5t-60.5 -62t-23 -80.5q0 -58 37 -90.5t88 -32.5q43 0 82 22.5z" />
<glyph unicode="&#x170;" horiz-adv-x="1397" d="M1306 1303q0 56 -35 79t-116 27l10 41q70 -6 207 -6q123 0 193 6l-11 -41q-72 -3 -111.5 -21t-63 -58t-42.5 -118l-159 -616q-75 -285 -201 -434q-75 -88 -185 -139.5t-235 -51.5q-219 0 -315 111q-72 80 -72 208q0 106 51 300l170 643q17 65 17 98q0 31 -13.5 47 t-42.5 22.5t-82 8.5l13 41q82 -6 264 -6q157 0 256 6l-12 -41q-75 -3 -112 -16t-58 -48t-41 -112l-181 -678q-45 -177 -45 -277q0 -113 55.5 -174t186.5 -61q215 0 338.5 139.5t189.5 390.5l168 639q14 56 14 91zM1206.5 1717.5q65.5 63.5 107 103t81.5 67.5q39 29 76 29 q31 0 49 -25q10 -14 10 -31q0 -45 -67 -94q-34 -23 -74 -43t-136 -62.5t-161 -80.5l-12 25q61 48 126.5 111.5zM823.5 1717.5q65.5 63.5 107 103t81.5 67.5q38 28 76 28q35 0 51 -28q7 -13 7 -28q0 -45 -66 -93q-34 -23 -74 -43t-136.5 -62.5t-160.5 -80.5l-12 25 q61 48 126.5 111.5z" />
<glyph unicode="&#x171;" horiz-adv-x="1161" d="M1061 332l-51 -150q-74 -211 -248 -211q-34 0 -62.5 14.5t-42.5 41.5q-12 25 -12 63q0 54 29 168l65 257q-82 -198 -158.5 -317.5t-154 -173t-166.5 -53.5q-173 0 -173 158q0 64 30 152l198 598q16 50 16 77q0 50 -48 50q-42 0 -80 -46.5t-78 -162.5l-27 -76h-39l52 149 q72 211 247 211q144 0 144 -127q0 -56 -33 -159l-195 -586q-20 -60 -20 -102q0 -70 65 -70q78 0 173.5 114t188 318t162.5 462l31 122q117 3 187 28l-254 -907q-15 -52 -15 -80q0 -47 44 -47q45 0 82.5 48.5t76.5 160.5l27 76h39zM505 1370q31 56 75 141t73 123q35 46 78 46 q25 0 45 -15q28 -23 28 -57q0 -33 -28 -70q-30 -38 -89 -89.5t-113 -100.5t-122 -121l-22 18q44 69 75 125zM868.5 1367.5q30.5 54.5 75 141t74.5 125.5q35 46 78 46q26 0 45 -15q27 -22 27 -58q0 -33 -27 -69q-30 -38 -89 -89.5t-113 -100.5t-122 -121l-22 18 q43 68 73.5 122.5z" />
<glyph unicode="&#x172;" horiz-adv-x="1397" d="M1306 1303q0 56 -35 79t-116 27l10 41q70 -6 207 -6q123 0 193 6l-11 -41q-72 -3 -111.5 -21t-63 -58t-42.5 -118l-159 -616q-75 -285 -201 -434q-75 -88 -185 -139.5t-235 -51.5q-219 0 -315 111q-72 80 -72 208q0 106 51 300l170 643q17 65 17 98q0 31 -13.5 47 t-42.5 22.5t-82 8.5l13 41q82 -6 264 -6q157 0 256 6l-12 -41q-75 -3 -112 -16t-58 -48t-41 -112l-181 -678q-45 -177 -45 -277q0 -113 55.5 -174t186.5 -61q215 0 338.5 139.5t189.5 390.5l168 639q14 56 14 91zM581.5 -76.5q-73.5 -56.5 -73.5 -134.5q0 -76 80 -76 q39 0 84.5 16.5t73.5 37.5l22 -35q-123 -117 -264 -117q-74 0 -113 32t-39 87q0 92 97 161t223 111h78q-95 -26 -168.5 -82.5z" />
<glyph unicode="&#x173;" horiz-adv-x="1161" d="M1061 332l-51 -150q-74 -211 -248 -211q-34 0 -62.5 14.5t-42.5 41.5q-12 25 -12 63q0 54 29 168l65 257q-82 -198 -158.5 -317.5t-154 -173t-166.5 -53.5q-173 0 -173 158q0 64 30 152l198 598q16 50 16 77q0 50 -48 50q-42 0 -80 -46.5t-78 -162.5l-27 -76h-39l52 149 q72 211 247 211q144 0 144 -127q0 -56 -33 -159l-195 -586q-20 -60 -20 -102q0 -70 65 -70q78 0 173.5 114t188 318t162.5 462l31 122q117 3 187 28l-254 -907q-15 -52 -15 -80q0 -47 44 -47q45 0 82.5 48.5t76.5 160.5l27 76h39zM773 -37q-56 -30 -94 -74t-38 -98 q0 -38 20.5 -58t57.5 -20q38 0 77 18t62 46l25 -23q-116 -139 -250 -139q-70 0 -109 33t-39 88q0 90 97.5 159t222.5 111h78q-54 -13 -110 -43z" />
<glyph unicode="&#x174;" horiz-adv-x="1847" d="M1880 1444q92 0 156 6l-11 -41q-121 -25 -194 -178l-612 -1241h-33l-147 933l-556 -933h-32l-162 1288q-18 127 -113 131l8 41q84 -6 203 -6q148 0 221 6l-8 -41q-63 -4 -90.5 -28.5t-27.5 -90.5q0 -23 3 -53l115 -977l429 726l-46 292q-20 127 -92 131l8 41 q73 -6 182 -6q177 0 262 6l-8 -41q-62 -3 -95.5 -12t-49.5 -31t-16 -64q0 -27 6 -65l146 -931l400 812q68 136 68 200q0 50 -38 69.5t-120 21.5l11 41q112 -6 233 -6zM1385 1629.5q-68 27.5 -117.5 55t-65.5 35.5q-226 -95 -422 -139l-10 29q147 45 274.5 116t206.5 150h37 q57 -99 122 -163t163 -103l-9 -29q-111 21 -179 48.5z" />
<glyph unicode="&#x175;" horiz-adv-x="1403" d="M380.5 658q-153.5 -215 -153.5 -441q0 -99 29 -141.5t84 -42.5q104 0 212 98q-15 52 -15 121q0 115 50 227t121 184t128 72q40 0 55.5 -42.5t15.5 -100.5q0 -112 -59.5 -223.5t-175.5 -202.5q46 -135 164 -135q130 0 221.5 100.5t137 248t45.5 286.5q0 80 -15 135 q-45 8 -89.5 30.5t-75 60.5t-30.5 91q0 50 26 74t60 24q108 0 152 -241q17 -79 17 -171q0 -166 -54.5 -326.5t-168.5 -266t-282 -105.5q-161 0 -216 126q-137 -126 -283 -126q-132 0 -193 66.5t-61 167.5q0 174 172.5 378t416.5 387q-23 -14 -66.5 -40.5t-76 -41 t-57.5 -14.5q-17 0 -32 6.5t-44.5 26t-52.5 19.5q-33 0 -55.5 -28t-45.5 -99l-24 -76h-39l47 149q37 114 84.5 161.5t105.5 47.5q39 0 75.5 -26.5t58.5 -40t55 -13.5q91 0 164 64l28 39l43 -21q-250 -210 -403.5 -425zM746 637q-41 -53 -70 -136t-29 -167q0 -72 14 -131 q91 76 145 181t54 210q0 96 -39 96q-34 0 -75 -53zM976 1346q-77 51 -148 129q-179 -141 -359 -213l-10 28q133 57 249.5 151.5t191.5 200.5h36q22 -128 78 -210.5t166 -141.5l-8 -28q-119 33 -196 84z" />
<glyph unicode="&#x176;" horiz-adv-x="1372" d="M312 1402q24 38 61 57.5t94 19.5q108 0 174.5 -88t103.5 -245.5t64 -408.5q148 372 383 609q133 133 242 133q60 0 87 -31.5t27 -78.5q0 -30 -13 -63t-40.5 -56t-67.5 -23q-77 0 -77 81q0 33 18 67t47 61h-6q-55 -3 -113 -45q-108 -78 -231.5 -251.5t-236.5 -447.5 l-119 -475q-17 -66 -17 -99q0 -30 13.5 -46t42 -22.5t81.5 -8.5l-10 -41q-92 6 -254 6q-180 0 -268 -6l10 41q74 3 111 16t59 48.5t41 111.5l120 478q-73 671 -239 671q-35 0 -58 -22t-40 -74l-57 -168h-45l67 198q22 64 46 102zM1175 1629.5q-68 27.5 -117.5 55t-65.5 35.5 q-226 -95 -422 -139l-10 29q147 45 274.5 116t206.5 150h37q57 -99 122 -163t163 -103l-9 -29q-111 21 -179 48.5z" />
<glyph unicode="&#x177;" horiz-adv-x="985" d="M768 449q82 172 115 339q-63 33 -109.5 81t-46.5 108q0 49 29 76.5t75 27.5q107 0 107 -166q0 -131 -58 -295t-150.5 -325t-194.5 -289q-192 -239 -404 -340q-107 -51 -178 -51q-44 0 -73.5 22t-29.5 62q0 42 33 67t78 25q43 0 83 -21t87 -59q161 85 307 245l-151 918 q-11 63 -25.5 88t-40.5 25t-54 -40t-67 -148l-26 -76h-39l51 149q72 209 236 209q43 0 72 -17t47 -58t28 -113l105 -770q112 154 194 326zM761 1346q-77 51 -148 129q-179 -141 -359 -213l-10 28q133 57 249.5 151.5t191.5 200.5h36q22 -128 78 -210.5t166 -141.5l-8 -28 q-119 33 -196 84z" />
<glyph unicode="&#x178;" horiz-adv-x="1372" d="M312 1402q24 38 61 57.5t94 19.5q108 0 174.5 -88t103.5 -245.5t64 -408.5q148 372 383 609q133 133 242 133q60 0 87 -31.5t27 -78.5q0 -30 -13 -63t-40.5 -56t-67.5 -23q-77 0 -77 81q0 33 18 67t47 61h-6q-55 -3 -113 -45q-108 -78 -231.5 -251.5t-236.5 -447.5 l-119 -475q-17 -66 -17 -99q0 -30 13.5 -46t42 -22.5t81.5 -8.5l-10 -41q-92 6 -254 6q-180 0 -268 -6l10 41q74 3 111 16t59 48.5t41 111.5l120 478q-73 671 -239 671q-35 0 -58 -22t-40 -74l-57 -168h-45l67 198q22 64 46 102zM654 1748q19 31 51 51t68 20q43 0 72.5 -30 t29.5 -73q0 -33 -19 -64.5t-50.5 -51t-67.5 -19.5q-46 0 -74.5 29.5t-28.5 75.5q0 31 19 62zM1089 1748q19 31 50.5 51t67.5 20q43 0 72.5 -30t29.5 -73q0 -33 -19 -64.5t-50.5 -51t-67.5 -19.5q-45 0 -73.5 30t-28.5 75q0 31 19 62z" />
<glyph unicode="&#x179;" horiz-adv-x="1335" d="M915 1200q-87 0 -174.5 38.5t-139 57.5t-124.5 19q-68 0 -103.5 -35.5t-35.5 -99.5q0 -120 147 -150l-8 -41q-92 17 -154.5 73.5t-62.5 164.5q0 73 30 130t86.5 89.5t131.5 32.5q67 0 118.5 -27.5t152.5 -109.5t198 -82q79 0 142 21t161 71q37 53 77.5 86t72.5 33 q16 0 30 -11q12 -10 12 -27q0 -28 -38 -62.5t-115 -63.5l-567 -557h311l-16 -41h-336l-580 -570q188 111 354 111q87 0 175 -38.5t139.5 -57.5t124.5 -19q68 0 103.5 35.5t35.5 99.5q0 120 -148 150l9 41q92 -17 154.5 -73.5t62.5 -164.5q0 -73 -30 -130t-86.5 -89.5 t-131.5 -32.5q-68 0 -119 28t-152.5 109.5t-197.5 81.5q-79 0 -142.5 -21.5t-160.5 -70.5q-37 -53 -78.5 -86t-72.5 -33q-16 0 -29 11q-12 10 -12 27q0 28 38 62.5t115 63.5l576 566h-332l14 41h359l571 561q-188 -111 -355 -111zM915 1695.5q56 41.5 140 106.5t130 92 q39 24 78 24q43 0 58 -34q4 -9 4 -20q0 -25 -21.5 -49.5t-50.5 -40.5q-44 -26 -125.5 -56t-157 -60t-172.5 -77l-14 23q75 50 131 91.5z" />
<glyph unicode="&#x17a;" horiz-adv-x="911" d="M200 162q57 24 111 24q49 0 103 -20t92 -32.5t82 -12.5q53 0 82.5 25.5t29.5 76.5q0 54 -44.5 93.5t-116.5 54.5l12 30q96 -21 147.5 -71t51.5 -127q0 -58 -24.5 -106.5t-77.5 -78.5t-136 -30q-70 0 -136.5 29t-108 44t-107.5 15q-57 0 -100 -16.5t-85 -59.5h-55l924 973 q-93 -59 -149.5 -83t-110.5 -24q-49 0 -103 20.5t-92 33t-82 12.5q-53 0 -82.5 -26t-29.5 -77q0 -54 44.5 -93.5t116.5 -53.5l-12 -31q-199 46 -199 199q0 58 24.5 106.5t77.5 78.5t136 30q70 0 136.5 -29t108 -44t107.5 -15q57 0 100 16.5t85 59.5h55l-924 -973 q92 58 149 82zM601.5 1365q41.5 54 105.5 141.5t104 127.5q40 46 84 46q25 0 45 -15q16 -16 16 -40q0 -41 -46 -87q-36 -38 -106 -89t-134 -100.5t-145 -121.5l-21 18q56 66 97.5 120z" />
<glyph unicode="&#x17b;" horiz-adv-x="1335" d="M915 1200q-87 0 -174.5 38.5t-139 57.5t-124.5 19q-68 0 -103.5 -35.5t-35.5 -99.5q0 -120 147 -150l-8 -41q-92 17 -154.5 73.5t-62.5 164.5q0 73 30 130t86.5 89.5t131.5 32.5q67 0 118.5 -27.5t152.5 -109.5t198 -82q79 0 142 21t161 71q37 53 77.5 86t72.5 33 q16 0 30 -11q12 -10 12 -27q0 -28 -38 -62.5t-115 -63.5l-567 -557h311l-16 -41h-336l-580 -570q188 111 354 111q87 0 175 -38.5t139.5 -57.5t124.5 -19q68 0 103.5 35.5t35.5 99.5q0 120 -148 150l9 41q92 -17 154.5 -73.5t62.5 -164.5q0 -73 -30 -130t-86.5 -89.5 t-131.5 -32.5q-68 0 -119 28t-152.5 109.5t-197.5 81.5q-79 0 -142.5 -21.5t-160.5 -70.5q-37 -53 -78.5 -86t-72.5 -33q-16 0 -29 11q-12 10 -12 27q0 28 38 62.5t115 63.5l576 566h-332l14 41h359l571 561q-188 -111 -355 -111zM873.5 1761.5q20.5 35.5 55.5 58.5t76 23 q47 0 75.5 -30.5t28.5 -77.5q0 -37 -20.5 -73t-56 -58.5t-76.5 -22.5q-46 0 -74.5 31t-28.5 78q0 36 20.5 71.5z" />
<glyph unicode="&#x17c;" horiz-adv-x="911" d="M200 162q57 24 111 24q49 0 103 -20t92 -32.5t82 -12.5q53 0 82.5 25.5t29.5 76.5q0 54 -44.5 93.5t-116.5 54.5l12 30q96 -21 147.5 -71t51.5 -127q0 -58 -24.5 -106.5t-77.5 -78.5t-136 -30q-70 0 -136.5 29t-108 44t-107.5 15q-57 0 -100 -16.5t-85 -59.5h-55l924 973 q-93 -59 -149.5 -83t-110.5 -24q-49 0 -103 20.5t-92 33t-82 12.5q-53 0 -82.5 -26t-29.5 -77q0 -54 44.5 -93.5t116.5 -53.5l-12 -31q-199 46 -199 199q0 58 24.5 106.5t77.5 78.5t136 30q70 0 136.5 -29t108 -44t107.5 -15q57 0 100 16.5t85 59.5h55l-924 -973 q92 58 149 82zM561 1482.5q20 36.5 54.5 60.5t76.5 24q47 0 76 -29.5t29 -75.5q0 -37 -20.5 -73.5t-56 -60t-77.5 -23.5q-45 0 -73.5 29.5t-28.5 74.5q0 37 20 73.5z" />
<glyph unicode="&#x17d;" horiz-adv-x="1335" d="M915 1200q-87 0 -174.5 38.5t-139 57.5t-124.5 19q-68 0 -103.5 -35.5t-35.5 -99.5q0 -120 147 -150l-8 -41q-92 17 -154.5 73.5t-62.5 164.5q0 73 30 130t86.5 89.5t131.5 32.5q67 0 118.5 -27.5t152.5 -109.5t198 -82q79 0 142 21t161 71q37 53 77.5 86t72.5 33 q16 0 30 -11q12 -10 12 -27q0 -28 -38 -62.5t-115 -63.5l-567 -557h311l-16 -41h-336l-580 -570q188 111 354 111q87 0 175 -38.5t139.5 -57.5t124.5 -19q68 0 103.5 35.5t35.5 99.5q0 120 -148 150l9 41q92 -17 154.5 -73.5t62.5 -164.5q0 -73 -30 -130t-86.5 -89.5 t-131.5 -32.5q-68 0 -119 28t-152.5 109.5t-197.5 81.5q-79 0 -142.5 -21.5t-160.5 -70.5q-37 -53 -78.5 -86t-72.5 -33q-16 0 -29 11q-12 10 -12 27q0 28 38 62.5t115 63.5l576 566h-332l14 41h359l571 561q-188 -111 -355 -111zM795 1844.5q68 -27.5 117.5 -55t66.5 -36.5 q229 97 422 139l10 -28q-148 -46 -275.5 -117t-205.5 -150h-37q-58 99 -123 163.5t-162 103.5l8 28q111 -20 179 -47.5z" />
<glyph unicode="&#x17e;" horiz-adv-x="911" d="M200 162q57 24 111 24q49 0 103 -20t92 -32.5t82 -12.5q53 0 82.5 25.5t29.5 76.5q0 54 -44.5 93.5t-116.5 54.5l12 30q96 -21 147.5 -71t51.5 -127q0 -58 -24.5 -106.5t-77.5 -78.5t-136 -30q-70 0 -136.5 29t-108 44t-107.5 15q-57 0 -100 -16.5t-85 -59.5h-55l924 973 q-93 -59 -149.5 -83t-110.5 -24q-49 0 -103 20.5t-92 33t-82 12.5q-53 0 -82.5 -26t-29.5 -77q0 -54 44.5 -93.5t116.5 -53.5l-12 -31q-199 46 -199 199q0 58 24.5 106.5t77.5 78.5t136 30q70 0 136.5 -29t108 -44t107.5 -15q57 0 100 16.5t85 59.5h55l-924 -973 q92 58 149 82zM556.5 1558.5q77.5 -50.5 148.5 -128.5q179 139 359 212l10 -28q-133 -57 -249.5 -151.5t-190.5 -200.5h-37q-22 129 -78 211t-166 141l8 28q118 -33 195.5 -83.5z" />
<glyph unicode="&#x192;" horiz-adv-x="954" d="M516.5 1260.5q29.5 79.5 65.5 136t88 102.5q52 48 123.5 75.5t146.5 27.5q62 0 107.5 -19t69 -52.5t23.5 -74.5q0 -15 -5 -37q-13 -45 -49.5 -74.5t-84.5 -29.5q-41 0 -64 18.5t-23 52.5q0 16 4 31q23 77 116 105q-2 19 -28.5 34t-67.5 15q-93 0 -152 -76 q-26 -30 -46.5 -79t-41.5 -120.5t-67 -240.5l-1 -2h343l-10 -41h-343l-208 -776q-46 -168 -102 -292t-140 -204q-65 -62 -135.5 -93.5t-136.5 -31.5q-57 0 -85 22t-28 59q0 15 4 28q11 42 44 69t77 27q33 0 52 -18t19 -47q0 -15 -4 -27q-8 -44 -53 -82q84 9 132.5 58.5 t78.5 162.5l306 1145h-251l11 41h251l1 2q34 126 63.5 205.5z" />
<glyph unicode="&#x1f4;" horiz-adv-x="1444" d="M1331 1133q0 94 -28 149q-43 75 -128 117.5t-188 42.5q-212 0 -369.5 -178t-241 -430t-83.5 -461q0 -184 87 -272.5t267 -88.5q67 0 128 19t106 45q41 24 61.5 55t32.5 74l47 180q18 68 18 106q0 36 -17 54.5t-52.5 26t-102.5 10.5l11 41q99 -7 286 -7q146 0 215 7 l-10 -41q-49 -4 -73 -16.5t-40.5 -46.5t-37.5 -113l-109 -406h-41q6 32 6 54q0 63 -31 63q-13 0 -27.5 -6.5t-49.5 -28.5q-86 -55 -169.5 -83t-179.5 -28q-250 0 -383 122t-133 347q0 237 116 479.5t321.5 401t459.5 158.5q85 0 146 -17t103.5 -45t86.5 -71q19 -19 36 -19 q39 0 81 123h45q-68 -177 -131 -471h-45q10 88 10 154zM1005 1695.5q56 41.5 140 106.5t130 92q39 24 78 24q43 0 58 -34q4 -9 4 -20q0 -25 -21.5 -49.5t-50.5 -40.5q-44 -26 -125.5 -56t-157 -60t-172.5 -77l-14 23q75 50 131 91.5z" />
<glyph unicode="&#x1f5;" horiz-adv-x="920" d="M616.5 113.5q49.5 -21.5 77 -53.5t27.5 -80q0 -80 -69.5 -168.5t-207.5 -149.5t-331 -61q-154 0 -232 40.5t-78 108.5q0 160 349 297q-78 33 -78 107q0 44 24.5 83.5t93 87.5t197.5 111q-129 3 -203.5 59t-74.5 164q0 86 48 184.5t152 168t262 69.5q58 0 105 -10 q65 104 133 154q67 45 133 45q88 0 88 -72q0 -29 -16 -56.5t-42 -45t-56 -17.5q-26 0 -42 16t-16 44q0 41 27 73q-4 4 -12 4q-17 0 -50 -20q-54 -35 -112 -134q153 -47 153 -210q0 -94 -51 -184.5t-144 -153t-211 -75.5q-33 -18 -103.5 -56t-105 -66t-34.5 -53 q0 -38 123 -69l149 -39q78 -21 127.5 -42.5zM578 544.5q61 71.5 83.5 170t22.5 196.5q0 133 -121 133q-104 0 -165 -86.5t-85 -190.5t-24 -161q0 -71 31.5 -102t91.5 -31q105 0 166 71.5zM-25 -215q0 -72 54 -111t141 -39q94 0 190.5 36t159 97t62.5 134q0 23 -20 33t-55 19 t-48 13l-275 70q-209 -112 -209 -252zM601.5 1365q41.5 54 105.5 141.5t104 127.5q40 46 84 46q25 0 45 -15q16 -16 16 -40q0 -41 -46 -87q-36 -38 -106 -89t-134 -100.5t-145 -121.5l-21 18q56 66 97.5 120z" />
<glyph unicode="&#x218;" horiz-adv-x="1135" d="M1059 1047h-41q12 57 12 116q0 78 -30.5 140.5t-96 99.5t-164.5 37q-129 0 -207.5 -66t-78.5 -194q0 -151 171.5 -310.5t259 -257t87.5 -239.5q0 -134 -77 -224.5t-195.5 -134t-245.5 -43.5q-108 0 -173.5 26.5t-117.5 68.5q-39 30 -74 30q-24 0 -41 -24t-43 -86h-41 q69 163 139 491h41q-11 -61 -15 -94.5t-3 -71.5q13 -299 334 -299q139 0 220 63.5t81 192.5q0 168 -156.5 316.5t-236.5 242t-80 252.5q0 126 64 216.5t167.5 137t218.5 46.5q84 0 145.5 -20.5t121.5 -65.5q47 -37 67 -37q17 0 32 25t36 83h41q-74 -180 -121 -417z M437.5 -407.5q45.5 34.5 49.5 79.5q-16 -14 -40.5 -23t-49.5 -9q-41 0 -66.5 23t-25.5 65q0 34 17.5 64.5t48 48.5t67.5 18q53 0 83 -34t30 -87q0 -160 -201 -232l-14 35q56 17 101.5 51.5z" />
<glyph unicode="&#x219;" horiz-adv-x="780" d="M215 12q93 0 150 55.5t57 155.5q0 65 -24.5 128t-82.5 143q-49 67 -72.5 103t-42 86t-18.5 108q0 85 42.5 151t115.5 102.5t160 36.5q106 0 178 -39.5t72 -138.5q0 -22 -10 -46.5t-31.5 -42t-53.5 -17.5q-35 0 -58.5 24t-23.5 62q0 66 58 137q-41 24 -103 24 q-78 0 -128 -52t-50 -142q0 -54 18 -92.5t52 -87t53 -76.5q61 -95 91 -162t30 -139q0 -93 -48 -166.5t-128.5 -114.5t-175.5 -41q-118 0 -197.5 50t-79.5 153q0 36 19.5 64t60.5 28q46 0 68 -37t22 -92q0 -36 -14 -106q38 -19 94 -19zM-158.5 -407.5q45.5 34.5 49.5 79.5 q-16 -14 -40.5 -23t-49.5 -9q-41 0 -66.5 22.5t-25.5 63.5q0 31 16 62t46 51t71 20q53 0 83 -33.5t30 -85.5q0 -77 -42.5 -135.5t-158.5 -98.5l-14 35q56 17 101.5 51.5z" />
<glyph unicode="&#x21a;" horiz-adv-x="1350" d="M588 1421q-178 0 -230 -35q16 -21 26.5 -54.5t10.5 -63.5q0 -47 -26 -83t-76 -36q-44 0 -67 27.5t-23 74.5q0 107 108 160q96 47 275 47q81 0 156 -7t237.5 -28.5t280.5 -21.5q91 0 152.5 10t110.5 35q-50 51 -50 115q0 46 25.5 79t74.5 33q45 0 68.5 -28t23.5 -70 q0 -45 -26.5 -83t-69.5 -65q-109 -67 -324 -67q-91 0 -210 14l-302 -1136q-18 -64 -18 -104q0 -35 17 -54.5t53.5 -28t101.5 -10.5l-8 -41q-108 6 -306 6q-200 0 -299 -6l9 41q87 3 134.5 21t74.5 58t51 118l309 1160q-166 23 -264 23zM572.5 -407.5q45.5 34.5 49.5 79.5 q-16 -14 -40.5 -23t-49.5 -9q-41 0 -66.5 23t-25.5 65q0 34 17.5 64.5t48 48.5t67.5 18q53 0 83 -34t30 -87q0 -160 -201 -232l-14 35q56 17 101.5 51.5z" />
<glyph unicode="&#x21b;" horiz-adv-x="688" d="M241 128q0 -41 24.5 -61t64.5 -20q51 0 95.5 44t86.5 161l29 80h39l-43 -129q-43 -127 -112 -179.5t-169 -52.5q-92 0 -137.5 45t-45.5 125q0 49 19 117l217 754h-184l10 41h186l89 311q113 3 184 29l-97 -340h271l-6 -41h-276l-238 -838q-7 -24 -7 -46zM-196.5 -407.5 q45.5 34.5 49.5 79.5q-16 -14 -40.5 -23t-49.5 -9q-41 0 -66.5 22.5t-25.5 63.5q0 31 16 62t46 51t71 20q53 0 83 -33.5t30 -85.5q0 -77 -42.5 -135.5t-158.5 -98.5l-14 35q56 17 101.5 51.5z" />
<glyph unicode="&#x237;" horiz-adv-x="565" d="M-86 -365q-59 -20 -121 -20q-46 0 -71 21.5t-25 58.5q0 29 16.5 58.5t44.5 48t60 18.5q31 0 49 -18t18 -46q0 -55 -57 -110q78 9 124.5 58.5t78.5 162.5l284 1012q15 51 15 80q0 47 -45 47q-42 0 -79 -48t-77 -161l-27 -76h-39l50 149q70 211 252 211q136 0 136 -125 q0 -54 -30 -161l-158 -559q-141 -506 -399 -601z" />
<glyph unicode="&#x2c6;" horiz-adv-x="823" d="M613 1346q-77 51 -148 129q-179 -141 -359 -213l-10 28q133 57 249.5 151.5t191.5 200.5h36q22 -128 78 -210.5t166 -141.5l-8 -28q-119 33 -196 84z" />
<glyph unicode="&#x2c7;" horiz-adv-x="823" d="M459.5 1558.5q77.5 -50.5 148.5 -128.5q179 139 359 212l10 -28q-133 -57 -249.5 -151.5t-190.5 -200.5h-37q-22 129 -78 211t-166 141l8 28q118 -33 195.5 -83.5z" />
<glyph unicode="&#x2d8;" horiz-adv-x="1227" d="M398.5 1503.5q34.5 -37.5 80 -53.5t111.5 -16q101 0 219.5 48.5t204.5 131.5l20 -23q-50 -70 -133.5 -138.5t-176.5 -112.5t-169 -44q-108 0 -172 83t-84 216l33 11q32 -65 66.5 -102.5z" />
<glyph unicode="&#x2d9;" horiz-adv-x="406" d="M96 1482.5q20 36.5 54.5 60.5t76.5 24q47 0 76 -29.5t29 -75.5q0 -37 -20.5 -73.5t-56 -60t-77.5 -23.5q-45 0 -73.5 29.5t-28.5 74.5q0 37 20 73.5z" />
<glyph unicode="&#x2da;" horiz-adv-x="535" d="M380 1599.5q40 -20.5 63.5 -57.5t23.5 -86q0 -56 -32 -104.5t-85 -77.5t-112 -29q-74 0 -122 44.5t-48 119.5q0 58 30 106.5t81 76.5t112 28q49 0 89 -20.5zM328 1310.5q39 22.5 62.5 61.5t23.5 86q0 37 -19 64t-49 41t-63 14q-41 0 -78.5 -23.5t-60.5 -62t-23 -80.5 q0 -58 37 -90.5t88 -32.5q43 0 82 22.5z" />
<glyph unicode="&#x2db;" horiz-adv-x="1024" d="M638 -37q-56 -30 -94 -74t-38 -98q0 -38 20.5 -58t57.5 -20q38 0 77 18t62 46l25 -23q-116 -139 -250 -139q-70 0 -109 33t-39 88q0 90 97.5 159t222.5 111h78q-54 -13 -110 -43z" />
<glyph unicode="&#x2dc;" horiz-adv-x="842" d="M298.5 1521q71.5 52 150.5 52q59 0 97 -21t98 -75t118 -54q78 0 143 119l37 -10q-45 -107 -116.5 -159t-149.5 -52q-59 0 -97.5 21t-98.5 74.5t-118 53.5q-79 0 -143 -118l-37 10q45 107 116.5 159z" />
<glyph unicode="&#x2dd;" horiz-adv-x="831" d="M116 1370q31 56 75 141t73 123q35 46 78 46q25 0 45 -15q28 -23 28 -57q0 -33 -28 -70q-30 -38 -89 -89.5t-113 -100.5t-122 -121l-22 18q44 69 75 125zM479.5 1367.5q30.5 54.5 75 141t74.5 125.5q35 46 78 46q26 0 45 -15q27 -22 27 -58q0 -33 -27 -69 q-30 -38 -89 -89.5t-113 -100.5t-122 -121l-22 18q43 68 73.5 122.5z" />
<glyph unicode="&#x326;" horiz-adv-x="0" d="M-270.5 -407.5q45.5 34.5 49.5 79.5q-16 -14 -40.5 -23t-49.5 -9q-41 0 -66.5 22.5t-25.5 63.5q0 31 16 62t46 51t71 20q53 0 83 -33.5t30 -85.5q0 -77 -42.5 -135.5t-158.5 -98.5l-14 35q56 17 101.5 51.5z" />
<glyph unicode="&#x394;" horiz-adv-x="1157" d="M502 6q-227 0 -455 -6l477 1479h33l395 -1479q-223 6 -450 6zM731 61l-289 1049l-333 -1049h622z" />
<glyph unicode="&#x3a9;" horiz-adv-x="1630" d="M496.5 357q-134.5 191 -195.5 318.5t-61 291.5q0 160 68.5 275t200.5 176t320 61q189 0 321 -61t200.5 -176t68.5 -275q0 -165 -61.5 -292.5t-195.5 -318t-197 -309.5h98q102 0 161.5 32.5t90.5 105.5t43 204h47q-6 -55 -6 -147q0 -108 14 -242q-59 6 -209 6 q-50 0 -136.5 -2.5t-154.5 -3.5v33q113 167 207 398.5t94 494.5q0 253 -90 384.5t-295 131.5q-204 0 -294.5 -131.5t-90.5 -384.5q0 -262 93.5 -492.5t207.5 -400.5v-33q-67 1 -153.5 3.5t-136.5 2.5q-150 0 -209 -6q14 134 14 242q0 92 -6 147h47q12 -131 43 -204 t90.5 -105.5t161.5 -32.5h98q-63 119 -197.5 310z" />
<glyph unicode="&#x3bc;" horiz-adv-x="1307" d="M1104 245q-55 -108 -133.5 -191t-167.5 -83q-105 0 -105 119q0 55 31 167q-77 -124 -173 -205t-206 -81q-131 0 -131 143q0 25 3 49q-106 -320 -199 -468q-52 -80 -134 -80q-35 0 -53 18.5t-18 47.5q0 34 18 59.5t52 59t53 53.5q94 95 159 188t111 205.5t76 259.5 q82 421 96 467q20 59 56 84.5t77 25.5q65 0 65 -59q0 -12 -3 -27q-8 -46 -58.5 -122.5t-91 -143t-74.5 -149.5q-58 -160 -58 -255q0 -83 37 -110t91 -27q112 0 199 60t163 196l25 79q78 415 88 448q20 59 56 84.5t77 25.5q65 0 65 -59q0 -57 -54.5 -138t-99.5 -158.5 t-95 -222.5q-31 -107 -45 -161q-12 -42 -12 -71q0 -83 86 -83q82 0 148.5 62.5t131.5 206.5l37 -8q-35 -98 -90 -206z" />
<glyph unicode="&#x3c0;" horiz-adv-x="1241" d="M690 273q0 -83 86 -83q83 0 149.5 62.5t131.5 206.5l37 -8q-63 -173 -164 -326.5t-228 -153.5q-102 0 -102 116q0 64 29 159l190 633h-222q-78 -343 -180.5 -550.5t-185.5 -301.5q-48 -56 -120 -56q-33 0 -52.5 18.5t-19.5 49.5q0 44 27 74.5t81.5 71.5t79.5 61 q77 61 128.5 123t104 183.5t100.5 326.5h-77q-91 0 -154 -21t-120.5 -81.5t-116.5 -178.5l-33 8q64 148 140.5 244.5t187.5 148.5t270 52h590l-30 -172h-359l-156 -535q-12 -41 -12 -71z" />
<glyph unicode="&#x401;" horiz-adv-x="1249" d="M907 1444q287 0 408 6q-54 -148 -78 -242q-23 -80 -29 -127h-47q18 110 18 165q0 59 -19 92.5t-63.5 49t-123.5 15.5h-150q-73 0 -109.5 -12t-58.5 -46.5t-43 -111.5l-129 -483h135q102 0 153 61t76 125t34 84h47q-42 -129 -60.5 -201t-23.5 -90q-27 -96 -66 -291h-47 q2 14 9 59t7 80q0 63 -31 97.5t-110 34.5h-134l-132 -492q-18 -64 -18 -99q0 -30 14 -45t43 -20.5t82 -5.5h149q128 0 203.5 34t125.5 109t103 220h48q-20 -50 -46 -148q-30 -110 -55 -262q-139 6 -469 6q-393 0 -592 -6l11 41q74 3 110 16t58 48t43 112l272 1016 q18 65 18 100q0 30 -13.5 45.5t-42 22t-81.5 8.5l10 41q201 -6 594 -6zM574 1748q19 31 51 51t68 20q43 0 72.5 -30t29.5 -73q0 -33 -19 -64.5t-50.5 -51t-67.5 -19.5q-46 0 -74.5 29.5t-28.5 75.5q0 31 19 62zM1009 1748q19 31 50.5 51t67.5 20q43 0 72.5 -30t29.5 -73 q0 -33 -19 -64.5t-50.5 -51t-67.5 -19.5q-45 0 -73.5 30t-28.5 75q0 31 19 62z" />
<glyph unicode="&#x402;" horiz-adv-x="1640" d="M582 1421q-167 0 -220 -35q16 -21 26.5 -54.5t10.5 -63.5q0 -47 -26 -83t-76 -36q-43 0 -66.5 27.5t-23.5 74.5q0 107 108 160q97 47 275 47q82 0 158 -7.5t236.5 -28.5t275.5 -21q75 0 122 10t84 35q-51 52 -51 115q0 46 26 79t75 33q45 0 68.5 -28t23.5 -70 q0 -45 -26.5 -83t-70.5 -65q-46 -34 -109.5 -50.5t-162.5 -16.5q-102 0 -270 23l-177 -663q76 57 185.5 94.5t220.5 37.5q158 0 248 -80t90 -235q0 -141 -73.5 -272t-201.5 -212.5t-284 -81.5q-99 0 -164 35.5t-65 108.5q0 38 18 70.5t50 52.5t73 20q39 0 61.5 -20t22.5 -56 q0 -47 -33.5 -87.5t-83.5 -57.5q22 -35 102 -35q120 0 207.5 81.5t132.5 204t45 242.5q0 142 -62.5 199t-170.5 57q-89 0 -180.5 -30t-148.5 -78l-187 -701q-94 29 -256 29q-63 0 -131 -6l10 41q92 3 137 17.5t70.5 54t48.5 125.5l311 1170q-115 13 -202 13z" />
<glyph unicode="&#x403;" horiz-adv-x="1090" d="M324 126q0 -34 17 -51.5t54 -24.5t105 -9l-11 -41q-106 6 -301 6q-173 0 -260 -6l11 41q74 3 110 16t58 48t43 112l272 1016q18 65 18 100q0 30 -13.5 45.5t-42 22t-81.5 8.5l10 41q258 -6 273 -6q42 -1 124 -1l197 1q244 0 346 6q-46 -133 -84 -262q-16 -60 -39 -168 h-47q22 114 22 194q0 101 -37.5 145t-115.5 44h-129q-73 0 -109.5 -12t-58.5 -46.5t-43 -111.5l-272 -1016q-16 -61 -16 -91zM776 1695.5q56 41.5 140 106.5t130 92q39 24 78 24q43 0 58 -34q4 -9 4 -20q0 -25 -21.5 -49.5t-50.5 -40.5q-44 -26 -125.5 -56t-157 -60 t-172.5 -77l-14 23q75 50 131 91.5z" />
<glyph unicode="&#x404;" horiz-adv-x="1378" d="M1327 979h-45q12 80 12 140q0 96 -32 163q-38 76 -110.5 118t-158.5 42q-134 0 -262.5 -101.5t-228 -268.5t-150.5 -356q49 77 122.5 120t146.5 43q65 0 112.5 -22t136.5 -84t174 -62q47 0 98 27.5t95 82.5l27 -18q-170 -211 -336 -211q-67 0 -115 22t-136.5 84 t-176.5 62q-94 0 -163 -108q-28 -127 -28 -242q0 -198 77.5 -300t215.5 -102q90 0 190.5 42t174.5 118q52 53 91.5 124t92.5 200h45q-93 -340 -121 -492h-45q6 44 6 70q0 52 -24 52q-16 0 -43 -18q-73 -47 -122.5 -73t-114.5 -43t-150 -17q-228 0 -353 123t-125 359 t118 475.5t323.5 395t451.5 155.5q83 0 139 -18t90.5 -44.5t76.5 -70.5q18 -18 31 -18q36 0 81 122h43q-68 -177 -131 -471z" />
<glyph unicode="&#x405;" horiz-adv-x="1135" d="M1059 1047h-41q12 57 12 116q0 78 -30.5 140.5t-96 99.5t-164.5 37q-129 0 -207.5 -66t-78.5 -194q0 -151 171.5 -310.5t259 -257t87.5 -239.5q0 -134 -77 -224.5t-195.5 -134t-245.5 -43.5q-108 0 -173.5 26.5t-117.5 68.5q-39 30 -74 30q-24 0 -41 -24t-43 -86h-41 q69 163 139 491h41q-11 -61 -15 -94.5t-3 -71.5q13 -299 334 -299q139 0 220 63.5t81 192.5q0 168 -156.5 316.5t-236.5 242t-80 252.5q0 126 64 216.5t167.5 137t218.5 46.5q84 0 145.5 -20.5t121.5 -65.5q47 -37 67 -37q17 0 32 25t36 83h41q-74 -180 -121 -417z" />
<glyph unicode="&#x406;" d="M323 118q0 -30 13.5 -46t42.5 -22.5t82 -8.5l-8 -41q-96 6 -260 6q-171 0 -261 -6l11 41q72 3 108 16t57.5 48.5t41.5 111.5l270 1016q17 65 17 98q0 31 -14 47t-42.5 22.5t-81.5 8.5l10 41q84 -6 260 -6q165 0 262 6l-10 -41q-75 -3 -111.5 -16t-58 -48t-41.5 -112 l-270 -1016q-17 -66 -17 -99z" />
<glyph unicode="&#x407;" d="M323 118q0 -30 13.5 -46t42.5 -22.5t82 -8.5l-8 -41q-96 6 -260 6q-171 0 -261 -6l11 41q72 3 108 16t57.5 48.5t41.5 111.5l270 1016q17 65 17 98q0 31 -14 47t-42.5 22.5t-81.5 8.5l10 41q84 -6 260 -6q165 0 262 6l-10 -41q-75 -3 -111.5 -16t-58 -48t-41.5 -112 l-270 -1016q-17 -66 -17 -99zM305 1748q19 31 51 51t68 20q43 0 72.5 -30t29.5 -73q0 -33 -19 -64.5t-50.5 -51t-67.5 -19.5q-46 0 -74.5 29.5t-28.5 75.5q0 31 19 62zM740 1748q19 31 50.5 51t67.5 20q43 0 72.5 -30t29.5 -73q0 -33 -19 -64.5t-50.5 -51t-67.5 -19.5 q-45 0 -73.5 30t-28.5 75q0 31 19 62z" />
<glyph unicode="&#x408;" horiz-adv-x="1303" d="M918.5 984.5q84.5 105.5 183.5 190.5t235 183q-237 -123 -405 -123q-99 0 -200.5 38.5t-160.5 57.5t-143 19q-68 0 -102 -36t-31 -100q1 -60 40 -97.5t111 -51.5l-6 -41q-93 16 -157.5 73t-67.5 165q-3 73 25 130t83 89t130 32t134 -27.5t177 -109.5t227 -82 q66 0 122.5 11t107 29t133.5 52q77 120 127 120q14 0 28 -11q13 -11 13 -25q0 -50 -150 -106q-287 -192 -426 -614h203l-6 -41h-210q-11 -39 -22 -80l-127 -496q-58 -229 -179.5 -373.5t-303.5 -144.5q-96 0 -152.5 30t-56.5 87q0 29 14.5 55.5t40.5 43.5t58 17 q37 0 61.5 -24.5t24.5 -60.5q0 -34 -23 -61.5t-59 -43.5q30 -10 72 -10q132 0 196.5 129.5t105.5 295t56 224.5l61 240q23 91 57 172h-272l7 41h283q59 129 143.5 234.5z" />
<glyph unicode="&#x409;" horiz-adv-x="1915" d="M1546.5 739.5q126.5 -30.5 191 -104.5t64.5 -203q0 -139 -88 -237t-227.5 -146.5t-294.5 -48.5q-49 0 -162.5 3t-189.5 3q-164 0 -250 -6l8 41q74 3 110.5 16t58.5 48t42 112l270 1016q18 63 18 100q0 31 -14 47t-43.5 22.5t-81.5 6.5h-28q-69 0 -104 -13.5t-56 -49.5 t-41 -113q-64 -241 -156 -484t-197.5 -434t-205.5 -272q-87 -72 -182 -72q-121 0 -121 109q0 31 13 64t40.5 56t67.5 23t59 -23.5t19 -58.5q0 -29 -19 -64.5t-47 -62.5h4q73 3 137 54q78 62 172.5 222t192.5 402.5t182 540.5q17 65 17 98q0 31 -13.5 47t-42.5 22.5t-82 8.5 l11 41q65 -6 190 -6q16 0 69 3t113 3q93 0 173.5 -3t103.5 -3q176 0 264 6l-10 -41q-75 -3 -111.5 -16t-58 -48t-41.5 -112l-123 -463h72q201 0 327.5 -30.5zM981 118q0 -39 27 -55t96 -16q260 0 376.5 105.5t116.5 310.5q0 94 -36 153t-124.5 89t-244.5 30h-55l-138 -518 q-18 -67 -18 -99z" />
<glyph unicode="&#x40a;" horiz-adv-x="2054" d="M1845.5 673.5q102.5 -76.5 102.5 -218.5q0 -146 -107.5 -249t-271.5 -154.5t-332 -51.5q-28 0 -94 3t-101 3q-170 0 -260 -6l11 41q72 3 108 16t57 48.5t41 111.5l131 492h-657l-131 -492q-17 -66 -17 -99q0 -30 13.5 -46t42.5 -22.5t82 -8.5l-8 -41q-96 6 -260 6 q-171 0 -261 -6l11 41q72 3 108 16t57.5 48.5t41.5 111.5l270 1016q17 65 17 98q0 31 -14 47t-42.5 22.5t-81.5 8.5l10 41q84 -6 260 -6q164 0 263 6l-11 -41q-75 -3 -111.5 -16t-58 -48t-41.5 -112l-128 -483h657l129 483q17 65 17 98q0 31 -14 47t-42.5 22.5t-81.5 8.5 l10 41q82 -6 260 -6q165 0 262 6l-10 -41q-75 -3 -111.5 -16t-58 -48t-41.5 -112l-128 -483h208q203 0 305.5 -76.5zM1172 114q0 -39 21.5 -55t70.5 -16q147 0 254.5 53.5t165 153.5t57.5 237q0 80 -26.5 128.5t-83.5 71t-150 22.5h-160l-131 -492q-18 -66 -18 -103z" />
<glyph unicode="&#x40b;" horiz-adv-x="1657" d="M592 1421q-177 0 -230 -35q16 -21 26.5 -54.5t10.5 -63.5q0 -47 -26 -83t-76 -36q-43 0 -66.5 27.5t-23.5 74.5q0 107 108 160q97 47 275 47q82 0 157 -7t237 -28.5t280 -21.5q71 0 118 10t84 35q-51 52 -51 115q0 46 26 79t75 33q45 0 68.5 -28t23.5 -70 q0 -45 -26.5 -83t-70.5 -65q-89 -67 -262 -67q-111 0 -280 23l-167 -628q70 38 174 67.5t200 29.5q175 0 258 -100q50 -61 50 -156q0 -62 -24 -152l-65 -254q-11 -42 -11 -68q0 -44 29.5 -61.5t95.5 -17.5l-10 -43q-188 8 -250 8q-59 0 -231 -8l10 43q54 0 87 14t53 45.5 t36 87.5l72 261q26 93 26 154q0 87 -53 134t-174 47q-77 0 -154.5 -17.5t-128.5 -48.5l-128 -482q-19 -68 -19 -104q0 -35 17 -54.5t53.5 -28t101.5 -10.5l-8 -41q-108 6 -305 6q-201 0 -299 -6l8 41q88 3 136.5 21t76 58t47.5 118l311 1170q-111 13 -192 13z" />
<glyph unicode="&#x40c;" horiz-adv-x="1382" d="M791 519q0 91 -18 136.5t-57 78.5q-72 -19 -118 -19q-63 0 -63 41t61 41q42 0 125 -21q148 18 219 119t137 293t127 244q61 47 123 47q63 0 92 -30.5t29 -79.5q0 -27 -12.5 -60.5t-39 -57.5t-67.5 -24q-40 0 -60 24t-20 58q0 29 19 64.5t47 62.5h-6q-41 -2 -74 -29 q-53 -48 -118 -232.5t-137 -292t-224 -125.5q74 -17 118 -42.5t70 -86.5t26 -173l-1 -35l-8 -232l-1 -24q0 -40 13 -60t49 -20q52 0 87 38t65 122l34 104h41l-53 -158q-38 -112 -99.5 -165.5t-150.5 -53.5q-173 0 -173 203q0 23 1 35l14 231q3 43 3 79zM323 118 q0 -30 13.5 -46t42.5 -22.5t82 -8.5l-8 -41q-96 6 -260 6q-171 0 -261 -6l11 41q72 3 108 16t57.5 48.5t41.5 111.5l270 1016q17 65 17 98q0 31 -14 47t-42.5 22.5t-81.5 8.5l10 41q84 -6 260 -6q164 0 262 6l-10 -41q-75 -3 -111.5 -16t-58 -48t-41.5 -112l-270 -1016 q-17 -66 -17 -99zM928 1695.5q56 41.5 140 106.5t130 92q39 24 78 24q43 0 58 -34q4 -9 4 -20q0 -25 -21.5 -49.5t-50.5 -40.5q-44 -26 -125.5 -56t-157 -60t-172.5 -77l-14 23q75 50 131 91.5z" />
</font>
</defs>
</svg>
