<?xml version="1.0" standalone="no"?>
<!DOCTYPE svg PUBLIC "-//W3C//DTD SVG 1.1//EN" "http://www.w3.org/Graphics/SVG/1.1/DTD/svg11.dtd" >
<svg xmlns="http://www.w3.org/2000/svg">
<metadata></metadata>
<defs>
<font id="ralewayextrabold" horiz-adv-x="1208" >
<font-face units-per-em="2048" ascent="1638" descent="-410" />
<missing-glyph horiz-adv-x="477" />
<glyph unicode="&#xfb01;" horiz-adv-x="1218" d="M49 702v248h137v125q0 94 33 175t93.5 140.5t146.5 92.5t190 33q117 0 220.5 -39t209.5 -109l-127 -248q-61 53 -136 86t-146 33q-78 0 -117 -43t-39 -109v-137h594v-950h-328v702h-266v-702h-328v702h-137z" />
<glyph unicode="&#xfb02;" horiz-adv-x="1415" d="M49 702v248h137v156q0 102 34 179t97.5 128t151.5 77t199 26q127 0 219 -31t152.5 -88.5t89 -137t28.5 -178.5v-688q0 -39 21.5 -79t72.5 -40q18 0 38 5.5t37 10.5t29.5 10t14.5 5l41 -264q-2 -2 -27.5 -11.5t-65.5 -19.5t-90 -18t-100 -8q-70 0 -125 19.5t-94 52 t-59.5 76.5t-20.5 93v776q0 37 -5 79t-22.5 78t-49 58.5t-82.5 22.5q-43 0 -73 -17.5t-48.5 -47t-26.5 -67.5t-8 -79v-78h162v-248h-162v-702h-328v702h-137z" />
<glyph unicode="&#xfb03;" horiz-adv-x="1781" d="M49 702v248h137v58q0 94 27 175t76 138t119.5 90t160.5 33q66 0 135.5 -15.5t141.5 -44.5q59 59 150 95.5t210 36.5q104 0 213 -38t223 -110l-126 -248q-59 53 -134 86t-141 33q-86 0 -125 -43t-39 -109v-137h594v-950h-330v702h-264v-702h-327v702h-236v-702h-328v702 h-137zM514 950h236v92v20.5t2 31t3 31t5 18.5q-29 12 -62.5 18t-60.5 6q-66 0 -94.5 -44t-28.5 -103v-70z" />
<glyph unicode="&#xfb04;" horiz-adv-x="1976" d="M49 702v248h137v62q0 96 27 176t77 136t120.5 88t156.5 32q72 0 139.5 -15.5t139.5 -44.5q63 66 160.5 99t222.5 33q254 0 372.5 -119t118.5 -316v-688q0 -39 21.5 -79t73.5 -40q18 0 37.5 5.5t37 10.5t29.5 10t14 5l41 -264q-2 -2 -27.5 -11.5t-65.5 -19.5t-90 -18 t-99 -8q-72 0 -127.5 19.5t-93 52t-58 76.5t-20.5 93v776q0 37 -6.5 79t-22.5 78t-48 58.5t-83 22.5q-43 0 -73 -17.5t-48 -47t-26.5 -67.5t-8.5 -79v-78h162v-248h-162v-702h-327v702h-236v-702h-328v702h-137zM514 950h236v90v21.5t1 32t3 32t4 19.5q-29 12 -60.5 17 t-56.5 5q-66 0 -96.5 -40t-30.5 -105v-72z" />
<glyph horiz-adv-x="2048" />
<glyph horiz-adv-x="2048" />
<glyph unicode="&#xd;" horiz-adv-x="0" />
<glyph unicode=" "  horiz-adv-x="477" />
<glyph unicode="&#x09;" horiz-adv-x="477" />
<glyph unicode="&#xa0;" horiz-adv-x="477" />
<glyph unicode="!" horiz-adv-x="628" d="M152 0v340h327v-340h-327zM152 578v890h327v-890h-327z" />
<glyph unicode="&#x22;" horiz-adv-x="876" d="M113 1063v424h278v-424h-278zM485 1063v424h277v-424h-277z" />
<glyph unicode="#" horiz-adv-x="1513" d="M76 367v243h289l55 234h-244v225h299l94 385h262l-96 -385h189l94 385h262l-96 -385h254v-225h-310l-55 -234h264v-243h-323l-88 -367h-262l90 367h-189l-88 -367h-262l90 367h-229zM625 610h188l53 234h-186z" />
<glyph unicode="$" horiz-adv-x="1312" d="M68 164l147 293q8 -10 45 -34t92.5 -50.5t125 -50t143.5 -31.5v272l-99 29q-100 31 -174 66.5t-123 82.5t-72.5 108.5t-23.5 143.5q0 106 37 189.5t99.5 142.5t147.5 93t183 44v207h143v-207q135 -12 250 -59t201 -96l-146 -279q-6 8 -36.5 26.5t-76.5 40t-102.5 41 t-113.5 27.5v-278l65 -17q104 -29 188.5 -62.5t143.5 -83.5t91 -122t32 -172q0 -117 -41 -199t-109.5 -134t-157.5 -78.5t-188 -30.5v-238h-143v240q-141 12 -279.5 58t-248.5 118zM477 1047q0 -51 36 -80t108 -54v252q-144 -12 -144 -118zM715 287q157 6 157 108 q0 53 -43 83t-114 54v-245z" />
<glyph unicode="%" horiz-adv-x="1679" d="M74 1159q0 66 26.5 123t74.5 100t111.5 68t137.5 25t137.5 -25t111.5 -68t74.5 -100t26.5 -123t-26.5 -124t-74.5 -101t-111.5 -67.5t-137.5 -24.5t-137.5 24.5t-111.5 67.5t-74.5 101.5t-26.5 123.5zM215 115l578 663l524 695l147 -132l-559 -647l-545 -712zM301 1159 q0 -66 36 -112t87 -46t87 46.5t36 111.5q0 66 -37 111t-86 45q-51 0 -87 -46t-36 -110zM905 295q0 66 26.5 124t75 101t112 67.5t136.5 24.5q74 0 137.5 -24.5t111.5 -67.5t75 -101.5t27 -123.5q0 -66 -27 -123t-75 -100t-111.5 -67.5t-137.5 -24.5t-137 24.5t-111.5 67.5 t-75 100t-26.5 123zM1133 295q0 -66 35.5 -111t86.5 -45t87 46t36 110q0 66 -36.5 112t-86.5 46q-51 0 -86.5 -46.5t-35.5 -111.5z" />
<glyph unicode="&#x26;" horiz-adv-x="1501" d="M78 426q0 66 18.5 122t50 103t72.5 88t88 76q-37 45 -63.5 82t-43 73t-23.5 69.5t-7 72.5q0 84 30.5 150.5t86 113.5t131.5 72t164 25q76 0 149.5 -19.5t130 -61.5t91 -104.5t34.5 -148.5q0 -117 -61.5 -206t-159.5 -163l227 -242q27 61 42.5 134t15.5 159h266 q-2 -152 -37 -273.5t-94 -219.5l313 -328h-430l-96 100q-90 -59 -190.5 -89.5t-204.5 -30.5q-119 0 -212.5 37.5t-157 100t-97 142.5t-33.5 166zM393 424q0 -33 14.5 -66.5t42 -60.5t68.5 -44t94 -17q94 0 185 55l-289 307q-53 -41 -84 -82t-31 -92zM467 1124 q0 -33 20.5 -60.5t73.5 -80.5q63 41 94 74t31 78t-28.5 71.5t-75.5 26.5q-53 0 -84 -31t-31 -78z" />
<glyph unicode="'" horiz-adv-x="495" d="M111 1069v418h276v-418h-276z" />
<glyph unicode="(" horiz-adv-x="663" d="M61 711q0 104 24 208.5t66 211t99 215t123 219.5l250 -103q-29 -45 -72 -128t-84 -187.5t-70.5 -219t-29.5 -222.5q0 -166 69.5 -341.5t177.5 -367.5l-239 -117q-63 94 -119.5 196.5t-99.5 208t-69 213.5t-26 214z" />
<glyph unicode=")" horiz-adv-x="663" d="M41 1462l250 103q66 -111 123 -219.5t99 -215t65.5 -211t23.5 -208.5q0 -106 -25.5 -214t-68.5 -213.5t-100.5 -208t-120.5 -196.5l-238 117q109 193 178.5 368t69.5 341q0 109 -29.5 223t-70.5 218.5t-84 187.5t-72 128z" />
<glyph unicode="*" horiz-adv-x="724" d="M96 1241l43 137l150 -69l-13 164h170l-12 -164l152 69l43 -137l-146 -43l97 -154l-121 -79l-97 161l-96 -161l-121 79l97 154z" />
<glyph unicode="+" horiz-adv-x="872" d="M94 596v262h195v213h295v-213h192v-262h-192v-213h-295v213h-195z" />
<glyph unicode="," horiz-adv-x="509" d="M47 -39q6 0 19.5 2t25.5 10.5t21.5 21.5t11.5 38v301h266v-363q0 -72 -33.5 -118t-84 -73.5t-111 -38.5t-115.5 -11v231z" />
<glyph unicode="-" horiz-adv-x="849" d="M111 416v295h630v-295h-630z" />
<glyph unicode="." horiz-adv-x="487" d="M111 0v334h266v-334h-266z" />
<glyph unicode="/" horiz-adv-x="1503" d="M57 0l1033 1454h362l-1034 -1454h-361z" />
<glyph unicode="0" horiz-adv-x="1257" d="M94 600q0 135 41 249t112.5 196.5t169 130t212.5 47.5t213 -47.5t169.5 -130t112.5 -196.5t41 -249t-41 -248.5t-112.5 -196.5t-170 -129t-212.5 -46q-115 0 -212.5 46t-169 129t-112.5 196.5t-41 248.5zM422 600q0 -143 57.5 -231t149.5 -88q90 0 147.5 88t57.5 231 t-57.5 232.5t-147.5 89.5q-92 0 -149.5 -89.5t-57.5 -232.5z" />
<glyph unicode="1" horiz-adv-x="1060" d="M86 672v303q33 0 85 22.5t103.5 54t92.5 64.5t51 53h334v-874h260v-295h-885v295h291v522q-18 -25 -58.5 -50.5t-87.5 -47t-97 -34.5t-89 -13z" />
<glyph unicode="2" horiz-adv-x="1196" d="M76 0q0 96 15 172t52 139.5t97.5 116.5t150.5 102q96 51 160.5 86t103.5 62t55.5 49.5t16.5 50.5q0 57 -42 92t-118 35q-86 0 -149.5 -42t-122.5 -109l-207 241q33 37 87 72t124 62.5t153 44t173 16.5q221 0 339.5 -96.5t118.5 -259.5q0 -68 -21.5 -121.5t-56 -95.5 t-78.5 -73.5t-89 -58.5q-31 -18 -67 -38.5t-70.5 -44t-65.5 -50t-53 -57.5h524v-295h-1030z" />
<glyph unicode="3" horiz-adv-x="1163" d="M51 -119l176 234q53 -57 125 -87t170 -30q229 0 230 170q0 92 -69 139t-216 47h-59v236h67q113 0 177.5 47t64.5 125q0 68 -47 102.5t-125 34.5q-84 0 -152.5 -40t-116.5 -114l-206 238q33 43 87 80t121.5 62.5t145.5 40t158 14.5q109 0 198.5 -26t154 -74t99.5 -114.5 t35 -148.5q0 -61 -19.5 -116.5t-54 -100.5t-83 -75t-105.5 -40q63 -12 115.5 -43.5t90.5 -80t58.5 -111t20.5 -133.5q0 -96 -39 -173t-112 -131.5t-175 -84t-229 -29.5q-309 0 -486 182z" />
<glyph unicode="4" horiz-adv-x="1175" d="M41 20v293l670 856h223v-854h180v-295h-180v-280h-328v280h-565zM367 315h276v363z" />
<glyph unicode="5" horiz-adv-x="1138" d="M49 -63l184 202q59 -72 138.5 -114.5t160.5 -42.5q94 0 152.5 55t58.5 147q0 88 -54 141.5t-138 53.5q-55 0 -103.5 -24.5t-74.5 -69.5h-285q0 2 8 42t19.5 103.5t27 142t31.5 160.5q37 193 84 436h723v-299h-485l-43 -247q14 14 50 25t95 11q104 0 192.5 -34.5t153 -96 t100 -147.5t35.5 -191q0 -111 -41 -201.5t-113.5 -156t-174 -101.5t-220.5 -36q-160 0 -286.5 63.5t-194.5 178.5z" />
<glyph unicode="6" horiz-adv-x="1243" d="M88 670q0 190 40 338.5t113.5 250t180 154.5t240.5 53q135 0 250.5 -55t203.5 -160l-184 -209q-51 66 -123 103t-152 37q-121 0 -191.5 -86t-74.5 -244q41 55 108.5 86t157.5 31q109 0 202 -37t160.5 -101.5t106.5 -152t39 -189.5q0 -106 -41 -199t-112.5 -162 t-170 -108.5t-212.5 -39.5q-127 0 -227.5 47t-170 135t-106.5 216t-37 292zM403 489q0 -47 18.5 -90t49.5 -74.5t72 -50t86 -18.5t86 18.5t71.5 50t49 74.5t18.5 90q0 45 -18.5 86t-49 71t-71.5 47.5t-86 17.5q-47 0 -88 -17.5t-72 -47.5t-48.5 -70.5t-17.5 -86.5z" />
<glyph unicode="7" horiz-adv-x="1196" d="M70 897v299h1126l-717 -1454h-370l571 1155h-610z" />
<glyph unicode="8" horiz-adv-x="1245" d="M84 453q0 57 18.5 107t48 91t66.5 72t72 53q-68 37 -115 108.5t-47 151.5q0 100 46 179t117.5 131.5t160 80t172.5 27.5t172 -26.5t159.5 -79t117.5 -130t46 -178.5q0 -41 -12 -79.5t-34.5 -74.5t-52.5 -63.5t-63 -46.5q37 -23 74 -55.5t66.5 -74.5t47 -93.5t17.5 -112.5 q0 -104 -43 -188t-116.5 -144.5t-172 -93t-208.5 -32.5q-109 0 -206.5 33.5t-171 95t-116.5 148.5t-43 194zM418 459q0 -41 17.5 -74t45 -56.5t64.5 -36.5t78 -13q43 0 79.5 13t64.5 37.5t44 58.5t16 73q0 86 -61 133t-143 47q-86 0 -145.5 -49t-59.5 -133zM461 1030 q0 -37 14 -63.5t37 -44t52.5 -26.5t58.5 -9t58.5 9t53 27.5t37.5 45t14 61.5q0 59 -48 97t-115 38q-70 0 -116 -38t-46 -97z" />
<glyph unicode="9" d="M61 659q0 106 41 199.5t113 162.5t170 108.5t213 39.5q127 0 227.5 -47t170 -135t106.5 -217t37 -291q0 -190 -40 -338.5t-114 -250t-180.5 -154.5t-239.5 -53q-135 0 -250.5 55t-203.5 160l184 208q51 -66 122.5 -102.5t151.5 -36.5q121 0 191.5 86t75.5 244 q-41 -55 -109 -86t-158 -31q-109 0 -202 37t-160.5 101.5t-106.5 151.5t-39 189zM373 659q0 -47 17.5 -87t48 -69.5t71.5 -47t88 -17.5q45 0 86 17.5t71.5 47t49 69.5t18.5 87t-18.5 90.5t-49 75t-71.5 50t-86 18.5t-86 -18.5t-71.5 -50t-49 -74.5t-18.5 -91z" />
<glyph unicode=":" horiz-adv-x="534" d="M133 0v334h268v-334h-268zM133 729v334h268v-334h-268z" />
<glyph unicode=";" horiz-adv-x="542" d="M61 -39q6 0 18.5 2t25 10.5t22.5 21.5t12 38v301h267v-363q0 -72 -34 -118t-84 -73.5t-110.5 -38.5t-116.5 -11v231zM139 729v334h267v-334h-267z" />
<glyph unicode="&#x3c;" horiz-adv-x="1046" d="M66 444v156l864 524v-348l-389 -246l389 -231v-367z" />
<glyph unicode="=" horiz-adv-x="890" d="M121 254v209h651v-209h-651zM121 668v209h651v-209h-651z" />
<glyph unicode="&#x3e;" horiz-adv-x="1046" d="M115 -68v367l389 231l-389 246v348l866 -524v-156z" />
<glyph unicode="?" horiz-adv-x="1011" d="M74 1208q53 125 168.5 195t261.5 70q78 0 155.5 -23t140 -72t101.5 -126.5t39 -188.5q0 -117 -49 -196t-143 -138q-43 -29 -87.5 -51.5t-80 -47t-59 -55t-23.5 -73.5h-269q0 47 6.5 90t23.5 83t49 74.5t85 63.5q27 14 72 37.5t86 54.5t71.5 71t30.5 89q0 68 -48 105.5 t-111 37.5q-41 0 -74 -15t-57.5 -36.5t-44 -48.5t-33.5 -47zM236 0v307h268v-307h-268z" />
<glyph unicode="@" horiz-adv-x="1720" d="M84 473q0 184 64.5 326.5t173 239t250.5 146.5t298 50q150 0 290 -48t246.5 -145.5t171 -245t64.5 -343.5q0 -29 -3 -76t-13 -100.5t-30.5 -108.5t-56.5 -100t-90 -73t-130 -28q-55 0 -93 15.5t-60.5 38t-34 51t-15.5 55.5q-66 -66 -156 -105.5t-200 -39.5 q-82 0 -142.5 23.5t-100.5 63.5t-60.5 94t-20.5 118q0 88 36 147t92.5 96t127 53.5t139.5 16.5q86 0 141.5 -17.5t84.5 -29.5q0 49 -10.5 90t-36 69.5t-68.5 45t-111 16.5q-86 0 -153.5 -23.5t-114.5 -64.5l-57 170q78 53 168 77.5t188 24.5q139 0 217 -42t116 -105.5 t46 -140t8 -144.5v-168q0 -45 2 -89t12.5 -77.5t31 -55t57.5 -21.5q51 0 82.5 39.5t49 96t22.5 117t5 99.5q0 139 -46 258t-132 206t-205.5 136t-267.5 49q-147 0 -266 -48t-203 -133t-129 -203t-45 -257q0 -133 42 -250t122 -205t193.5 -138t256.5 -50q102 0 173 22.5 t149 55.5l37 -121q-86 -41 -178 -61.5t-185 -20.5q-154 0 -289 55.5t-236 155.5t-159.5 242.5t-58.5 318.5zM635 293q0 -23 6 -46.5t22.5 -43t44 -32.5t70.5 -13t90 12.5t86 30.5q57 29 79 63.5t22 77.5v57q-29 10 -88.5 24.5t-128.5 14.5q-90 0 -146.5 -33.5t-56.5 -111.5z " />
<glyph unicode="A" horiz-adv-x="1378" d="M-4 0l559 1454h272l557 -1454h-356l-113 326h-452l-111 -326h-356zM516 557h342l-168 541z" />
<glyph unicode="B" horiz-adv-x="1400" d="M139 0v1454h809q76 0 137.5 -32.5t104.5 -85t66.5 -119t23.5 -136.5q0 -104 -52 -196t-157 -140q125 -37 197.5 -131t72.5 -241q0 -94 -38.5 -164t-106.5 -116t-158 -69.5t-190 -23.5h-709zM475 285h373q66 0 108.5 42.5t42.5 112.5q0 68 -38.5 115t-98.5 47h-387v-317z M475 866h330q55 0 98 37t43 115q0 72 -38 110.5t-91 38.5h-342v-301z" />
<glyph unicode="C" horiz-adv-x="1357" d="M55 739q0 131 47.5 261t137.5 232.5t220 166t296 63.5q195 0 338 -88t213 -229l-258 -180q-23 57 -58 95t-76 61.5t-85 32.5t-82 9q-90 0 -156 -39t-109 -100t-64.5 -139t-21.5 -158q0 -86 26 -166t72 -141.5t111.5 -97t145.5 -35.5q41 0 85 11t85 34.5t73.5 61.5 t53.5 93l276 -161q-33 -80 -95.5 -143.5t-142 -106.5t-169 -65.5t-175.5 -22.5q-152 0 -277.5 64.5t-216.5 171t-142.5 241.5t-51.5 274z" />
<glyph unicode="D" horiz-adv-x="1468" d="M139 0v1454h543q180 0 315.5 -57.5t226.5 -155.5t137 -230t46 -282q0 -166 -51 -300t-146.5 -229.5t-229.5 -147.5t-298 -52h-543zM475 295h207q92 0 164 32.5t120 91t73.5 137.5t25.5 173q0 96 -25.5 175t-75 136.5t-121 88t-161.5 30.5h-207v-864z" />
<glyph unicode="E" horiz-adv-x="1230" d="M139 0v1454h1004v-295h-668v-282h574v-273h-574v-309h686v-295h-1022z" />
<glyph unicode="F" horiz-adv-x="1157" d="M139 0v1454h987v-295h-651v-313h537v-273h-537v-573h-336z" />
<glyph unicode="G" horiz-adv-x="1443" d="M57 737q0 150 53.5 283t147.5 231.5t221 155.5t275 57q193 0 338 -85t217 -232l-252 -189q-45 98 -130 152.5t-184 54.5q-78 0 -140 -33.5t-108 -94t-71 -140.5t-25 -172q0 -94 27 -174t74 -138.5t112.5 -91t143.5 -32.5q90 0 172 44t153 134v49h-280v244h559v-760h-279 v141q-78 -78 -165 -114.5t-189 -36.5q-137 0 -259 61.5t-213 163.5t-144.5 238.5t-53.5 283.5z" />
<glyph unicode="H" horiz-adv-x="1529" d="M139 0v1454h336v-563h580v563h336v-1454h-336v596h-580v-596h-336z" />
<glyph unicode="I" horiz-adv-x="614" d="M139 0v1454h336v-1454h-336z" />
<glyph unicode="J" horiz-adv-x="1019" d="M16 68l74 274q20 -16 87 -41t155 -25q76 0 121 26t69.5 79t31.5 136t7 198v739h336v-739q0 -166 -17.5 -302.5t-76 -232.5t-171 -149.5t-300.5 -53.5q-184 0 -316 91z" />
<glyph unicode="K" horiz-adv-x="1386" d="M139 0v1454h336v-655l561 655h348l-544 -649l581 -805h-354l-426 616l-166 -180v-436h-336z" />
<glyph unicode="L" horiz-adv-x="1206" d="M139 0v1454h336v-1159h705v-295h-1041z" />
<glyph unicode="M" horiz-adv-x="1761" d="M139 0v1454h365l377 -760l379 760h362v-1454h-336v870l-315 -632h-180l-316 632v-870h-336z" />
<glyph unicode="N" horiz-adv-x="1554" d="M139 0v1454h262l678 -854v854h336v-1454h-270l-670 831v-831h-336z" />
<glyph unicode="O" horiz-adv-x="1503" d="M57 729q0 143 52.5 276.5t145.5 234.5t221 161.5t280 60.5q156 0 282.5 -63.5t218 -168t140.5 -237.5t49 -270q0 -143 -52.5 -276.5t-144.5 -234.5t-219.5 -162.5t-279.5 -61.5q-156 0 -283 63.5t-218 167t-141.5 236.5t-50.5 274zM399 725q0 -84 23.5 -163t68 -140.5 t111 -98t152.5 -36.5q88 0 153.5 39t109.5 101t65.5 141t21.5 161q0 84 -23.5 163t-68.5 139.5t-110.5 96t-149.5 35.5q-88 0 -154 -38t-110 -99t-66.5 -140t-22.5 -161z" />
<glyph unicode="P" horiz-adv-x="1269" d="M139 0v1454h621q104 0 191 -43t149.5 -112.5t98.5 -157.5t36 -178q0 -96 -34 -184.5t-94 -158t-146.5 -110.5t-190.5 -41h-295v-469h-336zM475 762h275q59 0 102 51t43 150q0 51 -13.5 87.5t-36 61.5t-51 36t-57.5 11h-262v-397z" />
<glyph unicode="Q" horiz-adv-x="1507" d="M57 729q0 143 52.5 276.5t145.5 235.5t221 162.5t280 60.5q156 0 282.5 -64.5t218 -169t140.5 -237.5t49 -270q0 -135 -45 -257t-125 -222l221 -244h-317l-80 88q-78 -47 -165 -72.5t-185 -25.5q-156 0 -283 62.5t-218 166t-141.5 236.5t-50.5 274zM399 725 q0 -84 23.5 -163t68 -139.5t111 -97t152.5 -36.5q78 0 137 30l-229 254h315l76 -84q51 113 51 240q0 84 -23.5 163t-68.5 139.5t-110.5 97t-149.5 36.5q-88 0 -154 -37.5t-110 -100t-66.5 -141.5t-22.5 -161z" />
<glyph unicode="R" horiz-adv-x="1392" d="M139 0v1454h656q102 0 189 -43t150.5 -112.5t99.5 -157.5t36 -178q0 -68 -16.5 -130.5t-47 -118t-75 -99.5t-99.5 -74l334 -541h-379l-293 469h-219v-469h-336zM475 762h307q59 0 102.5 56t43.5 145q0 90 -49.5 143t-106.5 53h-297v-397z" />
<glyph unicode="S" horiz-adv-x="1261" d="M37 164l147 293q10 -10 55.5 -39t111 -57.5t147.5 -51t166 -22.5q178 0 178 108q0 41 -27 67.5t-74 48t-110.5 40t-138.5 41.5q-100 31 -174 66.5t-123.5 82.5t-73 108.5t-23.5 143.5q0 115 43 203t117 148.5t171 91t206 30.5q78 0 151.5 -14t140 -36.5t126 -51.5 t106.5 -57l-145 -279q-8 8 -45 30.5t-92.5 47t-121 43t-130.5 18.5q-86 0 -132.5 -30.5t-46.5 -89.5q0 -37 20.5 -61.5t58.5 -44t94.5 -36t130.5 -37.5q104 -29 188 -62.5t143.5 -83.5t91 -122t31.5 -172q0 -123 -46 -208t-121.5 -137t-175 -75.5t-204.5 -23.5 q-80 0 -162.5 12t-162.5 35.5t-156 56.5t-139 76z" />
<glyph unicode="T" horiz-adv-x="1273" d="M25 1159v295h1222v-295h-442v-1159h-336v1159h-444z" />
<glyph unicode="U" horiz-adv-x="1525" d="M117 711v743h336v-743q0 -84 16 -160t53 -135.5t95.5 -94t144.5 -34.5t145.5 35.5t96 95t52 136.5t15.5 157v743h336v-743q0 -152 -38 -283t-116.5 -229.5t-200.5 -154.5t-290 -56q-174 0 -297 59t-200 158.5t-112.5 230.5t-35.5 275z" />
<glyph unicode="V" horiz-adv-x="1376" d="M-8 1454h354l344 -1032l338 1032h354l-553 -1454h-280z" />
<glyph unicode="W" horiz-adv-x="2162" d="M-10 1454h362l369 -1069l143 391l-241 676h311l145 -465l150 465h309l-244 -676l148 -391l366 1069h365l-580 -1454h-282l-230 569l-231 -569h-281z" />
<glyph unicode="X" horiz-adv-x="1329" d="M-16 1454h364l318 -502l317 502h363l-504 -737l487 -717h-362l-301 481l-301 -481h-365l487 717z" />
<glyph unicode="Y" horiz-adv-x="1327" d="M-16 1454h364l314 -668l319 668h365l-517 -958v-496h-335v500z" />
<glyph unicode="Z" horiz-adv-x="1275" d="M55 0v252l756 907h-727v295h1116v-252l-723 -907h731v-295h-1153z" />
<glyph unicode="[" horiz-adv-x="657" d="M137 -82v1598h438v-261h-137v-1077h137v-260h-438z" />
<glyph unicode="\" horiz-adv-x="1363" d="M53 1454h363l891 -1454h-361z" />
<glyph unicode="]" horiz-adv-x="657" d="M82 -82v260h137v1077h-137v261h440v-1598h-440z" />
<glyph unicode="^" horiz-adv-x="1236" d="M78 621l405 833h273l403 -833h-266l-272 563l-281 -563h-262z" />
<glyph unicode="_" horiz-adv-x="757" d="M10 0h738v-295h-738v295z" />
<glyph unicode="`" horiz-adv-x="550" d="M94 1495h297l107 -266l-207 -58z" />
<glyph unicode="a" d="M45 322q0 80 34 145t95.5 112.5t145 74t186.5 26.5q68 0 131 -11.5t111 -33.5v49q0 186 -216 186q-88 0 -167.5 -29.5t-167.5 -88.5l-97 204q106 70 221 105t244 35q244 0 377 -115t133 -336v-276q0 -49 18.5 -68.5t65.5 -24.5v-276q-47 -10 -87 -13t-71 -3 q-90 2 -137 36.5t-59 100.5l-6 49q-72 -92 -171 -141t-210 -49q-80 0 -148.5 25.5t-118 71.5t-78 108.5t-28.5 136.5zM354 350q0 -59 45 -97t115 -38q53 0 103.5 18.5t82.5 49.5q47 37 48 77v103q-43 16 -93.5 25.5t-93.5 9.5q-90 0 -148.5 -41t-58.5 -107z" />
<glyph unicode="b" horiz-adv-x="1308" d="M111 0v1495h327v-596q53 92 142.5 144.5t212.5 52.5q102 0 187 -44t146.5 -120t96 -179.5t34.5 -220.5t-37.5 -218t-105 -176t-160 -116.5t-198.5 -41.5q-123 0 -214 52t-145 146v-178h-286zM438 406q35 -70 96.5 -110t129.5 -40q57 0 105 21.5t82 58.5t52.5 87t18.5 109 q0 57 -17.5 109.5t-50.5 91.5t-77 61.5t-97 22.5q-78 0 -142.5 -53t-99.5 -133v-225z" />
<glyph unicode="c" horiz-adv-x="1167" d="M49 539q0 111 39 212t112.5 178t181 122t245.5 45q186 0 313 -79t190 -206l-319 -96q-63 102 -186 102q-102 0 -171 -75.5t-69 -202.5q0 -63 18.5 -115.5t51 -89.5t76.5 -57.5t94 -20.5q61 0 112 29.5t76 76.5l320 -98q-59 -125 -189.5 -204.5t-316.5 -79.5 q-135 0 -243 46t-182.5 122.5t-113.5 178t-39 212.5z" />
<glyph unicode="d" horiz-adv-x="1351" d="M51 539q0 117 35 219t98.5 177t150.5 118t191 43q111 0 203 -53.5t141 -143.5v596h328v-1126q0 -49 18.5 -68.5t65.5 -24.5v-276q-51 -10 -89 -13t-69 -3q-172 4 -196 137l-6 57q-59 -100 -155.5 -149t-207.5 -49t-204 41.5t-160.5 117.5t-105.5 177.5t-38 222.5z M389 532q0 -121 71.5 -198.5t186.5 -77.5q68 0 129.5 40t95.5 110v225q-31 82 -99 134t-142 52q-53 0 -97.5 -23.5t-77 -62.5t-50 -90t-17.5 -109z" />
<glyph unicode="e" horiz-adv-x="1236" d="M49 526q0 117 39 220.5t112.5 181.5t181 123t245.5 45q137 0 243.5 -45t180 -122t111.5 -177.5t38 -210.5q0 -29 -2 -56.5t-6 -48.5h-795q8 -109 79 -165t161 -56q72 0 138.5 35t88.5 94l279 -78q-63 -127 -196.5 -206.5t-319.5 -79.5q-135 0 -243 44t-182.5 119.5 t-113.5 175t-39 207.5zM391 639h463q-10 102 -73.5 161.5t-157.5 59.5q-96 0 -159 -60.5t-73 -160.5z" />
<glyph unicode="f" horiz-adv-x="808" d="M49 702v248h137v125q0 100 27 182t76 139.5t118.5 88.5t155.5 31q133 0 279 -64l-60 -246q-33 14 -72.5 23.5t-74.5 9.5q-121 0 -121 -152v-137h250v-248h-250v-702h-328v702h-137z" />
<glyph unicode="g" horiz-adv-x="1308" d="M53 539q0 119 37 220t102.5 176t157.5 118t203 43q121 0 213 -52.5t147 -144.5v176h285v-1001q0 -123 -46 -221.5t-128 -167t-196.5 -105.5t-252.5 -37q-174 0 -296.5 55.5t-215.5 159.5l175 179q59 -68 148 -108t189 -40q59 0 112.5 16.5t94.5 50t64.5 88t23.5 130.5 v104q-49 -90 -142.5 -136t-199.5 -46t-193 43t-149.5 116.5t-97.5 172t-35 211.5zM387 530q0 -59 19.5 -109t53.5 -87t81 -57.5t102 -20.5q76 0 134.5 42t92.5 108v225q-33 86 -100.5 136t-142.5 50q-53 0 -97.5 -23.5t-76 -63.5t-49 -92t-17.5 -108z" />
<glyph unicode="h" horiz-adv-x="1251" d="M111 0v1495h327v-600q59 96 156.5 148.5t216.5 52.5q109 0 175.5 -38t102 -96.5t48 -131t12.5 -142.5v-688h-328v604q0 104 -42 153.5t-113 49.5q-29 0 -63 -13.5t-65.5 -39t-58 -60.5t-41.5 -78v-616h-327z" />
<glyph unicode="i" horiz-adv-x="548" d="M111 0v1075h327v-1075h-327zM111 1198v297h327v-297h-327z" />
<glyph unicode="j" horiz-adv-x="548" d="M-244 -311l138 223q20 -23 48.5 -33t59.5 -10q47 0 78 30.5t31 82.5v1093h327v-1069q0 -92 -29.5 -170t-83 -133t-125 -86t-157.5 -31q-80 0 -153.5 26t-133.5 77zM111 1198v297h327v-297h-327z" />
<glyph unicode="k" horiz-adv-x="1163" d="M111 0v1495h327v-866l365 446h348l-387 -463l418 -612h-348l-281 432l-115 -119v-313h-327z" />
<glyph unicode="l" horiz-adv-x="694" d="M109 268v1227h327v-1094q0 -122 105 -122h2q23 0 52.5 8t53.5 20l43 -264q-61 -29 -141 -45t-148 -16q-141 0 -217.5 73.5t-76.5 212.5z" />
<glyph unicode="m" horiz-adv-x="1912" d="M111 0v1075h295v-180q59 98 161.5 149.5t237.5 51.5q66 0 117 -16.5t86.5 -45t59.5 -66.5t34 -81q59 100 159.5 154.5t229.5 54.5q102 0 164.5 -38t97.5 -98.5t46 -132t11 -139.5v-688h-327v604q0 106 -38 154.5t-102 48.5q-66 0 -128 -53.5t-91 -137.5v-616h-327v604 q0 106 -38 154.5t-102 48.5q-66 0 -128 -52.5t-91 -138.5v-616h-327z" />
<glyph unicode="n" horiz-adv-x="1251" d="M111 0v1075h295v-180q59 96 167.5 148.5t249.5 52.5q104 0 169 -38t99.5 -98.5t46 -132t11.5 -139.5v-688h-328v604q0 106 -40 154.5t-105 48.5q-35 0 -71 -14.5t-67.5 -40t-58 -60.5t-41.5 -76v-616h-327z" />
<glyph unicode="o" horiz-adv-x="1247" d="M49 537q0 111 38 212t111.5 178t181 123t245.5 46q137 0 243.5 -46t180 -123t112.5 -178.5t39 -211.5q0 -111 -38 -212.5t-111.5 -178t-181 -121.5t-244.5 -45t-245 45t-181.5 121.5t-111.5 178t-38 212.5zM385 537q0 -127 67.5 -204t172.5 -77q51 0 94 20.5t74.5 57.5 t50 89t18.5 114q0 127 -67.5 203.5t-169.5 76.5q-51 0 -95.5 -20.5t-76 -57.5t-50 -89t-18.5 -113z" />
<glyph unicode="p" horiz-adv-x="1306" d="M111 -436v1511h286v-174q59 92 147.5 143.5t211.5 51.5q109 0 201 -43t158.5 -118t104 -176.5t37.5 -217.5q0 -121 -34.5 -223.5t-97 -177t-147.5 -117.5t-185 -43q-123 0 -213.5 51t-141.5 143v-610h-327zM438 449q33 -82 99.5 -137.5t142.5 -55.5q53 0 97 23.5t77 62.5 t50.5 91t17.5 110q0 59 -19.5 109t-53.5 87t-81 57.5t-104 20.5q-68 0 -129.5 -40t-96.5 -107v-221z" />
<glyph unicode="q" horiz-adv-x="1306" d="M51 541q0 117 38 218t104.5 176t157.5 118t200 43q123 0 212 -53.5t148 -143.5v176h285v-1126q0 -49 18.5 -68.5t65.5 -21.5v-279q-43 -8 -93 -12t-89 -4q-47 0 -89 15t-73 43t-49.5 67t-18.5 86v399q-110 -194 -352 -194q-102 0 -187 43t-146.5 118.5t-96.5 178 t-35 221.5zM385 532q0 -121 70.5 -198.5t185.5 -77.5q72 0 129 40t98 105v228q-12 39 -36.5 73.5t-57.5 60t-69.5 40t-73.5 14.5q-53 0 -98.5 -23.5t-78 -62.5t-51 -90t-18.5 -109z" />
<glyph unicode="r" horiz-adv-x="821" d="M111 0v1075h301v-217q57 109 144 169t185 65q41 0 52 -2v-295q-119 -2 -214.5 -39t-140.5 -111v-645h-327z" />
<glyph unicode="s" horiz-adv-x="1058" d="M25 117l129 221q106 -61 206.5 -94t192.5 -33q72 0 109.5 22.5t37.5 65.5t-51 66.5t-176 56.5q-109 29 -184.5 57.5t-121.5 64.5t-66.5 81t-20.5 106q0 82 33.5 149.5t93 114.5t140.5 74t177 27q113 0 230.5 -34t230.5 -93l-129 -207q-100 55 -179 80.5t-153 25.5 q-61 0 -101 -21.5t-40 -68.5q0 -23 10 -38t34 -28.5t62.5 -24.5t96.5 -25q119 -31 200.5 -62t133 -68.5t74 -87t22.5 -116.5q0 -80 -32 -144.5t-91 -109.5t-143.5 -69.5t-188.5 -24.5q-68 0 -140.5 10t-144 27.5t-137 43t-114.5 56.5z" />
<glyph unicode="t" horiz-adv-x="821" d="M41 827v248h137v342h328v-342h219v-248h-219v-448q0 -53 27.5 -76.5t68.5 -23.5q35 0 74 12t69 26l62 -260q-68 -29 -154 -53t-176 -24q-61 0 -115.5 15t-95.5 49t-64.5 89t-23.5 133v561h-137z" />
<glyph unicode="u" horiz-adv-x="1296" d="M102 387v688h328v-616q0 -98 39 -150.5t111 -52.5q66 0 127 35t108 121v663h328v-706q0 -49 18.5 -68.5t65.5 -24.5v-276q-51 -10 -89 -13t-67 -3q-172 2 -199 137l-6 65q-74 -106 -183.5 -156t-244.5 -50q-164 0 -250 103t-86 304z" />
<glyph unicode="v" horiz-adv-x="1124" d="M4 1075h336l235 -813l238 813h307l-381 -1075h-354z" />
<glyph unicode="w" horiz-adv-x="1753" d="M0 1075h309l291 -772l100 293l-188 479h262l103 -323l104 323h262l-190 -479l102 -293l291 772h309l-444 -1075h-269l-165 442l-164 -442h-269z" />
<glyph unicode="x" horiz-adv-x="1103" d="M-4 0l379 537l-371 538h334l194 -303l21 -39l18 39l195 303h336l-373 -538l379 -537h-334l-203 301l-18 39l-18 -39l-203 -301h-336z" />
<glyph unicode="y" horiz-adv-x="1116" d="M-8 1075h336l252 -794l215 794h305l-412 -1249q-45 -135 -152.5 -216t-248.5 -83q-45 0 -90 7t-91 24v280q45 -14 83 -20t67 -6q53 0 87 42t56 146z" />
<glyph unicode="z" horiz-adv-x="1007" d="M47 0v197l549 651h-520v227h864v-196l-547 -652h559v-227h-905z" />
<glyph unicode="{" horiz-adv-x="671" d="M68 627v225q20 0 40.5 13.5t37 34t25.5 46t9 49.5v459q0 37 17.5 49.5t29.5 12.5h361v-261h-113v-370q0 -47 -22.5 -83t-55.5 -65q31 -29 54.5 -64.5t23.5 -82.5v-393h113v-260h-361q-12 0 -29.5 12t-17.5 49v481q0 59 -34.5 98t-77.5 50z" />
<glyph unicode="|" horiz-adv-x="540" d="M133 -266v1853h277v-1853h-277z" />
<glyph unicode="}" horiz-adv-x="671" d="M84 -63v260h113v393q0 47 22.5 83t54.5 64q-33 29 -55 65t-22 83v370h-113v261h360q10 0 29 -12.5t19 -49.5v-459q0 -25 9 -50t24.5 -45.5t35 -34t41.5 -13.5v-225q-41 -10 -75.5 -49t-34.5 -99v-481q0 -37 -17.5 -49t-30.5 -12h-360z" />
<glyph unicode="~" horiz-adv-x="1196" d="M102 455q0 20 15.5 69t51.5 100.5t95.5 89.5t149.5 38q57 0 105 -17.5t91 -37t86 -37t90 -17.5q43 0 71 15.5t43 34t21.5 34.5t6.5 21h174q0 -12 -15.5 -60.5t-52.5 -99.5t-97 -92t-153 -41q-57 0 -105 16t-92 35.5t-87 36t-88 16.5t-72 -15.5t-40 -35t-16 -35.5t-3 -18 h-179z" />
<glyph unicode="&#xa1;" horiz-adv-x="628" d="M152 -12v891h327v-891h-327zM152 1116v340h327v-340h-327z" />
<glyph unicode="&#xa2;" horiz-adv-x="1241" d="M80 528q0 104 31.5 197.5t93 168.5t153 127t211.5 71v229h142v-229q141 -4 261 -74t191 -207l-317 -96q-23 39 -59.5 63.5t-75.5 28.5v-543q45 12 82.5 38t54.5 60l319 -98q-33 -72 -89 -125t-120.5 -89t-130 -53t-116.5 -17v-226h-142v228q-109 8 -197.5 58t-154 126 t-101.5 170t-36 192zM418 528q0 -80 40 -148.5t111 -98.5v512q-72 -23 -111.5 -97t-39.5 -168z" />
<glyph unicode="&#xa3;" horiz-adv-x="1155" d="M98 215q88 63 141.5 150.5t61.5 177.5h-184v243h131q-35 76 -66.5 151t-31.5 157q0 78 34.5 145.5t94 117.5t140.5 78.5t173 28.5q129 0 246.5 -56t199.5 -159l-168 -200q-53 66 -130.5 108.5t-149.5 42.5q-66 0 -108 -39t-42 -102t35 -129t66 -144h383v-243h-342 q-8 -76 -45 -144.5t-111 -146.5q47 16 85 22.5t73 6.5q70 0 136 -16.5t136 -16.5q35 0 67.5 7t73.5 21l80 -241q-47 -29 -113.5 -47.5t-125.5 -18.5q-47 0 -95.5 10.5t-98.5 21.5t-100 21.5t-100 10.5q-57 0 -130.5 -14.5t-145.5 -36.5z" />
<glyph unicode="&#xa5;" horiz-adv-x="1486" d="M63 1454h363l313 -668l320 668h366l-331 -602h141v-211h-250l-78 -145v-64h330v-211h-330v-221h-334v221h-327v211h327v68l-75 141h-250v211h143z" />
<glyph unicode="&#xa6;" horiz-adv-x="548" d="M137 -266v798h277v-798h-277zM137 788v799h277v-799h-277z" />
<glyph unicode="&#xa7;" horiz-adv-x="1107" d="M84 1061q0 80 34 152.5t93 128t140 89t177 33.5q94 0 167 -28.5t129.5 -70.5t95 -90t65.5 -85l-250 -119q-27 45 -74 74t-112 29q-63 0 -99 -30t-36 -77q0 -31 10 -49.5t28.5 -28.5t43 -14t51.5 -4q78 -2 157.5 -20.5t145 -59.5t107.5 -108.5t42 -166.5q0 -59 -12 -101 t-22 -58q27 -29 44 -79t17 -128q0 -119 -46 -201t-116.5 -133t-153.5 -73.5t-155 -22.5q-84 0 -157.5 24.5t-132 59.5t-100.5 72.5t-67 66.5l209 201q59 -61 115.5 -87t116.5 -26q59 0 103 26.5t44 80.5q0 27 -11 43t-29.5 24t-41 11t-43.5 6q-217 16 -325.5 118.5 t-108.5 257.5q0 59 12.5 93t18.5 51q-23 25 -48.5 83t-25.5 136zM444 653q0 -45 25 -65.5t58.5 -29.5t71.5 -11t63 -10q14 10 21 30.5t7 38.5q0 29 -12 48.5t-31.5 31.5t-42 17.5t-43.5 5.5q-29 0 -55.5 5t-34.5 9q-27 -23 -27 -70z" />
<glyph unicode="&#xa8;" horiz-adv-x="1040" d="M170 1214v265h270v-265h-270zM600 1214v265h270v-265h-270z" />
<glyph unicode="&#xa9;" horiz-adv-x="1730" d="M84 727q0 158 58.5 293t162 233.5t245.5 154.5t308 56q170 0 314.5 -56t250 -154.5t165 -233.5t59.5 -293q0 -160 -59.5 -295t-165 -234.5t-250 -155.5t-314.5 -56q-166 0 -308 56t-245.5 155.5t-162 234.5t-58.5 295zM209 727q0 -131 49 -245.5t136 -198.5t206 -133.5 t258 -49.5t261 46.5t211 128t140.5 196.5t51.5 254q0 131 -50.5 244.5t-139.5 198.5t-210 133.5t-264 48.5q-139 0 -258 -48.5t-206 -132.5t-136 -197.5t-49 -244.5zM344 725q0 96 34 185t100.5 158t165.5 110t230 41q174 0 296 -76t182 -201l-318 -98q-29 53 -71.5 75.5 t-90.5 22.5q-86 0 -139 -61.5t-53 -155.5q0 -51 16.5 -91t44 -67.5t62.5 -42t71 -14.5q49 0 93.5 25.5t68.5 72.5l320 -96q-29 -57 -73 -108.5t-104.5 -89.5t-136 -59.5t-165.5 -21.5q-123 0 -222.5 39t-168 105.5t-105.5 156t-37 191.5z" />
<glyph unicode="&#xaa;" horiz-adv-x="917" d="M76 926q0 55 22.5 101t63.5 79t97 51.5t124 18.5q45 0 86 -7.5t70 -23.5v31q0 127 -138 127q-59 0 -111 -20.5t-112 -61.5l-67 145q141 96 313 96q166 0 256 -79.5t90 -233.5v-182q0 -35 12.5 -49.5t44.5 -16.5v-199q-31 -6 -59.5 -9t-48.5 -3q-121 2 -137 98l-7 33 q-47 -66 -112 -99.5t-139 -33.5q-53 0 -98.5 18.5t-79 50t-52 74.5t-18.5 95zM293 946q0 -37 28.5 -62.5t71.5 -25.5q31 0 62.5 12.5t52.5 30.5q31 20 31 53v68q-25 12 -56.5 18.5t-58.5 6.5q-57 0 -94 -28t-37 -73z" />
<glyph unicode="&#xab;" horiz-adv-x="1386" d="M70 444v156l551 395v-264l-293 -201l293 -186v-264zM721 444v156l553 395v-264l-293 -201l293 -186v-264z" />
<glyph unicode="&#xac;" horiz-adv-x="1280" d="M115 555v295h1038v-649h-276v354h-762z" />
<glyph unicode="&#xad;" horiz-adv-x="1259" d="M111 416v295h1038v-295h-1038z" />
<glyph unicode="&#xae;" horiz-adv-x="1730" d="M84 727q0 158 58.5 293t162 233.5t245.5 154.5t310 56t312.5 -56t250 -154.5t165 -233.5t59.5 -293q0 -160 -59.5 -295t-165 -234.5t-250 -155.5t-312.5 -56t-310 56t-245.5 155.5t-162 234.5t-58.5 295zM217 725q0 -131 48 -244.5t133 -198.5t204 -134.5t260 -49.5 q137 0 257 47.5t208 130t138.5 197.5t50.5 250q0 131 -49.5 245.5t-136.5 198.5t-206.5 133.5t-261.5 49.5q-141 0 -260 -49.5t-204 -133.5t-133 -197.5t-48 -244.5zM522 287v889h404q63 0 116.5 -27t92.5 -70t60.5 -97t21.5 -110q0 -80 -41 -150.5t-107 -105.5l205 -329 h-256l-178 286h-88v-286h-230zM752 770h151q39 0 63.5 24.5t24.5 77.5q0 57 -28.5 80t-63.5 23h-147v-205z" />
<glyph unicode="&#xaf;" horiz-adv-x="876" d="M127 1272v198h623v-198h-623z" />
<glyph unicode="&#xb0;" horiz-adv-x="604" d="M76 1266q0 92 63.5 154.5t161.5 62.5q100 0 162.5 -62.5t62.5 -154.5q0 -106 -62.5 -170t-162.5 -64q-98 0 -161.5 65t-63.5 169zM229 1257q0 -14 6.5 -27t14.5 -22q23 -23 51 -22q33 0 51 22q10 8 15.5 22.5t5.5 26.5q0 29 -21 50q-18 20 -51 20q-31 0 -51 -20 q-8 -10 -14.5 -21.5t-6.5 -28.5z" />
<glyph unicode="&#xb1;" horiz-adv-x="974" d="M113 33v260h749v-260h-749zM113 651v260h229v248h293v-248h227v-260h-227v-248h-293v248h-229z" />
<glyph unicode="&#xb2;" horiz-adv-x="876" d="M59 606q0 86 13.5 149.5t44 111.5t83 86t130.5 71q49 20 96 38.5t85 40t61.5 48.5t23.5 63q0 51 -43 74t-119 23q-86 0 -149.5 -30t-100.5 -64l-121 139q39 49 141.5 95t256.5 46q172 0 262 -73.5t90 -211.5q0 -68 -26.5 -115.5t-65.5 -80.5t-86 -52.5t-86 -31.5 q-176 -51 -176 -139h409v-187h-723z" />
<glyph unicode="&#xb3;" horiz-adv-x="849" d="M53 748l103 143q4 -8 20.5 -25.5t46 -36t72.5 -32t98 -13.5q80 0 138.5 21.5t58.5 68.5q0 53 -81 77t-222 24h-51v174h49q123 0 198.5 21.5t75.5 74.5q0 20 -15.5 34.5t-38 24t-50 13.5t-52.5 4q-82 0 -135 -26.5t-94 -69.5l-121 153q25 29 63 51.5t84 38t98 22.5t103 7 q78 0 144.5 -18.5t115 -51t76 -76.5t27.5 -96q0 -72 -53.5 -118.5t-145.5 -63.5q102 -14 160.5 -77.5t58.5 -149.5q0 -68 -33.5 -116t-88 -78.5t-124 -45t-143.5 -14.5q-129 0 -218 39t-124 117z" />
<glyph unicode="&#xb4;" horiz-adv-x="550" d="M94 1229l107 266h297l-195 -324z" />
<glyph unicode="&#xb5;" horiz-adv-x="1335" d="M135 -436v1511h328v-616q0 -98 39 -150.5t119 -52.5q57 0 118.5 35t108.5 121v663h328v-706q0 -49 18 -68.5t66 -24.5v-276q-51 -10 -89 -13t-69 -3q-172 4 -197 137l-6 65q-12 -31 -43 -66.5t-71 -66t-88 -52t-97 -21.5q-37 0 -65.5 11t-48 26.5t-31 33t-13.5 27.5 l21 -514h-328z" />
<glyph unicode="&#xb6;" horiz-adv-x="1380" d="M72 924q0 254 150.5 392t426.5 138h647v-244h-143v-1374h-276v572h-86v-572h-277v572q-100 0 -181 36.5t-139.5 104t-90 163t-31.5 212.5zM342 932q0 -123 50 -198t122 -85v561q-80 -6 -126 -82.5t-46 -195.5zM791 649h86v561h-86v-561z" />
<glyph unicode="&#xb7;" horiz-adv-x="487" d="M111 492v339h266v-339h-266z" />
<glyph unicode="&#xb8;" horiz-adv-x="702" d="M43 -375l61 115q23 -14 76 -27.5t109 -13.5q49 0 81.5 14.5t32.5 50.5q0 35 -30.5 50.5t-79.5 15.5q-43 0 -91 -8t-71 -15l127 259l123 -37l-74 -107q27 6 62 6q74 0 129 -35.5t55 -115.5q0 -82 -69.5 -138.5t-217.5 -56.5q-72 0 -127 13.5t-96 29.5z" />
<glyph unicode="&#xb9;" horiz-adv-x="632" d="M63 1188v190q31 0 65 18.5t61.5 40t46 40t18.5 20.5h195v-700h141v-189h-494v189h158v497q-10 -14 -32.5 -32.5t-49.5 -35t-55.5 -27.5t-53.5 -11z" />
<glyph unicode="&#xba;" horiz-adv-x="903" d="M66 1075q0 78 25.5 147.5t74.5 123t120.5 85t164.5 31.5q92 0 164.5 -31.5t121.5 -85t75 -123t26 -147.5t-26 -147.5t-75 -122.5t-121.5 -85t-164.5 -32t-164 32t-121 85t-74.5 122.5t-25.5 147.5zM301 1075q0 -86 42 -137t108 -51t107.5 51t41.5 137t-42 137.5 t-107 51.5q-66 0 -108 -51.5t-42 -137.5z" />
<glyph unicode="&#xbb;" horiz-adv-x="1386" d="M111 80v264l295 186l-295 201v264l553 -395v-156zM764 80v264l295 186l-295 201v264l553 -395v-156z" />
<glyph unicode="&#xbc;" horiz-adv-x="1988" d="M84 1188v190q31 0 64.5 18.5t61.5 40t46 40t18 20.5h195v-700h141v-189h-493v189h157v497q-10 -14 -32.5 -32.5t-49 -35t-55 -27.5t-53.5 -11zM391 115l578 663l524 695l147 -132l-559 -647l-544 -712zM1151 182v187l506 514h131v-514h127v-187h-127v-180h-191v180h-446z M1331 369h275v282z" />
<glyph unicode="&#xbd;" horiz-adv-x="2033" d="M82 1188v190q31 0 64.5 18.5t61.5 40t46 40t18 20.5h195v-700h141v-189h-493v189h157v497q-10 -14 -32.5 -32.5t-49 -35t-55.5 -27.5t-53 -11zM313 115l578 663l524 695l148 -132l-559 -647l-545 -712zM1255 0q0 86 12.5 149.5t41 111.5t78 86t120.5 71q45 20 89 38.5 t79 40t56.5 48t21.5 63.5q0 51 -40 74t-111 23q-78 0 -136.5 -31t-93.5 -66l-110 142q18 25 51 50t80 44.5t106.5 33t130.5 13.5q158 0 241 -74t83 -211q0 -68 -24.5 -116t-60.5 -80.5t-79 -52t-80 -31.5q-164 -51 -164 -140h408v-186h-699z" />
<glyph unicode="&#xbe;" horiz-adv-x="2013" d="M78 748l102 143q4 -8 20.5 -25.5t46 -36t72.5 -32t99 -13.5q80 0 138 21.5t58 68.5q0 53 -80.5 77t-222.5 24h-51v174h49q123 0 199 21.5t76 74.5q0 20 -15.5 34.5t-38 24t-50 13.5t-52.5 4q-82 0 -135 -26.5t-94 -69.5l-121 153q25 29 62.5 51.5t83.5 38t98.5 22.5 t103.5 7q78 0 144.5 -18.5t114.5 -51t75.5 -76.5t27.5 -96q0 -72 -53 -118.5t-145 -63.5q102 -14 160.5 -77.5t58.5 -149.5q0 -68 -34 -116t-88 -78.5t-123.5 -45t-143.5 -14.5q-129 0 -218 39t-124 117zM457 115l577 663l525 695l147 -132l-559 -647l-545 -712zM1169 182 v187l506 514h131v-514h127v-187h-127v-180h-190v180h-447zM1350 369h274v282z" />
<glyph unicode="&#xbf;" horiz-adv-x="997" d="M66 -27q0 117 49 196t143 138q43 27 87 50.5t80 48t59.5 55.5t23.5 74h268q0 -47 -6 -90.5t-23.5 -83t-49 -74.5t-85.5 -64q-29 -16 -72.5 -38.5t-84.5 -53.5t-72 -71t-31 -89q0 -68 48.5 -105.5t111.5 -37.5q41 0 73.5 15.5t57.5 37t44.5 47t33.5 47.5l211 -147 q-53 -125 -169 -194.5t-261 -69.5q-78 0 -156 22.5t-140.5 71.5t-101 127t-38.5 188zM502 729v307h268v-307h-268z" />
<glyph unicode="&#xc0;" horiz-adv-x="1378" d="M-4 0l559 1454h272l557 -1454h-356l-113 326h-452l-111 -326h-356zM401 1876h297l107 -266l-207 -58zM516 557h342l-168 541z" />
<glyph unicode="&#xc1;" horiz-adv-x="1378" d="M-4 0l559 1454h272l557 -1454h-356l-113 326h-452l-111 -326h-356zM516 557h342l-168 541zM575 1608l107 266h297l-195 -324z" />
<glyph unicode="&#xc2;" horiz-adv-x="1378" d="M-4 0l559 1454h272l557 -1454h-356l-113 326h-452l-111 -326h-356zM348 1653l225 221h236l223 -221l-168 -74l-174 129l-174 -129zM516 557h342l-168 541z" />
<glyph unicode="&#xc3;" horiz-adv-x="1378" d="M-4 0l559 1454h272l557 -1454h-356l-113 326h-452l-111 -326h-356zM276 1579q0 23 13.5 71t44.5 97t81 86t122 37q49 0 83.5 -15.5t64.5 -34t58.5 -33.5t65.5 -15q35 0 56.5 15t32.5 33.5t14 35t3 18.5h177q0 -16 -14.5 -63.5t-46.5 -98.5t-83 -90t-127 -39 q-47 0 -83 14.5t-66.5 33t-59 32.5t-63.5 14t-53.5 -14t-28.5 -32.5t-12 -34t-2 -17.5h-177zM516 557h342l-168 541z" />
<glyph unicode="&#xc4;" horiz-adv-x="1378" d="M-4 0l559 1454h272l557 -1454h-356l-113 326h-452l-111 -326h-356zM340 1595v265h270v-265h-270zM516 557h342l-168 541zM770 1595v265h270v-265h-270z" />
<glyph unicode="&#xc5;" horiz-adv-x="1378" d="M-4 0l559 1454h272l557 -1454h-356l-113 326h-452l-111 -326h-356zM471 1706q0 84 60.5 126t158.5 42t157.5 -42t59.5 -126q0 -82 -59.5 -124t-157.5 -42t-158.5 42t-60.5 124zM516 557h342l-168 541zM608 1708q0 -31 23.5 -51.5t58.5 -20.5q33 0 57.5 19.5t24.5 52.5 q0 31 -23.5 50.5t-58.5 19.5t-58.5 -19.5t-23.5 -50.5z" />
<glyph unicode="&#xc6;" horiz-adv-x="2000" d="M-37 0l895 1454h1057v-295h-635v-272h524v-293h-524v-299h653v-295h-987v326h-440l-187 -326h-356zM649 621h273v458z" />
<glyph unicode="&#xc7;" horiz-adv-x="1359" d="M57 739q0 131 47.5 261t137.5 232.5t220 166t296 63.5q195 0 338 -88t213 -229l-258 -180q-23 57 -58 95t-75.5 61.5t-85 32.5t-82.5 9q-90 0 -156 -39t-109 -100t-64.5 -139t-21.5 -158q0 -86 26 -166t72 -141.5t111.5 -97t145.5 -35.5q41 0 85 11t85 34.5t73.5 61.5 t53.5 93l276 -161q-29 -72 -81 -128.5t-118.5 -99.5t-143.5 -69.5t-153 -34.5l-49 -72q27 6 62 6q74 0 129 -35.5t55 -115.5q0 -82 -69.5 -138.5t-217.5 -56.5q-72 0 -127 13.5t-96 29.5l62 115q23 -14 76 -27.5t108 -13.5q49 0 82 14.5t33 50.5q0 35 -31 50.5t-80 15.5 q-43 0 -91 -8t-71 -15l90 183q-141 10 -259 78.5t-201.5 173t-131 233.5t-47.5 264z" />
<glyph unicode="&#xc8;" horiz-adv-x="1230" d="M139 0v1454h1004v-295h-668v-282h574v-273h-574v-309h686v-295h-1022zM369 1876h297l106 -266l-207 -58z" />
<glyph unicode="&#xc9;" horiz-adv-x="1230" d="M139 0v1454h1004v-295h-668v-282h574v-273h-574v-309h686v-295h-1022zM543 1608l106 266h297l-194 -324z" />
<glyph unicode="&#xca;" horiz-adv-x="1230" d="M139 0v1454h1004v-295h-668v-282h574v-273h-574v-309h686v-295h-1022zM315 1653l226 221h235l223 -221l-168 -74l-174 129l-174 -129z" />
<glyph unicode="&#xcb;" horiz-adv-x="1230" d="M139 0v1454h1004v-295h-668v-282h574v-273h-574v-309h686v-295h-1022zM307 1595v265h271v-265h-271zM737 1595v265h271v-265h-271z" />
<glyph unicode="&#xcc;" horiz-adv-x="614" d="M16 1876h297l107 -266l-207 -58zM139 0v1454h336v-1454h-336z" />
<glyph unicode="&#xcd;" horiz-adv-x="614" d="M139 0v1454h336v-1454h-336zM190 1608l107 266h297l-195 -324z" />
<glyph unicode="&#xce;" horiz-adv-x="614" d="M-35 1653l225 221h236l223 -221l-168 -74l-174 129l-174 -129zM139 0v1454h336v-1454h-336z" />
<glyph unicode="&#xcf;" horiz-adv-x="614" d="M-43 1595v265h270v-265h-270zM139 0v1454h336v-1454h-336zM387 1595v265h270v-265h-270z" />
<glyph unicode="&#xd0;" horiz-adv-x="1478" d="M59 610v242h88v602h543q180 0 315.5 -57.5t226.5 -155.5t137 -230t46 -282q0 -166 -51 -300t-146.5 -229.5t-229.5 -147.5t-298 -52h-543v610h-88zM483 295h207q92 0 164 32.5t120 91t73.5 137.5t25.5 173q0 96 -25.5 175t-74.5 136.5t-121 88t-162 30.5h-207v-307h262 v-242h-262v-315z" />
<glyph unicode="&#xd1;" horiz-adv-x="1554" d="M139 0v1454h262l678 -854v854h336v-1454h-270l-670 831v-831h-336zM358 1577q0 23 13.5 71t44 97t81 86t121.5 37q49 0 84 -15.5t65 -34t58.5 -34t65.5 -15.5q35 0 56.5 15.5t32.5 34t14 35t3 18.5h177q0 -16 -14.5 -63.5t-46.5 -98.5t-83 -90t-127 -39q-47 0 -83 14.5 t-66.5 33t-59 32.5t-63.5 14t-53.5 -14t-28.5 -32.5t-12 -34t-2 -17.5h-177z" />
<glyph unicode="&#xd2;" horiz-adv-x="1503" d="M57 729q0 143 52.5 276.5t145.5 234.5t221 161.5t280 60.5q156 0 282.5 -63.5t218 -168t140.5 -237.5t49 -270q0 -143 -52.5 -276.5t-144.5 -234.5t-219.5 -162.5t-279.5 -61.5q-156 0 -283 63.5t-218 167t-141.5 236.5t-50.5 274zM399 725q0 -84 23.5 -163t68 -140.5 t111 -98t152.5 -36.5q88 0 153.5 39t109.5 101t65.5 141t21.5 161q0 84 -23.5 163t-68.5 139.5t-110.5 96t-149.5 35.5q-88 0 -154 -38t-110 -99t-66.5 -140t-22.5 -161zM467 1876h297l106 -266l-206 -58z" />
<glyph unicode="&#xd3;" horiz-adv-x="1503" d="M57 729q0 143 52.5 276.5t145.5 234.5t221 161.5t280 60.5q156 0 282.5 -63.5t218 -168t140.5 -237.5t49 -270q0 -143 -52.5 -276.5t-144.5 -234.5t-219.5 -162.5t-279.5 -61.5q-156 0 -283 63.5t-218 167t-141.5 236.5t-50.5 274zM399 725q0 -84 23.5 -163t68 -140.5 t111 -98t152.5 -36.5q88 0 153.5 39t109.5 101t65.5 141t21.5 161q0 84 -23.5 163t-68.5 139.5t-110.5 96t-149.5 35.5q-88 0 -154 -38t-110 -99t-66.5 -140t-22.5 -161zM641 1608l107 266h296l-194 -324z" />
<glyph unicode="&#xd4;" horiz-adv-x="1503" d="M57 729q0 143 52.5 276.5t145.5 234.5t221 161.5t280 60.5q156 0 282.5 -63.5t218 -168t140.5 -237.5t49 -270q0 -143 -52.5 -276.5t-144.5 -234.5t-219.5 -162.5t-279.5 -61.5q-156 0 -283 63.5t-218 167t-141.5 236.5t-50.5 274zM399 725q0 -84 23.5 -163t68 -140.5 t111 -98t152.5 -36.5q88 0 153.5 39t109.5 101t65.5 141t21.5 161q0 84 -23.5 163t-68.5 139.5t-110.5 96t-149.5 35.5q-88 0 -154 -38t-110 -99t-66.5 -140t-22.5 -161zM414 1653l225 221h235l224 -221l-168 -74l-174 129l-174 -129z" />
<glyph unicode="&#xd5;" horiz-adv-x="1503" d="M57 729q0 143 52.5 276.5t145.5 234.5t221 161.5t280 60.5q156 0 282.5 -63.5t218 -168t140.5 -237.5t49 -270q0 -143 -52.5 -276.5t-144.5 -234.5t-219.5 -162.5t-279.5 -61.5q-156 0 -283 63.5t-218 167t-141.5 236.5t-50.5 274zM342 1579q0 23 13.5 71t44 97t80.5 86 t122 37q49 0 84 -15.5t64.5 -34t58.5 -33.5t65 -15q35 0 56.5 15t33 33.5t14.5 35t3 18.5h176q0 -16 -14.5 -63.5t-46 -98.5t-82.5 -90t-127 -39q-47 0 -83 14.5t-66.5 33t-59.5 32.5t-64 14t-53 -14t-28.5 -32.5t-12.5 -34t-2 -17.5h-176zM399 725q0 -84 23.5 -163 t68 -140.5t111 -98t152.5 -36.5q88 0 153.5 39t109.5 101t65.5 141t21.5 161q0 84 -23.5 163t-68.5 139.5t-110.5 96t-149.5 35.5q-88 0 -154 -38t-110 -99t-66.5 -140t-22.5 -161z" />
<glyph unicode="&#xd6;" horiz-adv-x="1503" d="M57 729q0 143 52.5 276.5t145.5 234.5t221 161.5t280 60.5q156 0 282.5 -63.5t218 -168t140.5 -237.5t49 -270q0 -143 -52.5 -276.5t-144.5 -234.5t-219.5 -162.5t-279.5 -61.5q-156 0 -283 63.5t-218 167t-141.5 236.5t-50.5 274zM399 725q0 -84 23.5 -163t68 -140.5 t111 -98t152.5 -36.5q88 0 153.5 39t109.5 101t65.5 141t21.5 161q0 84 -23.5 163t-68.5 139.5t-110.5 96t-149.5 35.5q-88 0 -154 -38t-110 -99t-66.5 -140t-22.5 -161zM406 1595v265h270v-265h-270zM836 1595v265h270v-265h-270z" />
<glyph unicode="&#xd7;" horiz-adv-x="991" d="M96 371l195 194l-185 187l205 202l185 -184l184 184l203 -202l-185 -185l197 -196l-205 -203l-196 194l-195 -194z" />
<glyph unicode="&#xd8;" horiz-adv-x="1507" d="M55 0l172 244q-80 102 -124 227t-44 258q0 143 52.5 276.5t145.5 234.5t221 161.5t280 60.5q80 0 151.5 -17.5t137.5 -49.5l40 59h363l-174 -244q84 -104 128 -230t44 -257q0 -143 -52.5 -276.5t-144.5 -234.5t-220 -162.5t-279 -61.5q-162 0 -295 69l-41 -57h-361z M401 725q0 -106 33 -193l432 611q-27 10 -54.5 15t-57.5 5q-88 0 -153.5 -38t-110 -99t-67 -140t-22.5 -161zM635 309q57 -23 121 -22q88 0 153.5 39t109.5 101t65.5 141t21.5 161q0 100 -35 193z" />
<glyph unicode="&#xd9;" horiz-adv-x="1525" d="M117 711v743h336v-743q0 -84 16 -160t53 -135.5t95.5 -94t144.5 -34.5t145.5 35.5t96 95t52 136.5t15.5 157v743h336v-743q0 -152 -38 -283t-116.5 -229.5t-200.5 -154.5t-290 -56q-174 0 -297 59t-200 158.5t-112.5 230.5t-35.5 275zM473 1876h297l107 -266l-207 -58z " />
<glyph unicode="&#xda;" horiz-adv-x="1525" d="M117 711v743h336v-743q0 -84 16 -160t53 -135.5t95.5 -94t144.5 -34.5t145.5 35.5t96 95t52 136.5t15.5 157v743h336v-743q0 -152 -38 -283t-116.5 -229.5t-200.5 -154.5t-290 -56q-174 0 -297 59t-200 158.5t-112.5 230.5t-35.5 275zM647 1608l107 266h297l-195 -324z " />
<glyph unicode="&#xdb;" horiz-adv-x="1525" d="M117 711v743h336v-743q0 -84 16 -160t53 -135.5t95.5 -94t144.5 -34.5t145.5 35.5t96 95t52 136.5t15.5 157v743h336v-743q0 -152 -38 -283t-116.5 -229.5t-200.5 -154.5t-290 -56q-174 0 -297 59t-200 158.5t-112.5 230.5t-35.5 275zM420 1653l225 221h236l223 -221 l-168 -74l-174 129l-174 -129z" />
<glyph unicode="&#xdc;" horiz-adv-x="1525" d="M117 711v743h336v-743q0 -84 16 -160t53 -135.5t95.5 -94t144.5 -34.5t145.5 35.5t96 95t52 136.5t15.5 157v743h336v-743q0 -152 -38 -283t-116.5 -229.5t-200.5 -154.5t-290 -56q-174 0 -297 59t-200 158.5t-112.5 230.5t-35.5 275zM412 1595v265h270v-265h-270z M842 1595v265h270v-265h-270z" />
<glyph unicode="&#xdd;" horiz-adv-x="1327" d="M-16 1454h364l314 -668l319 668h365l-517 -958v-496h-335v500zM547 1608l106 266h297l-194 -324z" />
<glyph unicode="&#xde;" horiz-adv-x="1239" d="M139 0v1454h336v-254h252q104 0 191.5 -43t149.5 -111.5t98 -156.5t36 -178q0 -96 -33.5 -185.5t-94 -158t-145.5 -109.5t-190 -41h-264v-217h-336zM475 512h246q61 0 103 56.5t42 142.5q0 90 -48 143t-107 53h-236v-395z" />
<glyph unicode="&#xdf;" horiz-adv-x="1146" d="M111 0v1075q0 84 35.5 154.5t99 123t149.5 81t187 28.5q88 0 162.5 -23.5t130 -66.5t86 -106.5t30.5 -143.5q0 -53 -13 -100t-35.5 -86t-51.5 -67.5t-62 -43.5q123 -41 196 -142t73 -249q0 -125 -50.5 -210t-133.5 -137t-188 -75.5t-214 -23.5v301q102 0 172 45t70 139 q0 45 -17.5 79t-45 56.5t-61.5 33.5t-67 11h-45v293h41q59 0 90 33t31 86q0 39 -14.5 62.5t-35 37t-42 17.5t-35.5 4q-41 0 -66.5 -17.5t-40 -43t-19.5 -55.5t-5 -52v-1018h-311z" />
<glyph unicode="&#xe0;" d="M45 322q0 80 34 145t95.5 112.5t145 74t186.5 26.5q68 0 131 -11.5t111 -33.5v49q0 186 -216 186q-88 0 -167.5 -29.5t-167.5 -88.5l-97 204q106 70 221 105t244 35q244 0 377 -115t133 -336v-276q0 -49 18.5 -68.5t65.5 -24.5v-276q-47 -10 -87 -13t-71 -3 q-90 2 -137 36.5t-59 100.5l-6 49q-72 -92 -171 -141t-210 -49q-80 0 -148.5 25.5t-118 71.5t-78 108.5t-28.5 136.5zM276 1497h297l107 -266l-207 -57zM354 350q0 -59 45 -97t115 -38q53 0 103.5 18.5t82.5 49.5q47 37 48 77v103q-43 16 -93.5 25.5t-93.5 9.5 q-90 0 -148.5 -41t-58.5 -107z" />
<glyph unicode="&#xe1;" d="M45 322q0 80 34 145t95.5 112.5t145 74t186.5 26.5q68 0 131 -11.5t111 -33.5v49q0 186 -216 186q-88 0 -167.5 -29.5t-167.5 -88.5l-97 204q106 70 221 105t244 35q244 0 377 -115t133 -336v-276q0 -49 18.5 -68.5t65.5 -24.5v-276q-47 -10 -87 -13t-71 -3 q-90 2 -137 36.5t-59 100.5l-6 49q-72 -92 -171 -141t-210 -49q-80 0 -148.5 25.5t-118 71.5t-78 108.5t-28.5 136.5zM354 350q0 -59 45 -97t115 -38q53 0 103.5 18.5t82.5 49.5q47 37 48 77v103q-43 16 -93.5 25.5t-93.5 9.5q-90 0 -148.5 -41t-58.5 -107zM451 1229 l106 266h297l-195 -324z" />
<glyph unicode="&#xe2;" d="M45 322q0 80 34 145t95.5 112.5t145 74t186.5 26.5q68 0 131 -11.5t111 -33.5v49q0 186 -216 186q-88 0 -167.5 -29.5t-167.5 -88.5l-97 204q106 70 221 105t244 35q244 0 377 -115t133 -336v-276q0 -49 18.5 -68.5t65.5 -24.5v-276q-47 -10 -87 -13t-71 -3 q-90 2 -137 36.5t-59 100.5l-6 49q-72 -92 -171 -141t-210 -49q-80 0 -148.5 25.5t-118 71.5t-78 108.5t-28.5 136.5zM223 1274l226 221h235l223 -221l-168 -74l-174 129l-174 -129zM354 350q0 -59 45 -97t115 -38q53 0 103.5 18.5t82.5 49.5q47 37 48 77v103 q-43 16 -93.5 25.5t-93.5 9.5q-90 0 -148.5 -41t-58.5 -107z" />
<glyph unicode="&#xe3;" d="M45 322q0 80 34 145t95.5 112.5t145 74t186.5 26.5q68 0 131 -11.5t111 -33.5v49q0 186 -216 186q-88 0 -167.5 -29.5t-167.5 -88.5l-97 204q106 70 221 105t244 35q244 0 377 -115t133 -336v-276q0 -49 18.5 -68.5t65.5 -24.5v-276q-47 -10 -87 -13t-71 -3 q-90 2 -137 36.5t-59 100.5l-6 49q-72 -92 -171 -141t-210 -49q-80 0 -148.5 25.5t-118 71.5t-78 108.5t-28.5 136.5zM150 1200q0 23 13 71t44 97t81 86t122 37q49 0 83.5 -15.5t64.5 -34t58.5 -33.5t65.5 -15q35 0 56.5 15t32.5 33.5t14 35t3 18.5h177q0 -16 -14.5 -63.5 t-46.5 -98.5t-83 -90t-127 -39q-47 0 -83 14.5t-66.5 33t-59 32.5t-63.5 14t-53.5 -14t-28.5 -32.5t-12 -34t-2 -17.5h-176zM354 350q0 -59 45 -97t115 -38q53 0 103.5 18.5t82.5 49.5q47 37 48 77v103q-43 16 -93.5 25.5t-93.5 9.5q-90 0 -148.5 -41t-58.5 -107z" />
<glyph unicode="&#xe4;" d="M45 322q0 80 34 145t95.5 112.5t145 74t186.5 26.5q68 0 131 -11.5t111 -33.5v49q0 186 -216 186q-88 0 -167.5 -29.5t-167.5 -88.5l-97 204q106 70 221 105t244 35q244 0 377 -115t133 -336v-276q0 -49 18.5 -68.5t65.5 -24.5v-276q-47 -10 -87 -13t-71 -3 q-90 2 -137 36.5t-59 100.5l-6 49q-72 -92 -171 -141t-210 -49q-80 0 -148.5 25.5t-118 71.5t-78 108.5t-28.5 136.5zM215 1217v264h270v-264h-270zM354 350q0 -59 45 -97t115 -38q53 0 103.5 18.5t82.5 49.5q47 37 48 77v103q-43 16 -93.5 25.5t-93.5 9.5q-90 0 -148.5 -41 t-58.5 -107zM645 1217v264h270v-264h-270z" />
<glyph unicode="&#xe5;" d="M45 322q0 80 34 145t95.5 112.5t145 74t186.5 26.5q68 0 131 -11.5t111 -33.5v49q0 186 -216 186q-88 0 -167.5 -29.5t-167.5 -88.5l-97 204q106 70 221 105t244 35q244 0 377 -115t133 -336v-276q0 -49 18.5 -68.5t65.5 -24.5v-276q-47 -10 -87 -13t-71 -3 q-90 2 -137 36.5t-59 100.5l-6 49q-72 -92 -171 -141t-210 -49q-80 0 -148.5 25.5t-118 71.5t-78 108.5t-28.5 136.5zM346 1327q0 84 60.5 126t158.5 42t157.5 -42t59.5 -126q0 -82 -59 -124t-158 -42q-98 0 -158.5 42t-60.5 124zM354 350q0 -59 45 -97t115 -38 q53 0 103.5 18.5t82.5 49.5q47 37 48 77v103q-43 16 -93.5 25.5t-93.5 9.5q-90 0 -148.5 -41t-58.5 -107zM483 1329q0 -31 23.5 -51.5t58.5 -20.5q33 0 57.5 19.5t24.5 52.5q0 31 -23.5 50.5t-58.5 19.5t-58.5 -19.5t-23.5 -50.5z" />
<glyph unicode="&#xe6;" horiz-adv-x="1925" d="M47 322q0 80 34 145t95.5 112.5t145.5 74t184 26.5q66 0 125 -11.5t106 -29.5q2 10 3 31.5t5 29.5q-4 86 -56 128t-157 42q-88 0 -167.5 -29.5t-165.5 -88.5l-99 204q109 70 222.5 105t242.5 35q123 0 218.5 -34t158.5 -97q70 59 162 95t209 36q137 0 244.5 -45t181 -122 t111.5 -178.5t38 -213.5q0 -25 -2 -52.5t-6 -48.5h-801q4 -53 25.5 -95t55.5 -69.5t76 -42t89 -14.5q74 0 139.5 35t87.5 94l279 -78q-63 -127 -196.5 -206.5t-319.5 -79.5q-160 0 -277.5 58t-191.5 157q-37 -57 -89 -98.5t-109.5 -67t-117 -37.5t-112.5 -12 q-80 0 -147.5 25.5t-117 71.5t-78 108.5t-28.5 136.5zM356 350q0 -59 45 -97t113 -38q53 0 103.5 18.5t82.5 49.5q47 37 50 75q-4 4 -5.5 19.5t-3.5 34t-3 34t-1 21.5q-41 14 -87 22.5t-87 8.5q-92 0 -149.5 -41t-57.5 -107zM1073 635h469q-10 102 -73.5 163.5t-161.5 61.5 t-161 -61.5t-73 -163.5z" />
<glyph unicode="&#xe7;" horiz-adv-x="1171" d="M51 539q0 111 39 212t112.5 178t181.5 122t245 45q186 0 313 -79t191 -206l-320 -96q-63 102 -186 102q-102 0 -171 -75.5t-69 -202.5q0 -63 18.5 -115.5t51 -89.5t77 -57.5t93.5 -20.5q61 0 112.5 29.5t75.5 76.5l320 -98q-53 -111 -163 -187.5t-265 -92.5l-41 -62 q27 6 61 6q74 0 129 -35.5t55 -115.5q0 -82 -69.5 -138.5t-216.5 -56.5q-72 0 -127.5 13.5t-96.5 29.5l62 115q23 -14 76 -27.5t108 -13.5q49 0 82 14.5t33 50.5q0 35 -31 50.5t-80 15.5q-43 0 -91 -8t-71 -15l86 175q-123 8 -220 57t-164.5 125t-103.5 172t-36 203z" />
<glyph unicode="&#xe8;" horiz-adv-x="1236" d="M49 526q0 117 39 220.5t112.5 181.5t181 123t245.5 45q137 0 243.5 -45t180 -122t111.5 -177.5t38 -210.5q0 -29 -2 -56.5t-6 -48.5h-795q8 -109 79 -165t161 -56q72 0 138.5 35t88.5 94l279 -78q-63 -127 -196.5 -206.5t-319.5 -79.5q-135 0 -243 44t-182.5 119.5 t-113.5 175t-39 207.5zM334 1497h297l106 -266l-207 -57zM391 639h463q-10 102 -73.5 161.5t-157.5 59.5q-96 0 -159 -60.5t-73 -160.5z" />
<glyph unicode="&#xe9;" horiz-adv-x="1236" d="M49 526q0 117 39 220.5t112.5 181.5t181 123t245.5 45q137 0 243.5 -45t180 -122t111.5 -177.5t38 -210.5q0 -29 -2 -56.5t-6 -48.5h-795q8 -109 79 -165t161 -56q72 0 138.5 35t88.5 94l279 -78q-63 -127 -196.5 -206.5t-319.5 -79.5q-135 0 -243 44t-182.5 119.5 t-113.5 175t-39 207.5zM391 639h463q-10 102 -73.5 161.5t-157.5 59.5q-96 0 -159 -60.5t-73 -160.5zM508 1229l106 266h297l-194 -324z" />
<glyph unicode="&#xea;" horiz-adv-x="1236" d="M49 526q0 117 39 220.5t112.5 181.5t181 123t245.5 45q137 0 243.5 -45t180 -122t111.5 -177.5t38 -210.5q0 -29 -2 -56.5t-6 -48.5h-795q8 -109 79 -165t161 -56q72 0 138.5 35t88.5 94l279 -78q-63 -127 -196.5 -206.5t-319.5 -79.5q-135 0 -243 44t-182.5 119.5 t-113.5 175t-39 207.5zM281 1274l225 221h235l224 -221l-168 -74l-174 129l-174 -129zM391 639h463q-10 102 -73.5 161.5t-157.5 59.5q-96 0 -159 -60.5t-73 -160.5z" />
<glyph unicode="&#xeb;" horiz-adv-x="1236" d="M49 526q0 117 39 220.5t112.5 181.5t181 123t245.5 45q137 0 243.5 -45t180 -122t111.5 -177.5t38 -210.5q0 -29 -2 -56.5t-6 -48.5h-795q8 -109 79 -165t161 -56q72 0 138.5 35t88.5 94l279 -78q-63 -127 -196.5 -206.5t-319.5 -79.5q-135 0 -243 44t-182.5 119.5 t-113.5 175t-39 207.5zM274 1217v264h271v-264h-271zM391 639h463q-10 102 -73.5 161.5t-157.5 59.5q-96 0 -159 -60.5t-73 -160.5zM705 1217v264h270v-264h-270z" />
<glyph unicode="&#xec;" horiz-adv-x="548" d="M-14 1497h297l106 -266l-207 -57zM111 0v1075h327v-1075h-327z" />
<glyph unicode="&#xed;" horiz-adv-x="548" d="M111 0v1075h327v-1075h-327zM160 1229l106 266h297l-194 -324z" />
<glyph unicode="&#xee;" horiz-adv-x="548" d="M-68 1274l226 221h235l223 -221l-167 -74l-175 129l-174 -129zM111 0v1075h327v-1075h-327z" />
<glyph unicode="&#xef;" horiz-adv-x="548" d="M-76 1217v264h271v-264h-271zM111 0v1075h327v-1075h-327zM354 1217v264h271v-264h-271z" />
<glyph unicode="&#xf0;" horiz-adv-x="1263" d="M55 479q0 100 38 189.5t103.5 156t155.5 104.5t193 38q96 0 181 -36t142 -95q-41 172 -153 315l-176 -94l-90 125l157 84q-137 121 -344 229h408q98 -49 182 -121l158 84l90 -125l-135 -73q117 -141 178 -315.5t61 -348.5q0 -145 -42 -259t-117.5 -194t-182 -121.5 t-235.5 -41.5q-123 0 -228.5 37.5t-181.5 104t-119 158t-43 199.5zM391 479q0 -98 66.5 -160.5t171.5 -62.5q51 0 95 17.5t77 48t50 71.5t17 90q0 98 -66.5 160t-170.5 62t-172 -64t-68 -162z" />
<glyph unicode="&#xf1;" horiz-adv-x="1251" d="M111 0v1075h295v-180q59 96 167.5 148.5t249.5 52.5q104 0 169 -38t99.5 -98.5t46 -132t11.5 -139.5v-688h-328v604q0 106 -40 154.5t-105 48.5q-35 0 -71 -14.5t-67.5 -40t-58 -60.5t-41.5 -76v-616h-327zM248 1200q0 23 13 71t44 97t81 86t122 37q49 0 84 -15.5 t64.5 -34t58 -33.5t65.5 -15q35 0 56.5 15t33 33.5t14.5 35t3 18.5h176q0 -16 -14.5 -63.5t-46 -98.5t-82.5 -90t-127 -39q-47 0 -83 14.5t-67 33t-59.5 32.5t-63.5 14t-53 -14t-28.5 -32.5t-12.5 -34t-2 -17.5h-176z" />
<glyph unicode="&#xf2;" horiz-adv-x="1247" d="M49 537q0 111 38 212t111.5 178t181 123t245.5 46q137 0 243.5 -46t180 -123t112.5 -178.5t39 -211.5q0 -111 -38 -212.5t-111.5 -178t-181 -121.5t-244.5 -45t-245 45t-181.5 121.5t-111.5 178t-38 212.5zM336 1497h297l106 -266l-207 -57zM385 537q0 -127 67.5 -204 t172.5 -77q51 0 94 20.5t74.5 57.5t50 89t18.5 114q0 127 -67.5 203.5t-169.5 76.5q-51 0 -95.5 -20.5t-76 -57.5t-50 -89t-18.5 -113z" />
<glyph unicode="&#xf3;" horiz-adv-x="1247" d="M49 537q0 111 38 212t111.5 178t181 123t245.5 46q137 0 243.5 -46t180 -123t112.5 -178.5t39 -211.5q0 -111 -38 -212.5t-111.5 -178t-181 -121.5t-244.5 -45t-245 45t-181.5 121.5t-111.5 178t-38 212.5zM385 537q0 -127 67.5 -204t172.5 -77q51 0 94 20.5t74.5 57.5 t50 89t18.5 114q0 127 -67.5 203.5t-169.5 76.5q-51 0 -95.5 -20.5t-76 -57.5t-50 -89t-18.5 -113zM508 1229l106 266h297l-194 -324z" />
<glyph unicode="&#xf4;" horiz-adv-x="1247" d="M49 537q0 111 38 212t111.5 178t181 123t245.5 46q137 0 243.5 -46t180 -123t112.5 -178.5t39 -211.5q0 -111 -38 -212.5t-111.5 -178t-181 -121.5t-244.5 -45t-245 45t-181.5 121.5t-111.5 178t-38 212.5zM281 1274l225 221h235l224 -221l-168 -74l-174 129l-174 -129z M385 537q0 -127 67.5 -204t172.5 -77q51 0 94 20.5t74.5 57.5t50 89t18.5 114q0 127 -67.5 203.5t-169.5 76.5q-51 0 -95.5 -20.5t-76 -57.5t-50 -89t-18.5 -113z" />
<glyph unicode="&#xf5;" horiz-adv-x="1247" d="M49 537q0 111 38 212t111.5 178t181 123t245.5 46q137 0 243.5 -46t180 -123t112.5 -178.5t39 -211.5q0 -111 -38 -212.5t-111.5 -178t-181 -121.5t-244.5 -45t-245 45t-181.5 121.5t-111.5 178t-38 212.5zM209 1200q0 23 13.5 71t44 97t80.5 86t122 37q49 0 84 -15.5 t64.5 -34t58.5 -33.5t65 -15q35 0 56.5 15t33 33.5t14.5 35t3 18.5h176q0 -16 -14.5 -63.5t-46 -98.5t-82.5 -90t-127 -39q-47 0 -83 14.5t-67 33t-59.5 32.5t-63.5 14t-53 -14t-28.5 -32.5t-12.5 -34t-2 -17.5h-176zM385 537q0 -127 67.5 -204t172.5 -77q51 0 94 20.5 t74.5 57.5t50 89t18.5 114q0 127 -67.5 203.5t-169.5 76.5q-51 0 -95.5 -20.5t-76 -57.5t-50 -89t-18.5 -113z" />
<glyph unicode="&#xf6;" horiz-adv-x="1247" d="M49 537q0 111 38 212t111.5 178t181 123t245.5 46q137 0 243.5 -46t180 -123t112.5 -178.5t39 -211.5q0 -111 -38 -212.5t-111.5 -178t-181 -121.5t-244.5 -45t-245 45t-181.5 121.5t-111.5 178t-38 212.5zM274 1217v264h271v-264h-271zM385 537q0 -127 67.5 -204 t172.5 -77q51 0 94 20.5t74.5 57.5t50 89t18.5 114q0 127 -67.5 203.5t-169.5 76.5q-51 0 -95.5 -20.5t-76 -57.5t-50 -89t-18.5 -113zM705 1217v264h270v-264h-270z" />
<glyph unicode="&#xf7;" horiz-adv-x="1019" d="M96 492v260h828v-260h-828zM373 78v293h276v-293h-276zM373 872v293h276v-293h-276z" />
<glyph unicode="&#xf8;" horiz-adv-x="1247" d="M49 537q0 111 38 212t111.5 178t181 123t245.5 46q90 0 165.5 -20.5t139.5 -55.5l55 65h180l-127 -147q78 -78 120 -181.5t42 -219.5q0 -111 -38 -212.5t-111.5 -178t-181 -121.5t-244.5 -45q-184 0 -318 81l-61 -71h-178l133 153q-74 78 -113 179.5t-39 214.5zM385 537 q0 -88 33 -152l323 399q-55 33 -116 33q-51 0 -95.5 -20.5t-76 -57.5t-50 -89t-18.5 -113zM498 293q51 -37 127 -37q51 0 94 20.5t74.5 57.5t50 89t18.5 114q0 90 -39 157z" />
<glyph unicode="&#xf9;" horiz-adv-x="1296" d="M102 387v688h328v-616q0 -98 39 -150.5t111 -52.5q66 0 127 35t108 121v663h328v-706q0 -49 18.5 -68.5t65.5 -24.5v-276q-51 -10 -89 -13t-67 -3q-172 2 -199 137l-6 65q-74 -106 -183.5 -156t-244.5 -50q-164 0 -250 103t-86 304zM334 1497h297l106 -266l-207 -57z" />
<glyph unicode="&#xfa;" horiz-adv-x="1296" d="M102 387v688h328v-616q0 -98 39 -150.5t111 -52.5q66 0 127 35t108 121v663h328v-706q0 -49 18.5 -68.5t65.5 -24.5v-276q-51 -10 -89 -13t-67 -3q-172 2 -199 137l-6 65q-74 -106 -183.5 -156t-244.5 -50q-164 0 -250 103t-86 304zM508 1229l106 266h297l-194 -324z" />
<glyph unicode="&#xfb;" horiz-adv-x="1296" d="M102 387v688h328v-616q0 -98 39 -150.5t111 -52.5q66 0 127 35t108 121v663h328v-706q0 -49 18.5 -68.5t65.5 -24.5v-276q-51 -10 -89 -13t-67 -3q-172 2 -199 137l-6 65q-74 -106 -183.5 -156t-244.5 -50q-164 0 -250 103t-86 304zM281 1274l225 221h235l224 -221 l-168 -74l-174 129l-174 -129z" />
<glyph unicode="&#xfc;" horiz-adv-x="1296" d="M102 387v688h328v-616q0 -98 39 -150.5t111 -52.5q66 0 127 35t108 121v663h328v-706q0 -49 18.5 -68.5t65.5 -24.5v-276q-51 -10 -89 -13t-67 -3q-172 2 -199 137l-6 65q-74 -106 -183.5 -156t-244.5 -50q-164 0 -250 103t-86 304zM272 1217v264h271v-264h-271z M702 1217v264h271v-264h-271z" />
<glyph unicode="&#xfd;" horiz-adv-x="1116" d="M-8 1075h336l252 -794l215 794h305l-412 -1249q-45 -135 -152.5 -216t-248.5 -83q-45 0 -90 7t-91 24v280q45 -14 83 -20t67 -6q53 0 87 42t56 146zM465 1229l106 266h297l-194 -324z" />
<glyph unicode="&#xfe;" horiz-adv-x="1228" d="M111 -436v1890h335v-424q14 20 61.5 49t143.5 29q121 0 219.5 -52t167 -135t106.5 -188t38 -209q0 -115 -44 -220t-119 -185t-173 -127t-209 -47q-86 0 -132 25.5t-59 45.5v-452h-335zM446 362q0 -18 15.5 -40.5t41 -41t57.5 -30.5t65 -12q49 0 89 22.5t68.5 61t45 93 t16.5 115.5q0 57 -14.5 109.5t-42 91.5t-66.5 61.5t-90 22.5q-66 0 -110 -38t-75 -97v-318z" />
<glyph unicode="&#xff;" horiz-adv-x="1116" d="M-8 1075h336l252 -794l215 794h305l-412 -1249q-45 -135 -152.5 -216t-248.5 -83q-45 0 -90 7t-91 24v280q45 -14 83 -20t67 -6q53 0 87 42t56 146zM229 1217v264h271v-264h-271zM659 1217v264h271v-264h-271z" />
<glyph unicode="&#x152;" horiz-adv-x="2174" d="M57 729q0 143 52.5 276.5t145.5 235.5t221 162.5t280 60.5q111 0 203 -45t159 -116v151h971v-295h-633v-272h522v-293h-522v-299h651v-295h-989v154q-70 -72 -164 -118t-204 -46q-156 0 -283 62.5t-218 166t-141.5 236.5t-50.5 274zM399 725q0 -84 23.5 -163t68 -139.5 t111 -97t152.5 -36.5q88 0 153.5 38t109.5 100t65.5 141t21.5 161q0 84 -23.5 163t-68.5 139.5t-110.5 97t-149.5 36.5q-88 0 -154 -37.5t-110 -100t-66.5 -141.5t-22.5 -161z" />
<glyph unicode="&#x153;" horiz-adv-x="2054" d="M49 537q0 121 43 223t119 177t180.5 117t226.5 42q131 0 232.5 -55.5t179.5 -161.5q86 111 186.5 164t229.5 53q123 0 226.5 -41t179 -116t118.5 -177.5t45 -224.5q0 -25 -2 -52.5t-6 -48.5h-795q4 -49 24.5 -90t53.5 -71.5t77 -48t93 -17.5q78 0 143.5 38t88.5 97 l268 -78q-33 -66 -85 -119t-118.5 -90t-144.5 -57t-162 -20q-121 0 -218 50t-202 154q-102 -109 -196 -156.5t-213 -47.5q-125 0 -229.5 41.5t-180.5 115.5t-119 176.5t-43 223.5zM385 537q0 -125 68 -203t172 -78t170.5 79t66.5 202t-66.5 201.5t-170.5 78.5 q-53 0 -96.5 -20.5t-76 -58.5t-50 -89t-17.5 -112zM1202 635h473q-10 102 -76.5 163.5t-162.5 61.5q-98 0 -161 -62.5t-73 -162.5z" />
<glyph unicode="&#x178;" horiz-adv-x="1327" d="M-16 1454h364l314 -668l319 668h365l-517 -958v-496h-335v500zM311 1595v265h271v-265h-271zM741 1595v265h271v-265h-271z" />
<glyph unicode="&#x2c6;" horiz-adv-x="786" d="M51 1274l225 221h236l223 -221l-168 -74l-174 129l-174 -129z" />
<glyph unicode="&#x2dc;" horiz-adv-x="921" d="M53 1200q0 23 13.5 71t44 97t81 86t121.5 37q49 0 84 -15.5t65 -34t58.5 -33.5t65.5 -15q35 0 56.5 15t32.5 33.5t14 35t3 18.5h176q0 -16 -14 -63.5t-46 -98.5t-83 -90t-127 -39q-47 0 -83 14.5t-66.5 33t-59.5 32.5t-63 14q-35 0 -53.5 -14t-29 -32.5t-12.5 -34 t-2 -17.5h-176z" />
<glyph unicode="&#x2000;" horiz-adv-x="938" />
<glyph unicode="&#x2001;" horiz-adv-x="1876" />
<glyph unicode="&#x2002;" horiz-adv-x="938" />
<glyph unicode="&#x2003;" horiz-adv-x="1876" />
<glyph unicode="&#x2004;" horiz-adv-x="625" />
<glyph unicode="&#x2005;" horiz-adv-x="469" />
<glyph unicode="&#x2006;" horiz-adv-x="312" />
<glyph unicode="&#x2007;" horiz-adv-x="312" />
<glyph unicode="&#x2008;" horiz-adv-x="234" />
<glyph unicode="&#x2009;" horiz-adv-x="375" />
<glyph unicode="&#x200a;" horiz-adv-x="104" />
<glyph unicode="&#x2010;" horiz-adv-x="849" d="M111 416v295h630v-295h-630z" />
<glyph unicode="&#x2011;" horiz-adv-x="849" d="M111 416v295h630v-295h-630z" />
<glyph unicode="&#x2012;" horiz-adv-x="849" d="M111 416v295h630v-295h-630z" />
<glyph unicode="&#x2013;" horiz-adv-x="1259" d="M111 416v295h1038v-295h-1038z" />
<glyph unicode="&#x2014;" horiz-adv-x="1918" d="M111 416v295h1697v-295h-1697z" />
<glyph unicode="&#x2018;" horiz-adv-x="532" d="M86 1214v281h266v-217q2 -25 12.5 -38t22.5 -21.5t24.5 -10.5t18.5 -2v-231q-55 0 -115.5 11t-110.5 38t-84 73t-34 117z" />
<glyph unicode="&#x2019;" horiz-adv-x="538" d="M84 1264v231q55 0 115.5 -11t110.5 -38t84 -74t34 -117v-280h-266v217q-2 25 -12.5 38t-22.5 21.5t-24.5 10.5t-18.5 2z" />
<glyph unicode="&#x201a;" horiz-adv-x="509" d="M47 -39q6 0 19.5 2t25.5 10.5t21.5 21.5t11.5 38v301h266v-363q0 -72 -33.5 -118t-84 -73.5t-111 -38.5t-115.5 -11v231z" />
<glyph unicode="&#x201c;" horiz-adv-x="980" d="M86 1214v281h266v-217q2 -25 12.5 -38t22.5 -21.5t24.5 -10.5t18.5 -2v-231q-55 0 -115.5 11t-110.5 38t-84 73t-34 117zM535 1214v281h266v-217q2 -25 12 -38t22.5 -21.5t24.5 -10.5t19 -2v-231q-55 0 -116 11t-111 38t-83.5 73t-33.5 117z" />
<glyph unicode="&#x201d;" horiz-adv-x="987" d="M84 1264v231q55 0 115.5 -11t110.5 -38t84 -74t34 -117v-280h-266v217q-2 25 -12.5 38t-22.5 21.5t-24.5 10.5t-18.5 2zM532 1264v231q55 0 116 -11t111 -38t84 -74t34 -117v-280h-267v217q-2 25 -12 38t-22.5 21.5t-24.5 10.5t-19 2z" />
<glyph unicode="&#x201e;" horiz-adv-x="933" d="M47 -39q6 0 19.5 2t25.5 10.5t21.5 21.5t11.5 38v301h266v-363q0 -72 -33.5 -118t-84 -73.5t-111 -38.5t-115.5 -11v231zM473 -39q6 0 19.5 2t25.5 10.5t21.5 21.5t11.5 38v301h266v-363q0 -72 -33.5 -118t-84 -73.5t-111 -38.5t-115.5 -11v231z" />
<glyph unicode="&#x2022;" horiz-adv-x="749" d="M150 719q0 45 17 86t48 71.5t72 49t88 18.5t88 -18.5t71.5 -49t48 -71.5t17.5 -86q0 -47 -17.5 -88t-48 -72t-71.5 -48t-88 -17t-88 17t-72 48t-48 72t-17 88z" />
<glyph unicode="&#x2026;" horiz-adv-x="1345" d="M111 0v334h266v-334h-266zM539 0v334h268v-334h-268zM969 0v334h266v-334h-266z" />
<glyph unicode="&#x202f;" horiz-adv-x="375" />
<glyph unicode="&#x2039;" horiz-adv-x="733" d="M70 444v156l551 395v-264l-293 -201l293 -186v-264z" />
<glyph unicode="&#x203a;" horiz-adv-x="733" d="M111 80v264l295 186l-295 201v264l553 -395v-156z" />
<glyph unicode="&#x205f;" horiz-adv-x="469" />
<glyph unicode="&#x20ac;" horiz-adv-x="1579" d="M70 461l71 176h90q-6 49 -6 98h-141l72 176h90q25 109 82 209.5t144 176t200.5 120.5t253.5 45q195 0 338 -88t213 -229l-258 -180q-23 57 -58 95t-76 61.5t-85 32.5t-82 9q-127 0 -207 -73.5t-115 -178.5h465l-72 -176h-422q0 -55 6 -98h426l-71 -176h-291 q47 -78 118.5 -126t166.5 -48q41 0 85 11t85 34.5t73.5 61.5t53.5 93l276 -161q-33 -80 -95.5 -143.5t-142 -106.5t-169 -65.5t-175.5 -22.5q-113 0 -212 36.5t-181 101t-143.5 150.5t-97.5 185h-209z" />
<glyph unicode="&#x2122;" horiz-adv-x="1773" d="M123 1249v209h598v-209h-195v-415h-209v415h-194zM815 834v620h313l97 -297l98 297h313v-620h-209v356l-116 -270h-170l-117 270v-356h-209z" />
<glyph unicode="&#x25fc;" horiz-adv-x="1075" d="M0 0v1075h1075v-1075h-1075z" />
</font>
</defs>
</svg>
