<?xml version="1.0" standalone="no"?>
<!DOCTYPE svg PUBLIC "-//W3C//DTD SVG 1.1//EN" "http://www.w3.org/Graphics/SVG/1.1/DTD/svg11.dtd" >
<svg xmlns="http://www.w3.org/2000/svg" xmlns:xlink="http://www.w3.org/1999/xlink" version="1.1">
<metadata></metadata>
<defs>
<font id="roboto_condensedbold" horiz-adv-x="980" >
<font-face units-per-em="2048" ascent="1536" descent="-512" />
<missing-glyph horiz-adv-x="472" />
<glyph unicode="&#xfb01;" horiz-adv-x="1118" d="M160 0v869h-131v213h131v49q2 204 111.5 315t312.5 111q117 0 287 -59l-41 -241q-122 46 -227 46q-157 0 -159 -173v-48h167v-213h-167v-869h-284zM1000 0h-284v1082h284v-1082z" />
<glyph unicode="&#xfb02;" horiz-adv-x="1126" d="M724 1313q-70 7 -113 7q-159 0 -159 -165v-73h169v-213h-169v-869h-284v869h-131v213h131v75q0 195 105 297.5t298 102.5q146 0 437 -31v-1526h-284v1313z" />
<glyph horiz-adv-x="0" />
<glyph horiz-adv-x="0" />
<glyph unicode="&#xd;" horiz-adv-x="472" />
<glyph horiz-adv-x="0" />
<glyph unicode=" "  horiz-adv-x="472" />
<glyph unicode="&#x09;" horiz-adv-x="472" />
<glyph unicode="&#xa0;" horiz-adv-x="472" />
<glyph unicode="!" horiz-adv-x="533" d="M392 448h-235l-33 1008h301zM119 137q0 68 43 111.5t112 43.5q68 0 111 -43.5t43 -111.5q0 -67 -42.5 -110t-111.5 -43q-70 0 -112.5 43t-42.5 110z" />
<glyph unicode="&#x22;" horiz-adv-x="656" d="M265 1398l-39 -413h-164v551h203v-138zM592 1398l-40 -413h-163v551h203v-138z" />
<glyph unicode="#" horiz-adv-x="1080" d="M565 410h-134l-59 -410h-175l60 410h-183v173h208l42 283h-187v174h212l61 416h174l-61 -416h135l61 416h174l-61 -416h179v-174h-204l-42 -283h182v-173h-207l-60 -410h-175zM456 583h135l41 283h-134z" />
<glyph unicode="$" horiz-adv-x="1036" d="M657 384q0 83 -34 131t-112 90q-153 68 -226.5 130.5t-109.5 143t-36 191.5q0 166 92 274.5t243 128.5v214h151v-218q150 -29 233.5 -152t83.5 -312h-283q0 120 -34.5 179t-89.5 59q-53 0 -83 -46t-30 -128q0 -71 31 -118t118 -98q160 -76 230.5 -138.5t104.5 -141.5 t34 -187q0 -169 -89.5 -275t-247.5 -127v-199h-150v199q-173 25 -267 147.5t-94 326.5h283q0 -118 38 -181.5t114 -63.5q61 0 95.5 45.5t34.5 125.5z" />
<glyph unicode="%" horiz-adv-x="1308" d="M97 1176q0 133 73.5 217t198.5 84t199.5 -82.5t74.5 -222.5v-73q0 -135 -74 -217t-198 -82q-123 0 -198.5 82t-75.5 223v71zM281 1099q0 -60 25.5 -95.5t64.5 -35.5q40 0 63.5 37t23.5 97v74q0 58 -24 95.5t-65 37.5q-40 0 -64 -37.5t-24 -98.5v-74zM671 357 q0 135 75 217.5t198 82.5q124 0 199 -81.5t75 -223.5v-73q0 -134 -73 -216.5t-199 -82.5q-127 0 -201 83t-74 220v74zM856 279q0 -56 26.5 -94t63.5 -38q83 0 87 119v91q0 59 -24.5 95.5t-64.5 36.5q-88 0 -88 -153v-57zM422 109l-134 76l597 1138l135 -76z" />
<glyph unicode="&#x26;" horiz-adv-x="1186" d="M72 392q0 103 46.5 186.5t174.5 188.5q-55 87 -87 164.5t-32 160.5q0 171 95 277.5t254 106.5q143 0 235.5 -98.5t92.5 -241.5q0 -190 -159 -317l-80 -65l187 -261q35 103 35 222h239q0 -281 -110 -452l188 -263h-321l-54 76q-129 -96 -298 -96q-184 0 -295 113t-111 299 zM493 214q79 0 149 52l-230 325l-6 -5q-50 -77 -50 -177q0 -84 39.5 -139.5t97.5 -55.5zM426 1097q0 -71 68 -174l47 36q42 32 60 66.5t18 92.5q0 52 -28.5 87.5t-68.5 35.5q-44 0 -70 -39.5t-26 -104.5z" />
<glyph unicode="'" horiz-adv-x="330" d="M275 1388l-29 -405h-184v553h213v-148z" />
<glyph unicode="(" horiz-adv-x="662" d="M120 592q0 224 52.5 430t157 368.5t223.5 224.5l53 -156q-113 -106 -179 -325.5t-69 -507.5v-60q0 -300 65.5 -527.5t182.5 -339.5l-53 -154q-118 62 -221.5 221t-156.5 362t-55 423v41z" />
<glyph unicode=")" horiz-adv-x="662" d="M556 568q0 -233 -59.5 -441t-165 -365t-223.5 -217l-52 154q114 109 180 333.5t68 508.5v53q0 291 -65.5 520.5t-182.5 346.5l52 154q77 -39 157.5 -130t145.5 -225t105 -301.5t40 -390.5z" />
<glyph unicode="*" horiz-adv-x="930" d="M342 962l-315 89l60 182l310 -126l-19 349h196l-20 -356l304 123l59 -183l-320 -90l210 -265l-160 -113l-182 291l-181 -282l-159 109z" />
<glyph unicode="+" horiz-adv-x="973" d="M620 816h283v-263h-283v-407h-268v407h-288v263h288v390h268v-390z" />
<glyph unicode="," horiz-adv-x="503" d="M187 -367l-151 79l38 71q64 118 66 238v225h246l-1 -201q-1 -106 -54 -220t-144 -192z" />
<glyph unicode="-" horiz-adv-x="744" d="M612 506h-489v236h489v-236z" />
<glyph unicode="." horiz-adv-x="596" d="M126 144q0 68 45.5 112t118.5 44q71 0 118 -43.5t47 -112.5q0 -70 -47.5 -112.5t-117.5 -42.5q-71 0 -117.5 43t-46.5 112z" />
<glyph unicode="/" horiz-adv-x="678" d="M206 -125h-207l437 1581h207z" />
<glyph unicode="0" horiz-adv-x="1036" d="M941 602q0 -302 -109.5 -462t-312.5 -160q-201 0 -310.5 155.5t-113.5 445.5v275q0 301 109 460.5t313 159.5t313 -158t111 -451v-265zM657 897q0 172 -34 258t-106 86q-135 0 -140 -315v-363q0 -176 34.5 -262t107.5 -86q69 0 102.5 80.5t35.5 246.5v355z" />
<glyph unicode="1" horiz-adv-x="1036" d="M718 0h-284v1112l-277 -107v236l531 217h30v-1458z" />
<glyph unicode="2" horiz-adv-x="1036" d="M953 0h-858v200l394 501q75 104 110.5 182.5t35.5 150.5q0 97 -33.5 152t-96.5 55q-69 0 -109.5 -64t-40.5 -180h-284q0 134 55.5 245t156 172.5t227.5 61.5q195 0 302.5 -107.5t107.5 -305.5q0 -123 -59.5 -249.5t-215.5 -311.5l-187 -267h495v-235z" />
<glyph unicode="3" horiz-adv-x="1036" d="M347 857h137q78 0 114.5 54.5t36.5 145.5q0 87 -37.5 135.5t-100.5 48.5q-59 0 -96.5 -46t-37.5 -116h-283q0 114 52.5 204.5t147 141.5t209.5 51q201 0 315 -111t114 -304q0 -99 -51.5 -183.5t-135.5 -129.5q103 -44 153.5 -132t50.5 -208q0 -194 -123.5 -311 t-324.5 -117q-187 0 -303.5 115.5t-116.5 303.5h283q0 -78 41 -131t104 -53q73 0 115.5 54t42.5 144q0 215 -167 216h-139v228z" />
<glyph unicode="4" horiz-adv-x="1036" d="M841 550h124v-235h-124v-315h-283v315h-482l-13 183l494 958h284v-906zM338 550h220v487l-6 -11z" />
<glyph unicode="5" horiz-adv-x="1036" d="M124 716l72 740h705v-242h-473l-26 -312q82 55 169 55q180 0 277.5 -128t97.5 -362q0 -219 -116 -353t-310 -134q-115 0 -213 54.5t-154.5 151.5t-57.5 220h280q7 -91 45 -141t98 -50q70 0 108 67.5t38 201.5q0 126 -45.5 190t-127.5 64q-80 0 -124 -55l-18 -25z" />
<glyph unicode="6" horiz-adv-x="1036" d="M770 1471v-240h-16q-159 -1 -252.5 -95.5t-113.5 -264.5q91 104 228 104q158 0 252.5 -135t94.5 -360q0 -143 -54 -258t-151.5 -178.5t-220.5 -63.5q-198 0 -317.5 159t-119.5 428v105q0 241 75.5 422t218 278.5t332.5 98.5h44zM527 741q-54 0 -90.5 -34t-54.5 -84v-102 q0 -154 41 -230t108 -76q68 0 109 73.5t41 188.5q0 117 -42.5 190.5t-111.5 73.5z" />
<glyph unicode="7" horiz-adv-x="1036" d="M949 1293l-460 -1293h-299l462 1221h-584v235h881v-163z" />
<glyph unicode="8" horiz-adv-x="1036" d="M911 1069q0 -106 -45 -188t-124 -131q90 -51 142 -140.5t52 -210.5q0 -194 -112 -306.5t-305 -112.5t-307 112.5t-114 306.5q0 121 52 211t143 140q-80 49 -125 131t-45 188q0 191 107 299t287 108q182 0 288 -109t106 -298zM519 215q64 0 98.5 54.5t34.5 151.5t-36 152 t-99 55t-99.5 -55t-36.5 -152t36.5 -151.5t101.5 -54.5zM629 1054q0 85 -27.5 136t-84.5 51q-54 0 -82 -49.5t-28 -137.5q0 -86 28 -138.5t84 -52.5t83 52.5t27 138.5z" />
<glyph unicode="9" horiz-adv-x="1036" d="M644 563q-90 -92 -197 -92q-166 0 -261.5 133.5t-95.5 356.5q0 144 54 263.5t150.5 185.5t215.5 66q123 0 219 -73t149 -209.5t53 -310.5v-103q0 -372 -163.5 -581.5t-463.5 -213.5h-29v244h19q166 1 249.5 86t100.5 248zM519 693q82 0 129 112v130q0 143 -39 224.5 t-101 81.5q-61 0 -98.5 -80.5t-37.5 -196.5q0 -126 39 -198.5t108 -72.5z" />
<glyph unicode=":" horiz-adv-x="562" d="M128 144q0 68 45.5 112t118.5 44q71 0 118 -43.5t47 -112.5q0 -70 -47.5 -112.5t-117.5 -42.5q-71 0 -117.5 43t-46.5 112zM128 962q0 68 45.5 112t118.5 44q71 0 118 -43.5t47 -112.5q0 -70 -47.5 -112.5t-117.5 -42.5q-71 0 -117.5 43t-46.5 112z" />
<glyph unicode=";" horiz-adv-x="522" d="M112 962q0 68 45.5 112t118.5 44q71 0 118 -43.5t47 -112.5q0 -70 -47.5 -112.5t-117.5 -42.5q-71 0 -117.5 43t-46.5 112zM211 -367l-151 79l38 71q64 118 66 238v225h246l-1 -201q-1 -106 -54 -220t-144 -192z" />
<glyph unicode="&#x3c;" horiz-adv-x="915" d="M336 617l453 -199v-282l-728 364v238l728 365v-282z" />
<glyph unicode="=" horiz-adv-x="1030" d="M895 744h-763v238h763v-238zM895 311h-763v237h763v-237z" />
<glyph unicode="&#x3e;" horiz-adv-x="930" d="M583 621l-462 201v280l738 -364v-238l-738 -365v280z" />
<glyph unicode="?" horiz-adv-x="918" d="M304 448q0 140 27.5 222.5t98.5 157.5q75 83 100 136t25 107q0 167 -108 167q-48 0 -80 -46t-34 -124h-283q2 194 108.5 301t288.5 107q186 0 289 -103.5t103 -289.5q0 -154 -127 -302l-83 -94q-41 -49 -58 -101.5t-19 -137.5h-248zM278 142q0 68 43.5 111t110.5 43 q69 0 112 -43.5t43 -110.5q0 -66 -42 -110t-113 -44q-70 0 -112 44t-42 110z" />
<glyph unicode="@" horiz-adv-x="1569" d="M1486 537q-5 -168 -54.5 -298.5t-132.5 -195t-192 -64.5q-143 0 -204 134q-83 -131 -209 -131t-194 124.5t-52 324.5q15 163 70.5 291t140.5 198t185 70q127 0 215 -68l53 -41l-44 -578q-7 -81 10.5 -121.5t64.5 -40.5q72 0 120 111t52 278q13 347 -115 534.5t-378 187.5 q-239 0 -387 -213t-161 -576q-14 -358 115.5 -549t381.5 -191q71 0 147 18.5t132 49.5l34 -155q-52 -40 -140 -64.5t-176 -24.5q-225 0 -382 106.5t-234 313t-68 496.5q9 276 105.5 495t261.5 338t375 119q209 0 362 -106.5t230 -307.5t68 -464zM663 431q-8 -133 18 -201 t83 -68q32 0 62 41t49 112l36 491q-26 7 -48 7q-88 0 -136.5 -91t-63.5 -291z" />
<glyph unicode="A" horiz-adv-x="1223" d="M812 298h-401l-78 -298h-311l455 1456h269l458 -1456h-314zM475 543h272l-136 519z" />
<glyph unicode="B" horiz-adv-x="1149" d="M117 0v1456h450q228 0 346.5 -101.5t118.5 -297.5q0 -111 -49 -191t-134 -117q98 -28 151 -112.5t53 -208.5q0 -212 -116.5 -320t-337.5 -108h-482zM411 633v-389h188q79 0 120 49t41 139q0 196 -142 201h-207zM411 847h153q173 0 173 179q0 99 -40 142t-130 43h-156 v-364z" />
<glyph unicode="C" horiz-adv-x="1168" d="M1104 485q-11 -249 -140 -377t-364 -128q-247 0 -378.5 162.5t-131.5 463.5v245q0 300 136 462.5t378 162.5q238 0 361.5 -133t140.5 -382h-295q-4 154 -47.5 212.5t-159.5 58.5q-118 0 -167 -82.5t-52 -271.5v-275q0 -217 48.5 -298t166.5 -81q116 0 160 56.5t50 204.5 h294z" />
<glyph unicode="D" horiz-adv-x="1157" d="M117 0v1456h385q255 0 406.5 -162t154.5 -444v-236q0 -287 -151.5 -450.5t-417.5 -163.5h-377zM411 1211v-967h88q147 0 207 77.5t63 267.5v253q0 204 -57 284.5t-194 84.5h-107z" />
<glyph unicode="E" horiz-adv-x="1005" d="M869 630h-458v-386h542v-244h-836v1456h834v-245h-540v-344h458v-237z" />
<glyph unicode="F" horiz-adv-x="974" d="M868 594h-457v-594h-294v1456h806v-245h-512v-373h457v-244z" />
<glyph unicode="G" horiz-adv-x="1198" d="M1107 165q-85 -92 -208.5 -138.5t-270.5 -46.5q-251 0 -390 155.5t-143 452.5v262q0 301 131.5 463.5t383.5 162.5q237 0 357.5 -117t139.5 -367h-286q-12 139 -58 189.5t-144 50.5q-119 0 -173 -87t-56 -277v-264q0 -199 59.5 -289.5t195.5 -90.5q87 0 141 35l26 18v267 h-206v222h501v-601z" />
<glyph unicode="H" horiz-adv-x="1257" d="M1138 0h-293v623h-434v-623h-294v1456h294v-589h434v589h293v-1456z" />
<glyph unicode="I" horiz-adv-x="554" d="M424 0h-294v1456h294v-1456z" />
<glyph unicode="J" horiz-adv-x="1004" d="M596 1456h294v-1008q0 -212 -118 -340t-304 -128q-200 0 -311 119t-111 331h295q0 -206 127 -206q128 0 128 238v994z" />
<glyph unicode="K" horiz-adv-x="1133" d="M527 562l-116 -146v-416h-294v1456h294v-635l93 157l271 478h360l-417 -640l424 -816h-349z" />
<glyph unicode="L" d="M411 244h516v-244h-810v1456h294v-1212z" />
<glyph unicode="M" horiz-adv-x="1553" d="M501 1456l275 -1053l274 1053h384v-1456h-295v394l27 607l-291 -1001h-200l-291 1001l27 -607v-394h-294v1456h384z" />
<glyph unicode="N" horiz-adv-x="1254" d="M1135 0h-294l-430 955v-955h-294v1456h294l431 -956v956h293v-1456z" />
<glyph unicode="O" horiz-adv-x="1236" d="M1142 597q0 -293 -138.5 -455t-384.5 -162q-245 0 -385 160.5t-142 449.5v249q0 300 139 468.5t386 168.5q243 0 383 -165.5t142 -464.5v-249zM847 841q0 197 -56 293t-174 96q-117 0 -173 -92.5t-58 -281.5v-259q0 -191 57 -281.5t176 -90.5q115 0 171 88.5t57 274.5 v253z" />
<glyph unicode="P" horiz-adv-x="1165" d="M411 512v-512h-294v1456h496q216 0 344.5 -134t128.5 -348t-127 -338t-352 -124h-196zM411 757h202q84 0 130 55t46 160q0 109 -47 173.5t-126 65.5h-205v-454z" />
<glyph unicode="Q" horiz-adv-x="1236" d="M1141 615q0 -361 -195 -525l201 -180l-185 -170l-268 245l-77 -5q-247 0 -386.5 167.5t-140.5 463.5v228q0 300 139 468.5t386 168.5q241 0 381 -162t145 -455v-244zM846 841q0 199 -57 294t-174 95t-173 -92.5t-58 -281.5v-241q0 -200 57.5 -295t175.5 -95 q115 0 171.5 94.5t57.5 288.5v233z" />
<glyph unicode="R" horiz-adv-x="1134" d="M558 532h-146v-532h-294v1456h469q221 0 341.5 -114.5t120.5 -325.5q0 -290 -211 -406l255 -596v-14h-316zM412 777h167q88 0 132 58.5t44 156.5q0 219 -171 219h-172v-434z" />
<glyph unicode="S" horiz-adv-x="1106" d="M732 382q0 89 -45.5 134.5t-165.5 94.5q-219 83 -315 194.5t-96 263.5q0 184 130.5 295.5t331.5 111.5q134 0 239 -56.5t161.5 -159.5t56.5 -234h-293q0 102 -43.5 155.5t-125.5 53.5q-77 0 -120 -45.5t-43 -122.5q0 -60 48 -108.5t170 -100.5q213 -77 309.5 -189 t96.5 -285q0 -190 -121 -297t-329 -107q-141 0 -257 58t-181.5 166t-65.5 255h295q0 -126 49 -183t160 -57q154 0 154 163z" />
<glyph unicode="T" horiz-adv-x="1112" d="M1060 1211h-360v-1211h-295v1211h-354v245h1009v-245z" />
<glyph unicode="U" horiz-adv-x="1170" d="M1064 1456v-1008q-2 -227 -125 -347.5t-353 -120.5q-234 0 -357.5 122t-123.5 353v1001h296v-1002q0 -124 40 -177t145 -53t144 52.5t40 172.5v1007h294z" />
<glyph unicode="V" horiz-adv-x="1184" d="M591 400l245 1056h328l-420 -1456h-306l-417 1456h326z" />
<glyph unicode="W" horiz-adv-x="1534" d="M1063 541l138 915h291l-259 -1456h-295l-170 858l-168 -858h-296l-260 1456h293l137 -914l171 914h247z" />
<glyph unicode="X" horiz-adv-x="1146" d="M573 956l196 500h337l-342 -722l350 -734h-341l-200 509l-199 -509h-341l350 734l-343 722h337z" />
<glyph unicode="Y" horiz-adv-x="1111" d="M556 802l219 654h320l-390 -928v-528h-298v528l-391 928h320z" />
<glyph unicode="Z" horiz-adv-x="1086" d="M422 244h600v-244h-944v177l594 1034h-600v245h939v-173z" />
<glyph unicode="[" horiz-adv-x="540" d="M499 1471h-105v-1587h105v-223h-389v2034h389v-224z" />
<glyph unicode="\" horiz-adv-x="781" d="M10 1456h289l510 -1581h-289z" />
<glyph unicode="]" horiz-adv-x="540" d="M34 1695h389v-2034h-389v223h106v1587h-106v224z" />
<glyph unicode="^" horiz-adv-x="800" d="M402 1184l-131 -455h-222l252 727h203l251 -727h-221z" />
<glyph unicode="_" horiz-adv-x="819" d="M796 -228h-775v228h775v-228z" />
<glyph unicode="`" horiz-adv-x="678" d="M567 1226h-239l-276 310h317z" />
<glyph unicode="a" horiz-adv-x="964" d="M617 0q-12 25 -24 84q-76 -104 -206 -104q-136 0 -225.5 90t-89.5 233q0 170 108.5 263t312.5 95h86v87q0 73 -25 103t-73 30q-106 0 -106 -124h-283q0 150 112.5 247.5t284.5 97.5q178 0 275.5 -92.5t97.5 -264.5v-509q2 -140 40 -219v-17h-285zM450 202q47 0 80 19 t49 45v225h-68q-72 0 -113.5 -46t-41.5 -123q0 -120 94 -120z" />
<glyph unicode="b" horiz-adv-x="1014" d="M947 506q0 -263 -84 -394.5t-264 -131.5q-141 0 -226 127l-9 -107h-261v1536h283v-542q80 108 211 108q180 0 264 -130.5t86 -382.5v-83zM664 577q0 171 -33 229.5t-115 58.5q-89 0 -130 -81v-493q38 -76 132 -76q81 0 112.5 53t33.5 206v103z" />
<glyph unicode="c" horiz-adv-x="942" d="M494 215q123 0 125 160h266q-2 -177 -109 -286t-276 -109q-209 0 -319 130t-112 383v86q0 255 108.5 389t320.5 134q179 0 282 -110.5t105 -313.5h-266q-1 91 -30 140t-96 49q-74 0 -106 -52.5t-34 -203.5v-110q0 -132 13 -184.5t43 -77t85 -24.5z" />
<glyph unicode="d" horiz-adv-x="1015" d="M65 574q0 266 90 397t262 131q125 0 208 -108v542h285v-1536h-257l-13 110q-87 -130 -224 -130q-170 0 -259.5 130t-91.5 382v82zM349 503q0 -160 34 -223.5t115 -63.5q84 0 127 75v494q-42 80 -126 80q-78 0 -114 -63t-36 -224v-75z" />
<glyph unicode="e" d="M540 -20q-218 0 -340 130t-122 372v86q0 256 112 395t321 139q204 0 307 -130.5t105 -386.5v-139h-563q6 -120 53 -175.5t145 -55.5q142 0 237 97l111 -171q-52 -72 -151 -116.5t-215 -44.5zM362 644h283v26q-2 97 -32 147t-104 50t-107.5 -53t-39.5 -170z" />
<glyph unicode="f" horiz-adv-x="671" d="M168 0v869h-131v213h131v97q1 179 94.5 278.5t258.5 99.5q50 0 128 -20l-2 -226q-29 9 -69 9q-126 0 -126 -150v-88h169v-213h-169v-869h-284z" />
<glyph unicode="g" horiz-adv-x="1030" d="M69 574q0 266 96 397t269 131q147 0 227 -116l11 96h255v-1082q0 -207 -116 -316.5t-333 -109.5q-89 0 -187 35.5t-146 90.5l95 196q40 -42 104 -68.5t121 -26.5q95 0 136.5 45.5t42.5 146.5v93q-81 -106 -211 -106q-173 0 -267.5 134.5t-96.5 379.5v80zM352 503 q0 -150 39 -218.5t124 -68.5q87 0 129 63v517q-44 69 -127 69q-84 0 -124.5 -69t-40.5 -222v-71z" />
<glyph unicode="h" horiz-adv-x="1008" d="M379 987q92 115 226 115q148 0 225 -104t78 -310v-688h-284v685q0 95 -29.5 137.5t-95.5 42.5q-77 0 -120 -71v-794h-283v1536h283v-549z" />
<glyph unicode="i" horiz-adv-x="516" d="M400 0h-284v1082h284v-1082zM103 1362q0 66 42 108t112 42t112 -42t42 -108q0 -65 -41.5 -108t-112.5 -43t-112.5 43t-41.5 108z" />
<glyph unicode="j" horiz-adv-x="503" d="M401 1082v-1140q0 -185 -85 -282t-241 -97q-66 0 -128 17l-1 231q47 -9 75 -9q94 0 96 132v1148h284zM98 1362q0 66 42 108t112 42t112 -42t42 -108q0 -65 -41.5 -108t-112.5 -43t-112.5 43t-41.5 108z" />
<glyph unicode="k" d="M462 417l-76 -85v-332h-283v1536h283v-830l35 52l196 324h337l-314 -446l344 -636h-324z" />
<glyph unicode="l" horiz-adv-x="516" d="M400 0h-284v1536h284v-1536z" />
<glyph unicode="m" horiz-adv-x="1519" d="M369 1082l8 -100q95 120 251 120q162 0 229 -146q93 146 265 146q284 0 291 -393v-709h-283v691q0 94 -26 134t-88 40q-79 0 -118 -97l2 -34v-734h-283v689q0 93 -25 134.5t-89 41.5q-73 0 -116 -79v-786h-283v1082h265z" />
<glyph unicode="n" horiz-adv-x="1008" d="M362 1082l8 -107q96 127 251 127q279 0 287 -391v-711h-284v690q0 92 -27.5 133.5t-96.5 41.5q-77 0 -120 -79v-786h-284v1082h266z" />
<glyph unicode="o" horiz-adv-x="1019" d="M70 576q0 246 116 386t321 140q207 0 323 -140t116 -388v-69q0 -247 -115 -386t-322 -139q-208 0 -323.5 139.5t-115.5 387.5v69zM354 505q0 -290 155 -290q143 0 154 242l1 119q0 148 -41 219.5t-116 71.5q-72 0 -112.5 -71.5t-40.5 -219.5v-71z" />
<glyph unicode="p" horiz-adv-x="1014" d="M946 507q0 -255 -87.5 -391t-260.5 -136q-132 0 -212 107v-503h-283v1498h262l10 -99q81 119 221 119q173 0 260.5 -126t89.5 -386v-83zM664 578q0 157 -34.5 222t-116.5 65q-87 0 -127 -73v-507q38 -70 129 -70q84 0 116.5 71t32.5 221v71z" />
<glyph unicode="q" horiz-adv-x="1018" d="M65 576q0 266 89 396t264 130q142 0 226 -128l18 108h247v-1498h-284v500q-79 -104 -208 -104q-171 0 -260.5 132.5t-91.5 381.5v82zM349 505q0 -157 34 -223.5t116 -66.5q86 0 126 67v515q-40 70 -125 70q-81 0 -115.5 -65t-35.5 -217v-80z" />
<glyph unicode="r" horiz-adv-x="679" d="M637 809l-94 8q-116 0 -157 -102v-715h-284v1082h267l8 -117q67 137 185 137q48 0 78 -13z" />
<glyph unicode="s" horiz-adv-x="930" d="M582 290q0 36 -34.5 66.5t-153.5 82.5q-175 71 -240.5 147t-65.5 189q0 142 102.5 234.5t271.5 92.5q178 0 285 -92t107 -247h-283q0 132 -110 132q-45 0 -74 -28t-29 -78q0 -36 32 -63.5t151 -78.5q173 -64 244.5 -142.5t71.5 -203.5q0 -145 -109 -233t-286 -88 q-119 0 -210 46.5t-142.5 129.5t-51.5 179h269q2 -74 34.5 -111t106.5 -37q114 0 114 103z" />
<glyph unicode="t" horiz-adv-x="629" d="M432 1348v-266h145v-213h-145v-537q0 -64 17.5 -88t67.5 -24q41 0 67 7l-2 -220q-72 -27 -156 -27q-274 0 -277 314v575h-125v213h125v266h283z" />
<glyph unicode="u" horiz-adv-x="1008" d="M635 99q-88 -119 -236 -119q-149 0 -226 102.5t-77 298.5v701h283v-708q2 -158 105 -158q97 0 140 84v782h285v-1082h-266z" />
<glyph unicode="v" horiz-adv-x="920" d="M458 400l137 682h295l-297 -1082h-270l-298 1082h296z" />
<glyph unicode="w" horiz-adv-x="1296" d="M891 475l97 607h271l-224 -1082h-235l-153 626l-153 -626h-236l-224 1082h272l96 -608l144 608h201z" />
<glyph unicode="x" horiz-adv-x="927" d="M465 761l126 321h300l-247 -529l256 -553h-301l-133 339l-132 -339h-302l256 553l-245 529h301z" />
<glyph unicode="y" horiz-adv-x="914" d="M450 471l144 611h302l-356 -1244q-80 -275 -301 -275q-51 0 -116 19v221l33 -1q66 0 99.5 25.5t50.5 88.5l22 73l-312 1093h304z" />
<glyph unicode="z" horiz-adv-x="927" d="M416 235h428v-235h-764v177l418 669h-408v236h748v-171z" />
<glyph unicode="{" horiz-adv-x="610" d="M502 -360q-302 98 -309 449v216q0 209 -137 209v208q137 0 137 212v218q8 347 309 445l54 -162q-100 -48 -109 -249l-1 -250q0 -225 -159 -317q159 -93 159 -321t2 -261q11 -188 107 -234z" />
<glyph unicode="|" horiz-adv-x="519" d="M349 -270h-176v1726h176v-1726z" />
<glyph unicode="}" horiz-adv-x="610" d="M54 -197q56 26 83 96.5t27 205.5v196q0 229 163 317q-163 89 -163 318t-1 250q-9 202 -110 249l54 162q154 -50 230.5 -162t78.5 -294v-208q0 -211 138 -211v-208q-138 0 -138 -211v-217q-8 -348 -309 -446z" />
<glyph unicode="~" horiz-adv-x="1141" d="M1041 794q0 -185 -81 -302t-209 -117q-60 0 -112 27.5t-120 104.5q-61 83 -116 83q-42 0 -68.5 -51.5t-26.5 -126.5l-209 3q0 185 80 299t209 114q66 0 121.5 -32.5t111.5 -98.5q58 -84 115 -84q41 0 70 52t29 129h206z" />
<glyph unicode="&#xa1;" horiz-adv-x="555" d="M161 638h235l33 -1007h-301zM434 947q0 -67 -43 -110.5t-112 -43.5q-67 0 -110.5 43t-43.5 111q0 66 42 110t112 44q71 0 113 -44t42 -110z" />
<glyph unicode="&#xa2;" horiz-adv-x="1042" d="M522 215q60 0 92 43t33 117h266q-2 -143 -81.5 -248t-209.5 -136v-236h-191v235q-159 34 -246 176.5t-87 365.5v22q0 218 87 361t246 177v226h191v-227q135 -30 212 -138.5t79 -274.5h-266q0 87 -33 138t-93 51q-112 0 -133 -171q-7 -56 -7 -170q0 -177 34.5 -244 t106.5 -67z" />
<glyph unicode="&#xa3;" horiz-adv-x="1074" d="M529 575l5 -137q-2 -123 -56 -194h534v-244h-906v244h74q49 15 54 125l1 52l-4 154h-127v237h121l-6 227q0 202 108 319t287 117q184 0 289.5 -112t105.5 -306h-279q0 84 -30.5 129t-85.5 45q-42 0 -71.5 -48t-29.5 -144l8 -227h250v-237h-242z" />
<glyph unicode="&#xa4;" horiz-adv-x="1417" d="M1072 107q-159 -127 -361 -127q-203 0 -361 126l-129 -132l-141 144l135 137q-100 156 -100 353q0 204 109 365l-144 147l141 144l142 -145q155 115 348 115q194 0 349 -117l144 148l142 -145l-148 -151q107 -159 107 -361q0 -193 -98 -349l139 -141l-142 -145zM301 608 q0 -118 54 -219.5t149.5 -160t206.5 -58.5q110 0 205.5 58.5t149.5 160t54 219.5q0 119 -54 219.5t-149 158.5t-206 58q-112 0 -207 -58t-149 -158.5t-54 -219.5z" />
<glyph unicode="&#xa5;" horiz-adv-x="1101" d="M551 906l197 550h322l-309 -714h177v-176h-244v-114h244v-175h-244v-277h-294v277h-264v175h264v114h-264v176h204l-309 714h322z" />
<glyph unicode="&#xa6;" horiz-adv-x="517" d="M127 -270v795h262v-795h-262zM389 698h-262v758h262v-758z" />
<glyph unicode="&#xa7;" horiz-adv-x="1131" d="M1026 482q0 -177 -138 -269q58 -51 88 -120t30 -170q0 -177 -119.5 -275.5t-325.5 -98.5q-224 0 -345.5 108t-121.5 309h283q0 -181 184 -181q81 0 122 37t41 100q0 61 -44.5 100t-184.5 90q-225 71 -312.5 168t-87.5 253q0 178 137 271q-58 51 -88.5 120t-30.5 170 q0 174 121.5 278t326.5 104q214 0 330.5 -113.5t116.5 -313.5h-283q0 88 -44 140t-120 52q-79 0 -121.5 -39t-42.5 -106q0 -70 42.5 -107.5t181.5 -84.5q157 -47 240.5 -102.5t124 -133t40.5 -186.5zM525 660l-103 36q-45 -45 -45 -132q0 -78 43.5 -118.5t172.5 -89.5 l102 -35q52 48 52 132q0 66 -43 109t-179 98z" />
<glyph unicode="&#xa8;" horiz-adv-x="959" d="M93 1365q0 55 40.5 91.5t98.5 36.5t98.5 -36.5t40.5 -91.5q0 -54 -40.5 -90.5t-98.5 -36.5t-98.5 36.5t-40.5 90.5zM582 1365q0 54 40.5 90.5t98.5 36.5t98.5 -36.5t40.5 -90.5q0 -52 -38.5 -89.5t-100.5 -37.5t-100.5 37.5t-38.5 89.5z" />
<glyph unicode="&#xa9;" horiz-adv-x="1606" d="M1117 596q0 -152 -87.5 -233t-247.5 -81t-254.5 106.5t-94.5 286.5v113q0 174 95.5 280.5t253.5 106.5q163 0 249.5 -82.5t86.5 -231.5h-156q0 96 -46 137.5t-134 41.5q-92 0 -142.5 -67.5t-51.5 -180.5v-123q0 -117 51 -184.5t143 -67.5q89 0 134 40.5t45 138.5h156z M1383 729q0 166 -75 308.5t-212 228t-300 85.5q-159 0 -295.5 -82t-214.5 -226t-78 -314t77.5 -314t214 -227.5t296.5 -83.5t297.5 85t213.5 229t76 311zM86 729q0 202 93.5 375t259 272.5t357.5 99.5t357.5 -99.5t259 -272.5t93.5 -375q0 -204 -95 -377.5t-259.5 -272.5 t-355.5 -99q-193 0 -357.5 100t-258.5 273t-94 376z" />
<glyph unicode="&#xaa;" horiz-adv-x="805" d="M515 705l-14 63q-60 -77 -162 -77q-99 0 -154 61.5t-55 166.5q0 227 281 231h84v51q0 127 -84 127q-100 0 -100 -99l-165 14q0 102 73.5 167.5t191.5 65.5q116 0 183 -72t67 -204v-318q0 -98 22 -177h-168zM382 835q59 0 113 56v142h-63q-136 0 -136 -110q0 -88 86 -88z " />
<glyph unicode="&#xab;" horiz-adv-x="920" d="M289 523l192 -399h-175l-233 390v19l233 390h175zM630 523l192 -399h-175l-233 390v19l233 390h175z" />
<glyph unicode="&#xac;" horiz-adv-x="993" d="M835 374h-192v260h-517v171h709v-431z" />
<glyph unicode="&#xad;" horiz-adv-x="744" d="M612 506h-489v236h489v-236z" />
<glyph unicode="&#xae;" horiz-adv-x="1606" d="M86 729q0 202 93.5 375t259 272.5t357.5 99.5t357.5 -99.5t259 -272.5t93.5 -375q0 -204 -95 -377.5t-259.5 -272.5t-355.5 -99q-193 0 -357.5 100t-258.5 273t-94 376zM1383 729q0 166 -75 308.5t-212 228t-300 85.5q-159 0 -295.5 -82t-214.5 -226t-78 -314t77.5 -314 t214 -227.5t296.5 -83.5t297.5 85t213.5 229t76 311zM652 653v-337h-151v850h281q151 0 238 -68.5t87 -194.5q0 -112 -112 -174q60 -31 84.5 -86t24.5 -137.5t3.5 -116.5t13.5 -57v-16h-155q-13 34 -13 194q0 76 -33 109.5t-110 33.5h-158zM652 787h135q73 0 121.5 31.5 t48.5 84.5q0 70 -35.5 99.5t-128.5 30.5h-141v-246z" />
<glyph unicode="&#xaf;" horiz-adv-x="938" d="M784 1290h-631v167h631v-167z" />
<glyph unicode="&#xb0;" horiz-adv-x="796" d="M126 1200q0 115 81.5 195.5t191.5 80.5q109 0 188.5 -80.5t79.5 -195.5q0 -116 -79.5 -194.5t-188.5 -78.5t-191 78.5t-82 194.5zM399 1076q53 0 87 36t34 88t-34 90t-87 38t-89.5 -37.5t-36.5 -90.5t37.5 -88.5t88.5 -35.5z" />
<glyph unicode="&#xb1;" horiz-adv-x="968" d="M607 945h260v-243h-260v-364h-247v364h-263v243h263v341h247v-341zM844 1h-731v238h731v-238z" />
<glyph unicode="&#xb2;" horiz-adv-x="687" d="M609 667h-533v138l240 257q43 49 62 91t19 65q0 84 -64 84q-34 0 -53.5 -30.5t-19.5 -79.5h-199q0 118 74 196.5t189 78.5q131 0 200.5 -64.5t69.5 -183.5q0 -77 -35.5 -137.5t-153.5 -164.5l-69 -85h273v-165z" />
<glyph unicode="&#xb3;" horiz-adv-x="687" d="M250 1137h75q78 0 78 87q0 36 -19.5 56.5t-53.5 20.5q-27 0 -47 -15.5t-20 -44.5h-197q0 101 72.5 163t185.5 62q129 0 202.5 -60t73.5 -166q0 -119 -116 -169q128 -41 128 -184q0 -106 -80 -169t-209 -63q-121 0 -194.5 66.5t-73.5 180.5h199q0 -32 21.5 -57t60.5 -25 q43 0 60.5 26.5t17.5 61.5q0 90 -82 92h-82v137z" />
<glyph unicode="&#xb4;" horiz-adv-x="680" d="M297 1536h318l-278 -310h-236z" />
<glyph unicode="&#xb5;" horiz-adv-x="1125" d="M414 1082v-623q0 -127 28.5 -184.5t102.5 -57.5q100 0 144 86v779h284v-1082h-264l-4 51q-70 -72 -168 -72q-71 0 -123 34v-429h-282v1498h282z" />
<glyph unicode="&#xb6;" horiz-adv-x="892" d="M556 0v520h-65q-125 0 -218.5 58t-143 165t-49.5 245q0 213 112 340.5t303 127.5h272v-1456h-211z" />
<glyph unicode="&#xb7;" horiz-adv-x="583" d="M131 696q0 68 43.5 112t112.5 44q70 0 113 -44t43 -112q0 -69 -43.5 -112t-112.5 -43q-68 0 -112 43t-44 112z" />
<glyph unicode="&#xb8;" horiz-adv-x="511" d="M334 7l-9 -58q58 -13 89.5 -57.5t31.5 -115.5q0 -110 -79 -174t-226 -64l-6 167q73 0 73 82q0 40 -25.5 56t-86.5 21l27 143h211z" />
<glyph unicode="&#xb9;" horiz-adv-x="687" d="M480 669h-197v547l-148 -41v159l327 121h18v-786z" />
<glyph unicode="&#xba;" horiz-adv-x="831" d="M114 1121q0 159 83 257t215 98t215 -96.5t83 -263.5v-72q0 -159 -81 -256.5t-216 -97.5q-134 0 -216.5 97.5t-82.5 261.5v72zM281 1044q0 -98 35.5 -153t96.5 -55q59 0 94.5 54.5t35.5 156.5v74q0 97 -35.5 152t-95.5 55q-59 0 -94.5 -53.5t-36.5 -150.5v-80z" />
<glyph unicode="&#xbb;" horiz-adv-x="921" d="M261 923l233 -390v-19l-233 -390h-177l193 399l-193 400h177zM609 923l233 -390v-19l-233 -390h-177l193 399l-193 400h177z" />
<glyph unicode="&#xbc;" horiz-adv-x="1275" d="M444 664h-197v547l-148 -41v159l327 121h18v-786zM416 117l-134 76l597 1138l135 -76zM1126 327h64v-168h-64v-159h-197v159h-278l-12 136l290 494h197v-462zM824 327h105v201l-8 -13z" />
<glyph unicode="&#xbd;" horiz-adv-x="1357" d="M381 117l-134 76l597 1138l135 -76zM431 670h-197v547l-148 -41v159l327 121h18v-786zM1273 0h-533v138l240 257q43 49 62 91t19 65q0 84 -64 84q-34 0 -53.5 -30.5t-19.5 -79.5h-199q0 118 74 196.5t189 78.5q131 0 200.5 -64.5t69.5 -183.5q0 -77 -35.5 -137.5 t-153.5 -164.5l-69 -85h273v-165z" />
<glyph unicode="&#xbe;" horiz-adv-x="1443" d="M552 117l-134 76l597 1138l135 -76zM1263 327h64v-168h-64v-159h-197v159h-278l-12 136l290 494h197v-462zM961 327h105v201l-8 -13zM289 1138h75q78 0 78 87q0 36 -19.5 56.5t-53.5 20.5q-27 0 -47 -15.5t-20 -44.5h-197q0 101 72.5 163t185.5 62q129 0 202.5 -60 t73.5 -166q0 -119 -116 -169q128 -41 128 -184q0 -106 -80 -169t-209 -63q-121 0 -194.5 66.5t-73.5 180.5h199q0 -32 21.5 -57t60.5 -25q43 0 60.5 26.5t17.5 61.5q0 90 -82 92h-82v137z" />
<glyph unicode="&#xbf;" horiz-adv-x="915" d="M606 642q0 -128 -27 -212t-100 -165q-78 -92 -100.5 -144.5t-22.5 -112.5q0 -80 28.5 -117.5t75.5 -37.5q52 0 86 46t34 124h284q-2 -192 -108 -300t-291 -108q-187 0 -289.5 101.5t-102.5 290.5q0 158 128 310l87 101q33 40 49.5 86t18.5 138h250zM639 948 q0 -68 -43.5 -111t-110.5 -43q-69 0 -112 43.5t-43 110.5q0 66 42 110t113 44q70 0 112 -44t42 -110z" />
<glyph unicode="&#xc0;" horiz-adv-x="1223" d="M812 298h-401l-78 -298h-311l455 1456h269l458 -1456h-314zM475 543h272l-136 519zM758 1536h-239l-276 310h317z" />
<glyph unicode="&#xc1;" horiz-adv-x="1223" d="M812 298h-401l-78 -298h-311l455 1456h269l458 -1456h-314zM475 543h272l-136 519zM671 1846h318l-278 -310h-236z" />
<glyph unicode="&#xc2;" horiz-adv-x="1223" d="M812 298h-401l-78 -298h-311l455 1456h269l458 -1456h-314zM475 543h272l-136 519zM960 1566v-12h-221l-125 144l-125 -144h-216v16l260 276h162z" />
<glyph unicode="&#xc3;" horiz-adv-x="1223" d="M812 298h-401l-78 -298h-311l455 1456h269l458 -1456h-314zM475 543h272l-136 519zM938 1831q0 -111 -56.5 -188.5t-142.5 -77.5q-32 0 -56.5 9t-69 37t-63 34t-40.5 6q-27 0 -45 -24.5t-18 -70.5l-160 9q0 111 57 189.5t140 78.5q22 0 42.5 -6.5t71 -35t72.5 -36 t44 -7.5q26 0 45.5 24.5t19.5 70.5z" />
<glyph unicode="&#xc4;" horiz-adv-x="1223" d="M812 298h-401l-78 -298h-311l455 1456h269l458 -1456h-314zM475 543h272l-136 519zM229 1675q0 55 40.5 91.5t98.5 36.5t98.5 -36.5t40.5 -91.5q0 -54 -40.5 -90.5t-98.5 -36.5t-98.5 36.5t-40.5 90.5zM718 1675q0 54 40.5 90.5t98.5 36.5t98.5 -36.5t40.5 -90.5 q0 -52 -38.5 -89.5t-100.5 -37.5t-100.5 37.5t-38.5 89.5z" />
<glyph unicode="&#xc5;" horiz-adv-x="1223" d="M812 298h-401l-78 -298h-311l455 1456h269l458 -1456h-314zM475 543h272l-136 519zM392 1730q0 86 65 145.5t158 59.5q92 0 157.5 -58.5t65.5 -146.5q0 -85 -64 -143t-159 -58q-97 0 -160 59t-63 142zM615 1623q50 0 79 31t29 76q0 46 -29.5 77.5t-78.5 31.5 q-47 0 -77 -31t-30 -78t30.5 -77t76.5 -30z" />
<glyph unicode="&#xc6;" horiz-adv-x="1674" d="M1602 0h-778l-12 333h-333l-132 -333h-332l643 1456h892v-238h-485l13 -352h404v-238h-396l13 -390h503v-238zM577 582h226l-18 524z" />
<glyph unicode="&#xc7;" horiz-adv-x="1168" d="M1104 485q-11 -249 -140 -377t-364 -128q-247 0 -378.5 162.5t-131.5 463.5v245q0 300 136 462.5t378 162.5q238 0 361.5 -133t140.5 -382h-295q-4 154 -47.5 212.5t-159.5 58.5q-118 0 -167 -82.5t-52 -271.5v-275q0 -217 48.5 -298t166.5 -81q116 0 160 56.5t50 204.5 h294zM706 6l-9 -58q58 -13 89.5 -57.5t31.5 -115.5q0 -110 -79 -174t-226 -64l-6 167q73 0 73 82q0 40 -25.5 56t-86.5 21l27 143h211z" />
<glyph unicode="&#xc8;" horiz-adv-x="1005" d="M869 630h-458v-386h542v-244h-836v1456h834v-245h-540v-344h458v-237zM700 1539h-239l-276 310h317z" />
<glyph unicode="&#xc9;" horiz-adv-x="1005" d="M869 630h-458v-386h542v-244h-836v1456h834v-245h-540v-344h458v-237zM613 1849h318l-278 -310h-236z" />
<glyph unicode="&#xca;" horiz-adv-x="1005" d="M869 630h-458v-386h542v-244h-836v1456h834v-245h-540v-344h458v-237zM902 1569v-12h-221l-125 144l-125 -144h-216v16l260 276h162z" />
<glyph unicode="&#xcb;" horiz-adv-x="1005" d="M869 630h-458v-386h542v-244h-836v1456h834v-245h-540v-344h458v-237zM171 1678q0 55 40.5 91.5t98.5 36.5t98.5 -36.5t40.5 -91.5q0 -54 -40.5 -90.5t-98.5 -36.5t-98.5 36.5t-40.5 90.5zM660 1678q0 54 40.5 90.5t98.5 36.5t98.5 -36.5t40.5 -90.5q0 -52 -38.5 -89.5 t-100.5 -37.5t-100.5 37.5t-38.5 89.5z" />
<glyph unicode="&#xcc;" horiz-adv-x="554" d="M424 0h-294v1456h294v-1456zM420 1539h-239l-276 310h317z" />
<glyph unicode="&#xcd;" horiz-adv-x="554" d="M424 0h-294v1456h294v-1456zM332 1849h318l-278 -310h-236z" />
<glyph unicode="&#xce;" horiz-adv-x="554" d="M424 0h-294v1456h294v-1456zM622 1569v-12h-221l-125 144l-125 -144h-216v16l260 276h162z" />
<glyph unicode="&#xcf;" horiz-adv-x="554" d="M424 0h-294v1456h294v-1456zM-109 1678q0 55 40.5 91.5t98.5 36.5t98.5 -36.5t40.5 -91.5q0 -54 -40.5 -90.5t-98.5 -36.5t-98.5 36.5t-40.5 90.5zM380 1678q0 54 40.5 90.5t98.5 36.5t98.5 -36.5t40.5 -90.5q0 -52 -38.5 -89.5t-100.5 -37.5t-100.5 37.5t-38.5 89.5z " />
<glyph unicode="&#xd0;" horiz-adv-x="1187" d="M147 0v641h-156v183h156v632h385q255 0 406.5 -162t154.5 -444v-236q0 -287 -151.5 -450.5t-417.5 -163.5h-377zM598 641h-157v-397h102q139 3 196 81.5t60 266.5v250q0 204 -57 284.5t-194 84.5h-107v-387h157v-183z" />
<glyph unicode="&#xd1;" horiz-adv-x="1254" d="M1135 0h-294l-430 955v-955h-294v1456h294l431 -956v956h293v-1456zM954 1831q0 -111 -56.5 -188.5t-142.5 -77.5q-32 0 -56.5 9t-69 37t-63 34t-40.5 6q-27 0 -45 -24.5t-18 -70.5l-160 9q0 111 57 189.5t140 78.5q22 0 42.5 -6.5t71 -35t72.5 -36t44 -7.5 q26 0 45.5 24.5t19.5 70.5z" />
<glyph unicode="&#xd2;" horiz-adv-x="1236" d="M1142 597q0 -293 -138.5 -455t-384.5 -162q-245 0 -385 160.5t-142 449.5v249q0 300 139 468.5t386 168.5q243 0 383 -165.5t142 -464.5v-249zM847 841q0 197 -56 293t-174 96q-117 0 -173 -92.5t-58 -281.5v-259q0 -191 57 -281.5t176 -90.5q115 0 171 88.5t57 274.5 v253zM762 1536h-239l-276 310h317z" />
<glyph unicode="&#xd3;" horiz-adv-x="1236" d="M1142 597q0 -293 -138.5 -455t-384.5 -162q-245 0 -385 160.5t-142 449.5v249q0 300 139 468.5t386 168.5q243 0 383 -165.5t142 -464.5v-249zM847 841q0 197 -56 293t-174 96q-117 0 -173 -92.5t-58 -281.5v-259q0 -191 57 -281.5t176 -90.5q115 0 171 88.5t57 274.5 v253zM675 1846h318l-278 -310h-236z" />
<glyph unicode="&#xd4;" horiz-adv-x="1236" d="M1142 597q0 -293 -138.5 -455t-384.5 -162q-245 0 -385 160.5t-142 449.5v249q0 300 139 468.5t386 168.5q243 0 383 -165.5t142 -464.5v-249zM847 841q0 197 -56 293t-174 96q-117 0 -173 -92.5t-58 -281.5v-259q0 -191 57 -281.5t176 -90.5q115 0 171 88.5t57 274.5 v253zM964 1566v-12h-221l-125 144l-125 -144h-216v16l260 276h162z" />
<glyph unicode="&#xd5;" horiz-adv-x="1236" d="M1142 597q0 -293 -138.5 -455t-384.5 -162q-245 0 -385 160.5t-142 449.5v249q0 300 139 468.5t386 168.5q243 0 383 -165.5t142 -464.5v-249zM847 841q0 197 -56 293t-174 96q-117 0 -173 -92.5t-58 -281.5v-259q0 -191 57 -281.5t176 -90.5q115 0 171 88.5t57 274.5 v253zM942 1831q0 -111 -56.5 -188.5t-142.5 -77.5q-32 0 -56.5 9t-69 37t-63 34t-40.5 6q-27 0 -45 -24.5t-18 -70.5l-160 9q0 111 57 189.5t140 78.5q22 0 42.5 -6.5t71 -35t72.5 -36t44 -7.5q26 0 45.5 24.5t19.5 70.5z" />
<glyph unicode="&#xd6;" horiz-adv-x="1236" d="M1142 597q0 -293 -138.5 -455t-384.5 -162q-245 0 -385 160.5t-142 449.5v249q0 300 139 468.5t386 168.5q243 0 383 -165.5t142 -464.5v-249zM847 841q0 197 -56 293t-174 96q-117 0 -173 -92.5t-58 -281.5v-259q0 -191 57 -281.5t176 -90.5q115 0 171 88.5t57 274.5 v253zM233 1675q0 55 40.5 91.5t98.5 36.5t98.5 -36.5t40.5 -91.5q0 -54 -40.5 -90.5t-98.5 -36.5t-98.5 36.5t-40.5 90.5zM722 1675q0 54 40.5 90.5t98.5 36.5t98.5 -36.5t40.5 -90.5q0 -52 -38.5 -89.5t-100.5 -37.5t-100.5 37.5t-38.5 89.5z" />
<glyph unicode="&#xd7;" horiz-adv-x="960" d="M68 374l255 309l-259 315l166 170l246 -299l247 299l165 -170l-259 -315l255 -309l-166 -170l-242 294l-242 -294z" />
<glyph unicode="&#xd8;" horiz-adv-x="1233" d="M1158 695q0 -214 -65.5 -376t-187.5 -250.5t-279 -88.5q-134 0 -242 64l-68 -139h-177l120 245q-167 197 -167 553v56q0 215 66.5 378.5t188 251t277.5 87.5q139 0 252 -70l55 112h178l-110 -223q158 -199 159 -535v-65zM389 695q0 -139 22 -234l347 705q-55 60 -134 60 q-113 0 -173.5 -116t-61.5 -342v-73zM860 761q0 118 -19 213l-341 -695q51 -51 126 -51q112 0 172.5 118t61.5 342v73z" />
<glyph unicode="&#xd9;" horiz-adv-x="1170" d="M1064 1456v-1008q-2 -227 -125 -347.5t-353 -120.5q-234 0 -357.5 122t-123.5 353v1001h296v-1002q0 -124 40 -177t145 -53t144 52.5t40 172.5v1007h294zM722 1536h-239l-276 310h317z" />
<glyph unicode="&#xda;" horiz-adv-x="1170" d="M1064 1456v-1008q-2 -227 -125 -347.5t-353 -120.5q-234 0 -357.5 122t-123.5 353v1001h296v-1002q0 -124 40 -177t145 -53t144 52.5t40 172.5v1007h294zM635 1846h318l-278 -310h-236z" />
<glyph unicode="&#xdb;" horiz-adv-x="1170" d="M1064 1456v-1008q-2 -227 -125 -347.5t-353 -120.5q-234 0 -357.5 122t-123.5 353v1001h296v-1002q0 -124 40 -177t145 -53t144 52.5t40 172.5v1007h294zM924 1566v-12h-221l-125 144l-125 -144h-216v16l260 276h162z" />
<glyph unicode="&#xdc;" horiz-adv-x="1170" d="M1064 1456v-1008q-2 -227 -125 -347.5t-353 -120.5q-234 0 -357.5 122t-123.5 353v1001h296v-1002q0 -124 40 -177t145 -53t144 52.5t40 172.5v1007h294zM193 1675q0 55 40.5 91.5t98.5 36.5t98.5 -36.5t40.5 -91.5q0 -54 -40.5 -90.5t-98.5 -36.5t-98.5 36.5t-40.5 90.5 zM682 1675q0 54 40.5 90.5t98.5 36.5t98.5 -36.5t40.5 -90.5q0 -52 -38.5 -89.5t-100.5 -37.5t-100.5 37.5t-38.5 89.5z" />
<glyph unicode="&#xdd;" horiz-adv-x="1111" d="M556 802l219 654h320l-390 -928v-528h-298v528l-391 928h320zM615 1846h318l-278 -310h-236z" />
<glyph unicode="&#xde;" horiz-adv-x="1092" d="M403 1456v-267h159q219 0 344 -122t125 -329t-125 -329.5t-343 -122.5h-160v-286h-283v1456h283zM403 959v-438h162q85 0 134 57t49 158q0 100 -48 159t-135 59h-158z" />
<glyph unicode="&#xdf;" horiz-adv-x="1145" d="M411 0h-282v1101q0 218 111 338t312 120q172 0 272.5 -100t100.5 -270q0 -107 -44 -195t-44 -163q0 -36 22.5 -72.5t89.5 -112.5t97.5 -146t30.5 -145q0 -178 -96 -276.5t-292 -98.5q-67 0 -131 16t-98 40l51 230q75 -51 173 -51q111 0 111 135q0 45 -25 86t-90 107.5 t-95 132t-30 142.5q0 96 45.5 187t45.5 169q0 69 -31.5 110t-85.5 41q-114 0 -118 -209v-1116z" />
<glyph unicode="&#xe0;" horiz-adv-x="964" d="M617 0q-12 25 -24 84q-76 -104 -206 -104q-136 0 -225.5 90t-89.5 233q0 170 108.5 263t312.5 95h86v87q0 73 -25 103t-73 30q-106 0 -106 -124h-283q0 150 112.5 247.5t284.5 97.5q178 0 275.5 -92.5t97.5 -264.5v-509q2 -140 40 -219v-17h-285zM450 202q47 0 80 19 t49 45v225h-68q-72 0 -113.5 -46t-41.5 -123q0 -120 94 -120zM622 1226h-239l-276 310h317z" />
<glyph unicode="&#xe1;" horiz-adv-x="964" d="M617 0q-12 25 -24 84q-76 -104 -206 -104q-136 0 -225.5 90t-89.5 233q0 170 108.5 263t312.5 95h86v87q0 73 -25 103t-73 30q-106 0 -106 -124h-283q0 150 112.5 247.5t284.5 97.5q178 0 275.5 -92.5t97.5 -264.5v-509q2 -140 40 -219v-17h-285zM450 202q47 0 80 19 t49 45v225h-68q-72 0 -113.5 -46t-41.5 -123q0 -120 94 -120zM535 1536h318l-278 -310h-236z" />
<glyph unicode="&#xe2;" horiz-adv-x="964" d="M617 0q-12 25 -24 84q-76 -104 -206 -104q-136 0 -225.5 90t-89.5 233q0 170 108.5 263t312.5 95h86v87q0 73 -25 103t-73 30q-106 0 -106 -124h-283q0 150 112.5 247.5t284.5 97.5q178 0 275.5 -92.5t97.5 -264.5v-509q2 -140 40 -219v-17h-285zM450 202q47 0 80 19 t49 45v225h-68q-72 0 -113.5 -46t-41.5 -123q0 -120 94 -120zM824 1256v-12h-221l-125 144l-125 -144h-216v16l260 276h162z" />
<glyph unicode="&#xe3;" horiz-adv-x="964" d="M617 0q-12 25 -24 84q-76 -104 -206 -104q-136 0 -225.5 90t-89.5 233q0 170 108.5 263t312.5 95h86v87q0 73 -25 103t-73 30q-106 0 -106 -124h-283q0 150 112.5 247.5t284.5 97.5q178 0 275.5 -92.5t97.5 -264.5v-509q2 -140 40 -219v-17h-285zM450 202q47 0 80 19 t49 45v225h-68q-72 0 -113.5 -46t-41.5 -123q0 -120 94 -120zM802 1522q0 -111 -56.5 -188.5t-142.5 -77.5q-32 0 -56.5 9t-69 37t-63 34t-40.5 6q-27 0 -45 -24.5t-18 -70.5l-160 9q0 111 57 189.5t140 78.5q22 0 42.5 -6.5t71 -35t72.5 -36t44 -7.5q26 0 45.5 24.5 t19.5 70.5z" />
<glyph unicode="&#xe4;" horiz-adv-x="964" d="M617 0q-12 25 -24 84q-76 -104 -206 -104q-136 0 -225.5 90t-89.5 233q0 170 108.5 263t312.5 95h86v87q0 73 -25 103t-73 30q-106 0 -106 -124h-283q0 150 112.5 247.5t284.5 97.5q178 0 275.5 -92.5t97.5 -264.5v-509q2 -140 40 -219v-17h-285zM450 202q47 0 80 19 t49 45v225h-68q-72 0 -113.5 -46t-41.5 -123q0 -120 94 -120zM93 1365q0 55 40.5 91.5t98.5 36.5t98.5 -36.5t40.5 -91.5q0 -54 -40.5 -90.5t-98.5 -36.5t-98.5 36.5t-40.5 90.5zM582 1365q0 54 40.5 90.5t98.5 36.5t98.5 -36.5t40.5 -90.5q0 -52 -38.5 -89.5t-100.5 -37.5 t-100.5 37.5t-38.5 89.5z" />
<glyph unicode="&#xe5;" horiz-adv-x="964" d="M617 0q-12 25 -24 84q-76 -104 -206 -104q-136 0 -225.5 90t-89.5 233q0 170 108.5 263t312.5 95h86v87q0 73 -25 103t-73 30q-106 0 -106 -124h-283q0 150 112.5 247.5t284.5 97.5q178 0 275.5 -92.5t97.5 -264.5v-509q2 -140 40 -219v-17h-285zM450 202q47 0 80 19 t49 45v225h-68q-72 0 -113.5 -46t-41.5 -123q0 -120 94 -120zM256 1420q0 86 65 145.5t158 59.5q92 0 157.5 -58.5t65.5 -146.5q0 -85 -64 -143t-159 -58q-97 0 -160 59t-63 142zM479 1313q50 0 79 31t29 76q0 46 -29.5 77.5t-78.5 31.5q-47 0 -77 -31t-30 -78t30.5 -77 t76.5 -30z" />
<glyph unicode="&#xe6;" horiz-adv-x="1491" d="M1063 -20q-205 0 -324 136q-56 -66 -140 -101t-184 -35q-162 0 -253 89.5t-91 249.5q0 157 105.5 243t313.5 88h125v55q0 76 -29 119t-81 43q-57 0 -89 -36t-32 -87l-282 19q0 150 113 244.5t293 94.5q170 0 270 -94q106 96 265 94q181 0 284 -130t105 -353v-170h-540 q9 -115 60.5 -175t141.5 -60q63 0 116 16t125 61l72 -191q-48 -48 -145 -84t-199 -36zM471 193q72 0 144 67v200h-115q-63 0 -104.5 -40.5t-41.5 -104.5q0 -122 117 -122zM1043 867q-132 0 -150 -223h262v28q0 87 -26.5 141t-85.5 54z" />
<glyph unicode="&#xe7;" horiz-adv-x="942" d="M494 215q123 0 125 160h266q-2 -177 -109 -286t-276 -109q-209 0 -319 130t-112 383v86q0 255 108.5 389t320.5 134q179 0 282 -110.5t105 -313.5h-266q-1 91 -30 140t-96 49q-74 0 -106 -52.5t-34 -203.5v-110q0 -132 13 -184.5t43 -77t85 -24.5zM596 6l-9 -58 q58 -13 89.5 -57.5t31.5 -115.5q0 -110 -79 -174t-226 -64l-6 167q73 0 73 82q0 40 -25.5 56t-86.5 21l27 143h211z" />
<glyph unicode="&#xe8;" d="M540 -20q-218 0 -340 130t-122 372v86q0 256 112 395t321 139q204 0 307 -130.5t105 -386.5v-139h-563q6 -120 53 -175.5t145 -55.5q142 0 237 97l111 -171q-52 -72 -151 -116.5t-215 -44.5zM362 644h283v26q-2 97 -32 147t-104 50t-107.5 -53t-39.5 -170zM617 1226h-239 l-276 310h317z" />
<glyph unicode="&#xe9;" d="M540 -20q-218 0 -340 130t-122 372v86q0 256 112 395t321 139q204 0 307 -130.5t105 -386.5v-139h-563q6 -120 53 -175.5t145 -55.5q142 0 237 97l111 -171q-52 -72 -151 -116.5t-215 -44.5zM362 644h283v26q-2 97 -32 147t-104 50t-107.5 -53t-39.5 -170zM530 1536h318 l-278 -310h-236z" />
<glyph unicode="&#xea;" d="M540 -20q-218 0 -340 130t-122 372v86q0 256 112 395t321 139q204 0 307 -130.5t105 -386.5v-139h-563q6 -120 53 -175.5t145 -55.5q142 0 237 97l111 -171q-52 -72 -151 -116.5t-215 -44.5zM362 644h283v26q-2 97 -32 147t-104 50t-107.5 -53t-39.5 -170zM819 1256v-12 h-221l-125 144l-125 -144h-216v16l260 276h162z" />
<glyph unicode="&#xeb;" d="M540 -20q-218 0 -340 130t-122 372v86q0 256 112 395t321 139q204 0 307 -130.5t105 -386.5v-139h-563q6 -120 53 -175.5t145 -55.5q142 0 237 97l111 -171q-52 -72 -151 -116.5t-215 -44.5zM362 644h283v26q-2 97 -32 147t-104 50t-107.5 -53t-39.5 -170zM89 1365 q0 55 40.5 91.5t98.5 36.5t98.5 -36.5t40.5 -91.5q0 -54 -40.5 -90.5t-98.5 -36.5t-98.5 36.5t-40.5 90.5zM578 1365q0 54 40.5 90.5t98.5 36.5t98.5 -36.5t40.5 -90.5q0 -52 -38.5 -89.5t-100.5 -37.5t-100.5 37.5t-38.5 89.5z" />
<glyph unicode="&#xec;" horiz-adv-x="537" d="M407 0h-283v1082h283v-1082zM413 1211h-239l-276 310h317z" />
<glyph unicode="&#xed;" horiz-adv-x="537" d="M407 0h-283v1082h283v-1082zM325 1521h318l-278 -310h-236z" />
<glyph unicode="&#xee;" horiz-adv-x="537" d="M407 0h-283v1082h283v-1082zM615 1241v-12h-221l-125 144l-125 -144h-216v16l260 276h162z" />
<glyph unicode="&#xef;" horiz-adv-x="537" d="M407 0h-283v1082h283v-1082zM-116 1350q0 55 40.5 91.5t98.5 36.5t98.5 -36.5t40.5 -91.5q0 -54 -40.5 -90.5t-98.5 -36.5t-98.5 36.5t-40.5 90.5zM373 1350q0 54 40.5 90.5t98.5 36.5t98.5 -36.5t40.5 -90.5q0 -52 -38.5 -89.5t-100.5 -37.5t-100.5 37.5t-38.5 89.5z " />
<glyph unicode="&#xf0;" horiz-adv-x="1029" d="M733 1307q106 -123 166 -288.5t60 -368.5v-72q0 -172 -58 -309t-162 -213t-233 -76q-123 0 -222 63.5t-154 176t-55 248.5q0 227 103 362t281 135q102 0 183 -60q-43 143 -128 242l-154 -114l-73 114l128 94q-95 73 -216 113l89 225q198 -49 348 -175l141 104l72 -115z M676 652l-1 19q-50 74 -150 74q-80 0 -123 -72.5t-43 -204.5q0 -112 42 -182.5t109 -70.5q78 0 122 90.5t44 247.5v99z" />
<glyph unicode="&#xf1;" horiz-adv-x="1008" d="M362 1082l8 -107q96 127 251 127q279 0 287 -391v-711h-284v690q0 92 -27.5 133.5t-96.5 41.5q-77 0 -120 -79v-786h-284v1082h266zM827 1522q0 -111 -56.5 -188.5t-142.5 -77.5q-32 0 -56.5 9t-69 37t-63 34t-40.5 6q-27 0 -45 -24.5t-18 -70.5l-160 9q0 111 57 189.5 t140 78.5q22 0 42.5 -6.5t71 -35t72.5 -36t44 -7.5q26 0 45.5 24.5t19.5 70.5z" />
<glyph unicode="&#xf2;" horiz-adv-x="1019" d="M70 576q0 246 116 386t321 140q207 0 323 -140t116 -388v-69q0 -247 -115 -386t-322 -139q-208 0 -323.5 139.5t-115.5 387.5v69zM354 505q0 -290 155 -290q143 0 154 242l1 119q0 148 -41 219.5t-116 71.5q-72 0 -112.5 -71.5t-40.5 -219.5v-71zM649 1226h-239l-276 310 h317z" />
<glyph unicode="&#xf3;" horiz-adv-x="1019" d="M70 576q0 246 116 386t321 140q207 0 323 -140t116 -388v-69q0 -247 -115 -386t-322 -139q-208 0 -323.5 139.5t-115.5 387.5v69zM354 505q0 -290 155 -290q143 0 154 242l1 119q0 148 -41 219.5t-116 71.5q-72 0 -112.5 -71.5t-40.5 -219.5v-71zM562 1536h318l-278 -310 h-236z" />
<glyph unicode="&#xf4;" horiz-adv-x="1019" d="M70 576q0 246 116 386t321 140q207 0 323 -140t116 -388v-69q0 -247 -115 -386t-322 -139q-208 0 -323.5 139.5t-115.5 387.5v69zM354 505q0 -290 155 -290q143 0 154 242l1 119q0 148 -41 219.5t-116 71.5q-72 0 -112.5 -71.5t-40.5 -219.5v-71zM851 1256v-12h-221 l-125 144l-125 -144h-216v16l260 276h162z" />
<glyph unicode="&#xf5;" horiz-adv-x="1019" d="M70 576q0 246 116 386t321 140q207 0 323 -140t116 -388v-69q0 -247 -115 -386t-322 -139q-208 0 -323.5 139.5t-115.5 387.5v69zM354 505q0 -290 155 -290q143 0 154 242l1 119q0 148 -41 219.5t-116 71.5q-72 0 -112.5 -71.5t-40.5 -219.5v-71zM829 1522 q0 -111 -56.5 -188.5t-142.5 -77.5q-32 0 -56.5 9t-69 37t-63 34t-40.5 6q-27 0 -45 -24.5t-18 -70.5l-160 9q0 111 57 189.5t140 78.5q22 0 42.5 -6.5t71 -35t72.5 -36t44 -7.5q26 0 45.5 24.5t19.5 70.5z" />
<glyph unicode="&#xf6;" horiz-adv-x="1019" d="M70 576q0 246 116 386t321 140q207 0 323 -140t116 -388v-69q0 -247 -115 -386t-322 -139q-208 0 -323.5 139.5t-115.5 387.5v69zM354 505q0 -290 155 -290q143 0 154 242l1 119q0 148 -41 219.5t-116 71.5q-72 0 -112.5 -71.5t-40.5 -219.5v-71zM120 1365 q0 55 40.5 91.5t98.5 36.5t98.5 -36.5t40.5 -91.5q0 -54 -40.5 -90.5t-98.5 -36.5t-98.5 36.5t-40.5 90.5zM609 1365q0 54 40.5 90.5t98.5 36.5t98.5 -36.5t40.5 -90.5q0 -52 -38.5 -89.5t-100.5 -37.5t-100.5 37.5t-38.5 89.5z" />
<glyph unicode="&#xf7;" horiz-adv-x="1023" d="M941 570h-870v232h870v-232zM349 1089q0 67 42.5 109.5t113.5 42.5q73 0 114.5 -43t41.5 -109t-42 -108.5t-114 -42.5q-71 0 -113.5 42.5t-42.5 108.5zM349 277q0 69 44 111t112 42q69 0 112.5 -42t43.5 -111q0 -66 -42 -108.5t-114 -42.5q-71 0 -113.5 42.5t-42.5 108.5 z" />
<glyph unicode="&#xf8;" horiz-adv-x="1017" d="M71 551q0 252 119 401.5t317 149.5q79 0 149 -25l57 139h152l-87 -212q168 -148 168 -474q0 -251 -118 -400.5t-319 -149.5q-78 0 -142 22l-59 -144h-152l88 214q-173 149 -173 479zM354 530q0 -100 13 -157l197 480q-26 14 -57 14q-139 0 -152 -268zM663 551 q0 79 -12 145l-193 -471q21 -10 51 -10q140 0 153 264z" />
<glyph unicode="&#xf9;" horiz-adv-x="1008" d="M635 99q-88 -119 -236 -119q-149 0 -226 102.5t-77 298.5v701h283v-708q2 -158 105 -158q97 0 140 84v782h285v-1082h-266zM643 1226h-239l-276 310h317z" />
<glyph unicode="&#xfa;" horiz-adv-x="1008" d="M635 99q-88 -119 -236 -119q-149 0 -226 102.5t-77 298.5v701h283v-708q2 -158 105 -158q97 0 140 84v782h285v-1082h-266zM556 1536h318l-278 -310h-236z" />
<glyph unicode="&#xfb;" horiz-adv-x="1008" d="M635 99q-88 -119 -236 -119q-149 0 -226 102.5t-77 298.5v701h283v-708q2 -158 105 -158q97 0 140 84v782h285v-1082h-266zM845 1256v-12h-221l-125 144l-125 -144h-216v16l260 276h162z" />
<glyph unicode="&#xfc;" horiz-adv-x="1008" d="M635 99q-88 -119 -236 -119q-149 0 -226 102.5t-77 298.5v701h283v-708q2 -158 105 -158q97 0 140 84v782h285v-1082h-266zM114 1365q0 55 40.5 91.5t98.5 36.5t98.5 -36.5t40.5 -91.5q0 -54 -40.5 -90.5t-98.5 -36.5t-98.5 36.5t-40.5 90.5zM603 1365q0 54 40.5 90.5 t98.5 36.5t98.5 -36.5t40.5 -90.5q0 -52 -38.5 -89.5t-100.5 -37.5t-100.5 37.5t-38.5 89.5z" />
<glyph unicode="&#xfd;" horiz-adv-x="914" d="M450 471l144 611h302l-356 -1244q-80 -275 -301 -275q-51 0 -116 19v221l33 -1q66 0 99.5 25.5t50.5 88.5l22 73l-312 1093h304zM515 1536h318l-278 -310h-236z" />
<glyph unicode="&#xfe;" horiz-adv-x="1022" d="M948 532q0 -251 -96 -401.5t-259 -150.5q-126 0 -205 92v-488h-283v1952h283v-523q79 89 202 89q169 0 263.5 -145.5t94.5 -424.5zM665 553q0 312 -151 312q-87 0 -126 -84v-485q38 -81 128 -81q74 0 111.5 80t37.5 258z" />
<glyph unicode="&#xff;" horiz-adv-x="914" d="M450 471l144 611h302l-356 -1244q-80 -275 -301 -275q-51 0 -116 19v221l33 -1q66 0 99.5 25.5t50.5 88.5l22 73l-312 1093h304zM74 1365q0 55 40.5 91.5t98.5 36.5t98.5 -36.5t40.5 -91.5q0 -54 -40.5 -90.5t-98.5 -36.5t-98.5 36.5t-40.5 90.5zM563 1365 q0 54 40.5 90.5t98.5 36.5t98.5 -36.5t40.5 -90.5q0 -52 -38.5 -89.5t-100.5 -37.5t-100.5 37.5t-38.5 89.5z" />
<glyph unicode="&#x100;" horiz-adv-x="1223" d="M812 298h-401l-78 -298h-311l455 1456h269l458 -1456h-314zM475 543h272l-136 519zM932 1598h-631v167h631v-167z" />
<glyph unicode="&#x101;" horiz-adv-x="964" d="M617 0q-12 25 -24 84q-76 -104 -206 -104q-136 0 -225.5 90t-89.5 233q0 170 108.5 263t312.5 95h86v87q0 73 -25 103t-73 30q-106 0 -106 -124h-283q0 150 112.5 247.5t284.5 97.5q178 0 275.5 -92.5t97.5 -264.5v-509q2 -140 40 -219v-17h-285zM450 202q47 0 80 19 t49 45v225h-68q-72 0 -113.5 -46t-41.5 -123q0 -120 94 -120zM796 1289h-631v167h631v-167z" />
<glyph unicode="&#x102;" horiz-adv-x="1223" d="M812 298h-401l-78 -298h-311l455 1456h269l458 -1456h-314zM475 543h272l-136 519zM962 1837q0 -133 -95.5 -215t-251.5 -82q-157 0 -252.5 82t-95.5 215h207q0 -62 37.5 -96.5t103.5 -34.5q65 0 102 34.5t37 96.5h208z" />
<glyph unicode="&#x103;" horiz-adv-x="964" d="M617 0q-12 25 -24 84q-76 -104 -206 -104q-136 0 -225.5 90t-89.5 233q0 170 108.5 263t312.5 95h86v87q0 73 -25 103t-73 30q-106 0 -106 -124h-283q0 150 112.5 247.5t284.5 97.5q178 0 275.5 -92.5t97.5 -264.5v-509q2 -140 40 -219v-17h-285zM450 202q47 0 80 19 t49 45v225h-68q-72 0 -113.5 -46t-41.5 -123q0 -120 94 -120zM826 1527q0 -133 -95.5 -215t-251.5 -82q-157 0 -252.5 82t-95.5 215h207q0 -62 37.5 -96.5t103.5 -34.5q65 0 102 34.5t37 96.5h208z" />
<glyph unicode="&#x104;" horiz-adv-x="1223" d="M746 1456l458 -1456h-86q-64 -42 -94 -82t-30 -93q0 -65 51 -65q25 0 62 20l27 -158q-65 -44 -146 -44q-91 0 -147 57t-56 152q0 139 103 219l-76 292h-401l-78 -298h-311l455 1456h269zM475 543h272l-136 519z" />
<glyph unicode="&#x105;" horiz-adv-x="964" d="M616 1q-10 22 -23 83q-76 -104 -206 -104q-136 0 -225.5 90t-89.5 233q0 170 108.5 263t312.5 95h86v87q0 73 -25 103t-73 30q-106 0 -106 -124h-283q0 150 112.5 247.5t284.5 97.5q178 0 275.5 -92.5t97.5 -264.5v-509q2 -140 40 -219v-17h-49q-64 -42 -94 -82t-30 -93 q0 -65 51 -65q25 0 62 20l27 -158q-65 -44 -146 -44q-91 0 -147 57t-56 152q0 133 96 214zM450 202q47 0 80 19t49 45v225h-68q-72 0 -113.5 -46t-41.5 -123q0 -120 94 -120z" />
<glyph unicode="&#x106;" horiz-adv-x="1168" d="M1104 485q-11 -249 -140 -377t-364 -128q-247 0 -378.5 162.5t-131.5 463.5v245q0 300 136 462.5t378 162.5q238 0 361.5 -133t140.5 -382h-295q-4 154 -47.5 212.5t-159.5 58.5q-118 0 -167 -82.5t-52 -271.5v-275q0 -217 48.5 -298t166.5 -81q116 0 160 56.5t50 204.5 h294zM657 1854h318l-278 -310h-236z" />
<glyph unicode="&#x107;" horiz-adv-x="942" d="M494 215q123 0 125 160h266q-2 -177 -109 -286t-276 -109q-209 0 -319 130t-112 383v86q0 255 108.5 389t320.5 134q179 0 282 -110.5t105 -313.5h-266q-1 91 -30 140t-96 49q-74 0 -106 -52.5t-34 -203.5v-110q0 -132 13 -184.5t43 -77t85 -24.5zM523 1536h318 l-278 -310h-236z" />
<glyph unicode="&#x108;" horiz-adv-x="1168" d="M1104 485q-11 -249 -140 -377t-364 -128q-247 0 -378.5 162.5t-131.5 463.5v245q0 300 136 462.5t378 162.5q238 0 361.5 -133t140.5 -382h-295q-4 154 -47.5 212.5t-159.5 58.5q-118 0 -167 -82.5t-52 -271.5v-275q0 -217 48.5 -298t166.5 -81q116 0 160 56.5t50 204.5 h294zM946 1574v-12h-221l-125 144l-125 -144h-216v16l260 276h162z" />
<glyph unicode="&#x109;" horiz-adv-x="942" d="M494 215q123 0 125 160h266q-2 -177 -109 -286t-276 -109q-209 0 -319 130t-112 383v86q0 255 108.5 389t320.5 134q179 0 282 -110.5t105 -313.5h-266q-1 91 -30 140t-96 49q-74 0 -106 -52.5t-34 -203.5v-110q0 -132 13 -184.5t43 -77t85 -24.5zM812 1256v-12h-221 l-125 144l-125 -144h-216v16l260 276h162z" />
<glyph unicode="&#x10a;" horiz-adv-x="1168" d="M1104 485q-11 -249 -140 -377t-364 -128q-247 0 -378.5 162.5t-131.5 463.5v245q0 300 136 462.5t378 162.5q238 0 361.5 -133t140.5 -382h-295q-4 154 -47.5 212.5t-159.5 58.5q-118 0 -167 -82.5t-52 -271.5v-275q0 -217 48.5 -298t166.5 -81q116 0 160 56.5t50 204.5 h294zM451 1710q0 62 42 100t107 38t107 -38t42 -100q0 -60 -40 -98t-109 -38t-109 38t-40 98z" />
<glyph unicode="&#x10b;" horiz-adv-x="942" d="M494 215q123 0 125 160h266q-2 -177 -109 -286t-276 -109q-209 0 -319 130t-112 383v86q0 255 108.5 389t320.5 134q179 0 282 -110.5t105 -313.5h-266q-1 91 -30 140t-96 49q-74 0 -106 -52.5t-34 -203.5v-110q0 -132 13 -184.5t43 -77t85 -24.5zM317 1392q0 62 42 100 t107 38t107 -38t42 -100q0 -60 -40 -98t-109 -38t-109 38t-40 98z" />
<glyph unicode="&#x10c;" horiz-adv-x="1168" d="M1104 485q-11 -249 -140 -377t-364 -128q-247 0 -378.5 162.5t-131.5 463.5v245q0 300 136 462.5t378 162.5q238 0 361.5 -133t140.5 -382h-295q-4 154 -47.5 212.5t-159.5 58.5q-118 0 -167 -82.5t-52 -271.5v-275q0 -217 48.5 -298t166.5 -81q116 0 160 56.5t50 204.5 h294zM599 1713l116 142h241v-11l-268 -281h-176l-268 283v9h240z" />
<glyph unicode="&#x10d;" horiz-adv-x="942" d="M494 215q123 0 125 160h266q-2 -177 -109 -286t-276 -109q-209 0 -319 130t-112 383v86q0 255 108.5 389t320.5 134q179 0 282 -110.5t105 -313.5h-266q-1 91 -30 140t-96 49q-74 0 -106 -52.5t-34 -203.5v-110q0 -132 13 -184.5t43 -77t85 -24.5zM465 1395l116 142h241 v-11l-268 -281h-176l-268 283v9h240z" />
<glyph unicode="&#x10e;" horiz-adv-x="1157" d="M117 0v1456h385q255 0 406.5 -162t154.5 -444v-236q0 -287 -151.5 -450.5t-417.5 -163.5h-377zM411 1211v-967h88q147 0 207 77.5t63 267.5v253q0 204 -57 284.5t-194 84.5h-107zM449 1708l116 142h241v-11l-268 -281h-176l-268 283v9h240z" />
<glyph unicode="&#x10f;" horiz-adv-x="1165" d="M65 574q0 266 90 397t262 131q125 0 208 -108v542h285v-1536h-257l-13 110q-87 -130 -224 -130q-170 0 -259.5 130t-91.5 382v82zM349 503q0 -160 34 -223.5t115 -63.5q84 0 127 75v494q-42 80 -126 80q-78 0 -114 -63t-36 -224v-75zM1107 1112l-138 79q62 119 65 240 v106h204v-76q-1 -91 -37.5 -188.5t-93.5 -160.5z" />
<glyph unicode="&#x110;" horiz-adv-x="1187" d="M147 0v641h-156v183h156v632h385q255 0 406.5 -162t154.5 -444v-236q0 -287 -151.5 -450.5t-417.5 -163.5h-377zM598 641h-157v-397h102q139 3 196 81.5t60 266.5v250q0 204 -57 284.5t-194 84.5h-107v-387h157v-183z" />
<glyph unicode="&#x111;" horiz-adv-x="1045" d="M1041 1218h-131v-1218h-257l-13 110q-87 -130 -224 -130q-170 0 -259.5 130t-91.5 382v82q0 266 90 397t262 131q125 0 208 -108v224h-191v183h191v135h285v-135h131v-183zM349 503q0 -160 34 -223.5t115 -63.5q84 0 127 75v494q-42 80 -126 80q-78 0 -114 -63t-36 -224 v-75z" />
<glyph unicode="&#x112;" horiz-adv-x="1005" d="M869 630h-458v-386h542v-244h-836v1456h834v-245h-540v-344h458v-237zM874 1601h-631v167h631v-167z" />
<glyph unicode="&#x113;" d="M540 -20q-218 0 -340 130t-122 372v86q0 256 112 395t321 139q204 0 307 -130.5t105 -386.5v-139h-563q6 -120 53 -175.5t145 -55.5q142 0 237 97l111 -171q-52 -72 -151 -116.5t-215 -44.5zM362 644h283v26q-2 97 -32 147t-104 50t-107.5 -53t-39.5 -170zM791 1289h-631 v167h631v-167z" />
<glyph unicode="&#x114;" horiz-adv-x="1005" d="M869 630h-458v-386h542v-244h-836v1456h834v-245h-540v-344h458v-237zM904 1840q0 -133 -95.5 -215t-251.5 -82q-157 0 -252.5 82t-95.5 215h207q0 -62 37.5 -96.5t103.5 -34.5q65 0 102 34.5t37 96.5h208z" />
<glyph unicode="&#x115;" d="M540 -20q-218 0 -340 130t-122 372v86q0 256 112 395t321 139q204 0 307 -130.5t105 -386.5v-139h-563q6 -120 53 -175.5t145 -55.5q142 0 237 97l111 -171q-52 -72 -151 -116.5t-215 -44.5zM362 644h283v26q-2 97 -32 147t-104 50t-107.5 -53t-39.5 -170zM821 1527 q0 -133 -95.5 -215t-251.5 -82q-157 0 -252.5 82t-95.5 215h207q0 -62 37.5 -96.5t103.5 -34.5q65 0 102 34.5t37 96.5h208z" />
<glyph unicode="&#x116;" horiz-adv-x="1005" d="M869 630h-458v-386h542v-244h-836v1456h834v-245h-540v-344h458v-237zM407 1705q0 62 42 100t107 38t107 -38t42 -100q0 -60 -40 -98t-109 -38t-109 38t-40 98z" />
<glyph unicode="&#x117;" d="M540 -20q-218 0 -340 130t-122 372v86q0 256 112 395t321 139q204 0 307 -130.5t105 -386.5v-139h-563q6 -120 53 -175.5t145 -55.5q142 0 237 97l111 -171q-52 -72 -151 -116.5t-215 -44.5zM362 644h283v26q-2 97 -32 147t-104 50t-107.5 -53t-39.5 -170zM324 1392 q0 62 42 100t107 38t107 -38t42 -100q0 -60 -40 -98t-109 -38t-109 38t-40 98z" />
<glyph unicode="&#x118;" horiz-adv-x="1005" d="M869 630h-458v-386h542v-244h-145q-64 -42 -94 -82t-30 -93q0 -65 51 -65q25 0 62 20l27 -158q-65 -44 -146 -44q-91 0 -147 57t-56 152q0 132 95 213h-453v1456h834v-245h-540v-344h458v-237z" />
<glyph unicode="&#x119;" d="M906 141q-73 -95 -199 -136q-87 -66 -87 -148q0 -65 51 -65q25 0 62 20l27 -158q-65 -44 -146 -44q-91 0 -147 57t-56 152q0 99 50 166q-186 23 -284.5 151t-98.5 343v89q0 256 112 395t321 139q204 0 307 -130.5t105 -386.5v-139h-563q6 -120 53 -175.5t145 -55.5 q142 0 237 97zM362 644h283v26q-2 97 -32 147t-104 50t-107.5 -53t-39.5 -170z" />
<glyph unicode="&#x11a;" horiz-adv-x="1005" d="M869 630h-458v-386h542v-244h-836v1456h834v-245h-540v-344h458v-237zM555 1708l116 142h241v-11l-268 -281h-176l-268 283v9h240z" />
<glyph unicode="&#x11b;" d="M540 -20q-218 0 -340 130t-122 372v86q0 256 112 395t321 139q204 0 307 -130.5t105 -386.5v-139h-563q6 -120 53 -175.5t145 -55.5q142 0 237 97l111 -171q-52 -72 -151 -116.5t-215 -44.5zM362 644h283v26q-2 97 -32 147t-104 50t-107.5 -53t-39.5 -170zM472 1395 l116 142h241v-11l-268 -281h-176l-268 283v9h240z" />
<glyph unicode="&#x11c;" horiz-adv-x="1198" d="M1107 165q-85 -92 -208.5 -138.5t-270.5 -46.5q-251 0 -390 155.5t-143 452.5v262q0 301 131.5 463.5t383.5 162.5q237 0 357.5 -117t139.5 -367h-286q-12 139 -58 189.5t-144 50.5q-119 0 -173 -87t-56 -277v-264q0 -199 59.5 -289.5t195.5 -90.5q87 0 141 35l26 18v267 h-206v222h501v-601zM949 1574v-12h-221l-125 144l-125 -144h-216v16l260 276h162z" />
<glyph unicode="&#x11d;" horiz-adv-x="1030" d="M69 574q0 266 96 397t269 131q147 0 227 -116l11 96h255v-1082q0 -207 -116 -316.5t-333 -109.5q-89 0 -187 35.5t-146 90.5l95 196q40 -42 104 -68.5t121 -26.5q95 0 136.5 45.5t42.5 146.5v93q-81 -106 -211 -106q-173 0 -267.5 134.5t-96.5 379.5v80zM352 503 q0 -150 39 -218.5t124 -68.5q87 0 129 63v517q-44 69 -127 69q-84 0 -124.5 -69t-40.5 -222v-71zM829 1256v-12h-221l-125 144l-125 -144h-216v16l260 276h162z" />
<glyph unicode="&#x11e;" horiz-adv-x="1198" d="M1107 165q-85 -92 -208.5 -138.5t-270.5 -46.5q-251 0 -390 155.5t-143 452.5v262q0 301 131.5 463.5t383.5 162.5q237 0 357.5 -117t139.5 -367h-286q-12 139 -58 189.5t-144 50.5q-119 0 -173 -87t-56 -277v-264q0 -199 59.5 -289.5t195.5 -90.5q87 0 141 35l26 18v267 h-206v222h501v-601zM951 1845q0 -133 -95.5 -215t-251.5 -82q-157 0 -252.5 82t-95.5 215h207q0 -62 37.5 -96.5t103.5 -34.5q65 0 102 34.5t37 96.5h208z" />
<glyph unicode="&#x11f;" horiz-adv-x="1030" d="M69 574q0 266 96 397t269 131q147 0 227 -116l11 96h255v-1082q0 -207 -116 -316.5t-333 -109.5q-89 0 -187 35.5t-146 90.5l95 196q40 -42 104 -68.5t121 -26.5q95 0 136.5 45.5t42.5 146.5v93q-81 -106 -211 -106q-173 0 -267.5 134.5t-96.5 379.5v80zM352 503 q0 -150 39 -218.5t124 -68.5q87 0 129 63v517q-44 69 -127 69q-84 0 -124.5 -69t-40.5 -222v-71zM831 1527q0 -133 -95.5 -215t-251.5 -82q-157 0 -252.5 82t-95.5 215h207q0 -62 37.5 -96.5t103.5 -34.5q65 0 102 34.5t37 96.5h208z" />
<glyph unicode="&#x120;" horiz-adv-x="1198" d="M1107 165q-85 -92 -208.5 -138.5t-270.5 -46.5q-251 0 -390 155.5t-143 452.5v262q0 301 131.5 463.5t383.5 162.5q237 0 357.5 -117t139.5 -367h-286q-12 139 -58 189.5t-144 50.5q-119 0 -173 -87t-56 -277v-264q0 -199 59.5 -289.5t195.5 -90.5q87 0 141 35l26 18v267 h-206v222h501v-601zM454 1710q0 62 42 100t107 38t107 -38t42 -100q0 -60 -40 -98t-109 -38t-109 38t-40 98z" />
<glyph unicode="&#x121;" horiz-adv-x="1030" d="M69 574q0 266 96 397t269 131q147 0 227 -116l11 96h255v-1082q0 -207 -116 -316.5t-333 -109.5q-89 0 -187 35.5t-146 90.5l95 196q40 -42 104 -68.5t121 -26.5q95 0 136.5 45.5t42.5 146.5v93q-81 -106 -211 -106q-173 0 -267.5 134.5t-96.5 379.5v80zM352 503 q0 -150 39 -218.5t124 -68.5q87 0 129 63v517q-44 69 -127 69q-84 0 -124.5 -69t-40.5 -222v-71zM334 1392q0 62 42 100t107 38t107 -38t42 -100q0 -60 -40 -98t-109 -38t-109 38t-40 98z" />
<glyph unicode="&#x122;" horiz-adv-x="1198" d="M1107 165q-85 -92 -208.5 -138.5t-270.5 -46.5q-251 0 -390 155.5t-143 452.5v262q0 301 131.5 463.5t383.5 162.5q237 0 357.5 -117t139.5 -367h-286q-12 139 -58 189.5t-144 50.5q-119 0 -173 -87t-56 -277v-264q0 -199 59.5 -289.5t195.5 -90.5q87 0 141 35l26 18v267 h-206v222h501v-601zM586 -519l-138 79q62 119 65 240v106h204v-76q-1 -91 -37.5 -188.5t-93.5 -160.5z" />
<glyph unicode="&#x123;" horiz-adv-x="1030" d="M69 574q0 266 96 397t269 131q147 0 227 -116l11 96h255v-1082q0 -207 -116 -316.5t-333 -109.5q-89 0 -187 35.5t-146 90.5l95 196q40 -42 104 -68.5t121 -26.5q95 0 136.5 45.5t42.5 146.5v93q-81 -106 -211 -106q-173 0 -267.5 134.5t-96.5 379.5v80zM352 503 q0 -150 39 -218.5t124 -68.5q87 0 129 63v517q-44 69 -127 69q-84 0 -124.5 -69t-40.5 -222v-71zM505 1721l143 -77q-58 -119 -61 -246l-1 -139h-216v140q1 105 39 193.5t96 128.5z" />
<glyph unicode="&#x124;" horiz-adv-x="1257" d="M1138 0h-293v623h-434v-623h-294v1456h294v-589h434v589h293v-1456zM973 1569v-12h-221l-125 144l-125 -144h-216v16l260 276h162z" />
<glyph unicode="&#x125;" horiz-adv-x="1008" d="M379 987q92 115 226 115q148 0 225 -104t78 -310v-688h-284v685q0 95 -29.5 137.5t-95.5 42.5q-77 0 -120 -71v-794h-283v1536h283v-549zM815 1638v-12h-221l-125 144l-125 -144h-216v16l260 276h162z" />
<glyph unicode="&#x126;" horiz-adv-x="1293" d="M1160 1225h98v-174h-98v-1051h-293v623h-433v-623h-294v1051h-91v174h91v231h294v-231h433v231h293v-231zM434 867h433v184h-433v-184z" />
<glyph unicode="&#x127;" horiz-adv-x="1038" d="M570 1215h-161v-228q92 115 226 115q148 0 225 -104t78 -310v-688h-284v685q0 95 -29.5 137.5t-95.5 42.5q-77 0 -120 -71v-794h-283v1215h-163v183h163v138h283v-138h161v-183z" />
<glyph unicode="&#x128;" horiz-adv-x="554" d="M424 0h-294v1456h294v-1456zM600 1834q0 -111 -56.5 -188.5t-142.5 -77.5q-32 0 -56.5 9t-69 37t-63 34t-40.5 6q-27 0 -45 -24.5t-18 -70.5l-160 9q0 111 57 189.5t140 78.5q22 0 42.5 -6.5t71 -35t72.5 -36t44 -7.5q26 0 45.5 24.5t19.5 70.5z" />
<glyph unicode="&#x129;" horiz-adv-x="537" d="M407 0h-283v1082h283v-1082zM593 1506q0 -111 -56.5 -188.5t-142.5 -77.5q-32 0 -56.5 9t-69 37t-63 34t-40.5 6q-27 0 -45 -24.5t-18 -70.5l-160 9q0 111 57 189.5t140 78.5q22 0 42.5 -6.5t71 -35t72.5 -36t44 -7.5q26 0 45.5 24.5t19.5 70.5z" />
<glyph unicode="&#x12a;" horiz-adv-x="554" d="M424 0h-294v1456h294v-1456zM594 1601h-631v167h631v-167z" />
<glyph unicode="&#x12b;" horiz-adv-x="537" d="M407 0h-283v1082h283v-1082zM587 1273h-631v167h631v-167z" />
<glyph unicode="&#x12c;" horiz-adv-x="554" d="M424 0h-294v1456h294v-1456zM624 1840q0 -133 -95.5 -215t-251.5 -82q-157 0 -252.5 82t-95.5 215h207q0 -62 37.5 -96.5t103.5 -34.5q65 0 102 34.5t37 96.5h208z" />
<glyph unicode="&#x12d;" horiz-adv-x="537" d="M407 0h-283v1082h283v-1082zM617 1512q0 -133 -95.5 -215t-251.5 -82q-157 0 -252.5 82t-95.5 215h207q0 -62 37.5 -96.5t103.5 -34.5q65 0 102 34.5t37 96.5h208z" />
<glyph unicode="&#x12e;" horiz-adv-x="554" d="M424 0h-294v1456h294v-1456zM369 2q-64 -42 -94 -82t-30 -93q0 -65 51 -65q25 0 62 20l27 -158q-65 -44 -146 -44q-91 0 -147 57t-56 152t46 159.5t144 113.5z" />
<glyph unicode="&#x12f;" horiz-adv-x="516" d="M400 0h-284v1082h284v-1082zM103 1362q0 66 42 108t112 42t112 -42t42 -108q0 -65 -41.5 -108t-112.5 -43t-112.5 43t-41.5 108zM358 0q-64 -42 -94 -82t-30 -93q0 -65 51 -65q25 0 62 20l27 -158q-65 -44 -146 -44q-91 0 -147 57t-56 152t46 159.5t144 113.5z" />
<glyph unicode="&#x130;" horiz-adv-x="554" d="M424 0h-294v1456h294v-1456zM126 1705q0 62 42 100t107 38t107 -38t42 -100q0 -60 -40 -98t-109 -38t-109 38t-40 98z" />
<glyph unicode="&#x131;" horiz-adv-x="537" d="M407 0h-283v1082h283v-1082z" />
<glyph unicode="&#x132;" horiz-adv-x="1558" d="M424 0h-294v1456h294v-1456zM1150 1456h294v-1008q0 -212 -118 -340t-304 -128q-200 0 -311 119t-111 331h295q0 -206 127 -206q128 0 128 238v994z" />
<glyph unicode="&#x133;" horiz-adv-x="1019" d="M400 0h-284v1082h284v-1082zM103 1362q0 66 42 108t112 42t112 -42t42 -108q0 -65 -41.5 -108t-112.5 -43t-112.5 43t-41.5 108zM917 1082v-1140q0 -185 -85 -282t-241 -97q-66 0 -128 17l-1 231q47 -9 75 -9q94 0 96 132v1148h284zM614 1362q0 66 42 108t112 42t112 -42 t42 -108q0 -65 -41.5 -108t-112.5 -43t-112.5 43t-41.5 108z" />
<glyph unicode="&#x134;" horiz-adv-x="1004" d="M596 1456h294v-1008q0 -212 -118 -340t-304 -128q-200 0 -311 119t-111 331h295q0 -206 127 -206q128 0 128 238v994zM1077 1566v-12h-221l-125 144l-125 -144h-216v16l260 276h162z" />
<glyph unicode="&#x135;" horiz-adv-x="550" d="M423 1082v-1122q-2 -191 -90.5 -294t-245.5 -103q-70 0 -126 17l13 231q43 -13 82 -13q84 0 84 175v1109h283zM608 1231v-12h-221l-125 144l-125 -144h-216v16l260 276h162z" />
<glyph unicode="&#x136;" horiz-adv-x="1133" d="M527 562l-116 -146v-416h-294v1456h294v-635l93 157l271 478h360l-417 -640l424 -816h-349zM544 -456l-138 79q62 119 65 240v106h204v-76q-1 -91 -37.5 -188.5t-93.5 -160.5z" />
<glyph unicode="&#x137;" d="M462 417l-76 -85v-332h-283v1536h283v-830l35 52l196 324h337l-314 -446l344 -636h-324zM473 -477l-138 79q62 119 65 240v106h204v-76q-1 -91 -37.5 -188.5t-93.5 -160.5z" />
<glyph unicode="&#x138;" horiz-adv-x="1077" d="M486 397h-81v-397h-283v1082h283v-406h58l201 406h357l-304 -506l311 -576h-363z" />
<glyph unicode="&#x139;" d="M411 244h516v-244h-810v1456h294v-1212zM327 1846h318l-278 -310h-236z" />
<glyph unicode="&#x13a;" horiz-adv-x="516" d="M400 0h-284v1536h284v-1536zM314 1928h318l-278 -310h-236z" />
<glyph unicode="&#x13b;" d="M411 244h516v-244h-810v1456h294v-1212zM493 -507l-138 79q62 119 65 240v106h204v-76q-1 -91 -37.5 -188.5t-93.5 -160.5z" />
<glyph unicode="&#x13c;" horiz-adv-x="516" d="M400 0h-284v1536h284v-1536zM229 -507l-138 79q62 119 65 240v106h204v-76q-1 -91 -37.5 -188.5t-93.5 -160.5z" />
<glyph unicode="&#x13d;" d="M411 244h516v-244h-810v1456h294v-1212zM693 1031l-138 79q62 119 65 240v106h204v-76q-1 -91 -37.5 -188.5t-93.5 -160.5z" />
<glyph unicode="&#x13e;" horiz-adv-x="666" d="M400 0h-284v1536h284v-1536zM592 1112l-138 79q62 119 65 240v106h204v-76q-1 -91 -37.5 -188.5t-93.5 -160.5z" />
<glyph unicode="&#x13f;" d="M411 244h516v-244h-810v1456h294v-1212zM517 829q0 62 42 100t107 38t107 -38t42 -100q0 -60 -40 -98t-109 -38t-109 38t-40 98z" />
<glyph unicode="&#x140;" horiz-adv-x="736" d="M400 0h-284v1536h284v-1536zM471 772q0 62 42 100t107 38t107 -38t42 -100q0 -60 -40 -98t-109 -38t-109 38t-40 98z" />
<glyph unicode="&#x141;" horiz-adv-x="1013" d="M446 904l158 53v-166l-158 -53v-494h516v-244h-810v639l-104 -35v166l104 35v651h294v-552z" />
<glyph unicode="&#x142;" horiz-adv-x="587" d="M428 915l109 42v-167l-109 -42v-748h-284v640l-97 -37v167l97 37v729h284v-621z" />
<glyph unicode="&#x143;" horiz-adv-x="1254" d="M1135 0h-294l-430 955v-955h-294v1456h294l431 -956v956h293v-1456zM687 1846h318l-278 -310h-236z" />
<glyph unicode="&#x144;" horiz-adv-x="1008" d="M362 1082l8 -107q96 127 251 127q279 0 287 -391v-711h-284v690q0 92 -27.5 133.5t-96.5 41.5q-77 0 -120 -79v-786h-284v1082h266zM560 1536h318l-278 -310h-236z" />
<glyph unicode="&#x145;" horiz-adv-x="1254" d="M1135 0h-294l-430 955v-955h-294v1456h294l431 -956v956h293v-1456zM600 -515l-138 79q62 119 65 240v106h204v-76q-1 -91 -37.5 -188.5t-93.5 -160.5z" />
<glyph unicode="&#x146;" horiz-adv-x="1008" d="M362 1082l8 -107q96 127 251 127q279 0 287 -391v-711h-284v690q0 92 -27.5 133.5t-96.5 41.5q-77 0 -120 -79v-786h-284v1082h266zM473 -507l-138 79q62 119 65 240v106h204v-76q-1 -91 -37.5 -188.5t-93.5 -160.5z" />
<glyph unicode="&#x147;" horiz-adv-x="1254" d="M1135 0h-294l-430 955v-955h-294v1456h294l431 -956v956h293v-1456zM629 1705l116 142h241v-11l-268 -281h-176l-268 283v9h240z" />
<glyph unicode="&#x148;" horiz-adv-x="1008" d="M362 1082l8 -107q96 127 251 127q279 0 287 -391v-711h-284v690q0 92 -27.5 133.5t-96.5 41.5q-77 0 -120 -79v-786h-284v1082h266zM502 1395l116 142h241v-11l-268 -281h-176l-268 283v9h240z" />
<glyph unicode="&#x149;" horiz-adv-x="1008" d="M362 1082l8 -107q96 127 251 127q279 0 287 -391v-711h-284v690q0 92 -27.5 133.5t-96.5 41.5q-77 0 -120 -79v-786h-284v1082h266zM52 1111l-138 79q62 119 65 240v106h204v-76q-1 -91 -37.5 -188.5t-93.5 -160.5z" />
<glyph unicode="&#x14a;" horiz-adv-x="1248" d="M1134 1456v-1479q0 -200 -91 -307t-252 -107q-70 0 -130 17l11 240q42 -12 84 -12q83 0 83 174v18l-429 902v-902h-294v1456h294l429 -899v899h295z" />
<glyph unicode="&#x14b;" horiz-adv-x="1017" d="M364 1082l12 -143q95 163 248 163q142 0 215 -109t76 -316v-710q0 -194 -89 -299t-247 -105q-67 0 -123 17l12 233q39 -12 80 -12q83 0 83 171v687q0 109 -26 157.5t-88 48.5q-82 0 -134 -71v-794h-283v1082h264z" />
<glyph unicode="&#x14c;" horiz-adv-x="1236" d="M1142 597q0 -293 -138.5 -455t-384.5 -162q-245 0 -385 160.5t-142 449.5v249q0 300 139 468.5t386 168.5q243 0 383 -165.5t142 -464.5v-249zM847 841q0 197 -56 293t-174 96q-117 0 -173 -92.5t-58 -281.5v-259q0 -191 57 -281.5t176 -90.5q115 0 171 88.5t57 274.5 v253zM936 1598h-631v167h631v-167z" />
<glyph unicode="&#x14d;" horiz-adv-x="1019" d="M70 576q0 246 116 386t321 140q207 0 323 -140t116 -388v-69q0 -247 -115 -386t-322 -139q-208 0 -323.5 139.5t-115.5 387.5v69zM354 505q0 -290 155 -290q143 0 154 242l1 119q0 148 -41 219.5t-116 71.5q-72 0 -112.5 -71.5t-40.5 -219.5v-71zM823 1289h-631v167h631 v-167z" />
<glyph unicode="&#x14e;" horiz-adv-x="1236" d="M1142 597q0 -293 -138.5 -455t-384.5 -162q-245 0 -385 160.5t-142 449.5v249q0 300 139 468.5t386 168.5q243 0 383 -165.5t142 -464.5v-249zM847 841q0 197 -56 293t-174 96q-117 0 -173 -92.5t-58 -281.5v-259q0 -191 57 -281.5t176 -90.5q115 0 171 88.5t57 274.5 v253zM966 1837q0 -133 -95.5 -215t-251.5 -82q-157 0 -252.5 82t-95.5 215h207q0 -62 37.5 -96.5t103.5 -34.5q65 0 102 34.5t37 96.5h208z" />
<glyph unicode="&#x14f;" horiz-adv-x="1019" d="M70 576q0 246 116 386t321 140q207 0 323 -140t116 -388v-69q0 -247 -115 -386t-322 -139q-208 0 -323.5 139.5t-115.5 387.5v69zM354 505q0 -290 155 -290q143 0 154 242l1 119q0 148 -41 219.5t-116 71.5q-72 0 -112.5 -71.5t-40.5 -219.5v-71zM853 1527 q0 -133 -95.5 -215t-251.5 -82q-157 0 -252.5 82t-95.5 215h207q0 -62 37.5 -96.5t103.5 -34.5q65 0 102 34.5t37 96.5h208z" />
<glyph unicode="&#x150;" horiz-adv-x="1236" d="M1142 597q0 -293 -138.5 -455t-384.5 -162q-245 0 -385 160.5t-142 449.5v249q0 300 139 468.5t386 168.5q243 0 383 -165.5t142 -464.5v-249zM847 841q0 197 -56 293t-174 96q-117 0 -173 -92.5t-58 -281.5v-259q0 -191 57 -281.5t176 -90.5q115 0 171 88.5t57 274.5 v253zM837 1845h247l-220 -301h-207zM490 1845h244l-191 -301h-202z" />
<glyph unicode="&#x151;" horiz-adv-x="1019" d="M70 576q0 246 116 386t321 140q207 0 323 -140t116 -388v-69q0 -247 -115 -386t-322 -139q-208 0 -323.5 139.5t-115.5 387.5v69zM354 505q0 -290 155 -290q143 0 154 242l1 119q0 148 -41 219.5t-116 71.5q-72 0 -112.5 -71.5t-40.5 -219.5v-71zM724 1535h247l-220 -301 h-207zM377 1535h244l-191 -301h-202z" />
<glyph unicode="&#x152;" horiz-adv-x="1723" d="M1611 0h-754q-137 -20 -235 -20q-151 0 -270 73.5t-185 206.5t-69 300v320q0 173 66 310t185 211.5t271 74.5q100 0 237 -20h752v-245h-540v-344h457v-237h-457v-386h542v-244zM622 214q81 0 153 12v1003q-89 12 -155 12q-111 0 -175 -90t-64 -269v-306q0 -181 65 -271.5 t176 -90.5z" />
<glyph unicode="&#x153;" horiz-adv-x="1579" d="M88 551q0 252 117.5 401.5t316.5 149.5q183 0 297 -125q110 127 280 125q185 0 290 -127.5t105 -365.5v-160h-525q12 -116 60.5 -175.5t126.5 -59.5q106 0 190 45l56 32l75 -188l-30 -25q-131 -98 -322 -98q-186 0 -304 126q-113 -126 -298 -126q-201 0 -318 149 t-117 408v14zM371 530q0 -162 38 -239t114 -77q138 0 150 262l1 75q0 316 -152 316q-138 0 -150 -265zM1099 867q-109 0 -128 -220h246v26q0 194 -118 194z" />
<glyph unicode="&#x154;" horiz-adv-x="1134" d="M558 532h-146v-532h-294v1456h469q221 0 341.5 -114.5t120.5 -325.5q0 -290 -211 -406l255 -596v-14h-316zM412 777h167q88 0 132 58.5t44 156.5q0 219 -171 219h-172v-434zM578 1846h318l-278 -310h-236z" />
<glyph unicode="&#x155;" horiz-adv-x="679" d="M637 809l-94 8q-116 0 -157 -102v-715h-284v1082h267l8 -117q67 137 185 137q48 0 78 -13zM421 1536h318l-278 -310h-236z" />
<glyph unicode="&#x156;" horiz-adv-x="1134" d="M558 532h-146v-532h-294v1456h469q221 0 341.5 -114.5t120.5 -325.5q0 -290 -211 -406l255 -596v-14h-316zM412 777h167q88 0 132 58.5t44 156.5q0 219 -171 219h-172v-434zM507 -507l-138 79q62 119 65 240v106h204v-76q-1 -91 -37.5 -188.5t-93.5 -160.5z" />
<glyph unicode="&#x157;" horiz-adv-x="679" d="M637 809l-94 8q-116 0 -157 -102v-715h-284v1082h267l8 -117q67 137 185 137q48 0 78 -13zM220 -507l-138 79q62 119 65 240v106h204v-76q-1 -91 -37.5 -188.5t-93.5 -160.5z" />
<glyph unicode="&#x158;" horiz-adv-x="1134" d="M558 532h-146v-532h-294v1456h469q221 0 341.5 -114.5t120.5 -325.5q0 -290 -211 -406l255 -596v-14h-316zM412 777h167q88 0 132 58.5t44 156.5q0 219 -171 219h-172v-434zM520 1705l116 142h241v-11l-268 -281h-176l-268 283v9h240z" />
<glyph unicode="&#x159;" horiz-adv-x="679" d="M637 809l-94 8q-116 0 -157 -102v-715h-284v1082h267l8 -117q67 137 185 137q48 0 78 -13zM364 1395l116 142h241v-11l-268 -281h-176l-268 283v9h240z" />
<glyph unicode="&#x15a;" horiz-adv-x="1106" d="M732 382q0 89 -45.5 134.5t-165.5 94.5q-219 83 -315 194.5t-96 263.5q0 184 130.5 295.5t331.5 111.5q134 0 239 -56.5t161.5 -159.5t56.5 -234h-293q0 102 -43.5 155.5t-125.5 53.5q-77 0 -120 -45.5t-43 -122.5q0 -60 48 -108.5t170 -100.5q213 -77 309.5 -189 t96.5 -285q0 -190 -121 -297t-329 -107q-141 0 -257 58t-181.5 166t-65.5 255h295q0 -126 49 -183t160 -57q154 0 154 163zM624 1846h318l-278 -310h-236z" />
<glyph unicode="&#x15b;" horiz-adv-x="930" d="M582 290q0 36 -34.5 66.5t-153.5 82.5q-175 71 -240.5 147t-65.5 189q0 142 102.5 234.5t271.5 92.5q178 0 285 -92t107 -247h-283q0 132 -110 132q-45 0 -74 -28t-29 -78q0 -36 32 -63.5t151 -78.5q173 -64 244.5 -142.5t71.5 -203.5q0 -145 -109 -233t-286 -88 q-119 0 -210 46.5t-142.5 129.5t-51.5 179h269q2 -74 34.5 -111t106.5 -37q114 0 114 103zM523 1536h318l-278 -310h-236z" />
<glyph unicode="&#x15c;" horiz-adv-x="1106" d="M732 382q0 89 -45.5 134.5t-165.5 94.5q-219 83 -315 194.5t-96 263.5q0 184 130.5 295.5t331.5 111.5q134 0 239 -56.5t161.5 -159.5t56.5 -234h-293q0 102 -43.5 155.5t-125.5 53.5q-77 0 -120 -45.5t-43 -122.5q0 -60 48 -108.5t170 -100.5q213 -77 309.5 -189 t96.5 -285q0 -190 -121 -297t-329 -107q-141 0 -257 58t-181.5 166t-65.5 255h295q0 -126 49 -183t160 -57q154 0 154 163zM913 1566v-12h-221l-125 144l-125 -144h-216v16l260 276h162z" />
<glyph unicode="&#x15d;" horiz-adv-x="930" d="M582 290q0 36 -34.5 66.5t-153.5 82.5q-175 71 -240.5 147t-65.5 189q0 142 102.5 234.5t271.5 92.5q178 0 285 -92t107 -247h-283q0 132 -110 132q-45 0 -74 -28t-29 -78q0 -36 32 -63.5t151 -78.5q173 -64 244.5 -142.5t71.5 -203.5q0 -145 -109 -233t-286 -88 q-119 0 -210 46.5t-142.5 129.5t-51.5 179h269q2 -74 34.5 -111t106.5 -37q114 0 114 103zM812 1256v-12h-221l-125 144l-125 -144h-216v16l260 276h162z" />
<glyph unicode="&#x15e;" horiz-adv-x="1106" d="M732 382q0 89 -45.5 134.5t-165.5 94.5q-219 83 -315 194.5t-96 263.5q0 184 130.5 295.5t331.5 111.5q134 0 239 -56.5t161.5 -159.5t56.5 -234h-293q0 102 -43.5 155.5t-125.5 53.5q-77 0 -120 -45.5t-43 -122.5q0 -60 48 -108.5t170 -100.5q213 -77 309.5 -189 t96.5 -285q0 -190 -121 -297t-329 -107q-141 0 -257 58t-181.5 166t-65.5 255h295q0 -126 49 -183t160 -57q154 0 154 163zM678 7l-9 -58q58 -13 89.5 -57.5t31.5 -115.5q0 -110 -79 -174t-226 -64l-6 167q73 0 73 82q0 40 -25.5 56t-86.5 21l27 143h211z" />
<glyph unicode="&#x15f;" horiz-adv-x="930" d="M582 290q0 36 -34.5 66.5t-153.5 82.5q-175 71 -240.5 147t-65.5 189q0 142 102.5 234.5t271.5 92.5q178 0 285 -92t107 -247h-283q0 132 -110 132q-45 0 -74 -28t-29 -78q0 -36 32 -63.5t151 -78.5q173 -64 244.5 -142.5t71.5 -203.5q0 -145 -109 -233t-286 -88 q-119 0 -210 46.5t-142.5 129.5t-51.5 179h269q2 -74 34.5 -111t106.5 -37q114 0 114 103zM575 -2l-9 -58q58 -13 89.5 -57.5t31.5 -115.5q0 -110 -79 -174t-226 -64l-6 167q73 0 73 82q0 40 -25.5 56t-86.5 21l27 143h211z" />
<glyph unicode="&#x160;" horiz-adv-x="1106" d="M732 382q0 89 -45.5 134.5t-165.5 94.5q-219 83 -315 194.5t-96 263.5q0 184 130.5 295.5t331.5 111.5q134 0 239 -56.5t161.5 -159.5t56.5 -234h-293q0 102 -43.5 155.5t-125.5 53.5q-77 0 -120 -45.5t-43 -122.5q0 -60 48 -108.5t170 -100.5q213 -77 309.5 -189 t96.5 -285q0 -190 -121 -297t-329 -107q-141 0 -257 58t-181.5 166t-65.5 255h295q0 -126 49 -183t160 -57q154 0 154 163zM566 1705l116 142h241v-11l-268 -281h-176l-268 283v9h240z" />
<glyph unicode="&#x161;" horiz-adv-x="930" d="M582 290q0 36 -34.5 66.5t-153.5 82.5q-175 71 -240.5 147t-65.5 189q0 142 102.5 234.5t271.5 92.5q178 0 285 -92t107 -247h-283q0 132 -110 132q-45 0 -74 -28t-29 -78q0 -36 32 -63.5t151 -78.5q173 -64 244.5 -142.5t71.5 -203.5q0 -145 -109 -233t-286 -88 q-119 0 -210 46.5t-142.5 129.5t-51.5 179h269q2 -74 34.5 -111t106.5 -37q114 0 114 103zM465 1395l116 142h241v-11l-268 -281h-176l-268 283v9h240z" />
<glyph unicode="&#x162;" horiz-adv-x="1112" d="M1060 1211h-360v-1211h-295v1211h-354v245h1009v-245zM660 14l-9 -58q58 -13 89.5 -57.5t31.5 -115.5q0 -110 -79 -174t-226 -64l-6 167q73 0 73 82q0 40 -25.5 56t-86.5 21l27 143h211z" />
<glyph unicode="&#x163;" horiz-adv-x="629" d="M432 1348v-266h145v-213h-145v-537q0 -64 17.5 -88t67.5 -24q41 0 67 7l-2 -220q-72 -27 -156 -27q-274 0 -277 314v575h-125v213h125v266h283zM496 7l-9 -58q58 -13 89.5 -57.5t31.5 -115.5q0 -110 -79 -174t-226 -64l-6 167q73 0 73 82q0 40 -25.5 56t-86.5 21l27 143 h211z" />
<glyph unicode="&#x164;" horiz-adv-x="1112" d="M1060 1211h-360v-1211h-295v1211h-354v245h1009v-245zM550 1705l116 142h241v-11l-268 -281h-176l-268 283v9h240z" />
<glyph unicode="&#x165;" horiz-adv-x="669" d="M432 1348v-266h145v-213h-145v-537q0 -64 17.5 -88t67.5 -24q41 0 67 7l-2 -220q-72 -27 -156 -27q-274 0 -277 314v575h-125v213h125v266h283zM649 1243l-138 79q62 119 65 240v106h204v-76q-1 -91 -37.5 -188.5t-93.5 -160.5z" />
<glyph unicode="&#x166;" horiz-adv-x="1112" d="M844 746h-144v-746h-295v746h-168v183h168v282h-354v245h1009v-245h-360v-282h144v-183z" />
<glyph unicode="&#x167;" horiz-adv-x="629" d="M432 1348v-266h145v-213h-145v-157h159v-183h-159v-197q0 -64 17.5 -88t67.5 -24q41 0 67 7l-2 -220q-72 -27 -156 -27q-272 0 -277 309v240h-165v183h165v157h-125v213h125v266h283z" />
<glyph unicode="&#x168;" horiz-adv-x="1170" d="M1064 1456v-1008q-2 -227 -125 -347.5t-353 -120.5q-234 0 -357.5 122t-123.5 353v1001h296v-1002q0 -124 40 -177t145 -53t144 52.5t40 172.5v1007h294zM902 1831q0 -111 -56.5 -188.5t-142.5 -77.5q-32 0 -56.5 9t-69 37t-63 34t-40.5 6q-27 0 -45 -24.5t-18 -70.5 l-160 9q0 111 57 189.5t140 78.5q22 0 42.5 -6.5t71 -35t72.5 -36t44 -7.5q26 0 45.5 24.5t19.5 70.5z" />
<glyph unicode="&#x169;" horiz-adv-x="1008" d="M635 99q-88 -119 -236 -119q-149 0 -226 102.5t-77 298.5v701h283v-708q2 -158 105 -158q97 0 140 84v782h285v-1082h-266zM823 1522q0 -111 -56.5 -188.5t-142.5 -77.5q-32 0 -56.5 9t-69 37t-63 34t-40.5 6q-27 0 -45 -24.5t-18 -70.5l-160 9q0 111 57 189.5t140 78.5 q22 0 42.5 -6.5t71 -35t72.5 -36t44 -7.5q26 0 45.5 24.5t19.5 70.5z" />
<glyph unicode="&#x16a;" horiz-adv-x="1170" d="M1064 1456v-1008q-2 -227 -125 -347.5t-353 -120.5q-234 0 -357.5 122t-123.5 353v1001h296v-1002q0 -124 40 -177t145 -53t144 52.5t40 172.5v1007h294zM896 1598h-631v167h631v-167z" />
<glyph unicode="&#x16b;" horiz-adv-x="1008" d="M635 99q-88 -119 -236 -119q-149 0 -226 102.5t-77 298.5v701h283v-708q2 -158 105 -158q97 0 140 84v782h285v-1082h-266zM817 1289h-631v167h631v-167z" />
<glyph unicode="&#x16c;" horiz-adv-x="1170" d="M1064 1456v-1008q-2 -227 -125 -347.5t-353 -120.5q-234 0 -357.5 122t-123.5 353v1001h296v-1002q0 -124 40 -177t145 -53t144 52.5t40 172.5v1007h294zM926 1837q0 -133 -95.5 -215t-251.5 -82q-157 0 -252.5 82t-95.5 215h207q0 -62 37.5 -96.5t103.5 -34.5 q65 0 102 34.5t37 96.5h208z" />
<glyph unicode="&#x16d;" horiz-adv-x="1008" d="M635 99q-88 -119 -236 -119q-149 0 -226 102.5t-77 298.5v701h283v-708q2 -158 105 -158q97 0 140 84v782h285v-1082h-266zM847 1527q0 -133 -95.5 -215t-251.5 -82q-157 0 -252.5 82t-95.5 215h207q0 -62 37.5 -96.5t103.5 -34.5q65 0 102 34.5t37 96.5h208z" />
<glyph unicode="&#x16e;" horiz-adv-x="1170" d="M1064 1456v-1008q-2 -227 -125 -347.5t-353 -120.5q-234 0 -357.5 122t-123.5 353v1001h296v-1002q0 -124 40 -177t145 -53t144 52.5t40 172.5v1007h294zM356 1730q0 86 65 145.5t158 59.5q92 0 157.5 -58.5t65.5 -146.5q0 -85 -64 -143t-159 -58q-97 0 -160 59t-63 142z M579 1623q50 0 79 31t29 76q0 46 -29.5 77.5t-78.5 31.5q-47 0 -77 -31t-30 -78t30.5 -77t76.5 -30z" />
<glyph unicode="&#x16f;" horiz-adv-x="1008" d="M635 99q-88 -119 -236 -119q-149 0 -226 102.5t-77 298.5v701h283v-708q2 -158 105 -158q97 0 140 84v782h285v-1082h-266zM277 1420q0 86 65 145.5t158 59.5q92 0 157.5 -58.5t65.5 -146.5q0 -85 -64 -143t-159 -58q-97 0 -160 59t-63 142zM500 1313q50 0 79 31t29 76 q0 46 -29.5 77.5t-78.5 31.5q-47 0 -77 -31t-30 -78t30.5 -77t76.5 -30z" />
<glyph unicode="&#x170;" horiz-adv-x="1170" d="M1064 1456v-1008q-2 -227 -125 -347.5t-353 -120.5q-234 0 -357.5 122t-123.5 353v1001h296v-1002q0 -124 40 -177t145 -53t144 52.5t40 172.5v1007h294zM797 1845h247l-220 -301h-207zM450 1845h244l-191 -301h-202z" />
<glyph unicode="&#x171;" horiz-adv-x="1008" d="M635 99q-88 -119 -236 -119q-149 0 -226 102.5t-77 298.5v701h283v-708q2 -158 105 -158q97 0 140 84v782h285v-1082h-266zM718 1535h247l-220 -301h-207zM371 1535h244l-191 -301h-202z" />
<glyph unicode="&#x172;" horiz-adv-x="1170" d="M1064 1456v-994q0 -332 -237 -437q-67 -56 -67 -132q0 -65 51 -65q25 0 62 20l27 -158q-65 -44 -146 -44q-91 0 -147 57t-56 152q0 73 26 125q-227 2 -348.5 122.5t-123.5 344.5v1009h296v-1002q0 -124 40 -177t145 -53t144 52.5t40 172.5v1007h294z" />
<glyph unicode="&#x173;" horiz-adv-x="1008" d="M877 0q-64 -42 -94 -82t-30 -93q0 -65 51 -65q25 0 62 20l27 -158q-65 -44 -146 -44q-91 0 -147 57t-56 152q0 58 20 112.5t79 102.5l-8 97q-88 -119 -236 -119q-149 0 -226 102.5t-77 298.5v701h283v-708q2 -158 105 -158q97 0 140 84v782h285v-1082h-32z" />
<glyph unicode="&#x174;" horiz-adv-x="1534" d="M1063 541l138 915h291l-259 -1456h-295l-170 858l-168 -858h-296l-260 1456h293l137 -914l171 914h247zM1121 1566v-12h-221l-125 144l-125 -144h-216v16l260 276h162z" />
<glyph unicode="&#x175;" horiz-adv-x="1296" d="M891 475l97 607h271l-224 -1082h-235l-153 626l-153 -626h-236l-224 1082h272l96 -608l144 608h201zM992 1256v-12h-221l-125 144l-125 -144h-216v16l260 276h162z" />
<glyph unicode="&#x176;" horiz-adv-x="1111" d="M556 802l219 654h320l-390 -928v-528h-298v528l-391 928h320zM904 1566v-12h-221l-125 144l-125 -144h-216v16l260 276h162z" />
<glyph unicode="&#x177;" horiz-adv-x="914" d="M450 471l144 611h302l-356 -1244q-80 -275 -301 -275q-51 0 -116 19v221l33 -1q66 0 99.5 25.5t50.5 88.5l22 73l-312 1093h304zM805 1256v-12h-221l-125 144l-125 -144h-216v16l260 276h162z" />
<glyph unicode="&#x178;" horiz-adv-x="1111" d="M556 802l219 654h320l-390 -928v-528h-298v528l-391 928h320zM173 1675q0 55 40.5 91.5t98.5 36.5t98.5 -36.5t40.5 -91.5q0 -54 -40.5 -90.5t-98.5 -36.5t-98.5 36.5t-40.5 90.5zM662 1675q0 54 40.5 90.5t98.5 36.5t98.5 -36.5t40.5 -90.5q0 -52 -38.5 -89.5 t-100.5 -37.5t-100.5 37.5t-38.5 89.5z" />
<glyph unicode="&#x179;" horiz-adv-x="1086" d="M422 244h600v-244h-944v177l594 1034h-600v245h939v-173zM609 1846h318l-278 -310h-236z" />
<glyph unicode="&#x17a;" horiz-adv-x="927" d="M416 235h428v-235h-764v177l418 669h-408v236h748v-171zM517 1536h318l-278 -310h-236z" />
<glyph unicode="&#x17b;" horiz-adv-x="1086" d="M422 244h600v-244h-944v177l594 1034h-600v245h939v-173zM403 1702q0 62 42 100t107 38t107 -38t42 -100q0 -60 -40 -98t-109 -38t-109 38t-40 98z" />
<glyph unicode="&#x17c;" horiz-adv-x="927" d="M416 235h428v-235h-764v177l418 669h-408v236h748v-171zM311 1392q0 62 42 100t107 38t107 -38t42 -100q0 -60 -40 -98t-109 -38t-109 38t-40 98z" />
<glyph unicode="&#x17d;" horiz-adv-x="1086" d="M422 244h600v-244h-944v177l594 1034h-600v245h939v-173zM551 1705l116 142h241v-11l-268 -281h-176l-268 283v9h240z" />
<glyph unicode="&#x17e;" horiz-adv-x="927" d="M416 235h428v-235h-764v177l418 669h-408v236h748v-171zM459 1395l116 142h241v-11l-268 -281h-176l-268 283v9h240z" />
<glyph unicode="&#x17f;" horiz-adv-x="504" d="M108 0v1178q1 183 94.5 281t260.5 98q54 0 140 -21l-24 -225q-37 11 -78 11q-110 0 -110 -153v-1169h-283z" />
<glyph unicode="&#x18f;" horiz-adv-x="1231" d="M601 -20q-253 0 -391 177t-140 500v171h769q-5 189 -85.5 286t-230.5 97q-170 0 -315 -63l-44 250q36 26 152 52t223 26q278 0 437 -181.5t159 -505.5v-139q0 -190 -70 -344.5t-193 -240t-271 -85.5zM601 244q99 0 162 90.5t74 247.5h-474v-31q0 -307 238 -307z" />
<glyph unicode="&#x192;" horiz-adv-x="677" d="M608 869h-161l-1 -920q-1 -184 -85.5 -285t-236.5 -101q-69 0 -125 17l12 231q34 -13 75 -13q47 0 62 39.5t15 114.5v917h-130v213h130v92q0 184 93 283.5t262 99.5q54 0 140 -21l-24 -226q-34 10 -80 10q-105 0 -107 -141v-97h161v-213z" />
<glyph unicode="&#x1a0;" horiz-adv-x="1245" d="M1140 695q0 -214 -65.5 -376t-187.5 -250.5t-279 -88.5q-155 0 -277 87t-189 248t-68 371v73q0 212 66 375.5t187.5 252.5t278.5 89q231 0 378 -184q47 24 65 95t18 179h188q0 -334 -187 -418q70 -162 72 -377v-76zM842 761q0 229 -61.5 347t-174.5 118t-173.5 -116 t-61.5 -342v-73q0 -227 61.5 -347t175.5 -120q113 0 173 118t61 342v73z" />
<glyph unicode="&#x1a1;" horiz-adv-x="1051" d="M70 551q0 252 119 401.5t317 149.5t316 -146q53 55 53 227h167q0 -266 -149 -348q52 -125 52 -305q0 -251 -118 -400.5t-319 -149.5q-192 0 -309 136.5t-128 370.5zM352 530q0 -315 156 -315q141 0 152 269l1 67q0 316 -155 316q-75 0 -114.5 -79.5t-39.5 -257.5z" />
<glyph unicode="&#x1af;" horiz-adv-x="1282" d="M1064 1456v-227q62 7 95 35.5t48 83.5t15 189h184q0 -240 -81 -349t-261 -118v-580q-2 -238 -130 -374t-348 -136q-222 0 -350.5 135.5t-130.5 373.5v967h296v-980q6 -252 185 -252q178 0 184 252v980h294z" />
<glyph unicode="&#x1b0;" horiz-adv-x="1107" d="M1165 1177q0 -178 -60.5 -266t-195.5 -107v-804h-266l-8 99q-88 -119 -236 -119q-149 0 -226 102.5t-77 298.5v701h283v-708q2 -158 105 -158q97 0 140 84v782h285v-136q50 16 71 63t21 168h164z" />
<glyph unicode="&#x1f0;" horiz-adv-x="550" d="M423 1082v-1122q-2 -191 -90.5 -294t-245.5 -103q-70 0 -126 17l13 231q43 -13 82 -13q84 0 84 175v1109h283zM261 1370l116 142h241v-11l-268 -281h-176l-268 283v9h240z" />
<glyph unicode="&#x1fa;" horiz-adv-x="1223" d="M812 298h-401l-78 -298h-311l455 1456h269l458 -1456h-314zM475 543h272l-136 519zM706 2000h250l-241 -208h-170zM433 1566q0 80 53 133.5t128 53.5q73 0 125 -53t52 -134q0 -80 -50.5 -132t-126.5 -52q-78 0 -129.5 52.5t-51.5 131.5zM538 1566q0 -39 21.5 -64 t54.5 -25q32 0 52 25t20 64q0 40 -20 65.5t-52 25.5q-33 0 -54.5 -25.5t-21.5 -65.5z" />
<glyph unicode="&#x1fb;" horiz-adv-x="964" d="M617 0q-12 25 -24 84q-76 -104 -206 -104q-136 0 -225.5 90t-89.5 233q0 170 108.5 263t312.5 95h86v87q0 73 -25 103t-73 30q-106 0 -106 -124h-283q0 150 112.5 247.5t284.5 97.5q178 0 275.5 -92.5t97.5 -264.5v-509q2 -140 40 -219v-17h-285zM450 202q47 0 80 19 t49 45v225h-68q-72 0 -113.5 -46t-41.5 -123q0 -120 94 -120zM570 1691h250l-241 -208h-170zM297 1257q0 80 53 133.5t128 53.5q73 0 125 -53t52 -134q0 -80 -50.5 -132t-126.5 -52q-78 0 -129.5 52.5t-51.5 131.5zM402 1257q0 -39 21.5 -64t54.5 -25q32 0 52 25t20 64 q0 40 -20 65.5t-52 25.5q-33 0 -54.5 -25.5t-21.5 -65.5z" />
<glyph unicode="&#x1fc;" horiz-adv-x="1674" d="M1602 0h-778l-12 333h-333l-132 -333h-332l643 1456h892v-238h-485l13 -352h404v-238h-396l13 -390h503v-238zM577 582h226l-18 524zM856 1858h318l-278 -310h-236z" />
<glyph unicode="&#x1fd;" horiz-adv-x="1491" d="M1063 -20q-205 0 -324 136q-56 -66 -140 -101t-184 -35q-162 0 -253 89.5t-91 249.5q0 157 105.5 243t313.5 88h125v55q0 76 -29 119t-81 43q-57 0 -89 -36t-32 -87l-282 19q0 150 113 244.5t293 94.5q170 0 270 -94q106 96 265 94q181 0 284 -130t105 -353v-170h-540 q9 -115 60.5 -175t141.5 -60q63 0 116 16t125 61l72 -191q-48 -48 -145 -84t-199 -36zM471 193q72 0 144 67v200h-115q-63 0 -104.5 -40.5t-41.5 -104.5q0 -122 117 -122zM1043 867q-132 0 -150 -223h262v28q0 87 -26.5 141t-85.5 54zM802 1537h318l-278 -310h-236z" />
<glyph unicode="&#x1fe;" horiz-adv-x="1233" d="M1158 695q0 -214 -65.5 -376t-187.5 -250.5t-279 -88.5q-134 0 -242 64l-68 -139h-177l120 245q-167 197 -167 553v56q0 215 66.5 378.5t188 251t277.5 87.5q139 0 252 -70l55 112h178l-110 -223q158 -199 159 -535v-65zM389 695q0 -139 22 -234l347 705q-55 60 -134 60 q-113 0 -173.5 -116t-61.5 -342v-73zM860 761q0 118 -19 213l-341 -695q51 -51 126 -51q112 0 172.5 118t61.5 342v73zM678 1920h318l-278 -310h-236z" />
<glyph unicode="&#x1ff;" horiz-adv-x="1017" d="M71 551q0 252 119 401.5t317 149.5q79 0 149 -25l57 139h152l-87 -212q168 -148 168 -474q0 -251 -118 -400.5t-319 -149.5q-78 0 -142 22l-59 -144h-152l88 214q-173 149 -173 479zM354 530q0 -100 13 -157l197 480q-26 14 -57 14q-139 0 -152 -268zM663 551 q0 79 -12 145l-193 -471q21 -10 51 -10q140 0 153 264zM534 1532h318l-278 -310h-236z" />
<glyph unicode="&#x218;" horiz-adv-x="1106" d="M732 382q0 89 -45.5 134.5t-165.5 94.5q-219 83 -315 194.5t-96 263.5q0 184 130.5 295.5t331.5 111.5q134 0 239 -56.5t161.5 -159.5t56.5 -234h-293q0 102 -43.5 155.5t-125.5 53.5q-77 0 -120 -45.5t-43 -122.5q0 -60 48 -108.5t170 -100.5q213 -77 309.5 -189 t96.5 -285q0 -190 -121 -297t-329 -107q-141 0 -257 58t-181.5 166t-65.5 255h295q0 -126 49 -183t160 -57q154 0 154 163zM541 -517l-138 79q62 119 65 240v106h204v-76q-1 -91 -37.5 -188.5t-93.5 -160.5z" />
<glyph unicode="&#x219;" horiz-adv-x="930" d="M582 290q0 36 -34.5 66.5t-153.5 82.5q-175 71 -240.5 147t-65.5 189q0 142 102.5 234.5t271.5 92.5q178 0 285 -92t107 -247h-283q0 132 -110 132q-45 0 -74 -28t-29 -78q0 -36 32 -63.5t151 -78.5q173 -64 244.5 -142.5t71.5 -203.5q0 -145 -109 -233t-286 -88 q-119 0 -210 46.5t-142.5 129.5t-51.5 179h269q2 -74 34.5 -111t106.5 -37q114 0 114 103zM438 -527l-138 79q62 119 65 240v106h204v-76q-1 -91 -37.5 -188.5t-93.5 -160.5z" />
<glyph unicode="&#x21a;" horiz-adv-x="1112" d="M1060 1211h-360v-1211h-295v1211h-354v245h1009v-245zM523 -510l-138 79q62 119 65 240v106h204v-76q-1 -91 -37.5 -188.5t-93.5 -160.5z" />
<glyph unicode="&#x21b;" horiz-adv-x="629" d="M432 1348v-266h145v-213h-145v-537q0 -64 17.5 -88t67.5 -24q41 0 67 7l-2 -220q-72 -27 -156 -27q-274 0 -277 314v575h-125v213h125v266h283zM359 -517l-138 79q62 119 65 240v106h204v-76q-1 -91 -37.5 -188.5t-93.5 -160.5z" />
<glyph unicode="&#x237;" horiz-adv-x="550" d="M423 1082v-1122q-2 -191 -90.5 -294t-245.5 -103q-70 0 -126 17l13 231q43 -13 82 -13q84 0 84 175v1109h283z" />
<glyph unicode="&#x259;" horiz-adv-x="959" d="M452 1103q199 0 320.5 -146t121.5 -393v-30q0 -251 -115 -403t-301 -150q-187 0 -291 128t-104 366v159h525q-12 114 -60 174t-127 60q-64 0 -116.5 -15t-128.5 -62l-75 188q54 54 149.5 89t201.5 35zM478 216q106 0 129 219h-247v-25q0 -194 118 -194z" />
<glyph unicode="&#x2bc;" horiz-adv-x="460" d="M197 1009l-130 79q71 141 74 274v174h222v-158q-1 -91 -47.5 -196.5t-118.5 -172.5z" />
<glyph unicode="&#x2c6;" horiz-adv-x="929" d="M805 1256v-12h-221l-125 144l-125 -144h-216v16l260 276h162z" />
<glyph unicode="&#x2c7;" horiz-adv-x="883" d="M437 1395l116 142h241v-11l-268 -281h-176l-268 283v9h240z" />
<glyph unicode="&#x2c9;" horiz-adv-x="938" d="M784 1290h-631v167h631v-167z" />
<glyph unicode="&#x2d8;" horiz-adv-x="910" d="M800 1527q0 -133 -95.5 -215t-251.5 -82q-157 0 -252.5 82t-95.5 215h207q0 -62 37.5 -96.5t103.5 -34.5q65 0 102 34.5t37 96.5h208z" />
<glyph unicode="&#x2d9;" horiz-adv-x="544" d="M118 1374q0 62 42 100t107 38t107 -38t42 -100q0 -60 -40 -98t-109 -38t-109 38t-40 98z" />
<glyph unicode="&#x2da;" horiz-adv-x="682" d="M119 1323q0 86 65 145.5t158 59.5q92 0 157.5 -58.5t65.5 -146.5q0 -85 -64 -143t-159 -58q-97 0 -160 59t-63 142zM342 1216q50 0 79 31t29 76q0 46 -29.5 77.5t-78.5 31.5q-47 0 -77 -31t-30 -78t30.5 -77t76.5 -30z" />
<glyph unicode="&#x2db;" horiz-adv-x="583" d="M375 0q-64 -42 -94 -82t-30 -93q0 -65 51 -65q25 0 62 20l27 -158q-65 -44 -146 -44q-91 0 -147 57t-56 152t46 159.5t144 113.5z" />
<glyph unicode="&#x2dc;" horiz-adv-x="895" d="M774 1524q0 -111 -56.5 -188.5t-142.5 -77.5q-32 0 -56.5 9t-69 37t-63 34t-40.5 6q-27 0 -45 -24.5t-18 -70.5l-160 9q0 111 57 189.5t140 78.5q22 0 42.5 -6.5t71 -35t72.5 -36t44 -7.5q26 0 45.5 24.5t19.5 70.5z" />
<glyph unicode="&#x2dd;" horiz-adv-x="758" d="M549 1535h247l-220 -301h-207zM202 1535h244l-191 -301h-202z" />
<glyph unicode="&#x2f3;" horiz-adv-x="582" d="M133 -230q0 71 47.5 122t118.5 51t117.5 -50.5t46.5 -122.5q0 -73 -47 -121t-117 -48q-71 0 -118.5 48.5t-47.5 120.5zM236 -230q0 -32 18.5 -52.5t44.5 -20.5t43 20.5t17 52.5q0 34 -17 55.5t-43 21.5t-44.5 -21.5t-18.5 -55.5z" />
<glyph unicode="&#x300;" horiz-adv-x="0" d="M-283 1226h-229l-246 310h307z" />
<glyph unicode="&#x301;" horiz-adv-x="0" d="M-404 1536h306l-246 -310h-226z" />
<glyph unicode="&#x303;" horiz-adv-x="0" d="M-125 1524q0 -111 -56.5 -188.5t-142.5 -77.5q-32 0 -56.5 9t-69 37t-63 34t-40.5 6q-27 0 -45 -24.5t-18 -70.5l-160 9q0 111 57 189.5t140 78.5q22 0 42.5 -6.5t71 -35t72.5 -36t44 -7.5q26 0 45.5 24.5t19.5 70.5z" />
<glyph unicode="&#x309;" horiz-adv-x="0" d="M-603 1267l-16 134q57 4 82 18.5t25 46.5q0 40 -27.5 54t-76.5 14l6 137q168 0 251.5 -52.5t83.5 -142.5q0 -56 -30.5 -94.5t-87.5 -49.5v-65h-210z" />
<glyph unicode="&#x30f;" horiz-adv-x="0" d="M-394 1252h-229l-243 266h273zM-88 1252h-225l-205 266h270z" />
<glyph unicode="&#x323;" horiz-adv-x="0" d="M-600 -95q73 0 118.5 -39.5t45.5 -99.5t-45.5 -99.5t-118.5 -39.5q-72 0 -117.5 39.5t-45.5 99.5t45.5 99.5t117.5 39.5z" />
<glyph unicode="&#x384;" horiz-adv-x="695" d="M293 1601h264l-165 -345h-173z" />
<glyph unicode="&#x385;" horiz-adv-x="1017" d="M452 1753h250l-149 -333h-139zM91 1365q0 54 37 91t93 37q57 0 94 -37t37 -91q0 -53 -37 -90t-94 -37q-56 0 -93 37t-37 90zM638 1365q0 55 38 91t92 36q56 0 93 -37t37 -90q0 -51 -36 -89t-94 -38q-57 0 -93.5 36.5t-36.5 90.5z" />
<glyph unicode="&#x386;" horiz-adv-x="1223" d="M812 298h-401l-78 -298h-311l455 1456h269l458 -1456h-314zM475 543h272l-136 519zM118 1601h264l-165 -345h-173z" />
<glyph unicode="&#x387;" horiz-adv-x="583" d="M131 696q0 68 43.5 112t112.5 44q70 0 113 -44t43 -112q0 -69 -43.5 -112t-112.5 -43q-68 0 -112 43t-44 112z" />
<glyph unicode="&#x388;" horiz-adv-x="1105" d="M969 630h-458v-386h542v-244h-836v1456h834v-245h-540v-344h458v-237zM-163 1602h264l-165 -345h-173z" />
<glyph unicode="&#x389;" horiz-adv-x="1357" d="M1238 0h-293v623h-434v-623h-294v1456h294v-589h434v589h293v-1456zM-162 1599h264l-165 -345h-173z" />
<glyph unicode="&#x38a;" horiz-adv-x="654" d="M524 0h-294v1456h294v-1456zM-165 1603h264l-165 -345h-173z" />
<glyph unicode="&#x38c;" horiz-adv-x="1256" d="M1162 597q0 -293 -138.5 -455t-384.5 -162q-245 0 -385 160.5t-142 449.5v249q0 300 139 468.5t386 168.5q243 0 383 -165.5t142 -464.5v-249zM867 841q0 197 -56 293t-174 96q-117 0 -173 -92.5t-58 -281.5v-259q0 -191 57 -281.5t176 -90.5q115 0 171 88.5t57 274.5 v253zM-82 1601h264l-165 -345h-173z" />
<glyph unicode="&#x38e;" horiz-adv-x="1211" d="M656 802l219 654h320l-390 -928v-528h-298v528l-391 928h320zM-230 1601h264l-165 -345h-173z" />
<glyph unicode="&#x38f;" horiz-adv-x="1225" d="M653 251q66 38 96.5 164.5t31.5 345.5v102q0 182 -44 273.5t-123 91.5q-76 0 -120 -89.5t-45 -267.5v-94q0 -211 26 -336q31 -151 107 -190v-251h-443v247h184q-93 95 -147.5 233.5t-55.5 291.5v89q0 177 62.5 318t176 218.5t255.5 77.5q143 0 257 -78t176 -217t63 -313 v-90q0 -152 -53 -291t-149 -239h180v-247h-435v251zM-62 1601h264l-165 -345h-173z" />
<glyph unicode="&#x390;" horiz-adv-x="640" d="M413 1082l-1 -742q0 -61 17.5 -86.5t67.5 -25.5q39 0 68 8l-2 -221q-71 -26 -158 -26q-273 0 -275 316v777h283zM252 1732h250l-149 -333h-139zM-109 1344q0 54 37 91t93 37q57 0 94 -37t37 -91q0 -53 -37 -90t-94 -37q-56 0 -93 37t-37 90zM438 1344q0 55 38 91t92 36 q56 0 93 -37t37 -90q0 -51 -36 -89t-94 -38q-57 0 -93.5 36.5t-36.5 90.5z" />
<glyph unicode="&#x391;" horiz-adv-x="1223" d="M812 298h-401l-78 -298h-311l455 1456h269l458 -1456h-314zM475 543h272l-136 519z" />
<glyph unicode="&#x392;" horiz-adv-x="1149" d="M117 0v1456h450q228 0 346.5 -101.5t118.5 -297.5q0 -111 -49 -191t-134 -117q98 -28 151 -112.5t53 -208.5q0 -212 -116.5 -320t-337.5 -108h-482zM411 633v-389h188q79 0 120 49t41 139q0 196 -142 201h-207zM411 847h153q173 0 173 179q0 99 -40 142t-130 43h-156 v-364z" />
<glyph unicode="&#x393;" horiz-adv-x="1001" d="M937 1211h-523v-1211h-294v1456h817v-245z" />
<glyph unicode="&#x394;" horiz-adv-x="1313" d="M512 1456h305l473 -1456h-1259zM415 244h492l-244 797z" />
<glyph unicode="&#x2206;" horiz-adv-x="1313" d="M512 1456h305l473 -1456h-1259zM415 244h492l-244 797z" />
<glyph unicode="&#x395;" horiz-adv-x="1005" d="M869 630h-458v-386h542v-244h-836v1456h834v-245h-540v-344h458v-237z" />
<glyph unicode="&#x396;" horiz-adv-x="1086" d="M422 244h600v-244h-944v177l594 1034h-600v245h939v-173z" />
<glyph unicode="&#x397;" horiz-adv-x="1257" d="M1138 0h-293v623h-434v-623h-294v1456h294v-589h434v589h293v-1456z" />
<glyph unicode="&#x398;" horiz-adv-x="1231" d="M764 606h-285v234h285v-234zM1147 695q0 -214 -65.5 -376t-187.5 -250.5t-279 -88.5q-155 0 -277 87t-189 248t-68 371v73q0 215 66.5 378.5t188 251t277.5 87.5t277.5 -87t189 -251t67.5 -377v-66zM849 761q0 229 -61.5 347t-174.5 118t-173.5 -116t-61.5 -342v-73 q0 -227 61.5 -347t175.5 -120q112 0 172.5 118t61.5 342v73z" />
<glyph unicode="&#x399;" horiz-adv-x="554" d="M424 0h-294v1456h294v-1456z" />
<glyph unicode="&#x39a;" horiz-adv-x="1133" d="M527 562l-116 -146v-416h-294v1456h294v-635l93 157l271 478h360l-417 -640l424 -816h-349z" />
<glyph unicode="&#x39b;" horiz-adv-x="1155" d="M577 1012l-237 -1012h-318l403 1456h304l404 -1456h-319z" />
<glyph unicode="&#x39c;" horiz-adv-x="1553" d="M501 1456l275 -1053l274 1053h384v-1456h-295v394l27 607l-291 -1001h-200l-291 1001l27 -607v-394h-294v1456h384z" />
<glyph unicode="&#x39d;" horiz-adv-x="1254" d="M1135 0h-294l-430 955v-955h-294v1456h294l431 -956v956h293v-1456z" />
<glyph unicode="&#x39e;" horiz-adv-x="1022" d="M96 244h841v-244h-841v244zM195 852h646v-234h-646v234zM118 1456h782v-245h-782v245z" />
<glyph unicode="&#x39f;" horiz-adv-x="1236" d="M1142 597q0 -293 -138.5 -455t-384.5 -162q-245 0 -385 160.5t-142 449.5v249q0 300 139 468.5t386 168.5q243 0 383 -165.5t142 -464.5v-249zM847 841q0 197 -56 293t-174 96q-117 0 -173 -92.5t-58 -281.5v-259q0 -191 57 -281.5t176 -90.5q115 0 171 88.5t57 274.5 v253z" />
<glyph unicode="&#x3a0;" horiz-adv-x="1259" d="M1139 0h-294v1211h-432v-1211h-294v1456h1020v-1456z" />
<glyph unicode="&#x3a1;" horiz-adv-x="1165" d="M411 512v-512h-294v1456h496q216 0 344.5 -134t128.5 -348t-127 -338t-352 -124h-196zM411 757h202q84 0 130 55t46 160q0 109 -47 173.5t-126 65.5h-205v-454z" />
<glyph unicode="&#x3a3;" horiz-adv-x="1022" d="M746 727l-288 -484h500v-243h-875v151l350 584l-350 570v151h861v-245h-482l284 -469v-15z" />
<glyph unicode="&#x3a4;" horiz-adv-x="1112" d="M1060 1211h-360v-1211h-295v1211h-354v245h1009v-245z" />
<glyph unicode="&#x3a5;" horiz-adv-x="1111" d="M556 802l219 654h320l-390 -928v-528h-298v528l-391 928h320z" />
<glyph unicode="&#x3a6;" horiz-adv-x="1385" d="M847 1287q137 -7 245 -79t167.5 -199.5t59.5 -289.5q0 -157 -59.5 -281.5t-167.5 -195t-245 -77.5v-165h-293v164q-138 5 -246.5 74.5t-169.5 194.5t-61 284q0 162 60 290.5t169.5 201.5t247.5 78v169h293v-169zM366 717q0 -136 51.5 -208t136.5 -80v595 q-85 -9 -136.5 -85.5t-51.5 -221.5zM1031 719q0 142 -50.5 218t-133.5 86v-594q84 10 134 82.5t50 207.5z" />
<glyph unicode="&#x3a7;" horiz-adv-x="1146" d="M573 956l196 500h337l-342 -722l350 -734h-341l-200 509l-199 -509h-341l350 734l-343 722h337z" />
<glyph unicode="&#x3a8;" horiz-adv-x="1302" d="M801 642q82 26 118.5 113t36.5 240v461h295v-472q-3 -253 -122 -409q-118 -153 -328 -182v-393h-294v391q-216 25 -336.5 179.5t-124.5 408.5v477h294v-481q6 -273 167 -331v812h294v-814z" />
<glyph unicode="&#x3a9;" horiz-adv-x="1205" d="M633 251q66 38 96.5 164.5t31.5 345.5v102q0 182 -44 273.5t-123 91.5q-76 0 -120 -89.5t-45 -267.5v-94q0 -211 26 -336q31 -151 107 -190v-251h-443v247h184q-93 95 -147.5 233.5t-55.5 291.5v89q0 177 62.5 318t176 218.5t255.5 77.5q143 0 257 -78t176 -217t63 -313 v-90q0 -152 -53 -291t-149 -239h180v-247h-435v251z" />
<glyph unicode="&#x2126;" horiz-adv-x="1205" d="M633 251q66 38 96.5 164.5t31.5 345.5v102q0 182 -44 273.5t-123 91.5q-76 0 -120 -89.5t-45 -267.5v-94q0 -211 26 -336q31 -151 107 -190v-251h-443v247h184q-93 95 -147.5 233.5t-55.5 291.5v89q0 177 62.5 318t176 218.5t255.5 77.5q143 0 257 -78t176 -217t63 -313 v-90q0 -152 -53 -291t-149 -239h180v-247h-435v251z" />
<glyph unicode="&#x3aa;" horiz-adv-x="554" d="M424 0h-294v1456h294v-1456zM-109 1678q0 55 40.5 91.5t98.5 36.5t98.5 -36.5t40.5 -91.5q0 -54 -40.5 -90.5t-98.5 -36.5t-98.5 36.5t-40.5 90.5zM380 1678q0 54 40.5 90.5t98.5 36.5t98.5 -36.5t40.5 -90.5q0 -52 -38.5 -89.5t-100.5 -37.5t-100.5 37.5t-38.5 89.5z " />
<glyph unicode="&#x3ab;" horiz-adv-x="1111" d="M556 802l219 654h320l-390 -928v-528h-298v528l-391 928h320zM173 1675q0 55 40.5 91.5t98.5 36.5t98.5 -36.5t40.5 -91.5q0 -54 -40.5 -90.5t-98.5 -36.5t-98.5 36.5t-40.5 90.5zM662 1675q0 54 40.5 90.5t98.5 36.5t98.5 -36.5t40.5 -90.5q0 -52 -38.5 -89.5 t-100.5 -37.5t-100.5 37.5t-38.5 89.5z" />
<glyph unicode="&#x3ac;" horiz-adv-x="1010" d="M899 1082v-745q2 -118 52 -118q7 0 11 4l23 -220q-48 -24 -114 -24q-155 0 -217 152q-81 -151 -224 -151q-164 0 -260.5 142t-96.5 412q0 263 96 415.5t262 152.5q127 0 206 -128l17 108h245zM357 513q0 -153 36.5 -226t110.5 -73q73 0 113 67v510q-40 76 -112 76 q-73 0 -110.5 -84t-37.5 -270zM506 1601h264l-165 -345h-173z" />
<glyph unicode="&#x3ad;" horiz-adv-x="1000" d="M96 306q0 184 173 251q-72 36 -114.5 96.5t-42.5 132.5q0 147 113 231t305 84q171 0 280 -93t109 -238h-283q0 54 -33.5 82.5t-87.5 28.5q-56 0 -88.5 -34t-32.5 -85t32.5 -81.5t89.5 -30.5h160v-194h-159q-138 0 -138 -128q0 -55 36.5 -92t98.5 -37t99.5 33.5t37.5 87.5 h282q0 -155 -113 -247.5t-290 -92.5q-193 0 -313.5 90t-120.5 236zM484 1601h264l-165 -345h-173z" />
<glyph unicode="&#x3ae;" horiz-adv-x="1017" d="M363 1082l10 -123q99 143 251 143q291 0 291 -412v-1105h-284v1119q-3 163 -114 163q-83 0 -134 -76v-791h-284v1082h264zM472 1601h264l-165 -345h-173z" />
<glyph unicode="&#x3af;" horiz-adv-x="640" d="M413 1082l-1 -742q0 -61 17.5 -86.5t67.5 -25.5q39 0 68 8l-2 -221q-71 -26 -158 -26q-273 0 -275 316v777h283zM254 1580h264l-165 -345h-173z" />
<glyph unicode="&#x3b0;" horiz-adv-x="986" d="M388 1082v-657q0 -211 81 -211q67 0 114 103t47 249q-4 240 -83 516h267q98 -222 98 -516q0 -278 -113 -432.5t-321 -154.5q-182 0 -276.5 112t-95.5 321v670h282zM467 1748h250l-149 -333h-139zM106 1360q0 54 37 91t93 37q57 0 94 -37t37 -91q0 -53 -37 -90t-94 -37 q-56 0 -93 37t-37 90zM653 1360q0 55 38 91t92 36q56 0 93 -37t37 -90q0 -51 -36 -89t-94 -38q-57 0 -93.5 36.5t-36.5 90.5z" />
<glyph unicode="&#x3b1;" horiz-adv-x="1010" d="M899 1082v-745q2 -118 52 -118q7 0 11 4l23 -220q-48 -24 -114 -24q-155 0 -217 152q-81 -151 -224 -151q-164 0 -260.5 142t-96.5 412q0 263 96 415.5t262 152.5q127 0 206 -128l17 108h245zM357 513q0 -153 36.5 -226t110.5 -73q73 0 113 67v510q-40 76 -112 76 q-73 0 -110.5 -84t-37.5 -270z" />
<glyph unicode="&#x3b2;" horiz-adv-x="1079" d="M554 1476q192 0 299.5 -106t107.5 -288q0 -100 -44 -182t-122 -131q102 -43 157 -134t55 -222q0 -204 -99 -318.5t-275 -114.5q-120 0 -220 63v-449h-282v1434q0 197 120.5 322.5t302.5 125.5zM678 1059q0 77 -33.5 129.5t-90.5 52.5q-64 0 -102.5 -58t-38.5 -153v-771 q61 -44 154 -44q72 0 114.5 58t42.5 145q0 227 -155 227h-67v213h57q119 6 119 201z" />
<glyph unicode="&#x3b3;" horiz-adv-x="930" d="M469 408l137 674h295l-296 -1068v-431h-282v442l-294 1057h296z" />
<glyph unicode="&#x3b4;" horiz-adv-x="1017" d="M178 1249q0 152 93.5 237.5t260.5 85.5q78 0 146 -22l66 -22l3 -224q-110 47 -189 47q-112 0 -112 -95q0 -46 26 -77t78 -58q382 -158 401 -533l1 -63q0 -246 -119.5 -395.5t-318.5 -149.5q-200 0 -320 145t-120 405q0 161 72.5 286.5t182.5 158.5l-3 6 q-148 102 -148 268zM356 538q0 -151 41.5 -237.5t116.5 -86.5q74 0 114.5 84.5t40.5 259.5q0 113 -42.5 204t-115.5 111q-74 0 -114.5 -85.5t-40.5 -249.5z" />
<glyph unicode="&#x3b5;" horiz-adv-x="1000" d="M96 306q0 184 173 251q-72 36 -114.5 96.5t-42.5 132.5q0 147 113 231t305 84q171 0 280 -93t109 -238h-283q0 54 -33.5 82.5t-87.5 28.5q-56 0 -88.5 -34t-32.5 -85t32.5 -81.5t89.5 -30.5h160v-194h-159q-138 0 -138 -128q0 -55 36.5 -92t98.5 -37t99.5 33.5t37.5 87.5 h282q0 -155 -113 -247.5t-290 -92.5q-193 0 -313.5 90t-120.5 236z" />
<glyph unicode="&#x3b6;" horiz-adv-x="912" d="M846 1456v-166l-330 -490l-40 -65q-85 -148 -85 -308q0 -76 22 -120.5t83 -72.5l141 -51q102 -40 142 -94.5t39 -137.5q0 -79 -61.5 -177t-147.5 -163l-142 113q73 85 70 167q4 63 -65 90l-92 30q-144 49 -207.5 138t-63.5 233q0 143 50.5 276.5t185.5 327.5l164 236 h-420v234h757z" />
<glyph unicode="&#x3b7;" horiz-adv-x="1017" d="M363 1082l10 -123q99 143 251 143q291 0 291 -412v-1105h-284v1119q-3 163 -114 163q-83 0 -134 -76v-791h-284v1082h264z" />
<glyph unicode="&#x3b8;" horiz-adv-x="1060" d="M953 607q0 -300 -110.5 -463.5t-311.5 -163.5q-202 0 -313 164.5t-111 462.5v244q0 300 111 462.5t312 162.5q195 0 307 -156t116 -447v-266zM669 619h-279v-51q0 -353 141 -353q126 0 137 295zM390 845h279v47q0 169 -34.5 259t-104.5 90q-128 0 -139 -295z" />
<glyph unicode="&#x3b9;" horiz-adv-x="640" d="M413 1082l-1 -742q0 -61 17.5 -86.5t67.5 -25.5q39 0 68 8l-2 -221q-71 -26 -158 -26q-273 0 -275 316v777h283z" />
<glyph unicode="&#x3ba;" horiz-adv-x="1077" d="M486 397h-81v-397h-283v1082h283v-406h58l201 406h357l-304 -506l311 -576h-363z" />
<glyph unicode="&#x3bb;" horiz-adv-x="984" d="M268 1547q172 0 231 -173l357 -1047q30 -106 76 -109h30v-230q-30 -6 -101 -6q-107 0 -169.5 58t-97.5 165l-126 415l-146 -620h-305l312 1055l-61 166q-27 89 -98 89h-24l-28 -2l-4 217q66 22 154 22z" />
<glyph unicode="&#x3bc;" horiz-adv-x="1125" d="M414 1082v-623q0 -127 28.5 -184.5t102.5 -57.5q100 0 144 86v779h284v-1082h-264l-4 51q-70 -72 -168 -72q-71 0 -123 34v-429h-282v1498h282z" />
<glyph unicode="&#x3bd;" horiz-adv-x="920" d="M458 400l137 682h295l-297 -1082h-270l-298 1082h296z" />
<glyph unicode="&#x3be;" horiz-adv-x="967" d="M795 1198l-77 23q-52 14 -104 14q-82 0 -120 -38t-38 -101q0 -146 169 -146h124v-244h-127q-124 -1 -181.5 -63t-57.5 -184q0 -85 41 -141.5t132 -88.5l110 -31q130 -39 181.5 -97.5t51.5 -153.5q0 -79 -61.5 -178t-146.5 -162l-146 113q73 81 73 168q0 63 -85 97 l-162 59q-152 60 -211 149.5t-59 254.5q0 282 257 379q-185 79 -185 264q0 178 110.5 281.5t297.5 103.5q118 0 198 -27l61 -23z" />
<glyph unicode="&#x3bf;" horiz-adv-x="1019" d="M70 576q0 246 116 386t321 140q207 0 323 -140t116 -388v-69q0 -247 -115 -386t-322 -139q-208 0 -323.5 139.5t-115.5 387.5v69zM354 505q0 -290 155 -290q143 0 154 242l1 119q0 148 -41 219.5t-116 71.5q-72 0 -112.5 -71.5t-40.5 -219.5v-71z" />
<glyph unicode="&#x3c0;" horiz-adv-x="1166" d="M1097 860h-138v-520q0 -65 18.5 -88.5t66.5 -23.5q38 0 67 8l-1 -221q-71 -26 -158 -26q-271 0 -276 309v562h-185v-860h-283v860h-145v222h1034v-222z" />
<glyph unicode="&#x3c1;" horiz-adv-x="1017" d="M532 1102q194 0 304 -152.5t110 -436.5q0 -246 -94.5 -389.5t-259.5 -143.5q-126 0 -205 100v-496h-283v986q0 247 118 389.5t310 142.5zM387 283q42 -69 129 -69q145 0 148 286v34q0 164 -37.5 248.5t-109.5 84.5q-61 0 -95.5 -84.5t-34.5 -237.5v-262z" />
<glyph unicode="&#x3c2;" horiz-adv-x="918" d="M490 1102q176 0 278.5 -113.5t102.5 -310.5h-264q0 189 -117 189q-132 0 -143 -261l-1 -80q0 -127 40 -192.5t142 -103.5q131 -44 175.5 -75t68 -75t26.5 -113q0 -81 -62 -180.5t-145 -160.5l-146 114q74 89 72 168q0 70 -75 96q-198 61 -286.5 180t-92.5 321v49 q0 248 114.5 398t312.5 150z" />
<glyph unicode="&#x3c3;" horiz-adv-x="1033" d="M991 846h-211q146 -141 146 -357q0 -231 -114 -370t-305 -139q-200 0 -318 148.5t-118 407.5v15q0 241 116.5 386t317.5 145l1 -1v1h485v-236zM354 530q0 -316 153 -316q124 0 135 258l1 79q0 153 -34.5 224t-103.5 71q-145 0 -151 -274v-42z" />
<glyph unicode="&#x3c4;" horiz-adv-x="942" d="M889 849h-285v-519q0 -65 15 -89t46 -24q34 0 80 16l29 -221q-70 -32 -169 -32q-137 0 -211 89t-74 265v515h-269v233h838v-233z" />
<glyph unicode="&#x3c5;" horiz-adv-x="986" d="M388 1082v-657q0 -211 81 -211q67 0 114 103t47 249q-4 240 -83 516h267q98 -222 98 -516q0 -278 -113 -432.5t-321 -154.5q-182 0 -276.5 112t-95.5 321v670h282z" />
<glyph unicode="&#x3c6;" horiz-adv-x="1351" d="M526 -10q-231 36 -353 192.5t-122 413.5q0 150 48 283.5t134 217.5l197 -155q-43 -61 -68.5 -152t-27.5 -194q0 -291 192 -359v561q0 133 79.5 216t198.5 83q145 0 253.5 -69.5t168.5 -194.5t60 -274q0 -245 -124 -392t-354 -179v-466h-282v468zM808 232q194 59 194 327 q-2 142 -44.5 222.5t-117.5 80.5q-32 0 -32 -34v-596z" />
<glyph unicode="&#x3c7;" horiz-adv-x="927" d="M465 761l126 321h300l-247 -529l256 -553h-301l-133 339l-132 -339h-302l256 553l-245 529h301z" />
<glyph unicode="&#x3c8;" horiz-adv-x="1347" d="M806 1082v-846q194 70 194 360q-3 214 -84 486h260q107 -214 107 -486q0 -264 -124 -420t-353 -188v-466h-283v469q-229 37 -344 188.5t-115 408.5v494h284v-501q2 -272 175 -343v844h283z" />
<glyph unicode="&#x3c9;" horiz-adv-x="1451" d="M473 1082q-104 -261 -112 -516q0 -352 106 -352q111 0 111 296v336h298v-337q0 -295 111 -295q52 0 79 90t27 262q-8 255 -112 516h268q126 -223 126 -516q0 -299 -95.5 -442.5t-282.5 -143.5q-184 0 -270 200q-86 -200 -270 -200q-188 0 -283 144t-95 442q0 293 126 516 h268z" />
<glyph unicode="&#x3ca;" horiz-adv-x="640" d="M413 1082l-1 -742q0 -61 17.5 -86.5t67.5 -25.5q39 0 68 8l-2 -221q-71 -26 -158 -26q-273 0 -275 316v777h283zM-98 1344q0 55 40.5 91.5t98.5 36.5t98.5 -36.5t40.5 -91.5q0 -54 -40.5 -90.5t-98.5 -36.5t-98.5 36.5t-40.5 90.5zM391 1344q0 54 40.5 90.5t98.5 36.5 t98.5 -36.5t40.5 -90.5q0 -52 -38.5 -89.5t-100.5 -37.5t-100.5 37.5t-38.5 89.5z" />
<glyph unicode="&#x3cb;" horiz-adv-x="986" d="M388 1082v-657q0 -211 81 -211q67 0 114 103t47 249q-4 240 -83 516h267q98 -222 98 -516q0 -278 -113 -432.5t-321 -154.5q-182 0 -276.5 112t-95.5 321v670h282zM117 1360q0 55 40.5 91.5t98.5 36.5t98.5 -36.5t40.5 -91.5q0 -54 -40.5 -90.5t-98.5 -36.5t-98.5 36.5 t-40.5 90.5zM606 1360q0 54 40.5 90.5t98.5 36.5t98.5 -36.5t40.5 -90.5q0 -52 -38.5 -89.5t-100.5 -37.5t-100.5 37.5t-38.5 89.5z" />
<glyph unicode="&#x3cc;" horiz-adv-x="1019" d="M70 576q0 246 116 386t321 140q207 0 323 -140t116 -388v-69q0 -247 -115 -386t-322 -139q-208 0 -323.5 139.5t-115.5 387.5v69zM354 505q0 -290 155 -290q143 0 154 242l1 119q0 148 -41 219.5t-116 71.5q-72 0 -112.5 -71.5t-40.5 -219.5v-71zM472 1601h264l-165 -345 h-173z" />
<glyph unicode="&#x3cd;" horiz-adv-x="986" d="M388 1082v-657q0 -211 81 -211q67 0 114 103t47 249q-4 240 -83 516h267q98 -222 98 -516q0 -278 -113 -432.5t-321 -154.5q-182 0 -276.5 112t-95.5 321v670h282zM469 1596h264l-165 -345h-173z" />
<glyph unicode="&#x3ce;" horiz-adv-x="1451" d="M473 1082q-104 -261 -112 -516q0 -352 106 -352q111 0 111 296v336h298v-337q0 -295 111 -295q52 0 79 90t27 262q-8 255 -112 516h268q126 -223 126 -516q0 -299 -95.5 -442.5t-282.5 -143.5q-184 0 -270 200q-86 -200 -270 -200q-188 0 -283 144t-95 442q0 293 126 516 h268zM687 1596h264l-165 -345h-173z" />
<glyph unicode="&#x3d1;" horiz-adv-x="1074" d="M1048 576l-82 -25v-89q0 -217 -117.5 -349.5t-312.5 -132.5q-185 0 -303.5 134t-118.5 351v237h268v-241q0 -106 45.5 -171.5t123.5 -65.5q54 0 86 62.5t32 171.5v93q-164 48 -265.5 183t-102.5 314v26q0 184 94 293t250 109q148 0 234.5 -112t86.5 -313v-245l74 16z M569 1065q0 -152 100 -229v260q-1 121 -40 121q-57 0 -60 -116v-36z" />
<glyph unicode="&#x3d2;" horiz-adv-x="1076" d="M539 805l140 432q41 131 105.5 188.5t158.5 57.5q61 0 130 -26l-35 -232q-4 4 -43 4q-55 0 -66 -70l-245 -669v-490h-296v488l-242 671q-11 70 -66 70q-42 0 -45 -4l-32 232q69 26 130 26q98 0 159.5 -53t100.5 -166z" />
<glyph unicode="&#x3d6;" horiz-adv-x="1478" d="M1455 875h-104q42 -143 42 -309q0 -299 -93 -442.5t-275 -143.5q-198 0 -285 207q-89 -207 -285 -207q-183 0 -275.5 144t-92.5 442q0 162 41 309h-95v207h1422v-207zM1110 566q-4 148 -44 309h-652q-40 -161 -44 -309q0 -352 94 -352q128 0 128 291v187h298v-184 q0 -294 125 -294q95 0 95 352z" />
<glyph unicode="&#x400;" horiz-adv-x="1005" d="M869 630h-458v-386h542v-244h-836v1456h834v-245h-540v-344h458v-237zM700 1539h-239l-276 310h317z" />
<glyph unicode="&#x401;" horiz-adv-x="1005" d="M869 630h-458v-386h542v-244h-836v1456h834v-245h-540v-344h458v-237zM171 1678q0 55 40.5 91.5t98.5 36.5t98.5 -36.5t40.5 -91.5q0 -54 -40.5 -90.5t-98.5 -36.5t-98.5 36.5t-40.5 90.5zM660 1678q0 54 40.5 90.5t98.5 36.5t98.5 -36.5t40.5 -90.5q0 -52 -38.5 -89.5 t-100.5 -37.5t-100.5 37.5t-38.5 89.5z" />
<glyph unicode="&#x402;" horiz-adv-x="1329" d="M996 1211h-374v-341q102 25 182 25q221 0 342.5 -117.5t121.5 -334.5q0 -213 -126 -337t-358 -124v229q172 0 187 152l3 62q0 106 -48 165t-137 59q-86 0 -167 -17v-632h-295v1211h-290v245h959v-245z" />
<glyph unicode="&#x403;" horiz-adv-x="1001" d="M937 1211h-523v-1211h-294v1456h817v-245zM594 1849h318l-278 -310h-236z" />
<glyph unicode="&#x404;" horiz-adv-x="1178" d="M1105 485q-13 -232 -146 -368.5t-357 -136.5q-242 0 -380.5 187.5t-138.5 517.5v87q0 211 64 371.5t183 246.5t275 86q220 0 351 -136t151 -380h-295q-7 147 -55.5 209t-151.5 62q-108 0 -163 -93t-64 -287h342v-244h-342q6 -197 59.5 -291t164.5 -94q107 0 154.5 66.5 t53.5 196.5h295z" />
<glyph unicode="&#x405;" horiz-adv-x="1106" d="M732 382q0 89 -45.5 134.5t-165.5 94.5q-219 83 -315 194.5t-96 263.5q0 184 130.5 295.5t331.5 111.5q134 0 239 -56.5t161.5 -159.5t56.5 -234h-293q0 102 -43.5 155.5t-125.5 53.5q-77 0 -120 -45.5t-43 -122.5q0 -60 48 -108.5t170 -100.5q213 -77 309.5 -189 t96.5 -285q0 -190 -121 -297t-329 -107q-141 0 -257 58t-181.5 166t-65.5 255h295q0 -126 49 -183t160 -57q154 0 154 163z" />
<glyph unicode="&#x406;" horiz-adv-x="554" d="M424 0h-294v1456h294v-1456z" />
<glyph unicode="&#x407;" horiz-adv-x="554" d="M424 0h-294v1456h294v-1456zM-109 1678q0 55 40.5 91.5t98.5 36.5t98.5 -36.5t40.5 -91.5q0 -54 -40.5 -90.5t-98.5 -36.5t-98.5 36.5t-40.5 90.5zM380 1678q0 54 40.5 90.5t98.5 36.5t98.5 -36.5t40.5 -90.5q0 -52 -38.5 -89.5t-100.5 -37.5t-100.5 37.5t-38.5 89.5z " />
<glyph unicode="&#x408;" horiz-adv-x="1004" d="M596 1456h294v-1008q0 -212 -118 -340t-304 -128q-200 0 -311 119t-111 331h295q0 -206 127 -206q128 0 128 238v994z" />
<glyph unicode="&#x409;" horiz-adv-x="1864" d="M1151 963h179q139 0 248.5 -61.5t168.5 -171t59 -248.5q0 -211 -129 -345t-341 -137h-480v1211h-286l-20 -516q-12 -255 -57.5 -404.5t-133 -219.5t-235.5 -71h-73v244l35 3q91 11 130.5 115t50.5 350l21 744h863v-493zM1151 719v-475h177q81 0 132.5 66.5t51.5 173.5 q0 103 -50.5 168.5t-131.5 66.5h-179z" />
<glyph unicode="&#x40a;" horiz-adv-x="1854" d="M414 843h430v613h295v-501h171q223 0 353.5 -133.5t130.5 -343.5q0 -208 -127.5 -341t-338.5 -137h-484v599h-430v-599h-294v1456h294v-613zM1139 711v-466h178q82 0 133 66t51 169q0 98 -49.5 164t-132.5 67h-180z" />
<glyph unicode="&#x40b;" horiz-adv-x="1357" d="M977 1211h-369v-292q89 13 147 13q240 0 365.5 -122.5t128.5 -350.5v-459h-295v456q-1 127 -46 179.5t-153 52.5q-56 0 -147 -13v-675h-296v1211h-267v245h932v-245z" />
<glyph unicode="&#x40c;" horiz-adv-x="1133" d="M527 562l-116 -146v-416h-294v1456h294v-635l93 157l271 478h360l-417 -640l424 -816h-349zM577 1846h318l-278 -310h-236z" />
<glyph unicode="&#x40d;" horiz-adv-x="1241" d="M830 1456h294v-1456h-294v964l-429 -964h-295v1456h295v-965zM760 1539h-239l-276 310h317z" />
<glyph unicode="&#x40e;" horiz-adv-x="1128" d="M577 809l196 647h316l-399 -1170q-68 -174 -146.5 -239t-188.5 -68h-32l-70 4l-5 244q10 -4 65 -4q56 0 84.5 25t49.5 112l14 53l-416 1043h315zM934 1840q0 -133 -95.5 -215t-251.5 -82q-157 0 -252.5 82t-95.5 215h207q0 -62 37.5 -96.5t103.5 -34.5q65 0 102 34.5 t37 96.5h208z" />
<glyph unicode="&#x40f;" horiz-adv-x="1246" d="M104 1456h294v-1212h431v1212h296v-1456h-350v-360h-296v360h-375v1456z" />
<glyph unicode="&#x410;" horiz-adv-x="1223" d="M812 298h-401l-78 -298h-311l455 1456h269l458 -1456h-314zM475 543h272l-136 519z" />
<glyph unicode="&#x411;" horiz-adv-x="1118" d="M933 1211h-522v-278h174q221 0 352 -125.5t131 -335.5q0 -209 -128 -338.5t-339 -133.5h-485v1456h817v-245zM411 689v-445h178q86 0 135.5 64.5t49.5 165.5q0 95 -48.5 154.5t-134.5 60.5h-180z" />
<glyph unicode="&#x412;" horiz-adv-x="1149" d="M117 0v1456h450q228 0 346.5 -101.5t118.5 -297.5q0 -111 -49 -191t-134 -117q98 -28 151 -112.5t53 -208.5q0 -212 -116.5 -320t-337.5 -108h-482zM411 633v-389h188q79 0 120 49t41 139q0 196 -142 201h-207zM411 847h153q173 0 173 179q0 99 -40 142t-130 43h-156 v-364z" />
<glyph unicode="&#x413;" horiz-adv-x="1001" d="M937 1211h-523v-1211h-294v1456h817v-245z" />
<glyph unicode="&#x414;" horiz-adv-x="1343" d="M1283 -358h-270v358h-689v-357h-278l-16 601h97q64 59 101 190t52 343l41 679h837v-1212h151zM443 244h422v967h-264l-24 -401q-25 -361 -134 -566z" />
<glyph unicode="&#x415;" horiz-adv-x="1005" d="M869 630h-458v-386h542v-244h-836v1456h834v-245h-540v-344h458v-237z" />
<glyph unicode="&#x416;" horiz-adv-x="1809" d="M1205 591h-139v-591h-294v591h-144l-229 -591h-366l367 798l-351 658h366l237 -585h120v585h294v-585h116l229 585h365l-343 -655l359 -801h-366z" />
<glyph unicode="&#x417;" horiz-adv-x="1109" d="M700 1055q0 80 -44.5 128t-120.5 48q-67 0 -109.5 -46.5t-42.5 -123.5h-294q0 121 58.5 215.5t161.5 146.5t226 52q217 0 338.5 -108.5t121.5 -305.5q0 -100 -50.5 -182.5t-138.5 -130.5q100 -42 154 -127.5t54 -212.5q0 -197 -131 -312t-348 -115q-132 0 -238.5 51 t-166 146t-59.5 226h295q0 -75 47 -128t122 -53q84 0 134 53t50 137q0 113 -43 162t-125 49h-149v237h150q148 1 148 194z" />
<glyph unicode="&#x418;" horiz-adv-x="1241" d="M830 1456h294v-1456h-294v964l-429 -964h-295v1456h295v-965z" />
<glyph unicode="&#x419;" horiz-adv-x="1241" d="M830 1456h294v-1456h-294v964l-429 -964h-295v1456h295v-965zM964 1840q0 -133 -95.5 -215t-251.5 -82q-157 0 -252.5 82t-95.5 215h207q0 -62 37.5 -96.5t103.5 -34.5q65 0 102 34.5t37 96.5h208z" />
<glyph unicode="&#x41a;" horiz-adv-x="1155" d="M541 594h-128v-594h-294v1456h294v-582h99l253 582h358l-356 -678l396 -778h-350z" />
<glyph unicode="&#x41b;" horiz-adv-x="1258" d="M1138 1456v-1456h-295v1211h-270l-20 -516q-12 -255 -57.5 -404.5t-133 -219.5t-235.5 -71h-72v244l34 3q92 11 132.5 120.5t50.5 387.5l19 701h847z" />
<glyph unicode="&#x41c;" horiz-adv-x="1553" d="M501 1456l275 -1053l274 1053h384v-1456h-295v394l27 607l-291 -1001h-200l-291 1001l27 -607v-394h-294v1456h384z" />
<glyph unicode="&#x41d;" horiz-adv-x="1257" d="M1138 0h-293v623h-434v-623h-294v1456h294v-589h434v589h293v-1456z" />
<glyph unicode="&#x41e;" horiz-adv-x="1236" d="M1142 597q0 -293 -138.5 -455t-384.5 -162q-245 0 -385 160.5t-142 449.5v249q0 300 139 468.5t386 168.5q243 0 383 -165.5t142 -464.5v-249zM847 841q0 197 -56 293t-174 96q-117 0 -173 -92.5t-58 -281.5v-259q0 -191 57 -281.5t176 -90.5q115 0 171 88.5t57 274.5 v253z" />
<glyph unicode="&#x41f;" horiz-adv-x="1259" d="M1139 0h-294v1211h-432v-1211h-294v1456h1020v-1456z" />
<glyph unicode="&#x420;" horiz-adv-x="1165" d="M411 512v-512h-294v1456h496q216 0 344.5 -134t128.5 -348t-127 -338t-352 -124h-196zM411 757h202q84 0 130 55t46 160q0 109 -47 173.5t-126 65.5h-205v-454z" />
<glyph unicode="&#x421;" horiz-adv-x="1168" d="M1104 485q-11 -249 -140 -377t-364 -128q-247 0 -378.5 162.5t-131.5 463.5v245q0 300 136 462.5t378 162.5q238 0 361.5 -133t140.5 -382h-295q-4 154 -47.5 212.5t-159.5 58.5q-118 0 -167 -82.5t-52 -271.5v-275q0 -217 48.5 -298t166.5 -81q116 0 160 56.5t50 204.5 h294z" />
<glyph unicode="&#x422;" horiz-adv-x="1112" d="M1060 1211h-360v-1211h-295v1211h-354v245h1009v-245z" />
<glyph unicode="&#x423;" horiz-adv-x="1128" d="M577 809l196 647h316l-399 -1170q-68 -174 -146.5 -239t-188.5 -68h-32l-70 4l-5 244q10 -4 65 -4q56 0 84.5 25t49.5 112l14 53l-416 1043h315z" />
<glyph unicode="&#x424;" horiz-adv-x="1481" d="M886 1326q147 0 266.5 -76t185.5 -214.5t66 -315.5q0 -173 -65.5 -308.5t-185 -210.5t-267.5 -75v-186h-282v186q-152 0 -271 73.5t-185 210t-66 308.5q0 177 66 316t185 215.5t271 76.5v190h282v-190zM601 1075q-116 0 -179 -95.5t-63 -261.5q0 -158 63 -249t182 -91 v697h-3zM1127 720q0 170 -63.5 262.5t-177.5 92.5v-697q114 0 177.5 90.5t63.5 251.5z" />
<glyph unicode="&#x425;" horiz-adv-x="1146" d="M573 956l196 500h337l-342 -722l350 -734h-341l-200 509l-199 -509h-341l350 734l-343 722h337z" />
<glyph unicode="&#x426;" horiz-adv-x="1367" d="M106 1456h294v-1212h431v1212h295v-1213h179l-20 -594h-274v351h-905v1456z" />
<glyph unicode="&#x427;" horiz-adv-x="1252" d="M1133 1456v-1456h-294v549q-117 -26 -220 -26q-238 0 -363 120t-130 346v467h295v-451q0 -128 43.5 -183t154.5 -55q107 0 220 26v663h294z" />
<glyph unicode="&#x428;" horiz-adv-x="1705" d="M412 1456v-1212h296v1212h294v-1212h292v1212h294v-1456h-1471v1456h295z" />
<glyph unicode="&#x429;" horiz-adv-x="1834" d="M412 1456v-1212h296v1212h294v-1212h292v1212h294v-1222h172l-20 -584h-262v350h-1361v1456h295z" />
<glyph unicode="&#x42a;" horiz-adv-x="1360" d="M52 1456h603v-523h173q222 0 352 -126t130 -335q0 -208 -127 -338t-339 -134h-485v1221h-307v235zM655 689v-445h177q85 0 134.5 64.5t49.5 165.5q0 95 -48.5 154.5t-133.5 60.5h-179z" />
<glyph unicode="&#x42b;" horiz-adv-x="1561" d="M415 933h174q221 0 352 -125.5t131 -335.5q0 -209 -128 -338.5t-339 -133.5h-485v1456h295v-523zM1442 0h-294v1456h294v-1456zM415 689v-445h178q86 0 135.5 64.5t49.5 165.5q0 95 -48.5 154.5t-134.5 60.5h-180z" />
<glyph unicode="&#x42c;" horiz-adv-x="1125" d="M411 933h174q221 0 352 -125.5t131 -335.5q0 -209 -128 -338.5t-339 -133.5h-485v1456h295v-523zM411 689v-445h178q86 0 135.5 64.5t49.5 165.5q0 95 -48.5 154.5t-134.5 60.5h-180z" />
<glyph unicode="&#x42d;" horiz-adv-x="1158" d="M353 485q7 -130 54.5 -196.5t155.5 -66.5q115 0 165.5 96.5t57.5 286.5h-355v245h354q-8 193 -64 287t-162 94q-103 0 -151.5 -62t-55.5 -209h-295q20 244 151 380t351 136q238 0 380 -191t142 -520v-86q0 -324 -138.5 -511.5t-379.5 -187.5q-225 0 -358 136.5 t-146 368.5h294z" />
<glyph unicode="&#x42e;" horiz-adv-x="1672" d="M1584 597q0 -293 -138.5 -455t-384.5 -162q-242 0 -381.5 156t-145.5 442h-117v-578h-294v1456h294v-642h117v27q0 197 62.5 340.5t181.5 219t281 75.5q243 0 383 -165.5t142 -464.5v-249zM1289 841q0 197 -56 293t-174 96q-117 0 -173 -92.5t-58 -281.5v-259 q0 -191 57 -281.5t176 -90.5q115 0 171 88.5t57 274.5v253z" />
<glyph unicode="&#x42f;" horiz-adv-x="1068" d="M660 0v524h-154l-215 -524h-317l258 630q-180 125 -180 376q0 216 121.5 333t344.5 117h437v-1456h-295zM347 983q0 -121 43 -175.5t134 -54.5h136v458h-146q-167 0 -167 -228z" />
<glyph unicode="&#x430;" horiz-adv-x="964" d="M617 0q-12 25 -24 84q-76 -104 -206 -104q-136 0 -225.5 90t-89.5 233q0 170 108.5 263t312.5 95h86v87q0 73 -25 103t-73 30q-106 0 -106 -124h-283q0 150 112.5 247.5t284.5 97.5q178 0 275.5 -92.5t97.5 -264.5v-509q2 -140 40 -219v-17h-285zM450 202q47 0 80 19 t49 45v225h-68q-72 0 -113.5 -46t-41.5 -123q0 -120 94 -120z" />
<glyph unicode="&#x431;" horiz-adv-x="1027" d="M578 1022q175 0 277.5 -137.5t102.5 -374.5v-15q0 -236 -117 -376t-318 -140q-202 0 -318.5 152t-116.5 417v45q2 362 104 571.5t307 262.5q98 30 126 57.5t28 73.5h226q0 -160 -72 -238.5t-257 -119.5q-103 -26 -159 -98.5t-75 -200.5q113 121 262 121zM522 787 q-145 0 -150 -255v-37q0 -149 38.5 -215t112.5 -66q147 0 152 261v41q0 271 -153 271z" />
<glyph unicode="&#x432;" horiz-adv-x="1019" d="M121 0v1082h393q189 0 290.5 -78t101.5 -224q0 -75 -43.5 -134.5t-126.5 -91.5q101 -21 159.5 -84.5t58.5 -160.5q0 -309 -389 -309h-444zM403 448v-215h169q55 0 77 27t22 79q0 60 -24 84t-69 25h-175zM403 643h115q57 0 80.5 24.5t23.5 72.5q0 105 -98 109h-121v-206z " />
<glyph unicode="&#x433;" horiz-adv-x="759" d="M736 846h-351v-846h-283v1082h634v-236z" />
<glyph unicode="&#x434;" horiz-adv-x="1157" d="M125 235q70 80 100 161t35 227l8 459h705v-847h143v-560h-283v325h-499v-325h-290v560h81zM439 235h252v606h-144l-1 -107q-3 -310 -107 -499z" />
<glyph unicode="&#x435;" d="M540 -20q-218 0 -340 130t-122 372v86q0 256 112 395t321 139q204 0 307 -130.5t105 -386.5v-139h-563q6 -120 53 -175.5t145 -55.5q142 0 237 97l111 -171q-52 -72 -151 -116.5t-215 -44.5zM362 644h283v26q-2 97 -32 147t-104 50t-107.5 -53t-39.5 -170z" />
<glyph unicode="&#x436;" horiz-adv-x="1542" d="M1013 400h-97v-400h-282v400h-96l-143 -400h-339l265 583l-272 499h350l155 -403h80v403h282v-403h80l157 403h350l-268 -492l267 -590h-347z" />
<glyph unicode="&#x437;" horiz-adv-x="927" d="M563 762q0 119 -90 119q-49 0 -77 -28.5t-28 -82.5h-283q0 147 104 239t269 92q181 0 284 -82.5t103 -232.5q0 -72 -37 -132.5t-103 -96.5q156 -66 156 -251q0 -148 -110 -237t-294 -89q-171 0 -278.5 92.5t-107.5 247.5h283q0 -57 32 -89t87 -32q52 0 79 34.5t27 94.5 q0 127 -99 131h-141v188h134q90 1 90 115z" />
<glyph unicode="&#x438;" horiz-adv-x="1023" d="M638 1082h282v-1082h-282v665l-252 -665h-284v1082h284v-664z" />
<glyph unicode="&#x439;" horiz-adv-x="1023" d="M638 1082h282v-1082h-282v665l-252 -665h-284v1082h284v-664zM865 1522q0 -133 -95.5 -215t-251.5 -82q-157 0 -252.5 82t-95.5 215h207q0 -62 37.5 -96.5t103.5 -34.5q65 0 102 34.5t37 96.5h208z" />
<glyph unicode="&#x43a;" horiz-adv-x="1032" d="M479 397h-74v-397h-282v1082h282v-406h70l164 406h355l-285 -499l307 -583h-375z" />
<glyph unicode="&#x43b;" horiz-adv-x="1024" d="M921 1082v-1082h-283v846h-168l-16 -334q-15 -260 -93 -384.5t-232 -127.5h-92l-3 236l32 4q57 8 84 83t35 246l19 513h717z" />
<glyph unicode="&#x43c;" horiz-adv-x="1360" d="M670 344l203 738h355v-1082h-283v579l-180 -579h-189l-173 560v-560h-282v1082h349z" />
<glyph unicode="&#x43d;" horiz-adv-x="1022" d="M918 0h-283v415h-249v-415h-284v1082h284v-433h249v433h283v-1082z" />
<glyph unicode="&#x43e;" horiz-adv-x="1019" d="M70 576q0 246 116 386t321 140q207 0 323 -140t116 -388v-69q0 -247 -115 -386t-322 -139q-208 0 -323.5 139.5t-115.5 387.5v69zM354 505q0 -290 155 -290q143 0 154 242l1 119q0 148 -41 219.5t-116 71.5q-72 0 -112.5 -71.5t-40.5 -219.5v-71z" />
<glyph unicode="&#x43f;" horiz-adv-x="1023" d="M920 0h-283v846h-251v-846h-284v1082h818v-1082z" />
<glyph unicode="&#x440;" horiz-adv-x="1014" d="M946 507q0 -255 -87.5 -391t-260.5 -136q-132 0 -212 107v-503h-283v1498h262l10 -99q81 119 221 119q173 0 260.5 -126t89.5 -386v-83zM664 578q0 157 -34.5 222t-116.5 65q-87 0 -127 -73v-507q38 -70 129 -70q84 0 116.5 71t32.5 221v71z" />
<glyph unicode="&#x441;" horiz-adv-x="942" d="M494 215q123 0 125 160h266q-2 -177 -109 -286t-276 -109q-209 0 -319 130t-112 383v86q0 255 108.5 389t320.5 134q179 0 282 -110.5t105 -313.5h-266q-1 91 -30 140t-96 49q-74 0 -106 -52.5t-34 -203.5v-110q0 -132 13 -184.5t43 -77t85 -24.5z" />
<glyph unicode="&#x442;" horiz-adv-x="930" d="M882 849h-278v-849h-283v849h-276v233h837v-233z" />
<glyph unicode="&#x443;" horiz-adv-x="914" d="M450 471l144 611h302l-356 -1244q-80 -275 -301 -275q-51 0 -116 19v221l33 -1q66 0 99.5 25.5t50.5 88.5l22 73l-312 1093h304z" />
<glyph unicode="&#x444;" horiz-adv-x="1300" d="M68 534q0 262 89.5 415t248.5 153q50 0 99 -19v453h283v-454q48 20 104 20q158 0 248.5 -151.5t90.5 -437.5q0 -249 -91 -391t-246 -142q-58 0 -106 20v-416h-283v414q-45 -18 -100 -18q-155 0 -246 141t-91 413zM948 534q0 166 -34 249.5t-98 83.5l-28 -2v-649l30 -2 q65 0 97.5 73.5t32.5 246.5zM351 513q0 -151 30.5 -223.5t93.5 -74.5h18l12 1v649l-24 2q-118 0 -129 -273z" />
<glyph unicode="&#x445;" horiz-adv-x="927" d="M465 761l126 321h300l-247 -529l256 -553h-301l-133 339l-132 -339h-302l256 553l-245 529h301z" />
<glyph unicode="&#x446;" horiz-adv-x="1109" d="M102 1082h284v-847h251v847h283v-849h148l-20 -554h-262v321h-684v1082z" />
<glyph unicode="&#x447;" horiz-adv-x="1003" d="M902 0h-284v334q-50 -10 -97 -10q-214 0 -323.5 106.5t-109.5 308.5v343h284v-344q0 -99 32.5 -139t116.5 -40q44 0 97 11v512h284v-1082z" />
<glyph unicode="&#x448;" horiz-adv-x="1480" d="M386 1082v-847h203v847h284v-847h205v847h283v-1082h-1259v1082h284z" />
<glyph unicode="&#x449;" horiz-adv-x="1632" d="M383 1082v-847h203v847h284v-847h205v847h283v-849h200l-20 -554h-262v321h-1177v1082h284z" />
<glyph unicode="&#x44a;" horiz-adv-x="1176" d="M580 767h144q192 0 301 -105t109 -281q0 -172 -110.5 -276.5t-298.5 -104.5h-428v846h-250v236h533v-315zM580 532v-299h148q57 0 90 38t33 109q0 152 -130 152h-141z" />
<glyph unicode="&#x44b;" horiz-adv-x="1500" d="M404 767h145q191 0 300.5 -105t109.5 -281q0 -172 -110.5 -276.5t-300.5 -104.5h-427v1082h283v-315zM1365 0h-283v1082h283v-1082zM404 532v-299h148q59 0 92 39t33 108q0 152 -133 152h-140z" />
<glyph unicode="&#x44c;" horiz-adv-x="1010" d="M404 767h145q191 0 300.5 -105t109.5 -281q0 -172 -110.5 -276.5t-300.5 -104.5h-427v1082h283v-315zM404 532v-299h148q59 0 92 39t33 108q0 152 -133 152h-140z" />
<glyph unicode="&#x44d;" horiz-adv-x="930" d="M443 867q-59 0 -87 -43.5t-28 -116.5h-266q0 170 108.5 282.5t272.5 112.5q196 0 312 -148.5t116 -409.5v-18q0 -250 -116 -398t-312 -148q-175 0 -278 115.5t-103 307.5h266q0 -91 31.5 -140t83.5 -49q128 0 143 242h-197v177h196q-14 234 -142 234z" />
<glyph unicode="&#x44e;" horiz-adv-x="1437" d="M408 668h94q27 200 140.5 317t288.5 117q201 0 320 -149.5t119 -422.5q0 -251 -118 -400.5t-319 -149.5q-181 0 -295.5 122t-137.5 331h-92v-433h-283v1082h283v-414zM778 530q0 -315 155 -315q140 0 153 264l1 72q0 158 -40 237t-116 79q-139 0 -152 -268z" />
<glyph unicode="&#x44f;" horiz-adv-x="1010" d="M886 1082v-1082h-281v373h-105l-176 -373h-285l201 427q-82 45 -126.5 120.5t-44.5 171.5q0 161 110.5 262t298.5 101h408zM352 710q0 -57 34.5 -95.5t88.5 -38.5h130v273h-131q-53 0 -87.5 -40.5t-34.5 -98.5z" />
<glyph unicode="&#x450;" d="M540 -20q-218 0 -340 130t-122 372v86q0 256 112 395t321 139q204 0 307 -130.5t105 -386.5v-139h-563q6 -120 53 -175.5t145 -55.5q142 0 237 97l111 -171q-52 -72 -151 -116.5t-215 -44.5zM362 644h283v26q-2 97 -32 147t-104 50t-107.5 -53t-39.5 -170zM617 1226h-239 l-276 310h317z" />
<glyph unicode="&#x451;" d="M540 -20q-218 0 -340 130t-122 372v86q0 256 112 395t321 139q204 0 307 -130.5t105 -386.5v-139h-563q6 -120 53 -175.5t145 -55.5q142 0 237 97l111 -171q-52 -72 -151 -116.5t-215 -44.5zM362 644h283v26q-2 97 -32 147t-104 50t-107.5 -53t-39.5 -170zM89 1365 q0 55 40.5 91.5t98.5 36.5t98.5 -36.5t40.5 -91.5q0 -54 -40.5 -90.5t-98.5 -36.5t-98.5 36.5t-40.5 90.5zM578 1365q0 54 40.5 90.5t98.5 36.5t98.5 -36.5t40.5 -90.5q0 -52 -38.5 -89.5t-100.5 -37.5t-100.5 37.5t-38.5 89.5z" />
<glyph unicode="&#x452;" horiz-adv-x="1008" d="M579 1189h-200v-202q92 115 226 115q148 0 225 -104t78 -310v-721q0 -194 -89 -299t-247 -105q-67 0 -123 17l12 231q43 -13 80 -13q83 0 83 176v709q0 98 -29.5 140t-95.5 42q-77 0 -120 -71v-794h-283v1189h-124v183h124v164h283v-164h200v-183z" />
<glyph unicode="&#x453;" horiz-adv-x="759" d="M736 846h-351v-846h-283v1082h634v-236zM435 1531h318l-278 -310h-236z" />
<glyph unicode="&#x454;" horiz-adv-x="930" d="M489 215q60 0 92.5 43t33.5 117h265q0 -168 -109 -281.5t-276 -113.5q-201 0 -315.5 147.5t-114.5 407.5v19q0 255 115 401.5t314 146.5q176 0 281 -116t105 -308h-265q-2 90 -35 139.5t-91 49.5q-64 0 -99.5 -56.5t-40.5 -193.5h210v-178h-209q8 -123 42 -173.5 t97 -50.5z" />
<glyph unicode="&#x455;" horiz-adv-x="930" d="M582 290q0 36 -34.5 66.5t-153.5 82.5q-175 71 -240.5 147t-65.5 189q0 142 102.5 234.5t271.5 92.5q178 0 285 -92t107 -247h-283q0 132 -110 132q-45 0 -74 -28t-29 -78q0 -36 32 -63.5t151 -78.5q173 -64 244.5 -142.5t71.5 -203.5q0 -145 -109 -233t-286 -88 q-119 0 -210 46.5t-142.5 129.5t-51.5 179h269q2 -74 34.5 -111t106.5 -37q114 0 114 103z" />
<glyph unicode="&#x456;" horiz-adv-x="516" d="M400 0h-284v1082h284v-1082zM103 1362q0 66 42 108t112 42t112 -42t42 -108q0 -65 -41.5 -108t-112.5 -43t-112.5 43t-41.5 108z" />
<glyph unicode="&#x457;" horiz-adv-x="537" d="M407 0h-283v1082h283v-1082zM-116 1350q0 55 40.5 91.5t98.5 36.5t98.5 -36.5t40.5 -91.5q0 -54 -40.5 -90.5t-98.5 -36.5t-98.5 36.5t-40.5 90.5zM373 1350q0 54 40.5 90.5t98.5 36.5t98.5 -36.5t40.5 -90.5q0 -52 -38.5 -89.5t-100.5 -37.5t-100.5 37.5t-38.5 89.5z " />
<glyph unicode="&#x458;" horiz-adv-x="503" d="M401 1082v-1140q0 -185 -85 -282t-241 -97q-66 0 -128 17l-1 231q47 -9 75 -9q94 0 96 132v1148h284zM98 1362q0 66 42 108t112 42t112 -42t42 -108q0 -65 -41.5 -108t-112.5 -43t-112.5 43t-41.5 108z" />
<glyph unicode="&#x459;" horiz-adv-x="1517" d="M912 1082v-340h145q188 0 298.5 -101t110.5 -269q0 -167 -109.5 -269.5t-300.5 -102.5h-428v846h-158l-16 -334q-15 -263 -93 -386t-232 -126h-91l-3 236l32 4q57 8 84 83t35 246l19 513h707zM912 508v-275h148q59 0 91.5 38.5t32.5 102.5q0 134 -133 134h-139z" />
<glyph unicode="&#x45a;" horiz-adv-x="1522" d="M386 664h249v418h283v-340h145q188 0 298.5 -101t110.5 -269q0 -167 -109.5 -269.5t-300.5 -102.5h-427v430h-249v-430h-284v1082h284v-418zM918 508v-275h148q59 0 91.5 38.5t32.5 102.5q0 134 -133 134h-139z" />
<glyph unicode="&#x45b;" horiz-adv-x="1017" d="M593 1201h-214v-214q92 115 226 115q148 0 225 -104t78 -310v-688h-284v685q0 95 -29.5 137.5t-95.5 42.5q-77 0 -120 -71v-794h-283v1201h-110v183h110v152h283v-152h214v-183z" />
<glyph unicode="&#x45c;" horiz-adv-x="1032" d="M479 397h-74v-397h-282v1082h282v-406h70l164 406h355l-285 -499l307 -583h-375zM571 1531h318l-278 -310h-236z" />
<glyph unicode="&#x45d;" horiz-adv-x="1023" d="M638 1082h282v-1082h-282v665l-252 -665h-284v1082h284v-664zM661 1221h-239l-276 310h317z" />
<glyph unicode="&#x45e;" horiz-adv-x="914" d="M450 471l144 611h302l-356 -1244q-80 -275 -301 -275q-51 0 -116 19v221l33 -1q66 0 99.5 25.5t50.5 88.5l22 73l-312 1093h304zM806 1527q0 -133 -95.5 -215t-251.5 -82q-157 0 -252.5 82t-95.5 215h207q0 -62 37.5 -96.5t103.5 -34.5q65 0 102 34.5t37 96.5h208z" />
<glyph unicode="&#x45f;" horiz-adv-x="1023" d="M386 1082v-847h251v847h283v-1082h-268v-359h-282v359h-268v1082h284z" />
<glyph unicode="&#x460;" horiz-adv-x="1689" d="M1572 1456v-991q0 -149 -54.5 -260t-154 -168.5t-228.5 -57.5q-192 0 -295 149q-105 -149 -294 -149q-197 0 -316 127.5t-122 349.5v1000h296v-986q0 -247 142 -247q143 0 147 230v1003h296v-989q0 -128 39.5 -186t106.5 -58q139 0 143 230v1003h294z" />
<glyph unicode="&#x461;" horiz-adv-x="1437" d="M1374 1082v-645q-3 -215 -105 -336.5t-280 -121.5q-166 0 -255 131q-95 -131 -262 -131q-176 0 -278 123t-105 334v646h285v-658q4 -210 98 -210q118 0 122 215v653h284v-634q0 -123 26.5 -178.5t84.5 -55.5q98 0 102 211v657h283z" />
<glyph unicode="&#x462;" horiz-adv-x="1125" d="M580 1088h-169v-155h174q221 0 352 -125.5t131 -335.5q0 -209 -128 -338.5t-339 -133.5h-485v1088h-143v183h143v185h295v-185h169v-183zM411 689v-445h178q86 0 135.5 64.5t49.5 165.5q0 95 -48.5 154.5t-134.5 60.5h-180z" />
<glyph unicode="&#x463;" horiz-adv-x="1010" d="M607 1082h-203v-290h144q191 0 300.5 -108t109.5 -287q0 -180 -110 -288.5t-301 -108.5h-427v1082h-122v184h122v295h284v-295h203v-184zM404 557v-324h148q59 0 91.5 43.5t32.5 120.5q0 73 -32 116t-89 44h-151z" />
<glyph unicode="&#x464;" horiz-adv-x="1576" d="M399 860h124q18 284 157 450.5t361 166.5q223 0 354 -137t148 -378h-293q-7 145 -56 206t-153 61q-106 0 -159 -90t-61 -279h342v-235h-343q4 -210 55.5 -303.5t162.5 -93.5q104 0 153 61t57 197h294q-13 -237 -148.5 -371t-355.5 -134q-232 0 -368.5 173.5t-148.5 470.5 h-122v-625h-293v1456h293v-596z" />
<glyph unicode="&#x465;" horiz-adv-x="1342" d="M391 634h84q20 223 132 345.5t293 122.5q178 0 282 -116.5t104 -307.5h-264q-2 90 -35 139.5t-92 49.5q-65 0 -99 -56.5t-39 -176.5h242v-183h-243q5 -128 39.5 -182t100.5 -54q60 0 92.5 43t33.5 117h264q0 -112 -50 -202.5t-139 -141.5t-196 -51q-183 0 -295.5 124.5 t-130.5 346.5h-84v-451h-284v1082h284v-448z" />
<glyph unicode="&#x466;" horiz-adv-x="1200" d="M761 418h-38v-418h-242v418h-32l-112 -418h-308l426 1456h305l423 -1456h-309zM506 628h199l-100 370z" />
<glyph unicode="&#x467;" horiz-adv-x="1015" d="M625 268h-38v-268h-182v268h-28l-68 -268h-288l334 1082h292l335 -1082h-287zM426 457h150l-54 208l-22 106l-21 -106z" />
<glyph unicode="&#x468;" horiz-adv-x="1672" d="M419 626h254l242 830h305l424 -1456h-308l-113 418h-40v-418h-242v418h-31l-112 -418h-308l122 419h-193v-419h-295v1456h295v-830zM967 628h200l-100 370z" />
<glyph unicode="&#x469;" horiz-adv-x="1431" d="M394 456h186l194 626h292l334 -1082h-288l-69 268h-38v-268h-182v268h-28l-68 -268h-288l83 269h-128v-269h-283v1082h283v-626zM844 457h150l-54 208l-21 106l-22 -106z" />
<glyph unicode="&#x46a;" horiz-adv-x="1571" d="M1050 798q211 -13 313.5 -123t105.5 -326v-349h-293v337q0 114 -41 164.5t-136 51.5h-53v-553h-294v553h-74q-98 0 -139.5 -48.5t-43.5 -158.5v-346h-293v349q3 225 115 336t339 115l-313 656h1121zM804 890l134 318h-268z" />
<glyph unicode="&#x46b;" horiz-adv-x="1319" d="M103 0v192q2 193 83 295.5t248 121.5l-228 473h922l-229 -474q160 -23 236 -125.5t80 -281.5v-201h-282v192q-1 106 -31 152.5t-97 46.5v-391h-283v391h-5q-72 0 -101 -45t-31 -148v-198h-282zM667 671l82 219h-165z" />
<glyph unicode="&#x46c;" horiz-adv-x="2083" d="M615 0v343q1 128 37 222h-227v-565h-295v1456h295v-653h643l-311 653h1121l-314 -658q214 -13 316 -126.5t103 -330.5v-341h-294v337q0 114 -41 165t-140 51h-48v-553h-294v553h-75q-98 0 -139 -48.5t-43 -157.5v-347h-294zM1318 891l134 317h-268z" />
<glyph unicode="&#x46d;" horiz-adv-x="1814" d="M597 0v182q0 130 34 217h-224v-399h-283v1082h283v-468h519l-226 468h922l-228 -475q159 -23 236.5 -125t80.5 -285v-197h-284v192q-1 106 -31 152.5t-97 46.5v-391h-282v391h-6q-71 0 -100 -45t-31 -148v-198h-283zM1161 671l83 219h-166z" />
<glyph unicode="&#x46e;" horiz-adv-x="924" d="M480 1048q0 165 -164 165h-203v243h203q218 0 333 -98t115 -282q0 -238 -193 -329q113 -43 173.5 -128.5t60.5 -210.5q0 -198 -109.5 -312t-302.5 -117h-57q-78 -2 -78 -94q0 -98 115 -155l-79 -178q-142 34 -216.5 128.5t-76.5 246.5q0 139 82 217t238 78h46 q72 0 113.5 49t41.5 133q0 219 -205 219h-119v244h124q158 0 158 181zM414 1786l116 142h240v-11l-268 -281h-175l-268 283v9h240z" />
<glyph unicode="&#x46f;" horiz-adv-x="914" d="M478 757q0 113 -152 113h-209v212h223q206 -2 313.5 -79t107.5 -218q0 -170 -152 -244q193 -68 193 -237q0 -152 -105 -238.5t-289 -86.5h-42q-93 -2 -93 -94q0 -98 99 -155l-80 -162q-119 42 -190 137t-73 222q0 124 73.5 192.5t208.5 70.5h55q75 0 114 35.5t39 89.5 q0 132 -173 132h-135v180h145q122 0 122 130zM422 1398l116 142h240v-11l-268 -281h-176l-267 282v10h239z" />
<glyph unicode="&#x470;" horiz-adv-x="1302" d="M801 642q82 26 118.5 113t36.5 240v461h295v-472q-3 -253 -122 -409q-118 -153 -328 -182v-393h-294v391q-216 25 -336.5 179.5t-124.5 408.5v477h294v-481q6 -273 167 -331v812h294v-814z" />
<glyph unicode="&#x471;" horiz-adv-x="1347" d="M806 1082v-846q194 70 194 360q-3 214 -84 486h260q107 -214 107 -486q0 -264 -124 -420t-353 -188v-466h-283v469q-229 37 -344 188.5t-115 408.5v494h284v-501q2 -272 175 -343v844h283z" />
<glyph unicode="&#x472;" horiz-adv-x="1231" d="M1155 695q0 -214 -65.5 -376t-187.5 -250.5t-279 -88.5q-155 0 -277 87t-189 248t-68 371v73q0 215 66.5 378.5t188 251t277.5 87.5t277.5 -87t189 -251t67.5 -377v-66zM856 640h-469q8 -201 69 -306.5t167 -105.5t165.5 105.5t67.5 306.5zM621 1226q-106 0 -166 -102.5 t-68 -300.5h468q-8 198 -68.5 300.5t-165.5 102.5z" />
<glyph unicode="&#x473;" horiz-adv-x="1012" d="M70 551q0 252 119 401.5t317 149.5q199 0 319 -149t120 -410v-13q0 -251 -118 -400.5t-319 -149.5q-192 0 -309 136.5t-128 370.5zM506 867q-132 0 -151 -238h303q-19 238 -152 238zM508 215q132 0 150 231h-303q18 -231 153 -231z" />
<glyph unicode="&#x474;" horiz-adv-x="1160" d="M573 395l14 -72l163 797q52 190 129 272t197 82l39 -1l-3 -254h-31q-61 -4 -75 -114l-267 -1105h-304l-410 1456h311z" />
<glyph unicode="&#x475;" horiz-adv-x="927" d="M450 342l65 424q43 162 118.5 249t195.5 87q56 0 90 -18l-22 -231q-6 4 -39 4t-57.5 -30.5t-30.5 -74.5l-183 -752h-271l-287 1082h296l113 -661z" />
<glyph unicode="&#x476;" horiz-adv-x="1160" d="M573 395l14 -72l163 797q52 190 129 272t197 82l39 -1l-3 -254h-31q-61 -4 -75 -114l-267 -1105h-304l-410 1456h311zM550 1547h-229l-243 266h273zM856 1547h-225l-205 266h270z" />
<glyph unicode="&#x477;" horiz-adv-x="927" d="M450 342l65 424q43 162 118.5 249t195.5 87q56 0 90 -18l-22 -231q-6 4 -39 4t-57.5 -30.5t-30.5 -74.5l-183 -752h-271l-287 1082h296l113 -661zM467 1241h-229l-243 266h273zM773 1241h-225l-205 266h270z" />
<glyph unicode="&#x478;" horiz-adv-x="2150" d="M1142 597q0 -293 -138.5 -455t-384.5 -162q-245 0 -385 160.5t-142 449.5v249q0 300 139 468.5t386 168.5q243 0 383 -165.5t142 -464.5v-249zM847 841q0 197 -56 293t-174 96q-117 0 -173 -92.5t-58 -281.5v-259q0 -191 57 -281.5t176 -90.5q115 0 171 88.5t57 274.5 v253zM1686 471l144 611h302l-356 -1244q-80 -275 -301 -275q-51 0 -116 19v221l33 -1q66 0 99.5 25.5t50.5 88.5l22 73l-312 1093h304z" />
<glyph unicode="&#x479;" horiz-adv-x="1933" d="M70 576q0 246 116 386t321 140q207 0 323 -140t116 -388v-69q0 -247 -115 -386t-322 -139q-208 0 -323.5 139.5t-115.5 387.5v69zM354 505q0 -290 155 -290q143 0 154 242l1 119q0 148 -41 219.5t-116 71.5q-72 0 -112.5 -71.5t-40.5 -219.5v-71zM1469 471l144 611h302 l-356 -1244q-80 -275 -301 -275q-51 0 -116 19v221l33 -1q66 0 99.5 25.5t50.5 88.5l22 73l-312 1093h304z" />
<glyph unicode="&#x47a;" horiz-adv-x="1231" d="M1155 695q0 -294 -120.5 -483t-323.5 -224v-123h-188v125q-198 39 -315.5 227t-118.5 475v67q0 288 116.5 477t315.5 230v109h188v-107q207 -38 326 -228t120 -478v-67zM857 761q0 179 -38 290t-110 152v-92h-188v85q-131 -90 -135 -417v-84q0 -171 35.5 -281.5 t101.5 -155.5v80h188v-87q133 79 145 386z" />
<glyph unicode="&#x47b;" horiz-adv-x="1017" d="M71 551q0 226 97.5 372t264.5 173v107h156v-108q166 -31 261.5 -175.5t95.5 -389.5q0 -225 -97 -371t-265 -173v-109h-157v110q-166 29 -261 174.5t-95 373.5v16zM584 240q77 63 79 279v32q0 215 -74 285v-84h-156v89q-76 -66 -79 -275v-36q0 -219 73 -285v97h157v-102z " />
<glyph unicode="&#x47c;" horiz-adv-x="1690" d="M1118 1456q195 0 313.5 -128t123.5 -350v-505q0 -231 -119.5 -362.5t-317.5 -131.5q-183 0 -286 137q-103 -137 -286 -137q-195 0 -314 127t-124 349v505q0 230 119 363t319 133v-245q-142 0 -142 -255v-483q0 -250 142 -250q141 0 147 224v368h278v-368q6 -224 147 -224 q64 0 103 59.5t39 190.5v487q0 131 -38.5 191t-103.5 60v245zM1210 1708v-134h-18q-74 0 -144.5 22t-194.5 78q-44 20 -76 20q-31 0 -52.5 -24t-21.5 -96h-123v34q0 220 193 220q47 0 94.5 -19t99 -42t107.5 -41t136 -18zM713 1335q55 82 57 143v103h160v-102 q0 -52 -43.5 -111.5t-94.5 -89.5z" />
<glyph unicode="&#x47d;" horiz-adv-x="1425" d="M915 1099q185 0 295 -124.5t110 -342.5v-189q0 -214 -101 -339t-274 -125q-150 0 -234 134q-84 -134 -233 -134q-171 0 -272 121.5t-103 334.5v199q0 216 110 340.5t295 124.5v-235q-122 0 -122 -236v-185q0 -120 25 -174.5t67 -54.5q96 0 99 221v172h269v-182 q5 -211 99 -211q92 0 92 236v184q0 120 -33.5 175t-88.5 55v235zM1099 1370v-134h-20q-74 0 -141 20.5t-193 77.5q-49 22 -81 22q-30 0 -51.5 -23.5t-21.5 -96.5h-124v33q0 221 195 221q47 0 93.5 -19t96.5 -41.5t106 -41t141 -18.5zM611 1004q55 82 57 143v103h160v-102 q0 -52 -43.5 -111.5t-94.5 -89.5z" />
<glyph unicode="&#x47e;" horiz-adv-x="1689" d="M1572 1456v-991q0 -149 -54.5 -260t-154 -168.5t-228.5 -57.5q-192 0 -295 149q-105 -149 -294 -149q-197 0 -316 127.5t-122 349.5v1000h296v-986q0 -247 142 -247q143 0 147 230v1003h296v-989q0 -128 39.5 -186t106.5 -58q139 0 143 230v1003h294zM456 1687v134h773 l1 -134h-308v-127h-173v127h-293z" />
<glyph unicode="&#x47f;" horiz-adv-x="1437" d="M1374 1082v-645q-3 -215 -105 -336.5t-280 -121.5q-166 0 -255 131q-95 -131 -262 -131q-176 0 -278 123t-105 334v646h285v-658q4 -210 98 -210q118 0 122 215v653h284v-634q0 -123 26.5 -178.5t84.5 -55.5q98 0 102 211v657h283zM378 1322v135h712l6 -135h-284v-127 h-171v127h-263z" />
<glyph unicode="&#x480;" horiz-adv-x="1108" d="M753 -360h-294v351q-173 38 -273.5 197t-100.5 393v295q0 175 59 312.5t167.5 213t247.5 75.5q226 0 347.5 -129.5t119.5 -377.5h-294q4 137 -35.5 199.5t-137.5 62.5q-85 0 -132.5 -92t-47.5 -264v-298q0 -165 47 -259.5t135 -95.5h192v-583z" />
<glyph unicode="&#x481;" horiz-adv-x="967" d="M697 -364h-284v355q-153 36 -240 178.5t-87 361.5v23q0 248 114.5 398t312.5 150q173 0 277 -114.5t104 -309.5h-265q0 90 -30.5 139.5t-85.5 49.5q-132 0 -143 -261l-1 -80q0 -164 36.5 -238t108.5 -74h183v-578z" />
<glyph unicode="&#x482;" horiz-adv-x="1120" d="M532 449l243 -172l-66 -128l-244 170l-151 -319h-158l189 398l-243 171l65 128l246 -171l164 360l-243 171l66 130l245 -171l150 326h156l-188 -405l246 -171l-69 -127l-242 170z" />
<glyph unicode="&#x483;" horiz-adv-x="0" d="M-592 1312v-126l-168 1l1 238h469l-1 108l169 -1v-220h-470z" />
<glyph unicode="&#x484;" horiz-adv-x="0" d="M-292 1557q201 0 201 -221v-33h-128q0 73 -22 96.5t-54 23.5q-33 0 -76.5 -19t-99.5 -42.5t-115.5 -40.5t-126.5 -18h-29v134q76 0 125.5 13t140 52t121.5 47t63 8z" />
<glyph unicode="&#x485;" horiz-adv-x="0" d="M-495 1500v144h175l-1 -162l47 -108l-75 -68z" />
<glyph unicode="&#x486;" horiz-adv-x="0" d="M-409 1306l-76 68l48 108l-1 162h174v-144z" />
<glyph unicode="&#x488;" horiz-adv-x="0" d="M-738 1267q0 84 57.5 136t152.5 52t153 -52t58 -136h-112q0 46 -25.5 73.5t-73.5 27.5q-46 0 -71.5 -26.5t-25.5 -74.5h-113zM-147 990q0 84 58 136t151 52q95 0 153.5 -51.5t58.5 -136.5h-113q0 49 -26.5 75t-72.5 26q-44 0 -69.5 -26.5t-25.5 -74.5h-114zM39 487 q0 85 58.5 136.5t151.5 51.5q95 0 153 -52t58 -136h-112q0 49 -26.5 75t-72.5 26t-71.5 -27.5t-25.5 -73.5h-113zM-157 -32q0 84 58 136t151 52q95 0 153 -52t58 -136h-112q0 49 -26.5 75t-72.5 26q-45 0 -70.5 -27.5t-25.5 -73.5h-113zM-733 -316q0 84 57.5 136t152.5 52 t153 -52t58 -136h-112q0 46 -25.5 73.5t-73.5 27.5q-46 0 -71.5 -27.5t-25.5 -73.5h-113zM-1311 990q0 84 58 136t153 52t153 -52t58 -136h-112q0 46 -25.5 73.5t-73.5 27.5q-46 0 -71.5 -26.5t-25.5 -74.5h-114zM-1487 487q0 85 58.5 136.5t151.5 51.5q95 0 153 -52 t58 -136h-112q0 49 -26.5 75t-72.5 26t-71.5 -27.5t-25.5 -73.5h-113zM-1321 -32q0 85 58.5 136.5t151.5 51.5q95 0 153.5 -51.5t58.5 -136.5h-113q0 49 -26.5 75t-72.5 26q-45 0 -70.5 -26.5t-25.5 -74.5h-114z" />
<glyph unicode="&#x489;" horiz-adv-x="0" d="M-396 -60l11 -14l-122 -339h-96l70 353h137zM-591 1126l-12 14l122 338h96l-70 -352h-136zM87 631l13 12l333 -124v-98l-346 71v139zM-1077 433l-13 -12l-333 124v98l346 -71v-139zM-153 1002l2 16l321 153l68 -68l-294 -200zM-837 21l-2 -17l-320 -153l-69 69l294 200z M-977 860l-17 2l-148 326l65 69l198 -299zM-15 161l17 -2l149 -325l-66 -71l-197 299z" />
<glyph unicode="&#x48a;" horiz-adv-x="1241" d="M830 1456h294v-1456h-294v964l-429 -964h-295v1456h295v-965zM964 1840q0 -133 -95.5 -215t-251.5 -82q-157 0 -252.5 82t-95.5 215h207q0 -62 37.5 -96.5t103.5 -34.5q65 0 102 34.5t37 96.5h208zM1150 -410l-151 79l38 71q64 118 66 238v225h246l-1 -201 q-1 -106 -54 -220t-144 -192z" />
<glyph unicode="&#x48b;" horiz-adv-x="1023" d="M638 1082h282v-1082h-282v665l-252 -665h-284v1082h284v-664zM865 1522q0 -133 -95.5 -215t-251.5 -82q-157 0 -252.5 82t-95.5 215h207q0 -62 37.5 -96.5t103.5 -34.5q65 0 102 34.5t37 96.5h208zM947 -410l-151 79l38 71q64 118 66 238v225h246l-1 -201 q-1 -106 -54 -220t-144 -192z" />
<glyph unicode="&#x48c;" horiz-adv-x="1125" d="M580 1088h-169v-155h174q221 0 352 -125.5t131 -335.5q0 -209 -128 -338.5t-339 -133.5h-485v1088h-143v183h143v185h295v-185h169v-183zM411 689v-445h178q86 0 135.5 64.5t49.5 165.5q0 95 -48.5 154.5t-134.5 60.5h-180z" />
<glyph unicode="&#x48d;" horiz-adv-x="1010" d="M607 1272h-203v-480h144q191 0 300.5 -108t109.5 -287q0 -180 -110 -288.5t-301 -108.5h-427v1272h-122v184h122v158h284v-158h203v-184zM404 557v-324h148q59 0 91.5 43.5t32.5 120.5q0 73 -32 116t-89 44h-151z" />
<glyph unicode="&#x48e;" horiz-adv-x="1123" d="M412 512v-512h-294v1456h496q216 0 344.5 -134t128.5 -348q0 -209 -121 -332l104 -132l-94 -90l-115 145q-104 -53 -247 -53h-202zM778 879q12 40 12 93q0 109 -47 173.5t-126 65.5h-205v-454h202q49 0 81 16l-109 139l95 90z" />
<glyph unicode="&#x48f;" horiz-adv-x="1010" d="M946 532q0 -261 -102 -411l89 -118l-98 -88l-83 112q-72 -47 -161 -47q-126 0 -205 93v-489h-283v1498h262l8 -85q82 105 216 105q168 0 262.5 -145.5t94.5 -424.5zM664 553q0 154 -38.5 233t-112.5 79q-88 0 -127 -84v-485q38 -81 129 -81q44 0 75 29l-99 135l96 88 l65 -87q12 67 12 173z" />
<glyph unicode="&#x490;" horiz-adv-x="997" d="M945 1221h-13v-10h-522v-1211h-295v1456h548v374h282v-609z" />
<glyph unicode="&#x491;" horiz-adv-x="845" d="M775 846h-392v-846h-284v1082h393v315h283v-551z" />
<glyph unicode="&#x492;" horiz-adv-x="1001" d="M587 661h-173v-661h-294v661h-140v183h140v612h817v-245h-523v-367h173v-183z" />
<glyph unicode="&#x493;" horiz-adv-x="759" d="M569 452h-184v-452h-283v452h-140v183h140v447h634v-236h-351v-211h184v-183z" />
<glyph unicode="&#x494;" horiz-adv-x="1010" d="M937 1211h-523v-374h126q249 0 383 -153t134 -435q0 -179 -57.5 -315t-163.5 -206t-253 -70v223q176 0 190 268l2 85q0 186 -56.5 275.5t-174.5 89.5h-130v-599h-294v1456h817v-245z" />
<glyph unicode="&#x495;" horiz-adv-x="963" d="M734 846h-351v-180h15q237 0 363 -129.5t126 -358.5q2 -143 -85 -274t-228 -190l-119 194q66 44 107.5 108t42.5 162q-4 250 -202 250h-20v-428h-284v1082h635v-236z" />
<glyph unicode="&#x496;" horiz-adv-x="1809" d="M1205 591h-139v-591h-294v591h-144l-229 -591h-366l367 798l-351 658h366l237 -585h120v585h294v-585h116l229 585h365l-343 -655l359 -801h-366zM1922 -357h-283v564h283v-564z" />
<glyph unicode="&#x497;" horiz-adv-x="1542" d="M1013 400h-97v-400h-282v400h-96l-143 -400h-339l265 583l-272 499h350l155 -403h80v403h282v-403h80l157 403h350l-268 -492l267 -590h-347zM1620 -357h-283v564h283v-564z" />
<glyph unicode="&#x498;" horiz-adv-x="1109" d="M700 1055q0 80 -44.5 128t-120.5 48q-67 0 -109.5 -46.5t-42.5 -123.5h-294q0 121 58.5 215.5t161.5 146.5t226 52q217 0 338.5 -108.5t121.5 -305.5q0 -100 -50.5 -182.5t-138.5 -130.5q100 -42 154 -127.5t54 -212.5q0 -197 -131 -312t-348 -115q-132 0 -238.5 51 t-166 146t-59.5 226h295q0 -75 47 -128t122 -53q84 0 134 53t50 137q0 113 -43 162t-125 49h-149v237h150q148 1 148 194zM688 -481h-283v564h283v-564z" />
<glyph unicode="&#x499;" horiz-adv-x="927" d="M563 762q0 119 -90 119q-49 0 -77 -28.5t-28 -82.5h-283q0 147 104 239t269 92q181 0 284 -82.5t103 -232.5q0 -72 -37 -132.5t-103 -96.5q156 -66 156 -251q0 -148 -110 -237t-294 -89q-171 0 -278.5 92.5t-107.5 247.5h283q0 -57 32 -89t87 -32q52 0 79 34.5t27 94.5 q0 127 -99 131h-141v188h134q90 1 90 115zM614 -480h-283v564h283v-564z" />
<glyph unicode="&#x49a;" horiz-adv-x="1155" d="M541 594h-128v-594h-294v1456h294v-582h99l253 582h358l-356 -678l396 -778h-350zM1282 -357h-283v564h283v-564z" />
<glyph unicode="&#x49b;" horiz-adv-x="1032" d="M479 397h-74v-397h-282v1082h282v-406h70l164 406h355l-285 -499l307 -583h-375zM1134 -357h-283v564h283v-564z" />
<glyph unicode="&#x49c;" horiz-adv-x="1201" d="M1187 1456l-311 -647l338 -809h-375l-187 589h-30v-227h-160v227h-51v-589h-295v1456h295v-587h51v257h160v-257h17l183 587h365z" />
<glyph unicode="&#x49d;" horiz-adv-x="1105" d="M1085 1082l-241 -500l247 -582h-360l-107 397h-25v-169h-143v169h-51v-397h-283v1082h283v-406h51v190h143v-190h27l103 406h356z" />
<glyph unicode="&#x49e;" horiz-adv-x="1175" d="M561 594h-128v-594h-294v1098h-168v183h168v175h294v-175h145v-183h-145v-224h99l253 582h358l-356 -678l396 -778h-350z" />
<glyph unicode="&#x49f;" horiz-adv-x="1002" d="M469 446h-61v-446h-284v1207h-198v183h198v146h284v-146h125v-183h-125v-529h59l166 404h325l-268 -490l301 -592h-324z" />
<glyph unicode="&#x4a0;" horiz-adv-x="1470" d="M858 594h-128v-594h-294v1220h-395v236h689v-582h99l253 582h358l-357 -678l396 -778h-349z" />
<glyph unicode="&#x4a1;" horiz-adv-x="1299" d="M762 397h-74v-397h-284v846h-332v236h616v-406h68l165 406h355l-286 -500l309 -582h-376z" />
<glyph unicode="&#x4a2;" horiz-adv-x="1257" d="M1138 0h-293v623h-434v-623h-294v1456h294v-589h434v589h293v-1456zM1349 -357h-283v564h283v-564z" />
<glyph unicode="&#x4a3;" horiz-adv-x="1022" d="M918 0h-283v415h-249v-415h-284v1082h284v-433h249v433h283v-1082zM1131 -357h-283v564h283v-564z" />
<glyph unicode="&#x4a4;" horiz-adv-x="1718" d="M412 867h433v589h786v-235h-492v-1221h-294v623h-433v-623h-294v1456h294v-589z" />
<glyph unicode="&#x4a5;" horiz-adv-x="1245" d="M383 649h249v433h544v-236h-261v-846h-283v415h-249v-415h-284v1082h284v-433z" />
<glyph unicode="&#x4a6;" horiz-adv-x="1848" d="M1142 834h111q249 0 383 -153t134 -435q0 -182 -59.5 -319.5t-165.5 -204.5t-249 -67v223q176 0 190 268l2 85q0 186 -56.5 275.5t-174.5 89.5h-115v-596h-294v1211h-432v-1211h-294v1456h1020v-622z" />
<glyph unicode="&#x4a7;" horiz-adv-x="1540" d="M917 673h59q243 0 375 -128.5t132 -358.5q2 -144 -86.5 -276t-226.5 -188l-119 194q149 99 149 270q-2 250 -223 250h-60v-436h-283v846h-251v-846h-284v1082h818v-409z" />
<glyph unicode="&#x4a8;" horiz-adv-x="1444" d="M1345 -13q-195 0 -350 67q-137 -75 -299 -75q-171 0 -309.5 88t-216 244.5t-77.5 347.5v213q0 170 57.5 309.5t161 217.5t232.5 78l-1 -255q-60 0 -98 -90t-40 -244v-229q0 -192 79.5 -309t211.5 -117l47 3q-171 196 -175 486v206q0 154 46.5 280t131 197t190.5 71 q176 0 288.5 -166.5t112.5 -442.5v-156q0 -274 -140 -473q67 -18 148 -18v-233zM845 732q0 -210 114 -346q80 127 83 313v213q0 162 -24.5 236t-81.5 74q-87 0 -91 -262v-228z" />
<glyph unicode="&#x4a9;" horiz-adv-x="1172" d="M1108 -27q-172 0 -303 52q-107 -46 -227 -46q-215 0 -354.5 154t-139.5 405v89q0 206 105 340.5t272 134.5v-243q-78 -16 -78 -236v-95q0 -126 48 -211t133 -93q-79 130 -79 308v154q0 182 83.5 298.5t213.5 116.5q137 0 224 -129.5t87 -339.5v-141q0 -199 -117 -337 q60 -15 132 -15v-166zM692 516q0 -119 58 -209q59 78 61 194v157q0 86 -16 143.5t-44 57.5q-26 0 -42.5 -54t-16.5 -132v-157z" />
<glyph unicode="&#x4aa;" horiz-adv-x="1168" d="M1104 485q-11 -249 -140 -377t-364 -128q-247 0 -378.5 162.5t-131.5 463.5v245q0 300 136 462.5t378 162.5q238 0 361.5 -133t140.5 -382h-295q-4 154 -47.5 212.5t-159.5 58.5q-118 0 -167 -82.5t-52 -271.5v-275q0 -217 48.5 -298t166.5 -81q116 0 160 56.5t50 204.5 h294zM739 -473h-283v564h283v-564z" />
<glyph unicode="&#x4ab;" horiz-adv-x="942" d="M494 215q123 0 125 160h266q-2 -177 -109 -286t-276 -109q-209 0 -319 130t-112 383v86q0 255 108.5 389t320.5 134q179 0 282 -110.5t105 -313.5h-266q-1 91 -30 140t-96 49q-74 0 -106 -52.5t-34 -203.5v-110q0 -132 13 -184.5t43 -77t85 -24.5zM629 -473h-283v564h283 v-564z" />
<glyph unicode="&#x4ac;" horiz-adv-x="1112" d="M1060 1211h-360v-1211h-295v1211h-354v245h1009v-245zM881 -357h-283v564h283v-564z" />
<glyph unicode="&#x4ad;" horiz-adv-x="930" d="M882 849h-278v-849h-283v849h-276v233h837v-233zM817 -357h-283v564h283v-564z" />
<glyph unicode="&#x4ae;" horiz-adv-x="1111" d="M556 802l219 654h320l-390 -928v-528h-298v528l-391 928h320z" />
<glyph unicode="&#x4af;" horiz-adv-x="930" d="M469 408l137 674h295l-296 -1068v-431h-282v442l-294 1057h296z" />
<glyph unicode="&#x4b0;" horiz-adv-x="1111" d="M870 513h-165v-513h-298v513h-144v183h73l-320 760h320l220 -654l219 654h320l-320 -760h95v-183z" />
<glyph unicode="&#x4b1;" horiz-adv-x="930" d="M778 11h-173v-428h-282v428h-152v183h105l-247 888h296l144 -674l137 674h295l-246 -888h123v-183z" />
<glyph unicode="&#x4b2;" horiz-adv-x="1146" d="M573 956l196 500h337l-342 -722l350 -734h-341l-200 509l-199 -509h-341l350 734l-343 722h337zM1183 -357h-283v564h283v-564z" />
<glyph unicode="&#x4b3;" horiz-adv-x="927" d="M465 761l126 321h300l-247 -529l256 -553h-301l-133 339l-132 -339h-302l256 553l-245 529h301zM959 -357h-283v564h283v-564z" />
<glyph unicode="&#x4b4;" horiz-adv-x="1597" d="M315 1220h-264v236h810v-236h-252v-976h431v1212h296v-1213h178l-20 -594h-274v351h-905v1220z" />
<glyph unicode="&#x4b5;" horiz-adv-x="1238" d="M228 846h-167v236h594v-236h-144v-611h251v847h283v-849h148l-20 -554h-262v321h-683v846z" />
<glyph unicode="&#x4b6;" horiz-adv-x="1252" d="M1133 1456v-1456h-294v549q-117 -26 -220 -26q-238 0 -363 120t-130 346v467h295v-451q0 -128 43.5 -183t154.5 -55q107 0 220 26v663h294zM1340 -357h-283v564h283v-564z" />
<glyph unicode="&#x4b7;" horiz-adv-x="1003" d="M902 0h-284v334q-50 -10 -97 -10q-214 0 -323.5 106.5t-109.5 308.5v343h284v-344q0 -99 32.5 -139t116.5 -40q44 0 97 11v512h284v-1082zM1115 -357h-283v564h283v-564z" />
<glyph unicode="&#x4b8;" horiz-adv-x="1221" d="M392 1456v-450q0 -111 31.5 -165t100.5 -68v286h158v-287q85 11 128 21v663h294v-1456h-294v549q-43 -10 -128 -21v-233h-158v230q-206 17 -314.5 136.5t-111.5 333.5v461h294z" />
<glyph unicode="&#x4b9;" horiz-adv-x="1007" d="M909 0h-283v334l-50 -7v-150h-158v155q-323 52 -323 415v335h284v-342q0 -109 39 -148v237h158v-268l50 10v511h283v-1082z" />
<glyph unicode="&#x4ba;" horiz-adv-x="1261" d="M84 0v1456h294v-550q117 27 220 27q238 0 363 -120t130 -346v-467h-295v451q0 128 -43.5 183t-154.5 55q-107 0 -220 -26v-663h-294z" />
<glyph unicode="&#x4bb;" horiz-adv-x="1008" d="M379 987q92 115 226 115q148 0 225 -104t78 -310v-688h-284v685q0 95 -29.5 137.5t-95.5 42.5q-77 0 -120 -71v-794h-283v1536h283v-549z" />
<glyph unicode="&#x4bc;" horiz-adv-x="1348" d="M836 -23q-270 0 -422 168t-152 470v36q-132 26 -203 140t-71 291h193q0 -157 81 -205q3 169 69.5 306.5t184 215t258.5 76.5q229 0 355 -179t126 -512v-158h-700v-19q0 -182 71.5 -274t209.5 -92q165 0 297 63l45 -250q-43 -31 -141 -54t-201 -23zM774 1209 q-103 0 -161 -94.5t-58 -243.5h406v31q0 307 -187 307z" />
<glyph unicode="&#x4bd;" horiz-adv-x="1072" d="M667 -20q-199 0 -324.5 133.5t-136.5 351.5q-126 30 -191.5 133t-65.5 264h173q0 -150 91 -199q27 203 140.5 321t284.5 118q197 0 304.5 -141t107.5 -395v-120h-560q13 -112 64.5 -171.5t131.5 -59.5q134 0 209 120l136 -160q-51 -90 -148.5 -142.5t-215.5 -52.5z M637 867q-127 0 -145 -223h280v23q-5 200 -135 200z" />
<glyph unicode="&#x4be;" horiz-adv-x="1348" d="M836 -23q-270 0 -422 168t-152 470v36q-132 26 -203 140t-71 291h193q0 -157 81 -205q3 169 69.5 306.5t184 215t258.5 76.5q229 0 355 -179t126 -512v-158h-700v-19q0 -182 71.5 -274t209.5 -92q165 0 297 63l45 -250q-43 -31 -141 -54t-201 -23zM774 1209 q-103 0 -161 -94.5t-58 -243.5h406v31q0 307 -187 307zM962 -471h-283v564h283v-564z" />
<glyph unicode="&#x4bf;" horiz-adv-x="1072" d="M667 -20q-199 0 -324.5 133.5t-136.5 351.5q-126 30 -191.5 133t-65.5 264h173q0 -150 91 -199q27 203 140.5 321t284.5 118q197 0 304.5 -141t107.5 -395v-120h-560q13 -112 64.5 -171.5t131.5 -59.5q134 0 209 120l136 -160q-51 -90 -148.5 -142.5t-215.5 -52.5z M637 867q-127 0 -145 -223h280v23q-5 200 -135 200zM770 -462h-283v564h283v-564z" />
<glyph unicode="&#x4c0;" horiz-adv-x="554" d="M424 0h-294v1456h294v-1456z" />
<glyph unicode="&#x4c1;" horiz-adv-x="1809" d="M1205 591h-139v-591h-294v591h-144l-229 -591h-366l367 798l-351 658h366l237 -585h120v585h294v-585h116l229 585h365l-343 -655l359 -801h-366zM1256 1840q0 -133 -95.5 -215t-251.5 -82q-157 0 -252.5 82t-95.5 215h207q0 -62 37.5 -96.5t103.5 -34.5q65 0 102 34.5 t37 96.5h208z" />
<glyph unicode="&#x4c2;" horiz-adv-x="1542" d="M1013 400h-97v-400h-282v400h-96l-143 -400h-339l265 583l-272 499h350l155 -403h80v403h282v-403h80l157 403h350l-268 -492l267 -590h-347zM1132 1522q0 -133 -95.5 -215t-251.5 -82q-157 0 -252.5 82t-95.5 215h207q0 -62 37.5 -96.5t103.5 -34.5q65 0 102 34.5 t37 96.5h208z" />
<glyph unicode="&#x4c3;" horiz-adv-x="1175" d="M739 822q190 -36 290 -185t100 -392q0 -179 -60 -317.5t-168 -208t-255 -69.5l-1 231q181 0 188 280l1 67q1 184 -54 272t-166 88h-203v-588h-295v1456h295v-584h65l261 584h364z" />
<glyph unicode="&#x4c4;" horiz-adv-x="1043" d="M710 597q134 -51 203.5 -163.5t69.5 -278.5q2 -140 -85 -270.5t-228 -187.5l-120 194q150 95 150 264q-2 228 -195 242h-100v-397h-283v1082h283v-406h58l175 406h356z" />
<glyph unicode="&#x4c5;" horiz-adv-x="1258" d="M1138 1456v-1456h-295v1211h-270l-20 -516q-12 -255 -57.5 -404.5t-133 -219.5t-235.5 -71h-72v244l34 3q92 11 132.5 120.5t50.5 387.5l19 701h847zM1161 -410l-151 79l38 71q64 118 66 238v225h246l-1 -201q-1 -106 -54 -220t-144 -192z" />
<glyph unicode="&#x4c6;" horiz-adv-x="1024" d="M921 1082v-1082h-283v846h-168l-16 -334q-15 -260 -93 -384.5t-232 -127.5h-92l-3 236l32 4q57 8 84 83t35 246l19 513h717zM948 -410l-151 79l38 71q64 118 66 238v225h246l-1 -201q-1 -106 -54 -220t-144 -192z" />
<glyph unicode="&#x4c7;" horiz-adv-x="1260" d="M414 1456v-618h430v618h296v-1479q0 -200 -91 -307t-253 -107q-70 0 -130 17l12 240q42 -12 83 -12q83 0 83 171v615h-430v-594h-294v1456h294z" />
<glyph unicode="&#x4c8;" horiz-adv-x="1017" d="M383 1082v-433h249v433h283v-1122q-2 -191 -90.5 -294t-245.5 -103q-70 0 -126 17l12 231q43 -13 83 -13q84 0 84 178v439h-249v-415h-284v1082h284z" />
<glyph unicode="&#x4c9;" horiz-adv-x="1257" d="M1138 0h-293v623h-434v-623h-294v1456h294v-589h434v589h293v-1456zM1163 -410l-151 79l38 71q64 118 66 238v225h246l-1 -201q-1 -106 -54 -220t-144 -192z" />
<glyph unicode="&#x4ca;" horiz-adv-x="1022" d="M918 0h-283v415h-249v-415h-284v1082h284v-433h249v433h283v-1082zM945 -410l-151 79l38 71q64 118 66 238v225h246l-1 -201q-1 -106 -54 -220t-144 -192z" />
<glyph unicode="&#x4cb;" horiz-adv-x="1252" d="M1133 1456v-1456h-294v549q-117 -26 -220 -26q-238 0 -363 120t-130 346v467h295v-451q0 -128 43.5 -183t154.5 -55q107 0 220 26v663h294zM905 -357h-283v564h283v-564z" />
<glyph unicode="&#x4cc;" horiz-adv-x="1003" d="M902 0h-284v334q-50 -10 -97 -10q-214 0 -323.5 106.5t-109.5 308.5v343h284v-344q0 -99 32.5 -139t116.5 -40q44 0 97 11v512h284v-1082zM679 -357h-283v564h283v-564z" />
<glyph unicode="&#x4cd;" horiz-adv-x="1553" d="M501 1456l275 -1053l274 1053h384v-1456h-295v394l27 607l-291 -1001h-200l-291 1001l27 -607v-394h-294v1456h384zM1455 -410l-151 79l38 71q64 118 66 238v225h246l-1 -201q-1 -106 -54 -220t-144 -192z" />
<glyph unicode="&#x4ce;" horiz-adv-x="1360" d="M670 344l203 738h355v-1082h-283v579l-180 -579h-189l-173 560v-560h-282v1082h349zM1255 -410l-151 79l38 71q64 118 66 238v225h246l-1 -201q-1 -106 -54 -220t-144 -192z" />
<glyph unicode="&#x4cf;" horiz-adv-x="554" d="M424 0h-294v1456h294v-1456z" />
<glyph unicode="&#x4d0;" horiz-adv-x="1223" d="M812 298h-401l-78 -298h-311l455 1456h269l458 -1456h-314zM475 543h272l-136 519zM962 1837q0 -133 -95.5 -215t-251.5 -82q-157 0 -252.5 82t-95.5 215h207q0 -62 37.5 -96.5t103.5 -34.5q65 0 102 34.5t37 96.5h208z" />
<glyph unicode="&#x4d1;" horiz-adv-x="964" d="M617 0q-12 25 -24 84q-76 -104 -206 -104q-136 0 -225.5 90t-89.5 233q0 170 108.5 263t312.5 95h86v87q0 73 -25 103t-73 30q-106 0 -106 -124h-283q0 150 112.5 247.5t284.5 97.5q178 0 275.5 -92.5t97.5 -264.5v-509q2 -140 40 -219v-17h-285zM450 202q47 0 80 19 t49 45v225h-68q-72 0 -113.5 -46t-41.5 -123q0 -120 94 -120zM826 1527q0 -133 -95.5 -215t-251.5 -82q-157 0 -252.5 82t-95.5 215h207q0 -62 37.5 -96.5t103.5 -34.5q65 0 102 34.5t37 96.5h208z" />
<glyph unicode="&#x4d2;" horiz-adv-x="1223" d="M812 298h-401l-78 -298h-311l455 1456h269l458 -1456h-314zM475 543h272l-136 519zM229 1675q0 55 40.5 91.5t98.5 36.5t98.5 -36.5t40.5 -91.5q0 -54 -40.5 -90.5t-98.5 -36.5t-98.5 36.5t-40.5 90.5zM718 1675q0 54 40.5 90.5t98.5 36.5t98.5 -36.5t40.5 -90.5 q0 -52 -38.5 -89.5t-100.5 -37.5t-100.5 37.5t-38.5 89.5z" />
<glyph unicode="&#x4d3;" horiz-adv-x="964" d="M617 0q-12 25 -24 84q-76 -104 -206 -104q-136 0 -225.5 90t-89.5 233q0 170 108.5 263t312.5 95h86v87q0 73 -25 103t-73 30q-106 0 -106 -124h-283q0 150 112.5 247.5t284.5 97.5q178 0 275.5 -92.5t97.5 -264.5v-509q2 -140 40 -219v-17h-285zM450 202q47 0 80 19 t49 45v225h-68q-72 0 -113.5 -46t-41.5 -123q0 -120 94 -120zM93 1365q0 55 40.5 91.5t98.5 36.5t98.5 -36.5t40.5 -91.5q0 -54 -40.5 -90.5t-98.5 -36.5t-98.5 36.5t-40.5 90.5zM582 1365q0 54 40.5 90.5t98.5 36.5t98.5 -36.5t40.5 -90.5q0 -52 -38.5 -89.5t-100.5 -37.5 t-100.5 37.5t-38.5 89.5z" />
<glyph unicode="&#x4d4;" horiz-adv-x="1674" d="M1602 0h-778l-12 333h-333l-132 -333h-332l643 1456h892v-238h-485l13 -352h404v-238h-396l13 -390h503v-238zM577 582h226l-18 524z" />
<glyph unicode="&#x4d5;" horiz-adv-x="1491" d="M1063 -20q-205 0 -324 136q-56 -66 -140 -101t-184 -35q-162 0 -253 89.5t-91 249.5q0 157 105.5 243t313.5 88h125v55q0 76 -29 119t-81 43q-57 0 -89 -36t-32 -87l-282 19q0 150 113 244.5t293 94.5q170 0 270 -94q106 96 265 94q181 0 284 -130t105 -353v-170h-540 q9 -115 60.5 -175t141.5 -60q63 0 116 16t125 61l72 -191q-48 -48 -145 -84t-199 -36zM471 193q72 0 144 67v200h-115q-63 0 -104.5 -40.5t-41.5 -104.5q0 -122 117 -122zM1043 867q-132 0 -150 -223h262v28q0 87 -26.5 141t-85.5 54z" />
<glyph unicode="&#x4d6;" horiz-adv-x="1005" d="M869 630h-458v-386h542v-244h-836v1456h834v-245h-540v-344h458v-237zM904 1840q0 -133 -95.5 -215t-251.5 -82q-157 0 -252.5 82t-95.5 215h207q0 -62 37.5 -96.5t103.5 -34.5q65 0 102 34.5t37 96.5h208z" />
<glyph unicode="&#x4d7;" d="M540 -20q-218 0 -340 130t-122 372v86q0 256 112 395t321 139q204 0 307 -130.5t105 -386.5v-139h-563q6 -120 53 -175.5t145 -55.5q142 0 237 97l111 -171q-52 -72 -151 -116.5t-215 -44.5zM362 644h283v26q-2 97 -32 147t-104 50t-107.5 -53t-39.5 -170zM821 1527 q0 -133 -95.5 -215t-251.5 -82q-157 0 -252.5 82t-95.5 215h207q0 -62 37.5 -96.5t103.5 -34.5q65 0 102 34.5t37 96.5h208z" />
<glyph unicode="&#x4d8;" horiz-adv-x="1231" d="M523 1476q286 0 449 -179.5t163 -505.5v-141q0 -193 -70.5 -347t-195 -239.5t-268.5 -83.5q-253 0 -391 177t-140 500v171h769q-5 189 -85.5 286t-230.5 97q-170 0 -315 -63l-44 250q44 32 146 55t213 23zM601 244q99 0 162 90.5t74 247.5h-474v-31q0 -307 238 -307z" />
<glyph unicode="&#x4d9;" horiz-adv-x="959" d="M452 1103q199 0 320.5 -146t121.5 -393v-30q0 -251 -115 -403t-301 -150q-187 0 -291 128t-104 366v159h525q-12 114 -60 174t-127 60q-64 0 -116.5 -15t-128.5 -62l-75 188q54 54 149.5 89t201.5 35zM478 216q106 0 129 219h-247v-25q0 -194 118 -194z" />
<glyph unicode="&#x4da;" horiz-adv-x="1231" d="M523 1476q286 0 449 -179.5t163 -505.5v-141q0 -193 -70.5 -347t-195 -239.5t-268.5 -83.5q-253 0 -391 177t-140 500v171h769q-5 189 -85.5 286t-230.5 97q-170 0 -315 -63l-44 250q44 32 146 55t213 23zM601 244q99 0 162 90.5t74 247.5h-474v-31q0 -307 238 -307z M180 1631q0 55 40.5 91.5t98.5 36.5t98.5 -36.5t40.5 -91.5q0 -54 -40.5 -90.5t-98.5 -36.5t-98.5 36.5t-40.5 90.5zM669 1631q0 54 40.5 90.5t98.5 36.5t98.5 -36.5t40.5 -90.5q0 -52 -38.5 -89.5t-100.5 -37.5t-100.5 37.5t-38.5 89.5z" />
<glyph unicode="&#x4db;" horiz-adv-x="959" d="M452 1103q199 0 320.5 -146t121.5 -393v-30q0 -251 -115 -403t-301 -150q-187 0 -291 128t-104 366v159h525q-12 114 -60 174t-127 60q-64 0 -116.5 -15t-128.5 -62l-75 188q54 54 149.5 89t201.5 35zM478 216q106 0 129 219h-247v-25q0 -194 118 -194zM91 1366 q0 55 40.5 91.5t98.5 36.5t98.5 -36.5t40.5 -91.5q0 -54 -40.5 -90.5t-98.5 -36.5t-98.5 36.5t-40.5 90.5zM580 1366q0 54 40.5 90.5t98.5 36.5t98.5 -36.5t40.5 -90.5q0 -52 -38.5 -89.5t-100.5 -37.5t-100.5 37.5t-38.5 89.5z" />
<glyph unicode="&#x4dc;" horiz-adv-x="1809" d="M1205 591h-139v-591h-294v591h-144l-229 -591h-366l367 798l-351 658h366l237 -585h120v585h294v-585h116l229 585h365l-343 -655l359 -801h-366zM523 1678q0 55 40.5 91.5t98.5 36.5t98.5 -36.5t40.5 -91.5q0 -54 -40.5 -90.5t-98.5 -36.5t-98.5 36.5t-40.5 90.5z M1012 1678q0 54 40.5 90.5t98.5 36.5t98.5 -36.5t40.5 -90.5q0 -52 -38.5 -89.5t-100.5 -37.5t-100.5 37.5t-38.5 89.5z" />
<glyph unicode="&#x4dd;" horiz-adv-x="1542" d="M1013 400h-97v-400h-282v400h-96l-143 -400h-339l265 583l-272 499h350l155 -403h80v403h282v-403h80l157 403h350l-268 -492l267 -590h-347zM399 1360q0 55 40.5 91.5t98.5 36.5t98.5 -36.5t40.5 -91.5q0 -54 -40.5 -90.5t-98.5 -36.5t-98.5 36.5t-40.5 90.5zM888 1360 q0 54 40.5 90.5t98.5 36.5t98.5 -36.5t40.5 -90.5q0 -52 -38.5 -89.5t-100.5 -37.5t-100.5 37.5t-38.5 89.5z" />
<glyph unicode="&#x4de;" horiz-adv-x="1109" d="M700 1055q0 80 -44.5 128t-120.5 48q-67 0 -109.5 -46.5t-42.5 -123.5h-294q0 121 58.5 215.5t161.5 146.5t226 52q217 0 338.5 -108.5t121.5 -305.5q0 -100 -50.5 -182.5t-138.5 -130.5q100 -42 154 -127.5t54 -212.5q0 -197 -131 -312t-348 -115q-132 0 -238.5 51 t-166 146t-59.5 226h295q0 -75 47 -128t122 -53q84 0 134 53t50 137q0 113 -43 162t-125 49h-149v237h150q148 1 148 194zM154 1683q0 55 40.5 91.5t98.5 36.5t98.5 -36.5t40.5 -91.5q0 -54 -40.5 -90.5t-98.5 -36.5t-98.5 36.5t-40.5 90.5zM643 1683q0 54 40.5 90.5 t98.5 36.5t98.5 -36.5t40.5 -90.5q0 -52 -38.5 -89.5t-100.5 -37.5t-100.5 37.5t-38.5 89.5z" />
<glyph unicode="&#x4df;" horiz-adv-x="927" d="M563 762q0 119 -90 119q-49 0 -77 -28.5t-28 -82.5h-283q0 147 104 239t269 92q181 0 284 -82.5t103 -232.5q0 -72 -37 -132.5t-103 -96.5q156 -66 156 -251q0 -148 -110 -237t-294 -89q-171 0 -278.5 92.5t-107.5 247.5h283q0 -57 32 -89t87 -32q52 0 79 34.5t27 94.5 q0 127 -99 131h-141v188h134q90 1 90 115zM88 1365q0 55 40.5 91.5t98.5 36.5t98.5 -36.5t40.5 -91.5q0 -54 -40.5 -90.5t-98.5 -36.5t-98.5 36.5t-40.5 90.5zM577 1365q0 54 40.5 90.5t98.5 36.5t98.5 -36.5t40.5 -90.5q0 -52 -38.5 -89.5t-100.5 -37.5t-100.5 37.5 t-38.5 89.5z" />
<glyph unicode="&#x4e0;" horiz-adv-x="1037" d="M619 1211h-479v245h816l1 -201l-298 -387q155 -35 240.5 -151.5t85.5 -308.5q0 -197 -127.5 -313t-339.5 -116q-89 0 -172 28.5t-144 87.5q-123 115 -123 309h295q0 -79 40 -130t104 -51q78 0 126 52t48 138q0 144 -55 206.5t-160 62.5h-117v188z" />
<glyph unicode="&#x4e1;" horiz-adv-x="1039" d="M948 1082l1 -193l-299 -397q158 -33 244 -149.5t86 -309.5q0 -195 -126 -311.5t-337 -116.5q-123 0 -223.5 51.5t-156 147t-55.5 225.5h284q0 -83 42.5 -136t108.5 -53q80 0 130 54.5t50 143.5q0 145 -53.5 208t-160.5 63h-124v184l258 353h-483v236h814z" />
<glyph unicode="&#x4e2;" horiz-adv-x="1241" d="M830 1456h294v-1456h-294v964l-429 -964h-295v1456h295v-965zM934 1601h-631v167h631v-167z" />
<glyph unicode="&#x4e3;" horiz-adv-x="1023" d="M638 1082h282v-1082h-282v665l-252 -665h-284v1082h284v-664zM835 1283h-631v167h631v-167z" />
<glyph unicode="&#x4e4;" horiz-adv-x="1241" d="M830 1456h294v-1456h-294v964l-429 -964h-295v1456h295v-965zM231 1678q0 55 40.5 91.5t98.5 36.5t98.5 -36.5t40.5 -91.5q0 -54 -40.5 -90.5t-98.5 -36.5t-98.5 36.5t-40.5 90.5zM720 1678q0 54 40.5 90.5t98.5 36.5t98.5 -36.5t40.5 -90.5q0 -52 -38.5 -89.5 t-100.5 -37.5t-100.5 37.5t-38.5 89.5z" />
<glyph unicode="&#x4e5;" horiz-adv-x="1023" d="M638 1082h282v-1082h-282v665l-252 -665h-284v1082h284v-664zM132 1360q0 55 40.5 91.5t98.5 36.5t98.5 -36.5t40.5 -91.5q0 -54 -40.5 -90.5t-98.5 -36.5t-98.5 36.5t-40.5 90.5zM621 1360q0 54 40.5 90.5t98.5 36.5t98.5 -36.5t40.5 -90.5q0 -52 -38.5 -89.5 t-100.5 -37.5t-100.5 37.5t-38.5 89.5z" />
<glyph unicode="&#x4e6;" horiz-adv-x="1236" d="M1142 597q0 -293 -138.5 -455t-384.5 -162q-245 0 -385 160.5t-142 449.5v249q0 300 139 468.5t386 168.5q243 0 383 -165.5t142 -464.5v-249zM847 841q0 197 -56 293t-174 96q-117 0 -173 -92.5t-58 -281.5v-259q0 -191 57 -281.5t176 -90.5q115 0 171 88.5t57 274.5 v253zM233 1675q0 55 40.5 91.5t98.5 36.5t98.5 -36.5t40.5 -91.5q0 -54 -40.5 -90.5t-98.5 -36.5t-98.5 36.5t-40.5 90.5zM722 1675q0 54 40.5 90.5t98.5 36.5t98.5 -36.5t40.5 -90.5q0 -52 -38.5 -89.5t-100.5 -37.5t-100.5 37.5t-38.5 89.5z" />
<glyph unicode="&#x4e7;" horiz-adv-x="1019" d="M70 576q0 246 116 386t321 140q207 0 323 -140t116 -388v-69q0 -247 -115 -386t-322 -139q-208 0 -323.5 139.5t-115.5 387.5v69zM354 505q0 -290 155 -290q143 0 154 242l1 119q0 148 -41 219.5t-116 71.5q-72 0 -112.5 -71.5t-40.5 -219.5v-71zM120 1365 q0 55 40.5 91.5t98.5 36.5t98.5 -36.5t40.5 -91.5q0 -54 -40.5 -90.5t-98.5 -36.5t-98.5 36.5t-40.5 90.5zM609 1365q0 54 40.5 90.5t98.5 36.5t98.5 -36.5t40.5 -90.5q0 -52 -38.5 -89.5t-100.5 -37.5t-100.5 37.5t-38.5 89.5z" />
<glyph unicode="&#x4e8;" horiz-adv-x="1231" d="M1155 695q0 -214 -65.5 -376t-187.5 -250.5t-279 -88.5q-155 0 -277 87t-189 248t-68 371v73q0 215 66.5 378.5t188 251t277.5 87.5t277.5 -87t189 -251t67.5 -377v-66zM856 640h-469q8 -201 69 -306.5t167 -105.5t165.5 105.5t67.5 306.5zM621 1226q-106 0 -166 -102.5 t-68 -300.5h468q-8 198 -68.5 300.5t-165.5 102.5z" />
<glyph unicode="&#x4e9;" horiz-adv-x="1012" d="M70 551q0 252 119 401.5t317 149.5q199 0 319 -149t120 -410v-13q0 -251 -118 -400.5t-319 -149.5q-192 0 -309 136.5t-128 370.5zM506 867q-132 0 -151 -238h303q-19 238 -152 238zM508 215q132 0 150 231h-303q18 -231 153 -231z" />
<glyph unicode="&#x4ea;" horiz-adv-x="1231" d="M1155 695q0 -214 -65.5 -376t-187.5 -250.5t-279 -88.5q-155 0 -277 87t-189 248t-68 371v73q0 215 66.5 378.5t188 251t277.5 87.5t277.5 -87t189 -251t67.5 -377v-66zM856 640h-469q8 -201 69 -306.5t167 -105.5t165.5 105.5t67.5 306.5zM621 1226q-106 0 -166 -102.5 t-68 -300.5h468q-8 198 -68.5 300.5t-165.5 102.5zM245 1676q0 55 40.5 91.5t98.5 36.5t98.5 -36.5t40.5 -91.5q0 -54 -40.5 -90.5t-98.5 -36.5t-98.5 36.5t-40.5 90.5zM734 1676q0 54 40.5 90.5t98.5 36.5t98.5 -36.5t40.5 -90.5q0 -52 -38.5 -89.5t-100.5 -37.5 t-100.5 37.5t-38.5 89.5z" />
<glyph unicode="&#x4eb;" horiz-adv-x="1012" d="M70 551q0 252 119 401.5t317 149.5q199 0 319 -149t120 -410v-13q0 -251 -118 -400.5t-319 -149.5q-192 0 -309 136.5t-128 370.5zM506 867q-132 0 -151 -238h303q-19 238 -152 238zM508 215q132 0 150 231h-303q18 -231 153 -231zM113 1365q0 55 40.5 91.5t98.5 36.5 t98.5 -36.5t40.5 -91.5q0 -54 -40.5 -90.5t-98.5 -36.5t-98.5 36.5t-40.5 90.5zM602 1365q0 54 40.5 90.5t98.5 36.5t98.5 -36.5t40.5 -90.5q0 -52 -38.5 -89.5t-100.5 -37.5t-100.5 37.5t-38.5 89.5z" />
<glyph unicode="&#x4ec;" horiz-adv-x="1158" d="M353 485q7 -130 54.5 -196.5t155.5 -66.5q115 0 165.5 96.5t57.5 286.5h-355v245h354q-8 193 -64 287t-162 94q-103 0 -151.5 -62t-55.5 -209h-295q20 244 151 380t351 136q238 0 380 -191t142 -520v-86q0 -324 -138.5 -511.5t-379.5 -187.5q-225 0 -358 136.5 t-146 368.5h294zM178 1683q0 55 40.5 91.5t98.5 36.5t98.5 -36.5t40.5 -91.5q0 -54 -40.5 -90.5t-98.5 -36.5t-98.5 36.5t-40.5 90.5zM667 1683q0 54 40.5 90.5t98.5 36.5t98.5 -36.5t40.5 -90.5q0 -52 -38.5 -89.5t-100.5 -37.5t-100.5 37.5t-38.5 89.5z" />
<glyph unicode="&#x4ed;" horiz-adv-x="930" d="M443 867q-59 0 -87 -43.5t-28 -116.5h-266q0 170 108.5 282.5t272.5 112.5q196 0 312 -148.5t116 -409.5v-18q0 -250 -116 -398t-312 -148q-175 0 -278 115.5t-103 307.5h266q0 -91 31.5 -140t83.5 -49q128 0 143 242h-197v177h196q-14 234 -142 234zM71 1365 q0 55 40.5 91.5t98.5 36.5t98.5 -36.5t40.5 -91.5q0 -54 -40.5 -90.5t-98.5 -36.5t-98.5 36.5t-40.5 90.5zM560 1365q0 54 40.5 90.5t98.5 36.5t98.5 -36.5t40.5 -90.5q0 -52 -38.5 -89.5t-100.5 -37.5t-100.5 37.5t-38.5 89.5z" />
<glyph unicode="&#x4ee;" horiz-adv-x="1128" d="M577 809l196 647h316l-399 -1170q-68 -174 -146.5 -239t-188.5 -68h-32l-70 4l-5 244q10 -4 65 -4q56 0 84.5 25t49.5 112l14 53l-416 1043h315zM904 1601h-631v167h631v-167z" />
<glyph unicode="&#x4ef;" horiz-adv-x="914" d="M450 471l144 611h302l-356 -1244q-80 -275 -301 -275q-51 0 -116 19v221l33 -1q66 0 99.5 25.5t50.5 88.5l22 73l-312 1093h304zM777 1289h-631v167h631v-167z" />
<glyph unicode="&#x4f0;" horiz-adv-x="1128" d="M577 809l196 647h316l-399 -1170q-68 -174 -146.5 -239t-188.5 -68h-32l-70 4l-5 244q10 -4 65 -4q56 0 84.5 25t49.5 112l14 53l-416 1043h315zM201 1678q0 55 40.5 91.5t98.5 36.5t98.5 -36.5t40.5 -91.5q0 -54 -40.5 -90.5t-98.5 -36.5t-98.5 36.5t-40.5 90.5z M690 1678q0 54 40.5 90.5t98.5 36.5t98.5 -36.5t40.5 -90.5q0 -52 -38.5 -89.5t-100.5 -37.5t-100.5 37.5t-38.5 89.5z" />
<glyph unicode="&#x4f1;" horiz-adv-x="914" d="M450 471l144 611h302l-356 -1244q-80 -275 -301 -275q-51 0 -116 19v221l33 -1q66 0 99.5 25.5t50.5 88.5l22 73l-312 1093h304zM74 1365q0 55 40.5 91.5t98.5 36.5t98.5 -36.5t40.5 -91.5q0 -54 -40.5 -90.5t-98.5 -36.5t-98.5 36.5t-40.5 90.5zM563 1365 q0 54 40.5 90.5t98.5 36.5t98.5 -36.5t40.5 -90.5q0 -52 -38.5 -89.5t-100.5 -37.5t-100.5 37.5t-38.5 89.5z" />
<glyph unicode="&#x4f2;" horiz-adv-x="1128" d="M577 809l196 647h316l-399 -1170q-68 -174 -146.5 -239t-188.5 -68h-32l-70 4l-5 244q10 -4 65 -4q56 0 84.5 25t49.5 112l14 53l-416 1043h315zM805 1848h247l-220 -301h-207zM458 1848h244l-191 -301h-202z" />
<glyph unicode="&#x4f3;" horiz-adv-x="914" d="M450 471l144 611h302l-356 -1244q-80 -275 -301 -275q-51 0 -116 19v221l33 -1q66 0 99.5 25.5t50.5 88.5l22 73l-312 1093h304zM677 1535h247l-220 -301h-207zM330 1535h244l-191 -301h-202z" />
<glyph unicode="&#x4f4;" horiz-adv-x="1252" d="M1133 1456v-1456h-294v549q-117 -26 -220 -26q-238 0 -363 120t-130 346v467h295v-451q0 -128 43.5 -183t154.5 -55q107 0 220 26v663h294zM279 1678q0 55 40.5 91.5t98.5 36.5t98.5 -36.5t40.5 -91.5q0 -54 -40.5 -90.5t-98.5 -36.5t-98.5 36.5t-40.5 90.5zM768 1678 q0 54 40.5 90.5t98.5 36.5t98.5 -36.5t40.5 -90.5q0 -52 -38.5 -89.5t-100.5 -37.5t-100.5 37.5t-38.5 89.5z" />
<glyph unicode="&#x4f5;" horiz-adv-x="1003" d="M902 0h-284v334q-50 -10 -97 -10q-214 0 -323.5 106.5t-109.5 308.5v343h284v-344q0 -99 32.5 -139t116.5 -40q44 0 97 11v512h284v-1082zM132 1360q0 55 40.5 91.5t98.5 36.5t98.5 -36.5t40.5 -91.5q0 -54 -40.5 -90.5t-98.5 -36.5t-98.5 36.5t-40.5 90.5zM621 1360 q0 54 40.5 90.5t98.5 36.5t98.5 -36.5t40.5 -90.5q0 -52 -38.5 -89.5t-100.5 -37.5t-100.5 37.5t-38.5 89.5z" />
<glyph unicode="&#x4f6;" horiz-adv-x="1001" d="M937 1211h-523v-1211h-294v1456h817v-245zM621 -357h-283v564h283v-564z" />
<glyph unicode="&#x4f7;" horiz-adv-x="759" d="M736 846h-351v-846h-283v1082h634v-236zM598 -357h-283v564h283v-564z" />
<glyph unicode="&#x4f8;" horiz-adv-x="1561" d="M415 933h174q221 0 352 -125.5t131 -335.5q0 -209 -128 -338.5t-339 -133.5h-485v1456h295v-523zM415 689v-445h178q86 0 135.5 64.5t49.5 165.5q0 95 -48.5 154.5t-134.5 60.5h-180zM1442 0h-294v1456h294v-1456zM397 1678q0 55 40.5 91.5t98.5 36.5t98.5 -36.5 t40.5 -91.5q0 -54 -40.5 -90.5t-98.5 -36.5t-98.5 36.5t-40.5 90.5zM886 1678q0 54 40.5 90.5t98.5 36.5t98.5 -36.5t40.5 -90.5q0 -52 -38.5 -89.5t-100.5 -37.5t-100.5 37.5t-38.5 89.5z" />
<glyph unicode="&#x4f9;" horiz-adv-x="1500" d="M404 767h145q191 0 300.5 -105t109.5 -281q0 -172 -110.5 -276.5t-300.5 -104.5h-427v1082h283v-315zM404 532v-299h148q59 0 92 39t33 108q0 152 -133 152h-140zM1365 0h-283v1082h283v-1082zM362 1361q0 55 40.5 91.5t98.5 36.5t98.5 -36.5t40.5 -91.5 q0 -54 -40.5 -90.5t-98.5 -36.5t-98.5 36.5t-40.5 90.5zM851 1361q0 54 40.5 90.5t98.5 36.5t98.5 -36.5t40.5 -90.5q0 -52 -38.5 -89.5t-100.5 -37.5t-100.5 37.5t-38.5 89.5z" />
<glyph unicode="&#x4fa;" horiz-adv-x="1091" d="M1026 1211h-523v-1211h-294v1456h817v-245zM665 665h-607v183h607v-183zM764 261v-305q-3 -189 -91.5 -291t-245.5 -102q-69 0 -125 17l12 233q39 -12 82 -12q81 0 83 158v302h285z" />
<glyph unicode="&#x4fb;" horiz-adv-x="769" d="M817 846h-351v-846h-283v1082h634v-236zM648 489h-607v183h607v-183zM695 254v-305q-3 -189 -91.5 -291t-245.5 -102q-69 0 -125 17l12 233q39 -12 82 -12q81 0 83 158v302h285z" />
<glyph unicode="&#x4fc;" horiz-adv-x="1146" d="M573 956l196 500h337l-342 -722l350 -734h-341l-200 509l-199 -509h-341l350 734l-343 722h337zM1254 261v-305q-3 -189 -91.5 -291t-245.5 -102q-69 0 -125 17l12 233q39 -12 82 -12q81 0 83 158v302h285z" />
<glyph unicode="&#x4fd;" horiz-adv-x="927" d="M465 761l126 321h300l-247 -529l256 -553h-301l-133 339l-132 -339h-302l256 553l-245 529h301zM1030 261v-305q-3 -189 -91.5 -291t-245.5 -102q-69 0 -125 17l12 233q39 -12 82 -12q81 0 83 158v302h285z" />
<glyph unicode="&#x4fe;" horiz-adv-x="1146" d="M882 654h-80l312 -654h-341l-200 509l-199 -509h-341l312 654h-70v183h59l-294 619h337l196 -500l196 500h337l-293 -619h69v-183z" />
<glyph unicode="&#x4ff;" horiz-adv-x="927" d="M776 463h-91l215 -463h-301l-133 339l-132 -339h-302l214 463h-77v183h76l-202 436h301l121 -321l126 321h300l-204 -436h89v-183z" />
<glyph unicode="&#x500;" horiz-adv-x="1149" d="M739 962v494h296v-1456h-473q-215 0 -347 134t-132 348q0 210 129 343t338 137h189zM739 244v473h-177q-80 0 -132 -64t-52 -169q0 -107 51.5 -173.5t132.5 -66.5h177z" />
<glyph unicode="&#x501;" horiz-adv-x="1015" d="M65 574q0 266 90 397t262 131q125 0 208 -108v542h285v-1536h-257l-13 110q-87 -130 -224 -130q-170 0 -259.5 130t-91.5 382v82zM349 503q0 -160 34 -223.5t115 -63.5q84 0 127 75v494q-42 80 -126 80q-78 0 -114 -63t-36 -224v-75z" />
<glyph unicode="&#x502;" horiz-adv-x="1660" d="M605 0q-140 0 -249 60t-169 171t-60 251q0 210 128.5 343t337.5 137h189v494h295v-1212h42q133 3 145 265q0 105 -14 221t-37 191h288q21 -74 40 -202.5t17 -209.5q-5 -244 -119.5 -376t-315.5 -133h-518zM782 244v473h-177q-82 0 -133 -64.5t-51 -168.5q0 -105 50 -172 t132 -68h179z" />
<glyph unicode="&#x503;" horiz-adv-x="1507" d="M90 534q0 263 96 415.5t262 152.5q109 0 186 -92v550h283v-1182q0 -75 22.5 -118t60.5 -43q73 2 112 85t41 227q4 199 -49 403h276q23 -98 40.5 -199t15.5 -204q-2 -168 -57 -291.5t-154.5 -191t-224.5 -67.5q-228 -4 -314 168q-88 -168 -239 -168q-165 0 -261 143 t-96 412zM634 802q-46 63 -112 63q-73 0 -110.5 -83.5t-37.5 -268.5q0 -152 36.5 -225t110.5 -73q79 0 122 68q-9 47 -9 103v416z" />
<glyph unicode="&#x504;" horiz-adv-x="1395" d="M181 593v248h156q105 0 151 48t46 153q0 163 -164 166h-292v248h290q224 -1 341.5 -106.5t117.5 -309.5q0 -235 -242 -333q245 -59 252 -304v-83q-1 -40 10 -67t30 -27q64 2 97.5 82.5t36.5 220.5q4 192 -49 403h288q34 -160 45.5 -241t10.5 -162q-2 -169 -59.5 -293.5 t-158.5 -190.5t-228 -66q-149 -4 -229 80.5t-88 260.5v73q-2 88 -41.5 143t-103.5 57h-217z" />
<glyph unicode="&#x505;" horiz-adv-x="1146" d="M702 260q-2 -96 38 -96q45 2 70.5 69t28.5 186q2 153 -49 319h275q34 -122 46.5 -188t10.5 -131q-4 -207 -105 -326.5t-262 -119.5q-165 -4 -245.5 54t-90.5 187v73q0 101 -66 101h-222l-2 222h157q98 4 98 110q0 124 -97 126h-224l-5 236h230q183 -1 281.5 -85.5 t98.5 -237.5q0 -152 -135 -226q168 -46 169 -225v-48z" />
<glyph unicode="&#x506;" horiz-adv-x="1068" d="M113 575l-1 235h213q177 0 177 199q0 100 -44.5 156t-125.5 56h-259l-6 235h261q216 0 336 -114t120 -318q0 -223 -195 -326q201 -70 205 -335v-111h220l-1 -201q-1 -110 -51 -224t-129 -189l-146 79l36 81q47 107 53 202h-213q-50 47 -52 220v123q0 232 -168 232h-230z " />
<glyph unicode="&#x507;" horiz-adv-x="1025" d="M150 383v203h215q59 0 91 33.5t32 90.5q0 59 -33.5 99t-90.5 40h-244l-8 233h254q122 0 215.5 -43.5t142.5 -122.5t49 -183q0 -157 -137 -243q146 -61 151 -251h205l-1 -202q-1 -108 -50.5 -222.5t-130.5 -189.5l-145 79l45 103q40 98 44 193h-225q-24 26 -25 150v82 q-2 150 -135 151h-219z" />
<glyph unicode="&#x508;" horiz-adv-x="1700" d="M842 1208h-250l-20 -513q-12 -255 -57.5 -404.5t-133 -219.5t-235.5 -71h-72v244l34 3q91 11 130.5 115t50.5 350l20 744h828v-1059q0 -171 78 -171q68 1 104.5 82t38.5 221q4 196 -50 403h288q23 -103 40.5 -202.5t15.5 -200.5q-2 -167 -57.5 -291t-155 -191.5 t-224.5 -67.5q-185 0 -279 102t-94 298v829z" />
<glyph unicode="&#x509;" horiz-adv-x="1514" d="M649 843h-138l-15 -331q-15 -260 -93 -384.5t-232 -127.5h-91l-3 236l31 4q57 7 84 83.5t35 247.5l19 511h686v-704q0 -72 27 -116.5t75 -44.5q51 1 79 73t30 198q4 189 -49 381h276q23 -93 41 -188.5t17 -192.5q-2 -155 -52.5 -269.5t-140.5 -177t-201 -62.5 q-191 0 -288 100.5t-97 294.5v469z" />
<glyph unicode="&#x50a;" horiz-adv-x="1764" d="M1151 1456v-1082q0 -66 21 -107t56 -41q69 2 105.5 82.5t39.5 220.5q4 196 -50 403h288q38 -167 48 -249t9 -154q-2 -167 -57.5 -290.5t-156.5 -191.5t-226 -68q-174 -4 -268 96.5t-103 304.5v214h-447v-594h-295v1456h295v-618h447v618h294z" />
<glyph unicode="&#x50b;" horiz-adv-x="1460" d="M633 425h-263v-425h-283v1082h283v-420h263v420h283v-706q-2 -72 26 -115.5t75 -43.5q52 2 80.5 73.5t30.5 197.5q4 182 -49 381h275q25 -105 41.5 -197t15.5 -184q-2 -155 -52.5 -270t-140 -177t-201.5 -62q-365 -8 -384 397v49z" />
<glyph unicode="&#x50c;" horiz-adv-x="1136" d="M610 -21q-156 0 -281 79t-194 218t-71 311v272q0 176 69.5 318t195 221t281.5 79q192 0 309 -89l-60 -227q-111 68 -249 68q-113 0 -181.5 -105t-68.5 -269v-258q0 -161 68.5 -266t181.5 -105q81 2 123 58.5t45 157.5q2 148 -42 344h286l35 -173q17 -84 15 -171 q-2 -143 -61.5 -248.5t-164 -160t-236.5 -54.5z" />
<glyph unicode="&#x50d;" horiz-adv-x="958" d="M538 217q44 1 59 31t17 83q0 112 -15 206h276q23 -145 22 -206q-4 -169 -100 -260.5t-259 -91.5q-210 0 -339.5 153t-129.5 400v30q0 151 56.5 276t159.5 194.5t235 69.5q159 0 242 -66l-43 -230q-82 58 -199 58q-76 0 -122 -85t-46 -225v-34q0 -135 49.5 -219t136.5 -84 z" />
<glyph unicode="&#x50e;" horiz-adv-x="1253" d="M387 1208h-341v248h968v-248h-334v-828q-1 -68 20 -111t58 -43q68 2 105 82.5t39 220.5q4 192 -49 403h287q23 -98 40.5 -199t15.5 -204q-2 -168 -58.5 -293t-156 -191t-223.5 -66q-176 -4 -270 97.5t-101 303.5v828z" />
<glyph unicode="&#x50f;" horiz-adv-x="1137" d="M303 846h-227v236h761v-236h-251v-470q0 -73 27 -116t71 -43q52 2 80.5 56t30.5 152q4 147 -49 288h276l26 -84q34 -118 32 -204q-4 -203 -113.5 -324.5t-282.5 -121.5q-362 -8 -381 397v470z" />
<glyph unicode="&#x510;" horiz-adv-x="1169" d="M102 408q0 126 58 212t165 128q-98 49 -151.5 132t-53.5 181q0 196 132 306t363 110q200 0 332.5 -117t132.5 -299h-295q0 76 -48.5 123.5t-121.5 47.5q-91 0 -144.5 -48t-53.5 -129q0 -189 171 -194h179v-237h-170q-98 0 -149 -49t-51 -162q0 -85 59.5 -137.5 t158.5 -52.5q82 0 134.5 52.5t52.5 128.5h295q0 -130 -61.5 -225.5t-173.5 -147.5t-247 -52q-233 0 -373 116t-140 313z" />
<glyph unicode="&#x511;" horiz-adv-x="1000" d="M96 306q0 184 173 251q-72 36 -114.5 96.5t-42.5 132.5q0 147 113 231t305 84q171 0 280 -93t109 -238h-283q0 54 -33.5 82.5t-87.5 28.5q-56 0 -88.5 -34t-32.5 -85t32.5 -81.5t89.5 -30.5h160v-194h-159q-138 0 -138 -128q0 -55 36.5 -92t98.5 -37t99.5 33.5t37.5 87.5 h282q0 -155 -113 -247.5t-290 -92.5q-193 0 -313.5 90t-120.5 236z" />
<glyph unicode="&#x512;" horiz-adv-x="1258" d="M1138 1456v-1456h-295v1211h-270l-20 -516q-12 -255 -57.5 -404.5t-133 -219.5t-235.5 -71h-72v244l34 3q92 11 132.5 120.5t50.5 387.5l19 701h847zM1418 261v-305q-3 -189 -91.5 -291t-245.5 -102q-69 0 -125 17l12 233q39 -12 82 -12q81 0 83 158v302h285z" />
<glyph unicode="&#x513;" horiz-adv-x="1024" d="M921 1082v-1082h-283v846h-168l-16 -334q-15 -260 -93 -384.5t-232 -127.5h-92l-3 236l32 4q57 8 84 83t35 246l19 513h717zM1205 261v-305q-3 -189 -91.5 -291t-245.5 -102q-69 0 -125 17l12 233q39 -12 82 -12q81 0 83 158v302h285z" />
<glyph unicode="&#x1e00;" horiz-adv-x="1223" d="M812 298h-401l-78 -298h-311l455 1456h269l458 -1456h-314zM475 543h272l-136 519zM447 -224q0 71 47.5 122t118.5 51t117.5 -50.5t46.5 -122.5q0 -73 -47 -121t-117 -48q-71 0 -118.5 48.5t-47.5 120.5zM550 -224q0 -32 18.5 -52.5t44.5 -20.5t43 20.5t17 52.5 q0 34 -17 55.5t-43 21.5t-44.5 -21.5t-18.5 -55.5z" />
<glyph unicode="&#x1e01;" horiz-adv-x="964" d="M617 0q-12 25 -24 84q-76 -104 -206 -104q-136 0 -225.5 90t-89.5 233q0 170 108.5 263t312.5 95h86v87q0 73 -25 103t-73 30q-106 0 -106 -124h-283q0 150 112.5 247.5t284.5 97.5q178 0 275.5 -92.5t97.5 -264.5v-509q2 -140 40 -219v-17h-285zM450 202q47 0 80 19 t49 45v225h-68q-72 0 -113.5 -46t-41.5 -123q0 -120 94 -120zM245 -214q0 71 47.5 122t118.5 51t117.5 -50.5t46.5 -122.5q0 -73 -47 -121t-117 -48q-71 0 -118.5 48.5t-47.5 120.5zM348 -214q0 -32 18.5 -52.5t44.5 -20.5t43 20.5t17 52.5q0 34 -17 55.5t-43 21.5 t-44.5 -21.5t-18.5 -55.5z" />
<glyph unicode="&#x1e3e;" horiz-adv-x="1553" d="M501 1456l275 -1053l274 1053h384v-1456h-295v394l27 607l-291 -1001h-200l-291 1001l27 -607v-394h-294v1456h384zM827 1846h318l-278 -310h-236z" />
<glyph unicode="&#x1e3f;" horiz-adv-x="1519" d="M369 1082l8 -100q95 120 251 120q162 0 229 -146q93 146 265 146q284 0 291 -393v-709h-283v691q0 94 -26 134t-88 40q-79 0 -118 -97l2 -34v-734h-283v689q0 93 -25 134.5t-89 41.5q-73 0 -116 -79v-786h-283v1082h265zM835 1536h318l-278 -310h-236z" />
<glyph unicode="&#x1e80;" horiz-adv-x="1534" d="M1063 541l138 915h291l-259 -1456h-295l-170 858l-168 -858h-296l-260 1456h293l137 -914l171 914h247zM919 1536h-239l-276 310h317z" />
<glyph unicode="&#x1e81;" horiz-adv-x="1296" d="M891 475l97 607h271l-224 -1082h-235l-153 626l-153 -626h-236l-224 1082h272l96 -608l144 608h201zM790 1226h-239l-276 310h317z" />
<glyph unicode="&#x1e82;" horiz-adv-x="1534" d="M1063 541l138 915h291l-259 -1456h-295l-170 858l-168 -858h-296l-260 1456h293l137 -914l171 914h247zM832 1846h318l-278 -310h-236z" />
<glyph unicode="&#x1e83;" horiz-adv-x="1296" d="M891 475l97 607h271l-224 -1082h-235l-153 626l-153 -626h-236l-224 1082h272l96 -608l144 608h201zM703 1536h318l-278 -310h-236z" />
<glyph unicode="&#x1e84;" horiz-adv-x="1534" d="M1063 541l138 915h291l-259 -1456h-295l-170 858l-168 -858h-296l-260 1456h293l137 -914l171 914h247zM390 1675q0 55 40.5 91.5t98.5 36.5t98.5 -36.5t40.5 -91.5q0 -54 -40.5 -90.5t-98.5 -36.5t-98.5 36.5t-40.5 90.5zM879 1675q0 54 40.5 90.5t98.5 36.5t98.5 -36.5 t40.5 -90.5q0 -52 -38.5 -89.5t-100.5 -37.5t-100.5 37.5t-38.5 89.5z" />
<glyph unicode="&#x1e85;" horiz-adv-x="1296" d="M891 475l97 607h271l-224 -1082h-235l-153 626l-153 -626h-236l-224 1082h272l96 -608l144 608h201zM261 1365q0 55 40.5 91.5t98.5 36.5t98.5 -36.5t40.5 -91.5q0 -54 -40.5 -90.5t-98.5 -36.5t-98.5 36.5t-40.5 90.5zM750 1365q0 54 40.5 90.5t98.5 36.5t98.5 -36.5 t40.5 -90.5q0 -52 -38.5 -89.5t-100.5 -37.5t-100.5 37.5t-38.5 89.5z" />
<glyph unicode="&#x1ea0;" horiz-adv-x="1223" d="M812 298h-401l-78 -298h-311l455 1456h269l458 -1456h-314zM475 543h272l-136 519zM615 -89q73 0 118.5 -39.5t45.5 -99.5t-45.5 -99.5t-118.5 -39.5q-72 0 -117.5 39.5t-45.5 99.5t45.5 99.5t117.5 39.5z" />
<glyph unicode="&#x1ea1;" horiz-adv-x="964" d="M617 0q-12 25 -24 84q-76 -104 -206 -104q-136 0 -225.5 90t-89.5 233q0 170 108.5 263t312.5 95h86v87q0 73 -25 103t-73 30q-106 0 -106 -124h-283q0 150 112.5 247.5t284.5 97.5q178 0 275.5 -92.5t97.5 -264.5v-509q2 -140 40 -219v-17h-285zM450 202q47 0 80 19 t49 45v225h-68q-72 0 -113.5 -46t-41.5 -123q0 -120 94 -120zM413 -79q73 0 118.5 -39.5t45.5 -99.5t-45.5 -99.5t-118.5 -39.5q-72 0 -117.5 39.5t-45.5 99.5t45.5 99.5t117.5 39.5z" />
<glyph unicode="&#x1ea2;" horiz-adv-x="1223" d="M812 298h-401l-78 -298h-311l455 1456h269l458 -1456h-314zM475 543h272l-136 519zM509 1574l-16 134q57 4 82 18.5t25 46.5q0 40 -27.5 54t-76.5 14l6 137q168 0 251.5 -52.5t83.5 -142.5q0 -56 -30.5 -94.5t-87.5 -49.5v-65h-210z" />
<glyph unicode="&#x1ea3;" horiz-adv-x="964" d="M617 0q-12 25 -24 84q-76 -104 -206 -104q-136 0 -225.5 90t-89.5 233q0 170 108.5 263t312.5 95h86v87q0 73 -25 103t-73 30q-106 0 -106 -124h-283q0 150 112.5 247.5t284.5 97.5q178 0 275.5 -92.5t97.5 -264.5v-509q2 -140 40 -219v-17h-285zM450 202q47 0 80 19 t49 45v225h-68q-72 0 -113.5 -46t-41.5 -123q0 -120 94 -120zM373 1265l-16 134q57 4 82 18.5t25 46.5q0 40 -27.5 54t-76.5 14l6 137q168 0 251.5 -52.5t83.5 -142.5q0 -56 -30.5 -94.5t-87.5 -49.5v-65h-210z" />
<glyph unicode="&#x1ea4;" horiz-adv-x="1223" d="M812 298h-401l-78 -298h-311l455 1456h269l458 -1456h-314zM475 543h272l-136 519zM538 1764h151l245 -230h-203l-118 126l-118 -126h-202zM1008 1939h220l-203 -272h-157z" />
<glyph unicode="&#x1ea5;" horiz-adv-x="964" d="M617 0q-12 25 -24 84q-76 -104 -206 -104q-136 0 -225.5 90t-89.5 233q0 170 108.5 263t312.5 95h86v87q0 73 -25 103t-73 30q-106 0 -106 -124h-283q0 150 112.5 247.5t284.5 97.5q178 0 275.5 -92.5t97.5 -264.5v-509q2 -140 40 -219v-17h-285zM450 202q47 0 80 19 t49 45v225h-68q-72 0 -113.5 -46t-41.5 -123q0 -120 94 -120zM402 1455h151l245 -230h-203l-118 126l-118 -126h-202zM872 1630h220l-203 -272h-157z" />
<glyph unicode="&#x1ea6;" horiz-adv-x="1223" d="M812 298h-401l-78 -298h-311l455 1456h269l458 -1456h-314zM475 543h272l-136 519zM936 1533h-202l-118 126l-119 -126h-202l245 230h150zM361 1666h-157l-202 272h219z" />
<glyph unicode="&#x1ea7;" horiz-adv-x="964" d="M617 0q-12 25 -24 84q-76 -104 -206 -104q-136 0 -225.5 90t-89.5 233q0 170 108.5 263t312.5 95h86v87q0 73 -25 103t-73 30q-106 0 -106 -124h-283q0 150 112.5 247.5t284.5 97.5q178 0 275.5 -92.5t97.5 -264.5v-509q2 -140 40 -219v-17h-285zM450 202q47 0 80 19 t49 45v225h-68q-72 0 -113.5 -46t-41.5 -123q0 -120 94 -120zM800 1224h-202l-118 126l-119 -126h-202l245 230h150zM225 1357h-157l-202 272h219z" />
<glyph unicode="&#x1ea8;" horiz-adv-x="1223" d="M812 298h-401l-78 -298h-311l455 1456h269l458 -1456h-314zM475 543h272l-136 519zM932 1529h-195l-125 133l-127 -133h-194l240 230h160zM838 1656l-13 113q94 8 94 55q0 59 -92 59l7 114q127 0 189.5 -43.5t62.5 -120.5q0 -47 -26.5 -80.5t-73.5 -41.5v-55h-148z" />
<glyph unicode="&#x1ea9;" horiz-adv-x="964" d="M617 0q-12 25 -24 84q-76 -104 -206 -104q-136 0 -225.5 90t-89.5 233q0 170 108.5 263t312.5 95h86v87q0 73 -25 103t-73 30q-106 0 -106 -124h-283q0 150 112.5 247.5t284.5 97.5q178 0 275.5 -92.5t97.5 -264.5v-509q2 -140 40 -219v-17h-285zM450 202q47 0 80 19 t49 45v225h-68q-72 0 -113.5 -46t-41.5 -123q0 -120 94 -120zM796 1220h-195l-125 133l-127 -133h-194l240 230h160zM702 1347l-13 113q94 8 94 55q0 59 -92 59l7 114q127 0 189.5 -43.5t62.5 -120.5q0 -47 -26.5 -80.5t-73.5 -41.5v-55h-148z" />
<glyph unicode="&#x1eaa;" horiz-adv-x="1223" d="M812 298h-401l-78 -298h-311l455 1456h269l458 -1456h-314zM475 543h272l-136 519zM936 1524h-195l-125 126l-127 -126h-194l246 225h149zM832 1961q0 -63 -33 -109.5t-81 -46.5q-38 0 -94 32t-84 32q-18 0 -28.5 -21t-10.5 -50l-93 29q0 64 31.5 111t80.5 47 q28 0 89.5 -31.5t88.5 -31.5q16 0 28 22.5t12 53.5z" />
<glyph unicode="&#x1eab;" horiz-adv-x="964" d="M617 0q-12 25 -24 84q-76 -104 -206 -104q-136 0 -225.5 90t-89.5 233q0 170 108.5 263t312.5 95h86v87q0 73 -25 103t-73 30q-106 0 -106 -124h-283q0 150 112.5 247.5t284.5 97.5q178 0 275.5 -92.5t97.5 -264.5v-509q2 -140 40 -219v-17h-285zM450 202q47 0 80 19 t49 45v225h-68q-72 0 -113.5 -46t-41.5 -123q0 -120 94 -120zM800 1215h-195l-125 126l-127 -126h-194l246 225h149zM696 1652q0 -63 -33 -109.5t-81 -46.5q-38 0 -94 32t-84 32q-18 0 -28.5 -21t-10.5 -50l-93 29q0 64 31.5 111t80.5 47q28 0 89.5 -31.5t88.5 -31.5 q16 0 28 22.5t12 53.5z" />
<glyph unicode="&#x1eac;" horiz-adv-x="1223" d="M812 298h-401l-78 -298h-311l455 1456h269l458 -1456h-314zM475 543h272l-136 519zM960 1566v-12h-221l-125 144l-125 -144h-216v16l260 276h162zM615 -89q73 0 118.5 -39.5t45.5 -99.5t-45.5 -99.5t-118.5 -39.5q-72 0 -117.5 39.5t-45.5 99.5t45.5 99.5t117.5 39.5z " />
<glyph unicode="&#x1ead;" horiz-adv-x="964" d="M617 0q-12 25 -24 84q-76 -104 -206 -104q-136 0 -225.5 90t-89.5 233q0 170 108.5 263t312.5 95h86v87q0 73 -25 103t-73 30q-106 0 -106 -124h-283q0 150 112.5 247.5t284.5 97.5q178 0 275.5 -92.5t97.5 -264.5v-509q2 -140 40 -219v-17h-285zM450 202q47 0 80 19 t49 45v225h-68q-72 0 -113.5 -46t-41.5 -123q0 -120 94 -120zM824 1256v-12h-221l-125 144l-125 -144h-216v16l260 276h162zM413 -79q73 0 118.5 -39.5t45.5 -99.5t-45.5 -99.5t-118.5 -39.5q-72 0 -117.5 39.5t-45.5 99.5t45.5 99.5t117.5 39.5z" />
<glyph unicode="&#x1eae;" horiz-adv-x="1223" d="M812 298h-401l-78 -298h-311l455 1456h269l458 -1456h-314zM475 543h272l-136 519zM915 1767q0 -105 -82.5 -169.5t-220.5 -64.5q-137 0 -220 65t-83 169h184q0 -55 31.5 -83.5t87.5 -28.5t87.5 28.5t31.5 83.5h184zM639 1956h194l-147 -187h-143z" />
<glyph unicode="&#x1eaf;" horiz-adv-x="964" d="M617 0q-12 25 -24 84q-76 -104 -206 -104q-136 0 -225.5 90t-89.5 233q0 170 108.5 263t312.5 95h86v87q0 73 -25 103t-73 30q-106 0 -106 -124h-283q0 150 112.5 247.5t284.5 97.5q178 0 275.5 -92.5t97.5 -264.5v-509q2 -140 40 -219v-17h-285zM450 202q47 0 80 19 t49 45v225h-68q-72 0 -113.5 -46t-41.5 -123q0 -120 94 -120zM779 1457q0 -105 -82.5 -169.5t-220.5 -64.5q-137 0 -220 65t-83 169h184q0 -55 31.5 -83.5t87.5 -28.5t87.5 28.5t31.5 83.5h184zM503 1646h194l-147 -187h-143z" />
<glyph unicode="&#x1eb0;" horiz-adv-x="1223" d="M812 298h-401l-78 -298h-311l455 1456h269l458 -1456h-314zM475 543h272l-136 519zM915 1769q0 -105 -82.5 -169.5t-220.5 -64.5q-137 0 -220 65t-83 169h184q0 -54 32 -83t87 -29t87 29t32 83h184zM403 1956h194l96 -187h-143z" />
<glyph unicode="&#x1eb1;" horiz-adv-x="964" d="M617 0q-12 25 -24 84q-76 -104 -206 -104q-136 0 -225.5 90t-89.5 233q0 170 108.5 263t312.5 95h86v87q0 73 -25 103t-73 30q-106 0 -106 -124h-283q0 150 112.5 247.5t284.5 97.5q178 0 275.5 -92.5t97.5 -264.5v-509q2 -140 40 -219v-17h-285zM450 202q47 0 80 19 t49 45v225h-68q-72 0 -113.5 -46t-41.5 -123q0 -120 94 -120zM779 1459q0 -105 -82.5 -169.5t-220.5 -64.5q-137 0 -220 65t-83 169h184q0 -54 32 -83t87 -29t87 29t32 83h184zM267 1646h194l96 -187h-143z" />
<glyph unicode="&#x1eb2;" horiz-adv-x="1223" d="M812 298h-401l-78 -298h-311l455 1456h269l458 -1456h-314zM475 543h272l-136 519zM915 1758q0 -104 -82 -168t-223 -64t-224.5 63.5t-83.5 168.5h186q0 -50 31 -78.5t91 -28.5q58 0 89 28.5t31 78.5h185zM517 1789l-16 106q106 4 106 49q0 32 -27 42.5t-76 10.5l6 107 q151 0 224.5 -40t73.5 -111q0 -45 -30 -74.5t-85 -37.5l-1 -52h-175z" />
<glyph unicode="&#x1eb3;" horiz-adv-x="964" d="M617 0q-12 25 -24 84q-76 -104 -206 -104q-136 0 -225.5 90t-89.5 233q0 170 108.5 263t312.5 95h86v87q0 73 -25 103t-73 30q-106 0 -106 -124h-283q0 150 112.5 247.5t284.5 97.5q178 0 275.5 -92.5t97.5 -264.5v-509q2 -140 40 -219v-17h-285zM450 202q47 0 80 19 t49 45v225h-68q-72 0 -113.5 -46t-41.5 -123q0 -120 94 -120zM779 1449q0 -104 -82 -168t-223 -64t-224.5 63.5t-83.5 168.5h186q0 -50 31 -78.5t91 -28.5q58 0 89 28.5t31 78.5h185zM381 1480l-16 106q106 4 106 49q0 32 -27 42.5t-76 10.5l6 107q151 0 224.5 -40 t73.5 -111q0 -45 -30 -74.5t-85 -37.5l-1 -52h-175z" />
<glyph unicode="&#x1eb4;" horiz-adv-x="1223" d="M812 298h-401l-78 -298h-311l455 1456h269l458 -1456h-314zM475 543h272l-136 519zM914 1762q0 -107 -84 -172t-221 -65q-136 0 -220 65t-84 172h184q0 -53 32.5 -80.5t87.5 -27.5q59 0 90 29t31 79h184zM859 2035q0 -75 -41 -128t-98 -53q-46 0 -106 33.5t-94 33.5 q-22 0 -36 -24.5t-14 -61.5l-113 34q0 75 40 129t99 54q35 0 100.5 -33.5t99.5 -33.5q20 0 34.5 24.5t14.5 61.5z" />
<glyph unicode="&#x1eb5;" horiz-adv-x="964" d="M617 0q-12 25 -24 84q-76 -104 -206 -104q-136 0 -225.5 90t-89.5 233q0 170 108.5 263t312.5 95h86v87q0 73 -25 103t-73 30q-106 0 -106 -124h-283q0 150 112.5 247.5t284.5 97.5q178 0 275.5 -92.5t97.5 -264.5v-509q2 -140 40 -219v-17h-285zM450 202q47 0 80 19 t49 45v225h-68q-72 0 -113.5 -46t-41.5 -123q0 -120 94 -120zM778 1453q0 -107 -84 -172t-221 -65q-136 0 -220 65t-84 172h184q0 -53 32.5 -80.5t87.5 -27.5q59 0 90 29t31 79h184zM723 1726q0 -75 -41 -128t-98 -53q-46 0 -106 33.5t-94 33.5q-22 0 -36 -24.5t-14 -61.5 l-113 34q0 75 40 129t99 54q35 0 100.5 -33.5t99.5 -33.5q20 0 34.5 24.5t14.5 61.5z" />
<glyph unicode="&#x1eb6;" horiz-adv-x="1223" d="M812 298h-401l-78 -298h-311l455 1456h269l458 -1456h-314zM475 543h272l-136 519zM962 1837q0 -133 -95.5 -215t-251.5 -82q-157 0 -252.5 82t-95.5 215h207q0 -62 37.5 -96.5t103.5 -34.5q65 0 102 34.5t37 96.5h208zM615 -89q73 0 118.5 -39.5t45.5 -99.5t-45.5 -99.5 t-118.5 -39.5q-72 0 -117.5 39.5t-45.5 99.5t45.5 99.5t117.5 39.5z" />
<glyph unicode="&#x1eb7;" horiz-adv-x="964" d="M617 0q-12 25 -24 84q-76 -104 -206 -104q-136 0 -225.5 90t-89.5 233q0 170 108.5 263t312.5 95h86v87q0 73 -25 103t-73 30q-106 0 -106 -124h-283q0 150 112.5 247.5t284.5 97.5q178 0 275.5 -92.5t97.5 -264.5v-509q2 -140 40 -219v-17h-285zM450 202q47 0 80 19 t49 45v225h-68q-72 0 -113.5 -46t-41.5 -123q0 -120 94 -120zM826 1527q0 -133 -95.5 -215t-251.5 -82q-157 0 -252.5 82t-95.5 215h207q0 -62 37.5 -96.5t103.5 -34.5q65 0 102 34.5t37 96.5h208zM413 -79q73 0 118.5 -39.5t45.5 -99.5t-45.5 -99.5t-118.5 -39.5 q-72 0 -117.5 39.5t-45.5 99.5t45.5 99.5t117.5 39.5z" />
<glyph unicode="&#x1eb8;" horiz-adv-x="1005" d="M869 630h-458v-386h542v-244h-836v1456h834v-245h-540v-344h458v-237zM558 -85q73 0 118.5 -39.5t45.5 -99.5t-45.5 -99.5t-118.5 -39.5q-72 0 -117.5 39.5t-45.5 99.5t45.5 99.5t117.5 39.5z" />
<glyph unicode="&#x1eb9;" d="M540 -20q-218 0 -340 130t-122 372v86q0 256 112 395t321 139q204 0 307 -130.5t105 -386.5v-139h-563q6 -120 53 -175.5t145 -55.5q142 0 237 97l111 -171q-52 -72 -151 -116.5t-215 -44.5zM362 644h283v26q-2 97 -32 147t-104 50t-107.5 -53t-39.5 -170zM498 -95 q73 0 118.5 -39.5t45.5 -99.5t-45.5 -99.5t-118.5 -39.5q-72 0 -117.5 39.5t-45.5 99.5t45.5 99.5t117.5 39.5z" />
<glyph unicode="&#x1eba;" horiz-adv-x="1005" d="M869 630h-458v-386h542v-244h-836v1456h834v-245h-540v-344h458v-237zM451 1577l-16 134q57 4 82 18.5t25 46.5q0 40 -27.5 54t-76.5 14l6 137q168 0 251.5 -52.5t83.5 -142.5q0 -56 -30.5 -94.5t-87.5 -49.5v-65h-210z" />
<glyph unicode="&#x1ebb;" d="M540 -20q-218 0 -340 130t-122 372v86q0 256 112 395t321 139q204 0 307 -130.5t105 -386.5v-139h-563q6 -120 53 -175.5t145 -55.5q142 0 237 97l111 -171q-52 -72 -151 -116.5t-215 -44.5zM362 644h283v26q-2 97 -32 147t-104 50t-107.5 -53t-39.5 -170zM368 1265 l-16 134q57 4 82 18.5t25 46.5q0 40 -27.5 54t-76.5 14l6 137q168 0 251.5 -52.5t83.5 -142.5q0 -56 -30.5 -94.5t-87.5 -49.5v-65h-210z" />
<glyph unicode="&#x1ebc;" horiz-adv-x="1005" d="M869 630h-458v-386h542v-244h-836v1456h834v-245h-540v-344h458v-237zM880 1834q0 -111 -56.5 -188.5t-142.5 -77.5q-32 0 -56.5 9t-69 37t-63 34t-40.5 6q-27 0 -45 -24.5t-18 -70.5l-160 9q0 111 57 189.5t140 78.5q22 0 42.5 -6.5t71 -35t72.5 -36t44 -7.5 q26 0 45.5 24.5t19.5 70.5z" />
<glyph unicode="&#x1ebd;" d="M540 -20q-218 0 -340 130t-122 372v86q0 256 112 395t321 139q204 0 307 -130.5t105 -386.5v-139h-563q6 -120 53 -175.5t145 -55.5q142 0 237 97l111 -171q-52 -72 -151 -116.5t-215 -44.5zM362 644h283v26q-2 97 -32 147t-104 50t-107.5 -53t-39.5 -170zM797 1522 q0 -111 -56.5 -188.5t-142.5 -77.5q-32 0 -56.5 9t-69 37t-63 34t-40.5 6q-27 0 -45 -24.5t-18 -70.5l-160 9q0 111 57 189.5t140 78.5q22 0 42.5 -6.5t71 -35t72.5 -36t44 -7.5q26 0 45.5 24.5t19.5 70.5z" />
<glyph unicode="&#x1ebe;" horiz-adv-x="1005" d="M869 630h-458v-386h542v-244h-836v1456h834v-245h-540v-344h458v-237zM480 1767h151l245 -230h-203l-118 126l-118 -126h-202zM950 1942h220l-203 -272h-157z" />
<glyph unicode="&#x1ebf;" d="M540 -20q-218 0 -340 130t-122 372v86q0 256 112 395t321 139q204 0 307 -130.5t105 -386.5v-139h-563q6 -120 53 -175.5t145 -55.5q142 0 237 97l111 -171q-52 -72 -151 -116.5t-215 -44.5zM362 644h283v26q-2 97 -32 147t-104 50t-107.5 -53t-39.5 -170zM397 1455h151 l245 -230h-203l-118 126l-118 -126h-202zM867 1630h220l-203 -272h-157z" />
<glyph unicode="&#x1ec0;" horiz-adv-x="1005" d="M869 630h-458v-386h542v-244h-836v1456h834v-245h-540v-344h458v-237zM878 1536h-202l-118 126l-119 -126h-202l245 230h150zM303 1669h-157l-202 272h219z" />
<glyph unicode="&#x1ec1;" d="M540 -20q-218 0 -340 130t-122 372v86q0 256 112 395t321 139q204 0 307 -130.5t105 -386.5v-139h-563q6 -120 53 -175.5t145 -55.5q142 0 237 97l111 -171q-52 -72 -151 -116.5t-215 -44.5zM362 644h283v26q-2 97 -32 147t-104 50t-107.5 -53t-39.5 -170zM795 1224h-202 l-118 126l-119 -126h-202l245 230h150zM220 1357h-157l-202 272h219z" />
<glyph unicode="&#x1ec2;" horiz-adv-x="1005" d="M869 630h-458v-386h542v-244h-836v1456h834v-245h-540v-344h458v-237zM874 1532h-195l-125 133l-127 -133h-194l240 230h160zM780 1659l-13 113q94 8 94 55q0 59 -92 59l7 114q127 0 189.5 -43.5t62.5 -120.5q0 -47 -26.5 -80.5t-73.5 -41.5v-55h-148z" />
<glyph unicode="&#x1ec3;" d="M540 -20q-218 0 -340 130t-122 372v86q0 256 112 395t321 139q204 0 307 -130.5t105 -386.5v-139h-563q6 -120 53 -175.5t145 -55.5q142 0 237 97l111 -171q-52 -72 -151 -116.5t-215 -44.5zM362 644h283v26q-2 97 -32 147t-104 50t-107.5 -53t-39.5 -170zM791 1220h-195 l-125 133l-127 -133h-194l240 230h160zM697 1347l-13 113q94 8 94 55q0 59 -92 59l7 114q127 0 189.5 -43.5t62.5 -120.5q0 -47 -26.5 -80.5t-73.5 -41.5v-55h-148z" />
<glyph unicode="&#x1ec4;" horiz-adv-x="1005" d="M869 630h-458v-386h542v-244h-836v1456h834v-245h-540v-344h458v-237zM878 1527h-195l-125 126l-127 -126h-194l246 225h149zM774 1964q0 -63 -33 -109.5t-81 -46.5q-38 0 -94 32t-84 32q-18 0 -28.5 -21t-10.5 -50l-93 29q0 64 31.5 111t80.5 47q28 0 89.5 -31.5 t88.5 -31.5q16 0 28 22.5t12 53.5z" />
<glyph unicode="&#x1ec5;" d="M540 -20q-218 0 -340 130t-122 372v86q0 256 112 395t321 139q204 0 307 -130.5t105 -386.5v-139h-563q6 -120 53 -175.5t145 -55.5q142 0 237 97l111 -171q-52 -72 -151 -116.5t-215 -44.5zM362 644h283v26q-2 97 -32 147t-104 50t-107.5 -53t-39.5 -170zM795 1215h-195 l-125 126l-127 -126h-194l246 225h149zM691 1652q0 -63 -33 -109.5t-81 -46.5q-38 0 -94 32t-84 32q-18 0 -28.5 -21t-10.5 -50l-93 29q0 64 31.5 111t80.5 47q28 0 89.5 -31.5t88.5 -31.5q16 0 28 22.5t12 53.5z" />
<glyph unicode="&#x1ec6;" horiz-adv-x="1005" d="M869 630h-458v-386h542v-244h-836v1456h834v-245h-540v-344h458v-237zM902 1569v-12h-221l-125 144l-125 -144h-216v16l260 276h162zM558 -85q73 0 118.5 -39.5t45.5 -99.5t-45.5 -99.5t-118.5 -39.5q-72 0 -117.5 39.5t-45.5 99.5t45.5 99.5t117.5 39.5z" />
<glyph unicode="&#x1ec7;" d="M540 -20q-218 0 -340 130t-122 372v86q0 256 112 395t321 139q204 0 307 -130.5t105 -386.5v-139h-563q6 -120 53 -175.5t145 -55.5q142 0 237 97l111 -171q-52 -72 -151 -116.5t-215 -44.5zM362 644h283v26q-2 97 -32 147t-104 50t-107.5 -53t-39.5 -170zM819 1256v-12 h-221l-125 144l-125 -144h-216v16l260 276h162zM498 -95q73 0 118.5 -39.5t45.5 -99.5t-45.5 -99.5t-118.5 -39.5q-72 0 -117.5 39.5t-45.5 99.5t45.5 99.5t117.5 39.5z" />
<glyph unicode="&#x1ec8;" horiz-adv-x="554" d="M424 0h-294v1456h294v-1456zM170 1577l-16 134q57 4 82 18.5t25 46.5q0 40 -27.5 54t-76.5 14l6 137q168 0 251.5 -52.5t83.5 -142.5q0 -56 -30.5 -94.5t-87.5 -49.5v-65h-210z" />
<glyph unicode="&#x1ec9;" horiz-adv-x="537" d="M407 0h-283v1082h283v-1082zM163 1249l-16 134q57 4 82 18.5t25 46.5q0 40 -27.5 54t-76.5 14l6 137q168 0 251.5 -52.5t83.5 -142.5q0 -56 -30.5 -94.5t-87.5 -49.5v-65h-210z" />
<glyph unicode="&#x1eca;" horiz-adv-x="554" d="M424 0h-294v1456h294v-1456zM275 -93q73 0 118.5 -39.5t45.5 -99.5t-45.5 -99.5t-118.5 -39.5q-72 0 -117.5 39.5t-45.5 99.5t45.5 99.5t117.5 39.5z" />
<glyph unicode="&#x1ecb;" horiz-adv-x="516" d="M400 0h-284v1082h284v-1082zM103 1362q0 66 42 108t112 42t112 -42t42 -108q0 -65 -41.5 -108t-112.5 -43t-112.5 43t-41.5 108zM256 -85q73 0 118.5 -39.5t45.5 -99.5t-45.5 -99.5t-118.5 -39.5q-72 0 -117.5 39.5t-45.5 99.5t45.5 99.5t117.5 39.5z" />
</font>
</defs>
</svg>
