<?xml version="1.0" standalone="no"?>
<!DOCTYPE svg PUBLIC "-//W3C//DTD SVG 1.1//EN" "http://www.w3.org/Graphics/SVG/1.1/DTD/svg11.dtd" >
<svg xmlns="http://www.w3.org/2000/svg" xmlns:xlink="http://www.w3.org/1999/xlink" version="1.1">
<metadata></metadata>
<defs>
<font id="roboto_condensedbold_italic" horiz-adv-x="961" >
<font-face units-per-em="2048" ascent="1536" descent="-512" />
<missing-glyph horiz-adv-x="468" />
<glyph unicode="&#xfb01;" horiz-adv-x="1094" d="M50 0l151 869h-127l37 213h119l8 44q38 214 162 324.5t314 108.5q74 -2 144 -20.5t139 -41.5l-68 -240q-111 50 -217 50q-165 0 -201 -193l-6 -32h173l-38 -213h-161l-151 -869h-278zM867 0h-277l188 1082h277z" />
<glyph unicode="&#xfb02;" horiz-adv-x="1102" d="M827 1315q-78 9 -104 9q-79 -1 -127 -44t-62 -120l-12 -78h165l-37 -213h-164l-151 -869h-277l151 869h-127l37 213h127l12 92q28 183 145 285.5t298 100.5q110 -1 222 -12l210 -21l-258 -1527h-277z" />
<glyph horiz-adv-x="0" />
<glyph horiz-adv-x="0" />
<glyph unicode="&#xd;" horiz-adv-x="468" />
<glyph horiz-adv-x="0" />
<glyph unicode=" "  horiz-adv-x="468" />
<glyph unicode="&#x09;" horiz-adv-x="468" />
<glyph unicode="&#xa0;" horiz-adv-x="468" />
<glyph unicode="!" horiz-adv-x="527" d="M355 448h-229l143 1008h293zM35 132q0 69 43.5 114t107.5 47q64 0 107 -43t43 -107q0 -69 -42 -114t-108 -47q-67 0 -109 44t-42 106z" />
<glyph unicode="&#x22;" horiz-adv-x="646" d="M381 1385l-100 -400h-162l87 551h199zM698 1385l-100 -400h-162l87 551h199z" />
<glyph unicode="#" horiz-adv-x="1058" d="M513 410h-124l-129 -410h-176l130 410h-176l30 173h200l90 283h-180l31 174h203l132 416h175l-133 -416h125l132 416h175l-132 -416h172l-30 -174h-196l-90 -283h175l-30 -173h-199l-129 -410h-176zM442 583h125l90 283h-124z" />
<glyph unicode="$" horiz-adv-x="1015" d="M614 392q16 141 -99 212.5t-168.5 120t-83.5 100t-42 108.5t-7 129q12 166 114 276.5t268 134.5l39 214h149l-41 -220q127 -36 189.5 -153.5t54.5 -308.5h-277l2 40q8 194 -91 198q-99 3 -130 -145l-6 -36q-15 -130 99.5 -206t155.5 -112q81 -71 116.5 -155t27.5 -196 q-12 -169 -112 -277t-270 -132l-38 -199h-147l38 201q-146 30 -220.5 152t-64.5 320h277l-1 -74q0 -79 29 -124.5t86 -45.5q62 0 102.5 48t50.5 130z" />
<glyph unicode="%" horiz-adv-x="1279" d="M489 1478q119 -4 182.5 -89t54.5 -213l-6 -77q-14 -138 -95 -220.5t-199 -78.5q-116 2 -181.5 87t-56.5 212l6 67q13 141 92.5 227.5t202.5 84.5zM368 1097v-40q4 -87 65 -90q38 -2 66.5 33t37.5 99l8 78l1 41q0 89 -64 92q-40 2 -68 -35t-37 -99zM904 658 q119 -4 183 -89t55 -212l-6 -67q-13 -144 -93 -229.5t-201 -81.5q-114 2 -181 85.5t-58 214.5l6 66q13 148 94 231.5t201 81.5zM784 277v-39q2 -38 19 -64.5t46 -27.5q85 -6 104 133l9 79l1 41q-4 88 -65 91q-39 2 -67.5 -34t-37.5 -99zM339 112l-128 82l769 1126l129 -82z " />
<glyph unicode="&#x26;" horiz-adv-x="1160" d="M43 385q8 105 71 197t202 188q-39 99 -55 171.5t-11 142.5q13 175 118.5 286t260.5 107q131 -4 212 -100t73 -233q-11 -194 -202 -334l-90 -66l134 -252q56 113 71 223l230 1q-24 -279 -170 -457l135 -259h-296l-37 74q-148 -97 -299 -93q-167 4 -263 117t-84 287z M421 215q60 -3 156 52l-161 325l-11 -8q-45 -61 -64 -118t-15 -122q2 -55 27 -91.5t68 -37.5zM488 1091q-8 -67 36 -167l53 36q92 68 101 166q3 52 -16 84t-56 32q-45 0 -77 -42t-41 -109z" />
<glyph unicode="'" horiz-adv-x="330" d="M389 1375l-89 -392h-181l87 553h208z" />
<glyph unicode="(" horiz-adv-x="652" d="M693 1618l42 -160q-141 -132 -233.5 -333.5t-139 -507.5t-39.5 -501q11 -285 136 -418l-64 -153q-154 103 -229 323t-59 524q15 279 93.5 536.5t204.5 433t288 256.5z" />
<glyph unicode=")" horiz-adv-x="652" d="M535 572q-36 -250 -121 -465t-203.5 -356.5t-260.5 -207.5l-38 157q143 137 235.5 341t137.5 506t40 497q-5 136 -39.5 243.5t-96.5 173.5l61 154q145 -92 222.5 -283.5t81.5 -464.5l-1 -98q-5 -85 -18 -197z" />
<glyph unicode="*" horiz-adv-x="912" d="M390 968l-289 88l86 174l285 -129l44 355h191l-80 -349l309 120l27 -192l-328 -90l160 -270l-164 -106l-126 293l-223 -279l-146 117z" />
<glyph unicode="+" horiz-adv-x="954" d="M640 816h275l-46 -263h-274l-71 -407h-262l71 407h-280l46 263h279l68 390h262z" />
<glyph unicode="," horiz-adv-x="498" d="M29 -367l-146 80l62 99q75 123 92 221l37 213h240l-32 -192q-43 -255 -253 -421z" />
<glyph unicode="-" horiz-adv-x="732" d="M578 506h-476l42 236h476z" />
<glyph unicode="." horiz-adv-x="588" d="M43 138q0 70 46 116.5t115 46.5t114 -43.5t45 -107.5q0 -72 -48 -117t-114 -45q-70 0 -113 43t-45 107z" />
<glyph unicode="/" horiz-adv-x="668" d="M79 -125h-210l698 1581h210z" />
<glyph unicode="0" horiz-adv-x="1015" d="M418 -20q-112 3 -189 63t-111.5 173.5t-30.5 252.5q2 70 10 133l43 281q48 298 174 448.5t321 145.5q169 -6 253.5 -134t78.5 -354q-2 -70 -10 -133l-46 -297q-59 -334 -212 -476q-118 -109 -281 -103zM685 898l13 110l2 87q-2 66 -25 105.5t-66 42.5q-74 6 -122.5 -73 t-71.5 -272l-48 -336l-13 -112l-2 -87q4 -145 92 -150q73 -6 121.5 71t71.5 278z" />
<glyph unicode="1" horiz-adv-x="1015" d="M593 0h-277l192 1106l-288 -106l44 247l541 211h34z" />
<glyph unicode="2" horiz-adv-x="1015" d="M832 0h-834l33 211l449 490q185 204 198 350l2 53q0 63 -24 101t-70 39q-136 3 -171 -223l-3 -23l-275 -1q10 132 74 244.5t169 174.5t232 61q178 -4 273 -115.5t79 -292.5q-9 -104 -60 -204.5t-148 -212.5l-137 -150l-223 -267h473z" />
<glyph unicode="3" horiz-adv-x="1015" d="M379 857l124 -2q92 2 142.5 79.5t42.5 189.5q-11 117 -103 120q-58 0 -97 -44t-52 -120l-276 -1q14 177 137 288.5t299 109.5q177 -4 280 -114.5t91 -294.5q-15 -205 -232 -325q78 -46 115 -129t30 -198q-9 -126 -72.5 -226.5t-172.5 -156.5t-238 -53 q-171 4 -270.5 119.5t-93.5 300.5l276 -1q-3 -83 28 -132.5t88 -51.5q86 -2 140 77t47 201q-3 60 -34 96t-88 39l-147 1z" />
<glyph unicode="4" horiz-adv-x="1015" d="M808 550h121l-41 -235h-120l-55 -315h-277l56 315h-467l20 196l636 945h284zM326 550h206l93 491l-10 -15z" />
<glyph unicode="5" horiz-adv-x="1015" d="M139 720l185 736h687l-38 -242h-457l-84 -313q71 53 163 55q137 2 218.5 -96.5t89.5 -275.5q9 -269 -127 -440t-347 -165q-168 4 -270.5 126t-98.5 302h273q6 -188 115 -191q89 -4 137 98q46 99 45 255q-2 77 -33.5 123t-91.5 46q-80 2 -144 -78z" />
<glyph unicode="6" horiz-adv-x="1015" d="M877 1472l-24 -241l-10 1q-148 2 -256 -86.5t-178 -275.5q106 106 229 104q130 -2 203.5 -105t78.5 -279q5 -266 -132 -440.5t-345 -170.5q-161 4 -254.5 125t-100.5 327q-3 67 4 129l13 99q50 373 242 591.5t486 221.5h44zM533 743q-90 3 -157 -119q-20 -160 -20 -216 q0 -191 103 -194q87 -3 136.5 99t48.5 244q-2 85 -30.5 135t-80.5 51z" />
<glyph unicode="7" horiz-adv-x="1015" d="M1028 1280l-642 -1280h-301l639 1221h-562l37 235h856z" />
<glyph unicode="8" horiz-adv-x="1015" d="M972 1077q-15 -211 -220 -332q75 -63 105 -152t22 -186q-14 -192 -140 -312.5t-315 -114.5q-175 4 -273 118.5t-84 292.5q19 243 251 364q-122 115 -109 305q8 121 66 219t152.5 149.5t211.5 48.5q166 -4 257 -116t76 -284zM609 491q-8 137 -100 139q-76 2 -122.5 -79.5 t-40.5 -199.5q2 -61 28.5 -99t74.5 -39q76 -2 120.5 79t39.5 199zM697 1115q-4 126 -83 128q-64 0 -99 -68t-35 -182q0 -59 21 -95t61 -37q66 0 101 72t34 182z" />
<glyph unicode="9" horiz-adv-x="1015" d="M219 228q149 -4 252 78t164 257q-102 -92 -197 -92q-131 0 -207 100t-84 278q-9 156 51.5 308t171.5 237.5t248 82.5q106 -3 182.5 -62t116 -168.5t41.5 -237.5q2 -101 -24 -262q-38 -237 -136.5 -409.5t-247.5 -261.5t-330 -92h-37l25 244h11zM525 691q64 0 118 78 l23 35q23 190 23 241q0 194 -95 197q-85 2 -131 -116t-41 -271q3 -79 29.5 -121.5t73.5 -42.5z" />
<glyph unicode=":" horiz-adv-x="555" d="M45 138q0 70 46 116.5t115 46.5t114 -43.5t45 -107.5q0 -72 -48 -117t-114 -45q-70 0 -113 43t-45 107zM186 956q0 70 46 116.5t115 46.5t114 -43.5t45 -107.5q0 -72 -48 -117t-114 -45q-70 0 -113 43t-45 107z" />
<glyph unicode=";" horiz-adv-x="516" d="M170 956q0 70 46 116.5t115 46.5t114 -43.5t45 -107.5q0 -72 -48 -117t-114 -45q-70 0 -113 43t-45 107zM52 -367l-146 80l62 99q75 123 92 221l37 213h240l-32 -192q-43 -255 -253 -421z" />
<glyph unicode="&#x3c;" horiz-adv-x="898" d="M328 611l406 -199l-47 -270l-645 365l42 238l771 365l-51 -295z" />
<glyph unicode="=" horiz-adv-x="1009" d="M894 744h-742l42 238h742zM819 311h-742l42 237h742z" />
<glyph unicode="&#x3e;" horiz-adv-x="912" d="M570 627l-414 201l47 268l654 -365l-41 -238l-782 -365l52 293z" />
<glyph unicode="?" horiz-adv-x="900" d="M278 447q8 118 48 210.5t129 179t123 148.5t37 147q2 49 -17 79t-58 31q-48 1 -82.5 -45t-47.5 -128l-275 -1q19 190 133.5 301.5t295.5 107.5q167 -4 257 -109t76 -277q-11 -154 -160 -304l-121 -118q-77 -82 -100 -221zM190 136q0 70 43 114.5t107 46.5q62 2 106 -40.5 t44 -109.5q0 -69 -42 -114t-109 -47q-67 0 -108 44.5t-41 105.5z" />
<glyph unicode="@" horiz-adv-x="1532" d="M990 -22q-66 2 -114 36t-68 98q-108 -134 -216 -131q-88 2 -139 69t-57 195q-10 168 58 357t174.5 290t238.5 99q67 -2 123.5 -25.5t130.5 -82.5l-127 -582q-13 -76 -11 -97q2 -63 53 -65q79 -4 136.5 89.5t90.5 282.5t23 339q-15 197 -108 298t-256 104 q-147 4 -275.5 -75.5t-229 -245t-153.5 -384.5t-42 -408q10 -201 102.5 -307t259.5 -108q139 -2 285 68l23 -159q-121 -88 -312 -86q-182 3 -306.5 87.5t-184.5 247t-53 366.5q9 309 134.5 587.5t320.5 431t435 148.5q168 -3 287.5 -83.5t180.5 -236.5t59 -354 q-4 -219 -65 -398t-163 -274t-235 -91zM607 272q0 -112 66 -115q34 -1 70 41t60 115l120 496q-26 7 -41 7q-185 8 -250 -334q-27 -141 -25 -210z" />
<glyph unicode="A" horiz-adv-x="1196" d="M738 298h-387l-127 -298h-312l694 1456h263l191 -1456h-297zM456 543h262l-41 516z" />
<glyph unicode="B" horiz-adv-x="1125" d="M9 0l252 1456l403 -1q210 0 320 -101.5t97 -288.5q-17 -222 -232 -322q77 -32 113 -111.5t28 -195.5q-15 -203 -144.5 -319.5t-347.5 -116.5h-489zM406 633l-68 -389l168 -2q95 2 149.5 69.5t56.5 192.5q0 120 -101 128zM442 847l136 -2q109 2 165 74t48 184 q-10 101 -120 107l-165 1z" />
<glyph unicode="C" horiz-adv-x="1143" d="M1042 486q-27 -237 -174.5 -374.5t-373.5 -131.5q-194 4 -300 128t-112 344q-2 75 8 151l37 241q47 309 203.5 473t388.5 159q203 -3 312 -134.5t109 -381.5l-289 1l2 99q-3 168 -157 173q-119 4 -188 -86.5t-93 -293.5l-36 -251q-14 -120 -15 -157q-10 -216 152 -223 q101 -5 161 53.5t84 208.5z" />
<glyph unicode="D" horiz-adv-x="1132" d="M9 0l252 1456l359 -1q159 -4 268.5 -83t157 -219t25.5 -313l-32 -213q-44 -294 -212.5 -460t-423.5 -167h-394zM506 1211l-168 -967l71 -2q149 0 231 86.5t110 278.5l34 236q14 115 11 168q-5 100 -51 148t-136 51z" />
<glyph unicode="E" horiz-adv-x="985" d="M849 630h-444l-67 -386h526l-43 -244h-812l252 1456h811l-43 -245h-523l-60 -344h445z" />
<glyph unicode="F" horiz-adv-x="955" d="M842 594h-443l-103 -594h-287l252 1456h784l-43 -245h-496l-65 -373h444z" />
<glyph unicode="G" horiz-adv-x="1172" d="M1010 165q-81 -90 -211 -138.5t-279 -46.5q-131 1 -227 57.5t-148.5 164t-56.5 247.5q-3 76 7 155l36 241q46 304 198 470t396 161q208 -4 313.5 -125.5t107.5 -359.5l-279 1l-3 80q-13 156 -153 161q-207 8 -272 -273l-15 -75l-40 -281q-13 -96 -10 -164 q5 -112 50.5 -162.5t128.5 -52.5q78 -2 174 51l51 268h-201l39 222h486z" />
<glyph unicode="H" horiz-adv-x="1229" d="M1001 0h-286l108 623h-419l-108 -623h-287l252 1456h287l-102 -589h419l103 589h286z" />
<glyph unicode="I" horiz-adv-x="547" d="M308 0h-287l253 1456h287z" />
<glyph unicode="J" horiz-adv-x="984" d="M732 1456h287l-172 -1008q-29 -212 -158 -342.5t-316 -126.5q-181 4 -274 125.5t-82 326.5l290 -1l-2 -63q-2 -65 22 -104t73 -40q118 -3 156 194z" />
<glyph unicode="K" horiz-adv-x="1109" d="M512 558l-146 -154l-70 -404h-287l252 1456h287l-108 -619l116 154l336 465h367l-527 -653l266 -803h-327z" />
<glyph unicode="L" d="M338 244h501l-43 -244h-787l252 1456h287z" />
<glyph unicode="M" horiz-adv-x="1516" d="M631 1456l85 -1047l447 1047h378l-253 -1456h-288l70 403l126 575l-446 -978h-195l-110 1011l-83 -627l-66 -384h-287l252 1456h370z" />
<glyph unicode="N" horiz-adv-x="1226" d="M998 0h-280l-254 965l-168 -965h-287l252 1456h281l255 -966l168 966h286z" />
<glyph unicode="O" horiz-adv-x="1209" d="M512 -20q-192 4 -304.5 126t-122.5 339q-4 75 6 152l37 242q29 194 113 344t209 223t282 70q194 -4 304.5 -132.5t118.5 -351.5q2 -84 -9 -159l-33 -223q-45 -300 -202.5 -467.5t-398.5 -162.5zM859 843q12 103 12 159q-5 223 -161 229q-120 5 -193.5 -90.5 t-102.5 -299.5l-35 -245q-12 -99 -9 -155q5 -210 165 -217q114 -4 187 84t102 288z" />
<glyph unicode="P" horiz-adv-x="1140" d="M385 512l-89 -512h-287l252 1456l467 -1q191 -6 299.5 -136.5t91.5 -336.5q-20 -214 -162 -342.5t-362 -128.5zM427 757l185 -2q107 2 166 82.5t56 216.5q-2 69 -33 110t-86 45l-209 2z" />
<glyph unicode="Q" horiz-adv-x="1209" d="M829 86l163 -187l-197 -159l-215 244q-42 -5 -73 -3q-125 1 -220 59.5t-146.5 170.5t-55.5 252q-3 84 8 158l32 213q46 302 203.5 474.5t401.5 167.5q195 -4 305.5 -132.5t118.5 -351.5q2 -77 -8 -153l-35 -231q-57 -365 -282 -522zM859 843q12 103 12 159 q-5 222 -163 229q-228 9 -290 -351l-38 -266q-12 -103 -11 -159q0 -110 42 -169t121 -62q111 -6 185 82.5t106 288.5z" />
<glyph unicode="R" horiz-adv-x="1110" d="M535 532h-146l-92 -532h-287l252 1456l440 -1q195 -6 299 -120t88 -311q-25 -299 -272 -416l146 -592v-16h-308zM431 777l151 -2q104 2 164 82.5t59 213.5q-4 131 -115 139l-183 1z" />
<glyph unicode="S" horiz-adv-x="1083" d="M680 390q10 74 -21.5 123.5t-131 97t-166.5 98.5q-183 139 -168 351q9 122 76.5 217.5t180.5 148.5t242 50q187 -4 292.5 -129.5t97.5 -321.5l-286 1q11 205 -131 208q-73 2 -125.5 -47.5t-63.5 -127.5q-15 -117 162 -200t254 -187q86 -115 73 -280q-15 -190 -150 -303.5 t-337 -109.5q-203 4 -321 138t-108 343l288 -1q-8 -129 33.5 -184.5t130.5 -55.5q78 1 123 48.5t56 122.5z" />
<glyph unicode="T" horiz-adv-x="1089" d="M1135 1211h-349l-210 -1211h-288l210 1211h-344l43 245h981z" />
<glyph unicode="U" horiz-adv-x="1145" d="M1195 1456l-170 -1000q-31 -227 -169 -354t-362 -123q-210 4 -318 132t-83 345l170 1000h288l-168 -1001l-4 -86q0 -140 139 -145q96 -3 150 51t71 180l169 1001h287z" />
<glyph unicode="V" horiz-adv-x="1158" d="M539 403l402 1053h327l-635 -1456h-299l-177 1456h311z" />
<glyph unicode="W" horiz-adv-x="1498" d="M1020 545l276 911h288l-478 -1456h-288l-30 854l-296 -854h-289l-25 1456h282l-11 -908l307 908h242z" />
<glyph unicode="X" horiz-adv-x="1122" d="M607 958l267 498h339l-452 -735l221 -721h-322l-113 507l-272 -507h-343l462 746l-216 710h317z" />
<glyph unicode="Y" horiz-adv-x="1088" d="M570 805l325 651h323l-548 -942l-89 -514h-291l95 543l-216 913h302z" />
<glyph unicode="Z" horiz-adv-x="1063" d="M356 244h575l-43 -244h-917l33 190l746 1021h-575l43 245h912l-32 -186z" />
<glyph unicode="[" horiz-adv-x="534" d="M621 1471h-102l-248 -1587h102l-35 -223h-379l318 2034h379z" />
<glyph unicode="\" horiz-adv-x="768" d="M162 1456h273l221 -1581h-273z" />
<glyph unicode="]" horiz-adv-x="534" d="M204 1695h379l-318 -2034h-380l36 223h102l248 1587h-103z" />
<glyph unicode="^" horiz-adv-x="786" d="M496 1181l-206 -452h-226l371 727h199l117 -727h-207z" />
<glyph unicode="_" horiz-adv-x="804" d="M630 -228h-754l40 228h754z" />
<glyph unicode="`" horiz-adv-x="668" d="M642 1226h-217l-220 310h293z" />
<glyph unicode="a" horiz-adv-x="945" d="M510 0q-8 34 -8 84q-92 -105 -210 -105q-125 2 -200.5 92t-69.5 224q9 172 134 269.5t336 97.5h81l13 88l3 45q0 87 -70 87q-97 3 -118 -124l-275 -2q9 154 128 251.5t290 95.5q161 -4 246.5 -101.5t69.5 -257.5l-88 -550l-4 -53q-4 -70 14 -123l-1 -18h-271zM368 200 q73 -2 136 64l49 229h-60q-80 -4 -129 -54t-59 -126l-1 -38q0 -32 16.5 -53t47.5 -22z" />
<glyph unicode="b" horiz-adv-x="994" d="M495 -21q-138 6 -208 130l-35 -109h-257l267 1536h276l-105 -543q94 112 213 110q142 -2 211.5 -106t62.5 -302q-8 -231 -58.5 -398.5t-143.5 -245t-223 -72.5zM648 692q3 93 -22 132t-79 41q-77 3 -139 -80l-86 -496q30 -72 113 -76q155 -8 185 219l9 74z" />
<glyph unicode="c" horiz-adv-x="924" d="M419 213q114 -3 141 161l259 1q-17 -180 -133 -290t-283 -106q-151 4 -240.5 90.5t-106.5 241.5q-15 126 14.5 304t109.5 297q131 196 373 190q164 -5 250 -118.5t77 -306.5l-260 1l1 62q-4 124 -98 129q-147 8 -175 -228l-19 -181q-12 -81 -8 -135q7 -109 98 -112z" />
<glyph unicode="d" horiz-adv-x="995" d="M475 1103q119 -4 193 -111l102 544h278l-266 -1536h-248l15 110q-104 -132 -229 -132q-139 2 -209.5 107t-67.5 302l3 64q23 330 130.5 493.5t298.5 158.5zM318 391q-5 -87 20.5 -131.5t78.5 -44.5q71 -2 136 75l87 497q-37 76 -107 79q-148 8 -186 -214l-11 -76z" />
<glyph unicode="e" d="M441 -20q-131 1 -222.5 64t-132 176.5t-24.5 258.5l9 74q33 269 163.5 411.5t332.5 137.5q148 -4 232.5 -92.5t98.5 -247.5q8 -95 -4 -186l-19 -130h-540q-5 -43 -3 -83q7 -144 141 -147q125 -4 242 95l93 -172q-55 -75 -153.5 -118t-213.5 -41zM540 869 q-119 5 -166 -152l-20 -73l275 -1q10 58 11 94q4 127 -100 132z" />
<glyph unicode="f" horiz-adv-x="661" d="M58 0l151 869h-127l37 213l127 1l12 91q24 183 127 285.5t266 100.5q49 0 132 -20l-23 -228q-37 11 -67 11q-127 0 -156 -148l-14 -93h164l-37 -213h-164l-151 -869h-277z" />
<glyph unicode="g" horiz-adv-x="1009" d="M488 1102q144 -4 210 -118l34 99l252 -1l-184 -1082q-29 -211 -161.5 -322t-333.5 -105q-88 2 -174 36t-144 94l113 194q83 -94 207 -98q180 -7 220 198l20 90q-97 -108 -214 -108q-142 2 -214.5 109.5t-70.5 297.5q0 118 23.5 252.5t67.5 227.5q114 242 349 236z M321 389q0 -170 109 -173q73 -2 137 62l93 520q-38 65 -110 69q-176 9 -212 -284q-17 -140 -17 -194z" />
<glyph unicode="h" horiz-adv-x="988" d="M425 986q103 119 227 117q119 -2 182 -88t63 -239l-5 -95l-114 -681h-277l113 684l5 59q4 122 -87 122q-66 2 -128 -70l-139 -795h-277l267 1536h276z" />
<glyph unicode="i" horiz-adv-x="511" d="M285 0h-277l188 1082h277zM232 1357q0 69 43.5 112.5t106.5 43.5q62 2 105.5 -40.5t43.5 -105.5q0 -70 -43.5 -113.5t-106.5 -43.5q-64 -2 -106.5 40.5t-42.5 106.5z" />
<glyph unicode="j" horiz-adv-x="498" d="M474 1082l-194 -1139q-24 -186 -118.5 -285t-246.5 -99q-67 2 -133 18l21 234q47 -13 74 -13q100 0 125 144l195 1140h277zM227 1357q0 66 42 110t108 46q62 2 105.5 -40.5t43.5 -105.5q0 -70 -43.5 -113.5t-106.5 -43.5q-64 -2 -106.5 40.5t-42.5 106.5z" />
<glyph unicode="k" d="M424 413l-97 -92l-56 -321h-276l267 1536h276l-153 -833l44 54l245 325h345l-394 -459l220 -623h-303z" />
<glyph unicode="l" horiz-adv-x="511" d="M285 0h-277l266 1536h278z" />
<glyph unicode="m" horiz-adv-x="1483" d="M440 1083l-18 -102q112 125 255 121q155 -4 202 -146q123 150 274 147q114 -2 174.5 -85.5t59.5 -237.5l-5 -92l-114 -688h-277l115 690l5 56q8 120 -80 120q-71 0 -130 -97l-6 -48l-125 -721h-276l114 688l6 56q8 122 -79 122q-42 0 -71.5 -23.5t-54.5 -55.5l-137 -787 h-276l188 1082z" />
<glyph unicode="n" horiz-adv-x="988" d="M434 1083l-20 -109q114 133 253 129q114 -2 173.5 -85.5t58.5 -237.5l-6 -92l-115 -688h-277l114 690l5 59q4 117 -88 117q-43 0 -73 -23.5t-56 -55.5l-137 -787h-278l188 1082z" />
<glyph unicode="o" horiz-adv-x="998" d="M565 1102q164 -4 256 -111t101 -287v-71q-13 -314 -150.5 -486.5t-358.5 -166.5q-129 3 -213 69.5t-120.5 184.5t-20.5 271l6 54q29 255 163 401.5t337 141.5zM331 392q0 -173 106 -179q144 -8 187 220l11 72q14 144 14 185q0 172 -109 179q-79 4 -130 -73t-65 -222.5 t-14 -181.5z" />
<glyph unicode="p" horiz-adv-x="994" d="M493 -20q-127 4 -198 109l-96 -505h-276l260 1498l252 1l-15 -100q99 122 225 120q142 -2 212 -108t63 -304q-8 -233 -60 -395.5t-145.5 -241.5t-221.5 -74zM646 694q0 94 -24.5 132t-76.5 40q-74 2 -135 -73l-90 -510q32 -65 112 -69q154 -8 190 239l22 204z" />
<glyph unicode="q" horiz-adv-x="997" d="M473 1102q140 -4 208 -130l43 110h245l-260 -1498h-278l98 501q-94 -108 -210 -106q-138 2 -208 106.5t-67 303.5l3 65q23 327 127.5 490t298.5 158zM320 389q-3 -91 21.5 -132t76.5 -43q73 -2 133 67l91 518q-32 66 -106 69q-152 8 -190 -224l-10 -71z" />
<glyph unicode="r" horiz-adv-x="669" d="M663 810l-88 10q-111 2 -179 -105l-125 -715h-277l188 1082l259 1l-22 -119q49 78 96 109.5t101 31.5q32 0 85 -15z" />
<glyph unicode="s" horiz-adv-x="912" d="M516 297q10 70 -109 125t-178.5 103.5t-87 107.5t-24.5 134q7 147 120.5 242.5t277.5 93.5q162 -4 255.5 -96.5t91.5 -244.5h-276q3 71 -18.5 100.5t-67.5 29.5q-48 0 -81.5 -32.5t-41.5 -78.5q-12 -65 101.5 -116t163.5 -85q149 -99 139 -271q-6 -101 -62.5 -176.5 t-151 -115.5t-204.5 -37q-158 4 -258 103t-98 253l263 -1q-3 -78 25 -112t87 -34q52 0 88.5 27.5t45.5 80.5z" />
<glyph unicode="t" horiz-adv-x="620" d="M550 1348l-46 -266h140l-37 -213h-140l-92 -545l-3 -32q-4 -67 56 -69q17 -1 68 5l-25 -222q-62 -25 -144 -25q-121 2 -182 87t-47 232l93 569h-122l37 213h121l47 266h276z" />
<glyph unicode="u" horiz-adv-x="988" d="M540 99q-102 -122 -238 -120q-106 1 -170 71.5t-74 192.5q-6 71 1 139l117 700h276l-117 -704l-3 -49q-4 -50 14.5 -81t55.5 -32q82 -3 150 83l136 783h279l-188 -1082h-257z" />
<glyph unicode="v" horiz-adv-x="902" d="M411 405l238 677h294l-457 -1082h-263l-121 1082h283z" />
<glyph unicode="w" horiz-adv-x="1267" d="M840 477l199 605h270l-405 -1082h-229l-39 622l-256 -622h-231l-30 1082h260l-13 -601l243 601h197z" />
<glyph unicode="x" horiz-adv-x="909" d="M471 763l172 319h303l-330 -542l159 -540h-283l-75 337l-181 -337h-305l343 566l-152 516h283z" />
<glyph unicode="y" horiz-adv-x="897" d="M411 476l245 606h302l-558 -1245q-61 -146 -142 -211.5t-187 -65.5q-43 0 -122 21l24 221l30 -2q113 -2 166 101l46 103l-112 1078h289z" />
<glyph unicode="z" horiz-adv-x="909" d="M349 235h408l-41 -235h-743l33 190l512 656h-389l42 236h727l-32 -184z" />
<glyph unicode="{" horiz-adv-x="602" d="M355 -359q-137 55 -199.5 172.5t-44.5 292.5l29 212l4 60q4 121 -99 134l23 208q144 10 172 209l28 204q46 360 365 466l38 -164q-112 -58 -147 -247l-41 -291q-36 -189 -202 -283q95 -81 105 -220q3 -42 -1 -85l-36 -274q-6 -52 -3 -95q7 -96 70 -138z" />
<glyph unicode="|" horiz-adv-x="513" d="M204 -270h-173l270 1726h173z" />
<glyph unicode="}" horiz-adv-x="602" d="M-73 -197q112 58 147 247l41 291q36 190 206 282q-100 78 -110 220v68l39 300q5 44 2 87q-7 95 -71 138l65 160q135 -54 196.5 -172t43.5 -292l-29 -212l-4 -60q-4 -123 100 -136l-23 -208q-146 -10 -173 -209l-33 -235q-56 -333 -356 -436z" />
<glyph unicode="~" horiz-adv-x="1117" d="M1033 795q-17 -193 -101.5 -308t-217.5 -113q-117 3 -211 126l-27 36q-40 55 -83 55q-89 0 -119 -179l-201 3q9 117 50.5 213.5t109 149.5t159.5 51q122 -4 218 -133l26 -37q36 -47 77 -47q93 0 123 182z" />
<glyph unicode="&#xa1;" horiz-adv-x="548" d="M162 638h229l-142 -1007h-294zM482 952q0 -69 -44 -114.5t-107 -45.5q-63 -2 -106.5 41.5t-43.5 107.5q0 70 43.5 115.5t107.5 45.5q63 2 106.5 -41.5t43.5 -108.5z" />
<glyph unicode="&#xa2;" horiz-adv-x="1021" d="M443 213q112 -3 140 161l258 2q-14 -151 -104 -252t-232 -133l-47 -236h-187l48 238q-109 32 -171 130.5t-69 241.5q-4 81 7 187q30 229 135.5 367.5t274.5 172.5l46 226h187l-46 -230q112 -35 170.5 -142t50.5 -269l-260 1q4 100 -20.5 144t-76.5 47q-145 4 -177 -249 q-26 -207 -22 -279q7 -125 95 -128z" />
<glyph unicode="&#xa3;" horiz-adv-x="1052" d="M510 575l-17 -136q-15 -115 -95 -198l523 3l-42 -244h-881l37 243l70 -2q64 29 84 130l31 204h-124l41 237h118l30 226q25 203 145.5 323t294.5 115q167 -4 257 -117.5t81 -302.5l-274 1q4 97 -19 137t-70 40q-109 0 -134 -218l-23 -204h243l-42 -237h-234z" />
<glyph unicode="&#xa4;" horiz-adv-x="1384" d="M968 105q-182 -129 -369 -125q-196 4 -331 126l-152 -132l-120 156l154 127q-27 85 -37 171q-19 145 23.5 288t147.5 260l-115 155l150 133l110 -143q175 116 354 112q185 -2 321 -116l169 148l122 -157l-170 -141q62 -185 42 -352q-25 -202 -157 -359l112 -149 l-152 -134zM294 599q-15 -109 19.5 -209t111.5 -159t182 -63q114 -4 217.5 55t175 166t87.5 228q14 110 -20 208t-111 157t-181 63q-115 4 -220.5 -56t-175 -165t-85.5 -225z" />
<glyph unicode="&#xa5;" horiz-adv-x="1078" d="M583 908l285 548h325l-423 -714h166l-31 -176h-236l-21 -114h238l-31 -175h-236l-49 -277h-287l49 277h-257l31 175h255l21 114h-257l31 176h204l-176 714h303z" />
<glyph unicode="&#xa6;" horiz-adv-x="511" d="M-28 -270l138 795h256l-138 -795h-256zM395 698h-256l132 758h256z" />
<glyph unicode="&#xa7;" horiz-adv-x="1107" d="M979 490q-15 -180 -182 -281q81 -112 68 -278q-15 -180 -147.5 -283.5t-331.5 -99.5t-305.5 115t-98.5 304l275 -1q-9 -180 148 -180q74 0 124.5 38t61.5 106q15 99 -117 157l-57 24q-197 79 -270 177t-62 237q15 178 181 283q-82 113 -69 278q15 179 151.5 286.5 t331.5 103.5q189 -4 290.5 -118t93.5 -310l-275 1q6 188 -129 191q-74 0 -124.5 -40t-62.5 -112q-15 -103 101 -155l134 -55l69 -34q221 -118 202 -354zM441 697q-57 -55 -73 -141q-12 -73 29 -121.5t179 -97.5l43 -17q66 61 80 141q12 68 -34.5 120t-177.5 98z" />
<glyph unicode="&#xa8;" horiz-adv-x="940" d="M209 1361q0 53 38.5 92t96.5 41q56 0 96 -36.5t40 -88.5q0 -56 -39 -93t-95 -39q-59 0 -98 36.5t-39 87.5zM684 1361q0 56 39 93t95 39q58 0 97 -37t39 -87q0 -56 -39 -93t-95 -39q-58 0 -97 35.5t-39 88.5z" />
<glyph unicode="&#xa9;" horiz-adv-x="1568" d="M1090 596q-12 -152 -105 -235t-244 -79q-147 4 -228.5 113t-68.5 274l10 101q19 188 123 298t261 108q148 -4 226 -88t74 -228l-152 1q5 90 -31 134.5t-117 46.5q-90 2 -151 -66t-76.5 -185t-16.5 -159l1 -48q5 -75 42 -119.5t103 -47.5q168 -7 199 178zM231 571 q19 -204 147.5 -334.5t316.5 -132.5q184 -4 348 105t256.5 296t74.5 382q-19 202 -145 330.5t-318 133.5q-185 4 -349.5 -105t-256.5 -295t-74 -380zM114 722q22 198 133 374.5t286 280t372 99.5q178 -2 321 -100.5t215 -272.5t51 -368q-23 -204 -135.5 -380t-287.5 -277.5 t-367 -97.5q-186 4 -327 104t-211.5 273t-49.5 365z" />
<glyph unicode="&#xaa;" horiz-adv-x="791" d="M532 702l-1 33v33q-73 -77 -161 -77q-89 0 -139.5 62t-46.5 158q3 114 84.5 177t221.5 63l78 -1l12 54l5 38q4 84 -55 86q-84 2 -108 -99l-165 14q8 106 82.5 171t187.5 63q107 -2 165.5 -76.5t49.5 -200.5l-54 -355l-3 -50q-2 -45 4 -92zM410 833q47 0 120 56l34 146 l-66 -1q-67 -5 -104.5 -37t-44.5 -82q-11 -78 61 -82z" />
<glyph unicode="&#xab;" horiz-adv-x="902" d="M265 509l114 -385h-157l-166 389l1 19l288 391h185zM596 509l114 -385h-157l-166 389l1 19l288 391h185z" />
<glyph unicode="&#xac;" horiz-adv-x="973" d="M772 374h-188l45 260h-502l31 171h689z" />
<glyph unicode="&#xad;" horiz-adv-x="732" d="M578 506h-476l42 236h476z" />
<glyph unicode="&#xae;" horiz-adv-x="1568" d="M114 722q22 198 133 374.5t286 280t372 99.5q178 -2 321 -100.5t215 -272.5t51 -368q-23 -204 -135.5 -380t-287.5 -277.5t-367 -97.5q-186 4 -327 104t-211.5 273t-49.5 365zM231 571q19 -202 145 -332t319 -135q158 -4 306.5 79.5t247.5 232.5t122 320 q21 159 -31.5 302t-164.5 226t-264 87q-185 4 -349.5 -105t-256.5 -295t-74 -380zM653 653l-53 -337h-148l133 850l259 -1q143 -5 218 -74t68 -181q-6 -110 -135 -186q67 -48 73 -150q1 -30 -5.5 -90.5t-5.5 -88.5l4 -62l-1 -18h-148q-6 37 -4 73l13 128q6 63 -15.5 97 t-87.5 38zM673 787l119 -1q82 3 133.5 35t61.5 88q11 59 -18.5 89.5t-117.5 33.5l-139 1z" />
<glyph unicode="&#xaf;" horiz-adv-x="920" d="M869 1290h-614l27 167h614z" />
<glyph unicode="&#xb0;" horiz-adv-x="782" d="M229 1191q2 112 86 200t200 86q101 -2 170.5 -79.5t67.5 -188.5q-4 -119 -87 -202t-194 -81q-105 2 -176 81t-67 184zM372 1193q-6 -48 22.5 -82.5t75.5 -34.5q52 0 93 39.5t47 91.5q7 50 -20 86t-72 36q-52 0 -96 -41.5t-50 -94.5z" />
<glyph unicode="&#xb1;" horiz-adv-x="949" d="M644 945h252l-38 -243h-252l-57 -364h-242l58 364h-256l39 243h254l54 341h241zM726 1h-711l38 238h711z" />
<glyph unicode="&#xb2;" horiz-adv-x="676" d="M603 667h-519l26 149l265 248l30 32q79 84 79 158q0 52 -40 52q-64 0 -85 -113l-194 -1q8 120 84 198.5t189 78.5q114 0 181 -65.5t61 -176.5q-6 -118 -124 -226l-97 -84l-83 -85h256z" />
<glyph unicode="&#xb3;" horiz-adv-x="676" d="M329 1137h71q82 6 97 94q5 27 -5.5 48.5t-41.5 21.5q-48 0 -75 -59l-198 -1q10 107 83 168t180 59q116 -2 185 -62.5t65 -157.5q-5 -116 -139 -183q100 -43 95 -170q-4 -109 -88.5 -175.5t-210.5 -64.5q-109 2 -175.5 68.5t-66.5 180.5l190 -1q5 -82 67 -82q40 0 65.5 28 t31.5 65q13 81 -60 85h-82z" />
<glyph unicode="&#xb4;" horiz-adv-x="670" d="M427 1536h326l-319 -310h-246z" />
<glyph unicode="&#xb5;" horiz-adv-x="1101" d="M486 1082l-101 -622l-10 -95q-5 -146 86 -149q88 -2 155 86l135 780h278l-188 -1082h-246l7 52q-88 -74 -172 -74q-62 0 -121 36l-83 -430h-275l260 1498h275z" />
<glyph unicode="&#xb6;" horiz-adv-x="875" d="M438 0l98 522h-54q-113 2 -192 60.5t-116 164.5t-25 233q13 138 75.5 248t163.5 169.5t228 59.5l282 -1l-253 -1456h-207z" />
<glyph unicode="&#xb7;" horiz-adv-x="576" d="M144 690q0 71 44 117t108 46q64 2 107.5 -42t43.5 -109q0 -69 -43.5 -115.5t-108.5 -46.5q-64 -2 -107.5 41.5t-43.5 108.5z" />
<glyph unicode="&#xb8;" horiz-adv-x="506" d="M215 7l-18 -61q94 -28 94 -163q-3 -114 -88 -178t-244 -69l12 168q77 12 89 90q7 55 -52 65l-40 5l41 142z" />
<glyph unicode="&#xb9;" horiz-adv-x="676" d="M479 669h-193l94 542l-151 -40l30 168l326 116h23z" />
<glyph unicode="&#xba;" horiz-adv-x="816" d="M533 1477q127 -4 195 -104t56 -252l-5 -57q-16 -174 -106.5 -276.5t-223.5 -98.5q-128 4 -196 105.5t-56 249.5l6 63q16 169 106.5 271.5t223.5 98.5zM361 1042l-2 -62q0 -65 25.5 -105t71.5 -41q62 -2 103 54t54 156q9 100 9 141q0 66 -25 104.5t-70 40.5 q-62 2 -103.5 -53.5t-54.5 -155.5z" />
<glyph unicode="&#xbb;" horiz-adv-x="903" d="M302 923l166 -388l-2 -20l-287 -391h-187l266 413l-115 386h159zM640 923l166 -388l-2 -20l-287 -391h-187l266 413l-115 386h159z" />
<glyph unicode="&#xbc;" horiz-adv-x="1247" d="M442 664h-193l94 542l-151 -40l30 168l326 116h23zM329 120l-128 82l769 1126l129 -82zM1043 326l61 1l-21 -168l-62 1l-31 -160h-193l28 159h-269l13 149l358 480l192 2zM760 327h93l44 204l-12 -16z" />
<glyph unicode="&#xbd;" horiz-adv-x="1326" d="M295 120l-128 82l769 1126l129 -82zM430 670h-193l94 542l-151 -40l30 168l326 116h23zM1132 0h-519l26 149l265 248l30 32q79 84 79 158q0 52 -40 52q-64 0 -85 -113l-194 -1q8 120 84 198.5t189 78.5q114 0 181 -65.5t61 -176.5q-6 -118 -124 -226l-97 -84l-83 -85h256 z" />
<glyph unicode="&#xbe;" horiz-adv-x="1410" d="M461 120l-128 82l769 1126l129 -82zM1176 326l61 1l-21 -168l-62 1l-31 -160h-193l28 159h-269l13 149l358 480l192 2zM893 327h93l44 204l-12 -16zM367 1138h71q82 6 97 94q5 27 -5.5 48.5t-41.5 21.5q-48 0 -75 -59l-198 -1q10 107 83 168t180 59q116 -2 185 -62.5 t65 -157.5q-5 -116 -139 -183q100 -43 95 -170q-4 -109 -88.5 -175.5t-210.5 -64.5q-109 2 -175.5 68.5t-66.5 180.5l190 -1q5 -82 67 -82q40 0 65.5 28t31.5 65q13 81 -60 85h-82z" />
<glyph unicode="&#xbf;" horiz-adv-x="898" d="M589 644q-11 -128 -48 -213t-116 -166l-55 -58q-98 -105 -111 -209l-3 -47q0 -100 71 -102q104 -3 137 173l276 1q-17 -189 -133 -301t-298 -108q-168 4 -257.5 108.5t-75.5 276.5q13 150 148 296l128 127q80 85 101 220zM688 953q0 -68 -43 -114t-107 -46 q-63 -2 -107 41t-44 108q0 70 44 115.5t107 45.5q63 2 106.5 -41.5t43.5 -108.5z" />
<glyph unicode="&#xc0;" horiz-adv-x="1196" d="M738 298h-387l-127 -298h-312l694 1456h263l191 -1456h-297zM456 543h262l-41 516zM892 1536h-217l-220 310h293z" />
<glyph unicode="&#xc1;" horiz-adv-x="1196" d="M738 298h-387l-127 -298h-312l694 1456h263l191 -1456h-297zM456 543h262l-41 516zM855 1846h326l-319 -310h-246z" />
<glyph unicode="&#xc2;" horiz-adv-x="1196" d="M738 298h-387l-127 -298h-312l694 1456h263l191 -1456h-297zM456 543h262l-41 516zM1101 1569v-18l-210 3l-95 143l-147 -142l-216 -3v20l289 274l155 1z" />
<glyph unicode="&#xc3;" horiz-adv-x="1196" d="M738 298h-387l-127 -298h-312l694 1456h263l191 -1456h-297zM456 543h262l-41 516zM1112 1832q-8 -119 -65 -195t-144 -74q-33 0 -59 15l-94 58q-33 18 -65 16q-56 -3 -79 -96l-157 9q8 119 66.5 196t144.5 75q42 -1 110 -46.5t110 -42.5q48 3 71 66l10 30z" />
<glyph unicode="&#xc4;" horiz-adv-x="1196" d="M738 298h-387l-127 -298h-312l694 1456h263l191 -1456h-297zM456 543h262l-41 516zM406 1671q0 53 38.5 92t96.5 41q56 0 96 -36.5t40 -88.5q0 -56 -39 -93t-95 -39q-59 0 -98 36.5t-39 87.5zM881 1671q0 56 39 93t95 39q58 0 97 -37t39 -87q0 -56 -39 -93t-95 -39 q-58 0 -97 35.5t-39 88.5z" />
<glyph unicode="&#xc5;" horiz-adv-x="1196" d="M738 298h-387l-127 -298h-312l694 1456h263l191 -1456h-297zM456 543h262l-41 516zM576 1723q0 89 67 151t159 62q85 0 146 -57t61 -142q0 -86 -65.5 -147.5t-160.5 -61.5q-85 0 -146 56t-61 139zM689 1724q-5 -41 17 -71t65 -30q46 0 82.5 33t42.5 80q6 43 -17.5 73 t-64.5 30q-44 0 -81.5 -33.5t-43.5 -81.5z" />
<glyph unicode="&#xc6;" horiz-adv-x="1634" d="M1451 0h-756l47 333h-317l-186 -333h-335l876 1456h873l-42 -238h-470l-49 -352h393l-42 -238h-384l-55 -390h489zM563 582h214l69 505z" />
<glyph unicode="&#xc7;" horiz-adv-x="1143" d="M1042 486q-27 -237 -174.5 -374.5t-373.5 -131.5q-194 4 -300 128t-112 344q-2 75 8 151l37 241q47 309 203.5 473t388.5 159q203 -3 312 -134.5t109 -381.5l-289 1l2 99q-3 168 -157 173q-119 4 -188 -86.5t-93 -293.5l-36 -251q-14 -120 -15 -157q-10 -216 152 -223 q101 -5 161 53.5t84 208.5zM575 6l-18 -61q94 -28 94 -163q-3 -114 -88 -178t-244 -69l12 168q77 12 89 90q7 55 -52 65l-40 5l41 142z" />
<glyph unicode="&#xc8;" horiz-adv-x="985" d="M849 630h-444l-67 -386h526l-43 -244h-812l252 1456h811l-43 -245h-523l-60 -344h445zM837 1539h-217l-220 310h293z" />
<glyph unicode="&#xc9;" horiz-adv-x="985" d="M849 630h-444l-67 -386h526l-43 -244h-812l252 1456h811l-43 -245h-523l-60 -344h445zM800 1849h326l-319 -310h-246z" />
<glyph unicode="&#xca;" horiz-adv-x="985" d="M849 630h-444l-67 -386h526l-43 -244h-812l252 1456h811l-43 -245h-523l-60 -344h445zM1046 1572v-18l-210 3l-95 143l-147 -142l-216 -3v20l289 274l155 1z" />
<glyph unicode="&#xcb;" horiz-adv-x="985" d="M849 630h-444l-67 -386h526l-43 -244h-812l252 1456h811l-43 -245h-523l-60 -344h445zM351 1674q0 53 38.5 92t96.5 41q56 0 96 -36.5t40 -88.5q0 -56 -39 -93t-95 -39q-59 0 -98 36.5t-39 87.5zM826 1674q0 56 39 93t95 39q58 0 97 -37t39 -87q0 -56 -39 -93t-95 -39 q-58 0 -97 35.5t-39 88.5z" />
<glyph unicode="&#xcc;" horiz-adv-x="547" d="M308 0h-287l253 1456h287zM565 1539h-217l-220 310h293z" />
<glyph unicode="&#xcd;" horiz-adv-x="547" d="M308 0h-287l253 1456h287zM527 1849h326l-319 -310h-246z" />
<glyph unicode="&#xce;" horiz-adv-x="547" d="M308 0h-287l253 1456h287zM774 1572v-18l-210 3l-95 143l-147 -142l-216 -3v20l289 274l155 1z" />
<glyph unicode="&#xcf;" horiz-adv-x="547" d="M308 0h-287l253 1456h287zM79 1674q0 53 38.5 92t96.5 41q56 0 96 -36.5t40 -88.5q0 -56 -39 -93t-95 -39q-59 0 -98 36.5t-39 87.5zM554 1674q0 56 39 93t95 39q58 0 97 -37t39 -87q0 -56 -39 -93t-95 -39q-58 0 -97 35.5t-39 88.5z" />
<glyph unicode="&#xd0;" horiz-adv-x="1162" d="M39 0l111 641h-152l33 183h150l110 632l359 -1q159 -4 268.5 -83t157 -219t25.5 -313l-32 -213q-44 -294 -212.5 -460t-423.5 -167h-394zM589 641h-152l-69 -397l71 -2q149 0 231 86.5t110 278.5l34 236q14 115 11 168q-5 100 -51 148t-136 51l-102 1l-67 -387h152z" />
<glyph unicode="&#xd1;" horiz-adv-x="1226" d="M998 0h-280l-254 965l-168 -965h-287l252 1456h281l255 -966l168 966h286zM1128 1832q-8 -119 -65 -195t-144 -74q-33 0 -59 15l-94 58q-33 18 -65 16q-56 -3 -79 -96l-157 9q8 119 66.5 196t144.5 75q42 -1 110 -46.5t110 -42.5q48 3 71 66l10 30z" />
<glyph unicode="&#xd2;" horiz-adv-x="1209" d="M512 -20q-192 4 -304.5 126t-122.5 339q-4 75 6 152l37 242q29 194 113 344t209 223t282 70q194 -4 304.5 -132.5t118.5 -351.5q2 -84 -9 -159l-33 -223q-45 -300 -202.5 -467.5t-398.5 -162.5zM859 843q12 103 12 159q-5 223 -161 229q-120 5 -193.5 -90.5 t-102.5 -299.5l-35 -245q-12 -99 -9 -155q5 -210 165 -217q114 -4 187 84t102 288zM896 1536h-217l-220 310h293z" />
<glyph unicode="&#xd3;" horiz-adv-x="1209" d="M512 -20q-192 4 -304.5 126t-122.5 339q-4 75 6 152l37 242q29 194 113 344t209 223t282 70q194 -4 304.5 -132.5t118.5 -351.5q2 -84 -9 -159l-33 -223q-45 -300 -202.5 -467.5t-398.5 -162.5zM859 843q12 103 12 159q-5 223 -161 229q-120 5 -193.5 -90.5 t-102.5 -299.5l-35 -245q-12 -99 -9 -155q5 -210 165 -217q114 -4 187 84t102 288zM859 1846h326l-319 -310h-246z" />
<glyph unicode="&#xd4;" horiz-adv-x="1209" d="M512 -20q-192 4 -304.5 126t-122.5 339q-4 75 6 152l37 242q29 194 113 344t209 223t282 70q194 -4 304.5 -132.5t118.5 -351.5q2 -84 -9 -159l-33 -223q-45 -300 -202.5 -467.5t-398.5 -162.5zM859 843q12 103 12 159q-5 223 -161 229q-120 5 -193.5 -90.5 t-102.5 -299.5l-35 -245q-12 -99 -9 -155q5 -210 165 -217q114 -4 187 84t102 288zM1105 1569v-18l-210 3l-95 143l-147 -142l-216 -3v20l289 274l155 1z" />
<glyph unicode="&#xd5;" horiz-adv-x="1209" d="M512 -20q-192 4 -304.5 126t-122.5 339q-4 75 6 152l37 242q29 194 113 344t209 223t282 70q194 -4 304.5 -132.5t118.5 -351.5q2 -84 -9 -159l-33 -223q-45 -300 -202.5 -467.5t-398.5 -162.5zM859 843q12 103 12 159q-5 223 -161 229q-120 5 -193.5 -90.5 t-102.5 -299.5l-35 -245q-12 -99 -9 -155q5 -210 165 -217q114 -4 187 84t102 288zM1116 1832q-8 -119 -65 -195t-144 -74q-33 0 -59 15l-94 58q-33 18 -65 16q-56 -3 -79 -96l-157 9q8 119 66.5 196t144.5 75q42 -1 110 -46.5t110 -42.5q48 3 71 66l10 30z" />
<glyph unicode="&#xd6;" horiz-adv-x="1209" d="M512 -20q-192 4 -304.5 126t-122.5 339q-4 75 6 152l37 242q29 194 113 344t209 223t282 70q194 -4 304.5 -132.5t118.5 -351.5q2 -84 -9 -159l-33 -223q-45 -300 -202.5 -467.5t-398.5 -162.5zM859 843q12 103 12 159q-5 223 -161 229q-120 5 -193.5 -90.5 t-102.5 -299.5l-35 -245q-12 -99 -9 -155q5 -210 165 -217q114 -4 187 84t102 288zM410 1671q0 53 38.5 92t96.5 41q56 0 96 -36.5t40 -88.5q0 -56 -39 -93t-95 -39q-59 0 -98 36.5t-39 87.5zM885 1671q0 56 39 93t95 39q58 0 97 -37t39 -87q0 -56 -39 -93t-95 -39 q-58 0 -97 35.5t-39 88.5z" />
<glyph unicode="&#xd7;" horiz-adv-x="941" d="M27 385l303 310l-197 315l179 159l187 -299l291 298l140 -182l-307 -315l194 -308l-179 -160l-184 294l-285 -292z" />
<glyph unicode="&#xd8;" horiz-adv-x="1206" d="M517 -21q-127 2 -228 66l-96 -140l-186 1l169 246q-86 174 -79 402l2 40q16 278 104 479t227.5 304.5t309.5 99.5q132 -4 237 -72l78 113l188 -1l-156 -224q57 -127 69 -262q16 -178 -22 -383t-128 -362t-215 -233.5t-274 -73.5zM368 458l464 713q-43 54 -112 58 q-116 6 -195 -100t-117 -342q-34 -209 -40 -329zM888 977l-457 -703q39 -45 107 -49q227 -8 302 398q30 165 48 354z" />
<glyph unicode="&#xd9;" horiz-adv-x="1145" d="M1195 1456l-170 -1000q-31 -227 -169 -354t-362 -123q-210 4 -318 132t-83 345l170 1000h288l-168 -1001l-4 -86q0 -140 139 -145q96 -3 150 51t71 180l169 1001h287zM857 1536h-217l-220 310h293z" />
<glyph unicode="&#xda;" horiz-adv-x="1145" d="M1195 1456l-170 -1000q-31 -227 -169 -354t-362 -123q-210 4 -318 132t-83 345l170 1000h288l-168 -1001l-4 -86q0 -140 139 -145q96 -3 150 51t71 180l169 1001h287zM820 1846h326l-319 -310h-246z" />
<glyph unicode="&#xdb;" horiz-adv-x="1145" d="M1195 1456l-170 -1000q-31 -227 -169 -354t-362 -123q-210 4 -318 132t-83 345l170 1000h288l-168 -1001l-4 -86q0 -140 139 -145q96 -3 150 51t71 180l169 1001h287zM1066 1569v-18l-210 3l-95 143l-147 -142l-216 -3v20l289 274l155 1z" />
<glyph unicode="&#xdc;" horiz-adv-x="1145" d="M1195 1456l-170 -1000q-31 -227 -169 -354t-362 -123q-210 4 -318 132t-83 345l170 1000h288l-168 -1001l-4 -86q0 -140 139 -145q96 -3 150 51t71 180l169 1001h287zM371 1671q0 53 38.5 92t96.5 41q56 0 96 -36.5t40 -88.5q0 -56 -39 -93t-95 -39q-59 0 -98 36.5 t-39 87.5zM846 1671q0 56 39 93t95 39q58 0 97 -37t39 -87q0 -56 -39 -93t-95 -39q-58 0 -97 35.5t-39 88.5z" />
<glyph unicode="&#xdd;" horiz-adv-x="1088" d="M570 805l325 651h323l-548 -942l-89 -514h-291l95 543l-216 913h302zM801 1846h326l-319 -310h-246z" />
<glyph unicode="&#xde;" horiz-adv-x="1069" d="M541 1456l-47 -267l141 -1q194 -6 299.5 -127.5t89.5 -314.5q-18 -209 -159 -335t-356 -126l-171 1l-50 -286h-276l252 1456h277zM463 961l-85 -440l143 -2q110 2 175 88.5t55 209.5q-5 59 -37.5 95.5t-90.5 40.5l-156 3z" />
<glyph unicode="&#xdf;" horiz-adv-x="1121" d="M296 0h-276l188 1101q29 218 154.5 341t317.5 118q155 -4 241.5 -105t74.5 -259q-4 -43 -17 -81t-54.5 -119t-52 -110.5t-16.5 -62.5q-15 -82 63.5 -216.5t83.5 -208.5v-34q-12 -182 -127 -285.5t-296 -99.5q-138 2 -228 59l76 229q77 -57 164 -53q53 2 90 38.5t49 105.5 q7 47 -9 95.5t-62.5 121.5t-66 128t-14.5 106q4 54 29 110l76 158q38 82 32 155q-7 92 -85 97q-58 3 -96.5 -50.5t-54.5 -180.5z" />
<glyph unicode="&#xe0;" horiz-adv-x="945" d="M510 0q-8 34 -8 84q-92 -105 -210 -105q-125 2 -200.5 92t-69.5 224q9 172 134 269.5t336 97.5h81l13 88l3 45q0 87 -70 87q-97 3 -118 -124l-275 -2q9 154 128 251.5t290 95.5q161 -4 246.5 -101.5t69.5 -257.5l-88 -550l-4 -53q-4 -70 14 -123l-1 -18h-271zM368 200 q73 -2 136 64l49 229h-60q-80 -4 -129 -54t-59 -126l-1 -38q0 -32 16.5 -53t47.5 -22zM707 1226h-217l-220 310h293z" />
<glyph unicode="&#xe1;" horiz-adv-x="945" d="M510 0q-8 34 -8 84q-92 -105 -210 -105q-125 2 -200.5 92t-69.5 224q9 172 134 269.5t336 97.5h81l13 88l3 45q0 87 -70 87q-97 3 -118 -124l-275 -2q9 154 128 251.5t290 95.5q161 -4 246.5 -101.5t69.5 -257.5l-88 -550l-4 -53q-4 -70 14 -123l-1 -18h-271zM368 200 q73 -2 136 64l49 229h-60q-80 -4 -129 -54t-59 -126l-1 -38q0 -32 16.5 -53t47.5 -22zM670 1536h326l-319 -310h-246z" />
<glyph unicode="&#xe2;" horiz-adv-x="945" d="M510 0q-8 34 -8 84q-92 -105 -210 -105q-125 2 -200.5 92t-69.5 224q9 172 134 269.5t336 97.5h81l13 88l3 45q0 87 -70 87q-97 3 -118 -124l-275 -2q9 154 128 251.5t290 95.5q161 -4 246.5 -101.5t69.5 -257.5l-88 -550l-4 -53q-4 -70 14 -123l-1 -18h-271zM368 200 q73 -2 136 64l49 229h-60q-80 -4 -129 -54t-59 -126l-1 -38q0 -32 16.5 -53t47.5 -22zM916 1259v-18l-210 3l-95 143l-147 -142l-216 -3v20l289 274l155 1z" />
<glyph unicode="&#xe3;" horiz-adv-x="945" d="M510 0q-8 34 -8 84q-92 -105 -210 -105q-125 2 -200.5 92t-69.5 224q9 172 134 269.5t336 97.5h81l13 88l3 45q0 87 -70 87q-97 3 -118 -124l-275 -2q9 154 128 251.5t290 95.5q161 -4 246.5 -101.5t69.5 -257.5l-88 -550l-4 -53q-4 -70 14 -123l-1 -18h-271zM368 200 q73 -2 136 64l49 229h-60q-80 -4 -129 -54t-59 -126l-1 -38q0 -32 16.5 -53t47.5 -22zM927 1523q-8 -119 -65 -195t-144 -74q-33 0 -59 15l-94 58q-33 18 -65 16q-56 -3 -79 -96l-157 9q8 119 66.5 196t144.5 75q42 -1 110 -46.5t110 -42.5q48 3 71 66l10 30z" />
<glyph unicode="&#xe4;" horiz-adv-x="945" d="M510 0q-8 34 -8 84q-92 -105 -210 -105q-125 2 -200.5 92t-69.5 224q9 172 134 269.5t336 97.5h81l13 88l3 45q0 87 -70 87q-97 3 -118 -124l-275 -2q9 154 128 251.5t290 95.5q161 -4 246.5 -101.5t69.5 -257.5l-88 -550l-4 -53q-4 -70 14 -123l-1 -18h-271zM368 200 q73 -2 136 64l49 229h-60q-80 -4 -129 -54t-59 -126l-1 -38q0 -32 16.5 -53t47.5 -22zM221 1361q0 53 38.5 92t96.5 41q56 0 96 -36.5t40 -88.5q0 -56 -39 -93t-95 -39q-59 0 -98 36.5t-39 87.5zM696 1361q0 56 39 93t95 39q58 0 97 -37t39 -87q0 -56 -39 -93t-95 -39 q-58 0 -97 35.5t-39 88.5z" />
<glyph unicode="&#xe5;" horiz-adv-x="945" d="M510 0q-8 34 -8 84q-92 -105 -210 -105q-125 2 -200.5 92t-69.5 224q9 172 134 269.5t336 97.5h81l13 88l3 45q0 87 -70 87q-97 3 -118 -124l-275 -2q9 154 128 251.5t290 95.5q161 -4 246.5 -101.5t69.5 -257.5l-88 -550l-4 -53q-4 -70 14 -123l-1 -18h-271zM368 200 q73 -2 136 64l49 229h-60q-80 -4 -129 -54t-59 -126l-1 -38q0 -32 16.5 -53t47.5 -22zM391 1413q0 89 67 151t159 62q85 0 146 -57t61 -142q0 -86 -65.5 -147.5t-160.5 -61.5q-85 0 -146 56t-61 139zM504 1414q-5 -41 17 -71t65 -30q46 0 82.5 33t42.5 80q6 43 -17.5 73 t-64.5 30q-44 0 -81.5 -33.5t-43.5 -81.5z" />
<glyph unicode="&#xe6;" horiz-adv-x="1456" d="M945 -20q-200 5 -293 135q-145 -139 -333 -135q-141 2 -222.5 92t-73.5 239q10 161 131 250.5t328 89.5l119 -1l11 57l4 50q2 49 -17.5 79.5t-57.5 31.5q-46 2 -81.5 -29.5t-50.5 -93.5l-273 18q11 155 132 248.5t298 91.5q161 -2 249 -94q125 96 269 92t226 -104 t88 -271q2 -58 -5 -114l-25 -163h-518q-4 -41 -1 -81q5 -70 41.5 -109.5t100.5 -42.5q68 -2 127 20.5t117 54.5l53 -193q-57 -57 -149 -87.5t-194 -30.5zM386 192q63 0 152 67l38 201l-96 1q-73 -4 -120.5 -46.5t-57.5 -107.5q-7 -48 12.5 -81t71.5 -34zM1056 869 q-114 5 -169 -164l-18 -61l254 -1l11 88q8 133 -78 138z" />
<glyph unicode="&#xe7;" horiz-adv-x="924" d="M419 213q114 -3 141 161l259 1q-17 -180 -133 -290t-283 -106q-151 4 -240.5 90.5t-106.5 241.5q-15 126 14.5 304t109.5 297q131 196 373 190q164 -5 250 -118.5t77 -306.5l-260 1l1 62q-4 124 -98 129q-147 8 -175 -228l-19 -181q-12 -81 -8 -135q7 -109 98 -112z M479 6l-18 -61q94 -28 94 -163q-3 -114 -88 -178t-244 -69l12 168q77 12 89 90q7 55 -52 65l-40 5l41 142z" />
<glyph unicode="&#xe8;" d="M441 -20q-131 1 -222.5 64t-132 176.5t-24.5 258.5l9 74q33 269 163.5 411.5t332.5 137.5q148 -4 232.5 -92.5t98.5 -247.5q8 -95 -4 -186l-19 -130h-540q-5 -43 -3 -83q7 -144 141 -147q125 -4 242 95l93 -172q-55 -75 -153.5 -118t-213.5 -41zM540 869 q-119 5 -166 -152l-20 -73l275 -1q10 58 11 94q4 127 -100 132zM690 1226h-217l-220 310h293z" />
<glyph unicode="&#xe9;" d="M441 -20q-131 1 -222.5 64t-132 176.5t-24.5 258.5l9 74q33 269 163.5 411.5t332.5 137.5q148 -4 232.5 -92.5t98.5 -247.5q8 -95 -4 -186l-19 -130h-540q-5 -43 -3 -83q7 -144 141 -147q125 -4 242 95l93 -172q-55 -75 -153.5 -118t-213.5 -41zM540 869 q-119 5 -166 -152l-20 -73l275 -1q10 58 11 94q4 127 -100 132zM653 1536h326l-319 -310h-246z" />
<glyph unicode="&#xea;" d="M441 -20q-131 1 -222.5 64t-132 176.5t-24.5 258.5l9 74q33 269 163.5 411.5t332.5 137.5q148 -4 232.5 -92.5t98.5 -247.5q8 -95 -4 -186l-19 -130h-540q-5 -43 -3 -83q7 -144 141 -147q125 -4 242 95l93 -172q-55 -75 -153.5 -118t-213.5 -41zM540 869 q-119 5 -166 -152l-20 -73l275 -1q10 58 11 94q4 127 -100 132zM899 1259v-18l-210 3l-95 143l-147 -142l-216 -3v20l289 274l155 1z" />
<glyph unicode="&#xeb;" d="M441 -20q-131 1 -222.5 64t-132 176.5t-24.5 258.5l9 74q33 269 163.5 411.5t332.5 137.5q148 -4 232.5 -92.5t98.5 -247.5q8 -95 -4 -186l-19 -130h-540q-5 -43 -3 -83q7 -144 141 -147q125 -4 242 95l93 -172q-55 -75 -153.5 -118t-213.5 -41zM540 869 q-119 5 -166 -152l-20 -73l275 -1q10 58 11 94q4 127 -100 132zM205 1361q0 53 38.5 92t96.5 41q56 0 96 -36.5t40 -88.5q0 -56 -39 -93t-95 -39q-59 0 -98 36.5t-39 87.5zM680 1361q0 56 39 93t95 39q58 0 97 -37t39 -87q0 -56 -39 -93t-95 -39q-58 0 -97 35.5t-39 88.5z " />
<glyph unicode="&#xec;" horiz-adv-x="531" d="M292 0h-276l187 1082h277zM501 1211h-217l-220 310h293z" />
<glyph unicode="&#xed;" horiz-adv-x="531" d="M292 0h-276l187 1082h277zM463 1521h326l-319 -310h-246z" />
<glyph unicode="&#xee;" horiz-adv-x="531" d="M292 0h-276l187 1082h277zM710 1244v-18l-210 3l-95 143l-147 -142l-216 -3v20l289 274l155 1z" />
<glyph unicode="&#xef;" horiz-adv-x="531" d="M292 0h-276l187 1082h277zM15 1346q0 53 38.5 92t96.5 41q56 0 96 -36.5t40 -88.5q0 -56 -39 -93t-95 -39q-59 0 -98 36.5t-39 87.5zM490 1346q0 56 39 93t95 39q58 0 97 -37t39 -87q0 -56 -39 -93t-95 -39q-58 0 -97 35.5t-39 88.5z" />
<glyph unicode="&#xf0;" horiz-adv-x="1008" d="M843 1305q77 -157 101.5 -318t2.5 -334l-6 -50q-34 -277 -177 -453t-350 -171q-176 5 -273 143t-79 338q15 155 76.5 273.5t155 177t206.5 55.5q98 -4 178 -62q-6 129 -67 242l-168 -116l-56 127l137 88q-63 63 -188 111l110 223q187 -56 306 -175l162 107l53 -129z M676 675q-42 70 -129 72q-99 2 -155.5 -100.5t-54.5 -257.5q0 -77 28 -125.5t79 -50.5q162 -8 213 320l17 120z" />
<glyph unicode="&#xf1;" horiz-adv-x="988" d="M434 1083l-20 -109q114 133 253 129q114 -2 173.5 -85.5t58.5 -237.5l-6 -92l-115 -688h-277l114 690l5 59q4 117 -88 117q-43 0 -73 -23.5t-56 -55.5l-137 -787h-278l188 1082zM951 1523q-8 -119 -65 -195t-144 -74q-33 0 -59 15l-94 58q-33 18 -65 16q-56 -3 -79 -96 l-157 9q8 119 66.5 196t144.5 75q42 -1 110 -46.5t110 -42.5q48 3 71 66l10 30z" />
<glyph unicode="&#xf2;" horiz-adv-x="998" d="M565 1102q164 -4 256 -111t101 -287v-71q-13 -314 -150.5 -486.5t-358.5 -166.5q-129 3 -213 69.5t-120.5 184.5t-20.5 271l6 54q29 255 163 401.5t337 141.5zM331 392q0 -173 106 -179q144 -8 187 220l11 72q14 144 14 185q0 172 -109 179q-79 4 -130 -73t-65 -222.5 t-14 -181.5zM721 1226h-217l-220 310h293z" />
<glyph unicode="&#xf3;" horiz-adv-x="998" d="M565 1102q164 -4 256 -111t101 -287v-71q-13 -314 -150.5 -486.5t-358.5 -166.5q-129 3 -213 69.5t-120.5 184.5t-20.5 271l6 54q29 255 163 401.5t337 141.5zM331 392q0 -173 106 -179q144 -8 187 220l11 72q14 144 14 185q0 172 -109 179q-79 4 -130 -73t-65 -222.5 t-14 -181.5zM684 1536h326l-319 -310h-246z" />
<glyph unicode="&#xf4;" horiz-adv-x="998" d="M565 1102q164 -4 256 -111t101 -287v-71q-13 -314 -150.5 -486.5t-358.5 -166.5q-129 3 -213 69.5t-120.5 184.5t-20.5 271l6 54q29 255 163 401.5t337 141.5zM331 392q0 -173 106 -179q144 -8 187 220l11 72q14 144 14 185q0 172 -109 179q-79 4 -130 -73t-65 -222.5 t-14 -181.5zM930 1259v-18l-210 3l-95 143l-147 -142l-216 -3v20l289 274l155 1z" />
<glyph unicode="&#xf5;" horiz-adv-x="998" d="M565 1102q164 -4 256 -111t101 -287v-71q-13 -314 -150.5 -486.5t-358.5 -166.5q-129 3 -213 69.5t-120.5 184.5t-20.5 271l6 54q29 255 163 401.5t337 141.5zM331 392q0 -173 106 -179q144 -8 187 220l11 72q14 144 14 185q0 172 -109 179q-79 4 -130 -73t-65 -222.5 t-14 -181.5zM941 1523q-8 -119 -65 -195t-144 -74q-33 0 -59 15l-94 58q-33 18 -65 16q-56 -3 -79 -96l-157 9q8 119 66.5 196t144.5 75q42 -1 110 -46.5t110 -42.5q48 3 71 66l10 30z" />
<glyph unicode="&#xf6;" horiz-adv-x="998" d="M565 1102q164 -4 256 -111t101 -287v-71q-13 -314 -150.5 -486.5t-358.5 -166.5q-129 3 -213 69.5t-120.5 184.5t-20.5 271l6 54q29 255 163 401.5t337 141.5zM331 392q0 -173 106 -179q144 -8 187 220l11 72q14 144 14 185q0 172 -109 179q-79 4 -130 -73t-65 -222.5 t-14 -181.5zM235 1361q0 53 38.5 92t96.5 41q56 0 96 -36.5t40 -88.5q0 -56 -39 -93t-95 -39q-59 0 -98 36.5t-39 87.5zM710 1361q0 56 39 93t95 39q58 0 97 -37t39 -87q0 -56 -39 -93t-95 -39q-58 0 -97 35.5t-39 88.5z" />
<glyph unicode="&#xf7;" horiz-adv-x="1002" d="M908 570h-845l41 232h845zM423 1084q0 70 44.5 114t107.5 44q65 2 108.5 -41t43.5 -106q0 -70 -44.5 -114t-107.5 -44q-62 -2 -107 39.5t-45 107.5zM283 272q0 69 43 113t108 46q63 2 107.5 -40t44.5 -108q0 -69 -43.5 -113.5t-108.5 -44.5q-64 -2 -107.5 40t-43.5 107z " />
<glyph unicode="&#xf8;" horiz-adv-x="996" d="M60 545q33 252 165 407t336 152q76 -2 146 -28l86 140l160 -1l-132 -214q96 -132 95 -331q-1 -49 -9 -139q-34 -254 -169.5 -406t-333.5 -147q-68 2 -139 25l-89 -145l-160 1l133 216q-98 131 -98 332q0 59 7 117zM310 370l281 488q-25 11 -47 13q-165 8 -212 -323 l-18 -125zM656 699l-279 -478q20 -8 43 -10q155 -4 205 269l9 51q20 137 22 168z" />
<glyph unicode="&#xf9;" horiz-adv-x="988" d="M540 99q-102 -122 -238 -120q-106 1 -170 71.5t-74 192.5q-6 71 1 139l117 700h276l-117 -704l-3 -49q-4 -50 14.5 -81t55.5 -32q82 -3 150 83l136 783h279l-188 -1082h-257zM727 1226h-217l-220 310h293z" />
<glyph unicode="&#xfa;" horiz-adv-x="988" d="M540 99q-102 -122 -238 -120q-106 1 -170 71.5t-74 192.5q-6 71 1 139l117 700h276l-117 -704l-3 -49q-4 -50 14.5 -81t55.5 -32q82 -3 150 83l136 783h279l-188 -1082h-257zM690 1536h326l-319 -310h-246z" />
<glyph unicode="&#xfb;" horiz-adv-x="988" d="M540 99q-102 -122 -238 -120q-106 1 -170 71.5t-74 192.5q-6 71 1 139l117 700h276l-117 -704l-3 -49q-4 -50 14.5 -81t55.5 -32q82 -3 150 83l136 783h279l-188 -1082h-257zM936 1259v-18l-210 3l-95 143l-147 -142l-216 -3v20l289 274l155 1z" />
<glyph unicode="&#xfc;" horiz-adv-x="988" d="M540 99q-102 -122 -238 -120q-106 1 -170 71.5t-74 192.5q-6 71 1 139l117 700h276l-117 -704l-3 -49q-4 -50 14.5 -81t55.5 -32q82 -3 150 83l136 783h279l-188 -1082h-257zM241 1361q0 53 38.5 92t96.5 41q56 0 96 -36.5t40 -88.5q0 -56 -39 -93t-95 -39 q-59 0 -98 36.5t-39 87.5zM716 1361q0 56 39 93t95 39q58 0 97 -37t39 -87q0 -56 -39 -93t-95 -39q-58 0 -97 35.5t-39 88.5z" />
<glyph unicode="&#xfd;" horiz-adv-x="897" d="M411 476l245 606h302l-558 -1245q-61 -146 -142 -211.5t-187 -65.5q-43 0 -122 21l24 221l30 -2q113 -2 166 101l46 103l-112 1078h289zM650 1536h326l-319 -310h-246z" />
<glyph unicode="&#xfe;" horiz-adv-x="1001" d="M909 538q-22 -176 -81.5 -307t-145.5 -193t-194 -59q-119 3 -193 95l-94 -490h-276l339 1952h276l-102 -524q92 92 201 90q133 -2 204.5 -106.5t74.5 -299.5v-26q-1 -60 -7 -111zM644 673q6 190 -98 193q-76 2 -137 -84l-84 -488q28 -77 108 -79q164 -4 200 321z" />
<glyph unicode="&#xff;" horiz-adv-x="897" d="M411 476l245 606h302l-558 -1245q-61 -146 -142 -211.5t-187 -65.5q-43 0 -122 21l24 221l30 -2q113 -2 166 101l46 103l-112 1078h289zM202 1361q0 53 38.5 92t96.5 41q56 0 96 -36.5t40 -88.5q0 -56 -39 -93t-95 -39q-59 0 -98 36.5t-39 87.5zM677 1361q0 56 39 93 t95 39q58 0 97 -37t39 -87q0 -56 -39 -93t-95 -39q-58 0 -97 35.5t-39 88.5z" />
<glyph unicode="&#x100;" horiz-adv-x="1196" d="M738 298h-387l-127 -298h-312l694 1456h263l191 -1456h-297zM456 543h262l-41 516zM1077 1598h-614l27 167h614z" />
<glyph unicode="&#x101;" horiz-adv-x="945" d="M510 0q-8 34 -8 84q-92 -105 -210 -105q-125 2 -200.5 92t-69.5 224q9 172 134 269.5t336 97.5h81l13 88l3 45q0 87 -70 87q-97 3 -118 -124l-275 -2q9 154 128 251.5t290 95.5q161 -4 246.5 -101.5t69.5 -257.5l-88 -550l-4 -53q-4 -70 14 -123l-1 -18h-271zM368 200 q73 -2 136 64l49 229h-60q-80 -4 -129 -54t-59 -126l-1 -38q0 -32 16.5 -53t47.5 -22zM892 1289h-614l27 167h614z" />
<glyph unicode="&#x102;" horiz-adv-x="1196" d="M738 298h-387l-127 -298h-312l694 1456h263l191 -1456h-297zM456 543h262l-41 516zM1135 1839q-8 -139 -108.5 -221t-246.5 -78q-142 2 -228 83.5t-86 214.5l201 -1q-4 -129 116 -131q64 -1 102.5 34.5t50.5 95.5z" />
<glyph unicode="&#x103;" horiz-adv-x="945" d="M510 0q-8 34 -8 84q-92 -105 -210 -105q-125 2 -200.5 92t-69.5 224q9 172 134 269.5t336 97.5h81l13 88l3 45q0 87 -70 87q-97 3 -118 -124l-275 -2q9 154 128 251.5t290 95.5q161 -4 246.5 -101.5t69.5 -257.5l-88 -550l-4 -53q-4 -70 14 -123l-1 -18h-271zM368 200 q73 -2 136 64l49 229h-60q-80 -4 -129 -54t-59 -126l-1 -38q0 -32 16.5 -53t47.5 -22zM950 1529q-8 -139 -108.5 -221t-246.5 -78q-142 2 -228 83.5t-86 214.5l201 -1q-4 -129 116 -131q64 -1 102.5 34.5t50.5 95.5z" />
<glyph unicode="&#x104;" horiz-adv-x="1196" d="M981 0l-58 -46q-81 -68 -87 -135q-2 -20 2.5 -38t28.5 -19q18 -1 63 18l15 -160q-57 -41 -135 -41q-82 0 -132.5 56.5t-48.5 144.5q2 139 133 234l-24 284h-387l-127 -298h-312l694 1456h263l191 -1456h-79zM456 543h262l-41 516z" />
<glyph unicode="&#x105;" horiz-adv-x="945" d="M727 0l-58 -46q-81 -68 -87 -135q-2 -20 2.5 -38t28.5 -19q18 -1 63 18l15 -160q-57 -41 -135 -41q-82 0 -132.5 56.5t-48.5 144.5q2 141 132 233q-5 28 -5 71q-92 -105 -210 -105q-125 2 -200.5 92t-69.5 224q9 172 134 269.5t336 97.5h81l13 88l3 45q0 87 -70 87 q-97 3 -118 -124l-275 -2q9 154 128 251.5t290 95.5q161 -4 246.5 -101.5t69.5 -257.5l-88 -550l-4 -53q-4 -70 14 -123l-1 -18h-54zM368 200q73 -2 136 64l49 229h-60q-80 -4 -129 -54t-59 -126l-1 -38q0 -32 16.5 -53t47.5 -22z" />
<glyph unicode="&#x106;" horiz-adv-x="1143" d="M1042 486q-27 -237 -174.5 -374.5t-373.5 -131.5q-194 4 -300 128t-112 344q-2 75 8 151l37 241q47 309 203.5 473t388.5 159q203 -3 312 -134.5t109 -381.5l-289 1l2 99q-3 168 -157 173q-119 4 -188 -86.5t-93 -293.5l-36 -251q-14 -120 -15 -157q-10 -216 152 -223 q101 -5 161 53.5t84 208.5zM843 1854h326l-319 -310h-246z" />
<glyph unicode="&#x107;" horiz-adv-x="924" d="M419 213q114 -3 141 161l259 1q-17 -180 -133 -290t-283 -106q-151 4 -240.5 90.5t-106.5 241.5q-15 126 14.5 304t109.5 297q131 196 373 190q164 -5 250 -118.5t77 -306.5l-260 1l1 62q-4 124 -98 129q-147 8 -175 -228l-19 -181q-12 -81 -8 -135q7 -109 98 -112z M647 1536h326l-319 -310h-246z" />
<glyph unicode="&#x108;" horiz-adv-x="1143" d="M1042 486q-27 -237 -174.5 -374.5t-373.5 -131.5q-194 4 -300 128t-112 344q-2 75 8 151l37 241q47 309 203.5 473t388.5 159q203 -3 312 -134.5t109 -381.5l-289 1l2 99q-3 168 -157 173q-119 4 -188 -86.5t-93 -293.5l-36 -251q-14 -120 -15 -157q-10 -216 152 -223 q101 -5 161 53.5t84 208.5zM1089 1577v-18l-210 3l-95 143l-147 -142l-216 -3v20l289 274l155 1z" />
<glyph unicode="&#x109;" horiz-adv-x="924" d="M419 213q114 -3 141 161l259 1q-17 -180 -133 -290t-283 -106q-151 4 -240.5 90.5t-106.5 241.5q-15 126 14.5 304t109.5 297q131 196 373 190q164 -5 250 -118.5t77 -306.5l-260 1l1 62q-4 124 -98 129q-147 8 -175 -228l-19 -181q-12 -81 -8 -135q7 -109 98 -112z M894 1259v-18l-210 3l-95 143l-147 -142l-216 -3v20l289 274l155 1z" />
<glyph unicode="&#x10a;" horiz-adv-x="1143" d="M1042 486q-27 -237 -174.5 -374.5t-373.5 -131.5q-194 4 -300 128t-112 344q-2 75 8 151l37 241q47 309 203.5 473t388.5 159q203 -3 312 -134.5t109 -381.5l-289 1l2 99q-3 168 -157 173q-119 4 -188 -86.5t-93 -293.5l-36 -251q-14 -120 -15 -157q-10 -216 152 -223 q101 -5 161 53.5t84 208.5zM631 1705q-2 61 40 102.5t104 41.5q61 2 103 -37t42 -97q2 -60 -39.5 -101t-104.5 -41q-64 0 -104.5 38t-40.5 94z" />
<glyph unicode="&#x10b;" horiz-adv-x="924" d="M419 213q114 -3 141 161l259 1q-17 -180 -133 -290t-283 -106q-151 4 -240.5 90.5t-106.5 241.5q-15 126 14.5 304t109.5 297q131 196 373 190q164 -5 250 -118.5t77 -306.5l-260 1l1 62q-4 124 -98 129q-147 8 -175 -228l-19 -181q-12 -81 -8 -135q7 -109 98 -112z M435 1387q-2 61 40 102.5t104 41.5q61 2 103 -37t42 -97q2 -60 -39.5 -101t-104.5 -41q-64 0 -104.5 38t-40.5 94z" />
<glyph unicode="&#x10c;" horiz-adv-x="1143" d="M1042 486q-27 -237 -174.5 -374.5t-373.5 -131.5q-194 4 -300 128t-112 344q-2 75 8 151l37 241q47 309 203.5 473t388.5 159q203 -3 312 -134.5t109 -381.5l-289 1l2 99q-3 168 -157 173q-119 4 -188 -86.5t-93 -293.5l-36 -251q-14 -120 -15 -157q-10 -216 152 -223 q101 -5 161 53.5t84 208.5zM765 1715l137 139l240 4l1 -17l-298 -278h-171l-224 280v16l228 -4z" />
<glyph unicode="&#x10d;" horiz-adv-x="924" d="M419 213q114 -3 141 161l259 1q-17 -180 -133 -290t-283 -106q-151 4 -240.5 90.5t-106.5 241.5q-15 126 14.5 304t109.5 297q131 196 373 190q164 -5 250 -118.5t77 -306.5l-260 1l1 62q-4 124 -98 129q-147 8 -175 -228l-19 -181q-12 -81 -8 -135q7 -109 98 -112z M569 1397l137 139l240 4l1 -17l-298 -278h-171l-224 280v16l228 -4z" />
<glyph unicode="&#x10e;" horiz-adv-x="1132" d="M9 0l252 1456l359 -1q159 -4 268.5 -83t157 -219t25.5 -313l-32 -213q-44 -294 -212.5 -460t-423.5 -167h-394zM506 1211l-168 -967l71 -2q149 0 231 86.5t110 278.5l34 236q14 115 11 168q-5 100 -51 148t-136 51zM619 1710l137 139l240 4l1 -17l-298 -278h-171 l-224 280v16l228 -4z" />
<glyph unicode="&#x10f;" horiz-adv-x="1145" d="M475 1103q119 -4 193 -111l102 544h278l-266 -1536h-248l15 110q-104 -132 -229 -132q-139 2 -209.5 107t-67.5 302l3 64q23 330 130.5 493.5t298.5 158.5zM318 391q-5 -87 20.5 -131.5t78.5 -44.5q71 -2 136 75l87 497q-37 76 -107 79q-148 8 -186 -214l-11 -76z M1176 1112l-132 81q78 127 101 236l20 108h192l-5 -53q-21 -213 -176 -372z" />
<glyph unicode="&#x110;" horiz-adv-x="1162" d="M39 0l111 641h-152l33 183h150l110 632l359 -1q159 -4 268.5 -83t157 -219t25.5 -313l-32 -213q-44 -294 -212.5 -460t-423.5 -167h-394zM589 641h-152l-69 -397l71 -2q149 0 231 86.5t110 278.5l34 236q14 115 11 168q-5 100 -51 148t-136 51l-102 1l-67 -387h152z" />
<glyph unicode="&#x111;" horiz-adv-x="1025" d="M1120 1218h-127l-211 -1218h-248l15 110q-104 -132 -229 -132q-139 2 -209.5 107t-67.5 302l3 64q23 330 130.5 493.5t298.5 158.5q119 -4 193 -111l42 226h-181l33 183h182l26 135h278l-24 -135h128zM318 391q-5 -87 20.5 -131.5t78.5 -44.5q71 -2 136 75l87 497 q-37 76 -107 79q-148 8 -186 -214l-11 -76z" />
<glyph unicode="&#x112;" horiz-adv-x="985" d="M849 630h-444l-67 -386h526l-43 -244h-812l252 1456h811l-43 -245h-523l-60 -344h445zM1022 1601h-614l27 167h614z" />
<glyph unicode="&#x113;" d="M441 -20q-131 1 -222.5 64t-132 176.5t-24.5 258.5l9 74q33 269 163.5 411.5t332.5 137.5q148 -4 232.5 -92.5t98.5 -247.5q8 -95 -4 -186l-19 -130h-540q-5 -43 -3 -83q7 -144 141 -147q125 -4 242 95l93 -172q-55 -75 -153.5 -118t-213.5 -41zM540 869 q-119 5 -166 -152l-20 -73l275 -1q10 58 11 94q4 127 -100 132zM875 1289h-614l27 167h614z" />
<glyph unicode="&#x114;" horiz-adv-x="985" d="M849 630h-444l-67 -386h526l-43 -244h-812l252 1456h811l-43 -245h-523l-60 -344h445zM1080 1842q-8 -139 -108.5 -221t-246.5 -78q-142 2 -228 83.5t-86 214.5l201 -1q-4 -129 116 -131q64 -1 102.5 34.5t50.5 95.5z" />
<glyph unicode="&#x115;" d="M441 -20q-131 1 -222.5 64t-132 176.5t-24.5 258.5l9 74q33 269 163.5 411.5t332.5 137.5q148 -4 232.5 -92.5t98.5 -247.5q8 -95 -4 -186l-19 -130h-540q-5 -43 -3 -83q7 -144 141 -147q125 -4 242 95l93 -172q-55 -75 -153.5 -118t-213.5 -41zM540 869 q-119 5 -166 -152l-20 -73l275 -1q10 58 11 94q4 127 -100 132zM933 1529q-8 -139 -108.5 -221t-246.5 -78q-142 2 -228 83.5t-86 214.5l201 -1q-4 -129 116 -131q64 -1 102.5 34.5t50.5 95.5z" />
<glyph unicode="&#x116;" horiz-adv-x="985" d="M849 630h-444l-67 -386h526l-43 -244h-812l252 1456h811l-43 -245h-523l-60 -344h445zM588 1700q-2 61 40 102.5t104 41.5q61 2 103 -37t42 -97q2 -60 -39.5 -101t-104.5 -41q-64 0 -104.5 38t-40.5 94z" />
<glyph unicode="&#x117;" d="M441 -20q-131 1 -222.5 64t-132 176.5t-24.5 258.5l9 74q33 269 163.5 411.5t332.5 137.5q148 -4 232.5 -92.5t98.5 -247.5q8 -95 -4 -186l-19 -130h-540q-5 -43 -3 -83q7 -144 141 -147q125 -4 242 95l93 -172q-55 -75 -153.5 -118t-213.5 -41zM540 869 q-119 5 -166 -152l-20 -73l275 -1q10 58 11 94q4 127 -100 132zM441 1387q-2 61 40 102.5t104 41.5q61 2 103 -37t42 -97q2 -60 -39.5 -101t-104.5 -41q-64 0 -104.5 38t-40.5 94z" />
<glyph unicode="&#x118;" horiz-adv-x="985" d="M849 630h-444l-67 -386h526l-43 -244h-141l-58 -46q-81 -68 -87 -135q-2 -20 2.5 -38t28.5 -19q18 -1 63 18l15 -160q-57 -41 -135 -41q-82 0 -132.5 56.5t-48.5 144.5q2 132 114 220h-433l252 1456h811l-43 -245h-523l-60 -344h445z" />
<glyph unicode="&#x119;" d="M814 139q-72 -98 -209 -138l-33 -27q-65 -55 -73 -123q-2 -20 2.5 -38t28.5 -19q18 -1 63 18l15 -160q-57 -41 -135 -41q-82 0 -132.5 56.5t-48.5 144.5q2 102 68 177q-156 29 -234 161.5t-58 328.5l9 74q33 269 163.5 411.5t332.5 137.5q148 -4 232.5 -92.5t98.5 -247.5 q8 -95 -4 -186l-19 -130h-540q-5 -43 -3 -83q7 -144 141 -147q125 -4 242 95zM546 869q-119 5 -166 -152l-20 -73l275 -1q10 58 11 94q4 127 -100 132z" />
<glyph unicode="&#x11a;" horiz-adv-x="985" d="M849 630h-444l-67 -386h526l-43 -244h-812l252 1456h811l-43 -245h-523l-60 -344h445zM722 1710l137 139l240 4l1 -17l-298 -278h-171l-224 280v16l228 -4z" />
<glyph unicode="&#x11b;" d="M441 -20q-131 1 -222.5 64t-132 176.5t-24.5 258.5l9 74q33 269 163.5 411.5t332.5 137.5q148 -4 232.5 -92.5t98.5 -247.5q8 -95 -4 -186l-19 -130h-540q-5 -43 -3 -83q7 -144 141 -147q125 -4 242 95l93 -172q-55 -75 -153.5 -118t-213.5 -41zM540 869 q-119 5 -166 -152l-20 -73l275 -1q10 58 11 94q4 127 -100 132zM575 1397l137 139l240 4l1 -17l-298 -278h-171l-224 280v16l228 -4z" />
<glyph unicode="&#x11c;" horiz-adv-x="1172" d="M1010 165q-81 -90 -211 -138.5t-279 -46.5q-131 1 -227 57.5t-148.5 164t-56.5 247.5q-3 76 7 155l36 241q46 304 198 470t396 161q208 -4 313.5 -125.5t107.5 -359.5l-279 1l-3 80q-13 156 -153 161q-207 8 -272 -273l-15 -75l-40 -281q-13 -96 -10 -164 q5 -112 50.5 -162.5t128.5 -52.5q78 -2 174 51l51 268h-201l39 222h486zM1092 1577v-18l-210 3l-95 143l-147 -142l-216 -3v20l289 274l155 1z" />
<glyph unicode="&#x11d;" horiz-adv-x="1009" d="M488 1102q144 -4 210 -118l34 99l252 -1l-184 -1082q-29 -211 -161.5 -322t-333.5 -105q-88 2 -174 36t-144 94l113 194q83 -94 207 -98q180 -7 220 198l20 90q-97 -108 -214 -108q-142 2 -214.5 109.5t-70.5 297.5q0 118 23.5 252.5t67.5 227.5q114 242 349 236z M321 389q0 -170 109 -173q73 -2 137 62l93 520q-38 65 -110 69q-176 9 -212 -284q-17 -140 -17 -194zM921 1259v-18l-210 3l-95 143l-147 -142l-216 -3v20l289 274l155 1z" />
<glyph unicode="&#x11e;" horiz-adv-x="1172" d="M1010 165q-81 -90 -211 -138.5t-279 -46.5q-131 1 -227 57.5t-148.5 164t-56.5 247.5q-3 76 7 155l36 241q46 304 198 470t396 161q208 -4 313.5 -125.5t107.5 -359.5l-279 1l-3 80q-13 156 -153 161q-207 8 -272 -273l-15 -75l-40 -281q-13 -96 -10 -164 q5 -112 50.5 -162.5t128.5 -52.5q78 -2 174 51l51 268h-201l39 222h486zM1126 1847q-8 -139 -108.5 -221t-246.5 -78q-142 2 -228 83.5t-86 214.5l201 -1q-4 -129 116 -131q64 -1 102.5 34.5t50.5 95.5z" />
<glyph unicode="&#x11f;" horiz-adv-x="1009" d="M488 1102q144 -4 210 -118l34 99l252 -1l-184 -1082q-29 -211 -161.5 -322t-333.5 -105q-88 2 -174 36t-144 94l113 194q83 -94 207 -98q180 -7 220 198l20 90q-97 -108 -214 -108q-142 2 -214.5 109.5t-70.5 297.5q0 118 23.5 252.5t67.5 227.5q114 242 349 236z M321 389q0 -170 109 -173q73 -2 137 62l93 520q-38 65 -110 69q-176 9 -212 -284q-17 -140 -17 -194zM955 1529q-8 -139 -108.5 -221t-246.5 -78q-142 2 -228 83.5t-86 214.5l201 -1q-4 -129 116 -131q64 -1 102.5 34.5t50.5 95.5z" />
<glyph unicode="&#x120;" horiz-adv-x="1172" d="M1010 165q-81 -90 -211 -138.5t-279 -46.5q-131 1 -227 57.5t-148.5 164t-56.5 247.5q-3 76 7 155l36 241q46 304 198 470t396 161q208 -4 313.5 -125.5t107.5 -359.5l-279 1l-3 80q-13 156 -153 161q-207 8 -272 -273l-15 -75l-40 -281q-13 -96 -10 -164 q5 -112 50.5 -162.5t128.5 -52.5q78 -2 174 51l51 268h-201l39 222h486zM634 1705q-2 61 40 102.5t104 41.5q61 2 103 -37t42 -97q2 -60 -39.5 -101t-104.5 -41q-64 0 -104.5 38t-40.5 94z" />
<glyph unicode="&#x121;" horiz-adv-x="1009" d="M488 1102q144 -4 210 -118l34 99l252 -1l-184 -1082q-29 -211 -161.5 -322t-333.5 -105q-88 2 -174 36t-144 94l113 194q83 -94 207 -98q180 -7 220 198l20 90q-97 -108 -214 -108q-142 2 -214.5 109.5t-70.5 297.5q0 118 23.5 252.5t67.5 227.5q114 242 349 236z M321 389q0 -170 109 -173q73 -2 137 62l93 520q-38 65 -110 69q-176 9 -212 -284q-17 -140 -17 -194zM463 1387q-2 61 40 102.5t104 41.5q61 2 103 -37t42 -97q2 -60 -39.5 -101t-104.5 -41q-64 0 -104.5 38t-40.5 94z" />
<glyph unicode="&#x122;" horiz-adv-x="1172" d="M1010 165q-81 -90 -211 -138.5t-279 -46.5q-131 1 -227 57.5t-148.5 164t-56.5 247.5q-3 76 7 155l36 241q46 304 198 470t396 161q208 -4 313.5 -125.5t107.5 -359.5l-279 1l-3 80q-13 156 -153 161q-207 8 -272 -273l-15 -75l-40 -281q-13 -96 -10 -164 q5 -112 50.5 -162.5t128.5 -52.5q78 -2 174 51l51 268h-201l39 222h486zM389 -519l-132 81q78 127 101 236l20 108h192l-5 -53q-21 -213 -176 -372z" />
<glyph unicode="&#x123;" horiz-adv-x="1009" d="M488 1102q144 -4 210 -118l34 99l252 -1l-184 -1082q-29 -211 -161.5 -322t-333.5 -105q-88 2 -174 36t-144 94l113 194q83 -94 207 -98q180 -7 220 198l20 90q-97 -108 -214 -108q-142 2 -214.5 109.5t-70.5 297.5q0 118 23.5 252.5t67.5 227.5q114 242 349 236z M321 389q0 -170 109 -173q73 -2 137 62l93 520q-38 65 -110 69q-176 9 -212 -284q-17 -140 -17 -194zM666 1722l141 -80q-74 -131 -97 -237l-27 -146h-211l20 136q34 225 174 327z" />
<glyph unicode="&#x124;" horiz-adv-x="1229" d="M1001 0h-286l108 623h-419l-108 -623h-287l252 1456h287l-102 -589h419l103 589h286zM1114 1572v-18l-210 3l-95 143l-147 -142l-216 -3v20l289 274l155 1z" />
<glyph unicode="&#x125;" horiz-adv-x="988" d="M425 986q103 119 227 117q119 -2 182 -88t63 -239l-5 -95l-114 -681h-277l113 684l5 59q4 122 -87 122q-66 2 -128 -70l-139 -795h-277l267 1536h276zM973 1641v-18l-210 3l-95 143l-147 -142l-216 -3v20l289 274l155 1z" />
<glyph unicode="&#x126;" horiz-adv-x="1264" d="M1228 1223l104 2l-33 -174h-95l-182 -1051h-286l109 623h-419l-108 -623h-287l182 1051h-88l30 174h88l41 231h287l-41 -231h418l41 231l279 1zM468 867h418l33 184h-418z" />
<glyph unicode="&#x127;" horiz-adv-x="1018" d="M661 1215h-162l-44 -229q103 119 227 117q119 -2 182 -88t63 -239l-5 -95l-114 -681h-277l113 684l5 59q4 122 -87 122q-66 2 -128 -70l-139 -795h-277l211 1215h-159l33 183h158l24 138h276l-27 -138h159z" />
<glyph unicode="&#x128;" horiz-adv-x="547" d="M308 0h-287l253 1456h287zM785 1835q-8 -119 -65 -195t-144 -74q-33 0 -59 15l-94 58q-33 18 -65 16q-56 -3 -79 -96l-157 9q8 119 66.5 196t144.5 75q42 -1 110 -46.5t110 -42.5q48 3 71 66l10 30z" />
<glyph unicode="&#x129;" horiz-adv-x="531" d="M292 0h-276l187 1082h277zM721 1507q-8 -119 -65 -195t-144 -74q-33 0 -59 15l-94 58q-33 18 -65 16q-56 -3 -79 -96l-157 9q8 119 66.5 196t144.5 75q42 -1 110 -46.5t110 -42.5q48 3 71 66l10 30z" />
<glyph unicode="&#x12a;" horiz-adv-x="547" d="M308 0h-287l253 1456h287zM750 1601h-614l27 167h614z" />
<glyph unicode="&#x12b;" horiz-adv-x="531" d="M292 0h-276l187 1082h277zM686 1273h-614l27 167h614z" />
<glyph unicode="&#x12c;" horiz-adv-x="547" d="M308 0h-287l253 1456h287zM808 1842q-8 -139 -108.5 -221t-246.5 -78q-142 2 -228 83.5t-86 214.5l201 -1q-4 -129 116 -131q64 -1 102.5 34.5t50.5 95.5z" />
<glyph unicode="&#x12d;" horiz-adv-x="531" d="M292 0h-276l187 1082h277zM744 1514q-8 -139 -108.5 -221t-246.5 -78q-142 2 -228 83.5t-86 214.5l201 -1q-4 -129 116 -131q64 -1 102.5 34.5t50.5 95.5z" />
<glyph unicode="&#x12e;" horiz-adv-x="547" d="M308 0h-287l253 1456h287zM255 2l-58 -46q-81 -68 -87 -135q-2 -20 2.5 -38t28.5 -19q18 -1 63 18l15 -160q-57 -41 -135 -41q-82 0 -132.5 56.5t-48.5 144.5q3 177 210 280z" />
<glyph unicode="&#x12f;" horiz-adv-x="511" d="M285 0h-277l188 1082h277zM232 1357q0 69 43.5 112.5t106.5 43.5q62 2 105.5 -40.5t43.5 -105.5q0 -70 -43.5 -113.5t-106.5 -43.5q-64 -2 -106.5 40.5t-42.5 106.5zM245 0l-58 -46q-81 -68 -87 -135q-2 -20 2.5 -38t28.5 -19q18 -1 63 18l15 -160q-57 -41 -135 -41 q-82 0 -132.5 56.5t-48.5 144.5q3 177 210 280z" />
<glyph unicode="&#x130;" horiz-adv-x="547" d="M308 0h-287l253 1456h287zM315 1700q-2 61 40 102.5t104 41.5q61 2 103 -37t42 -97q2 -60 -39.5 -101t-104.5 -41q-64 0 -104.5 38t-40.5 94z" />
<glyph unicode="&#x131;" horiz-adv-x="531" d="M292 0h-276l187 1082h277z" />
<glyph unicode="&#x132;" horiz-adv-x="1531" d="M308 0h-287l253 1456h287zM1279 1456h287l-172 -1008q-29 -212 -158 -342.5t-316 -126.5q-181 4 -274 125.5t-82 326.5l290 -1l-2 -63q-2 -65 22 -104t73 -40q118 -3 156 194z" />
<glyph unicode="&#x133;" horiz-adv-x="1009" d="M285 0h-277l188 1082h277zM232 1357q0 69 43.5 112.5t106.5 43.5q62 2 105.5 -40.5t43.5 -105.5q0 -70 -43.5 -113.5t-106.5 -43.5q-64 -2 -106.5 40.5t-42.5 106.5zM985 1082l-194 -1139q-24 -186 -118.5 -285t-246.5 -99q-67 2 -133 18l21 234q47 -13 74 -13 q100 0 125 144l195 1140h277zM738 1357q0 66 42 110t108 46q62 2 105.5 -40.5t43.5 -105.5q0 -70 -43.5 -113.5t-106.5 -43.5q-64 -2 -106.5 40.5t-42.5 106.5z" />
<glyph unicode="&#x134;" horiz-adv-x="984" d="M732 1456h287l-172 -1008q-29 -212 -158 -342.5t-316 -126.5q-181 4 -274 125.5t-82 326.5l290 -1l-2 -63q-2 -65 22 -104t73 -40q118 -3 156 194zM1215 1569v-18l-210 3l-95 143l-147 -142l-216 -3v20l289 274l155 1z" />
<glyph unicode="&#x135;" horiz-adv-x="544" d="M495 1082l-190 -1114q-27 -199 -127.5 -304.5t-254.5 -103.5q-66 2 -132 20l38 230q57 -17 82 -16q83 3 112 140l196 1148h276zM702 1234v-18l-210 3l-95 143l-147 -142l-216 -3v20l289 274l155 1z" />
<glyph unicode="&#x136;" horiz-adv-x="1109" d="M512 558l-146 -154l-70 -404h-287l252 1456h287l-108 -619l116 154l336 465h367l-527 -653l266 -803h-327zM359 -456l-132 81q78 127 101 236l20 108h192l-5 -53q-21 -213 -176 -372z" />
<glyph unicode="&#x137;" d="M424 413l-97 -92l-56 -321h-276l267 1536h276l-153 -833l44 54l245 325h345l-394 -459l220 -623h-303zM286 -477l-132 81q78 127 101 236l20 108h192l-5 -53q-21 -213 -176 -372z" />
<glyph unicode="&#x138;" horiz-adv-x="1055" d="M446 397h-88l-68 -397h-276l187 1082h277l-77 -408h52l268 408h362l-393 -519l197 -563h-335z" />
<glyph unicode="&#x139;" d="M338 244h501l-43 -244h-787l252 1456h287zM522 1846h326l-319 -310h-246z" />
<glyph unicode="&#x13a;" horiz-adv-x="511" d="M285 0h-277l266 1536h278zM523 1928h326l-319 -310h-246z" />
<glyph unicode="&#x13b;" d="M338 244h501l-43 -244h-787l252 1456h287zM300 -507l-132 81q78 127 101 236l20 108h192l-5 -53q-21 -213 -176 -372z" />
<glyph unicode="&#x13c;" horiz-adv-x="511" d="M285 0h-277l266 1536h278zM45 -507l-132 81q78 127 101 236l20 108h192l-5 -53q-21 -213 -176 -372z" />
<glyph unicode="&#x13d;" d="M338 244h501l-43 -244h-787l252 1456h287zM760 1031l-132 81q78 127 101 236l20 108h192l-5 -53q-21 -213 -176 -372z" />
<glyph unicode="&#x13e;" horiz-adv-x="661" d="M285 0h-277l266 1536h278zM676 1112l-132 81q78 127 101 236l20 108h192l-5 -53q-21 -213 -176 -372z" />
<glyph unicode="&#x13f;" d="M338 244h501l-43 -244h-787l252 1456h287zM543 824q-2 61 40 102.5t104 41.5q61 2 103 -37t42 -97q2 -60 -39.5 -101t-104.5 -41q-64 0 -104.5 38t-40.5 94z" />
<glyph unicode="&#x140;" horiz-adv-x="731" d="M285 0h-277l266 1536h278zM488 767q-2 61 40 102.5t104 41.5q61 2 103 -37t42 -97q2 -60 -39.5 -101t-104.5 -41q-64 0 -104.5 38t-40.5 94z" />
<glyph unicode="&#x141;" horiz-adv-x="993" d="M487 910l163 52l-31 -176l-162 -53l-85 -489h501l-43 -244h-787l110 633l-108 -34l31 176l107 35l112 646h287z" />
<glyph unicode="&#x142;" horiz-adv-x="579" d="M472 921l113 41l-31 -177l-113 -42l-129 -743h-277l110 634l-101 -36l31 177l101 37l125 724h278z" />
<glyph unicode="&#x143;" horiz-adv-x="1226" d="M998 0h-280l-254 965l-168 -965h-287l252 1456h281l255 -966l168 966h286zM871 1846h326l-319 -310h-246z" />
<glyph unicode="&#x144;" horiz-adv-x="988" d="M434 1083l-20 -109q114 133 253 129q114 -2 173.5 -85.5t58.5 -237.5l-6 -92l-115 -688h-277l114 690l5 59q4 117 -88 117q-43 0 -73 -23.5t-56 -55.5l-137 -787h-278l188 1082zM694 1536h326l-319 -310h-246z" />
<glyph unicode="&#x145;" horiz-adv-x="1226" d="M998 0h-280l-254 965l-168 -965h-287l252 1456h281l255 -966l168 966h286zM403 -515l-132 81q78 127 101 236l20 108h192l-5 -53q-21 -213 -176 -372z" />
<glyph unicode="&#x146;" horiz-adv-x="988" d="M434 1083l-20 -109q114 133 253 129q114 -2 173.5 -85.5t58.5 -237.5l-6 -92l-115 -688h-277l114 690l5 59q4 117 -88 117q-43 0 -73 -23.5t-56 -55.5l-137 -787h-278l188 1082zM281 -507l-132 81q78 127 101 236l20 108h192l-5 -53q-21 -213 -176 -372z" />
<glyph unicode="&#x147;" horiz-adv-x="1226" d="M998 0h-280l-254 965l-168 -965h-287l252 1456h281l255 -966l168 966h286zM793 1707l137 139l240 4l1 -17l-298 -278h-171l-224 280v16l228 -4z" />
<glyph unicode="&#x148;" horiz-adv-x="988" d="M434 1083l-20 -109q114 133 253 129q114 -2 173.5 -85.5t58.5 -237.5l-6 -92l-115 -688h-277l114 690l5 59q4 117 -88 117q-43 0 -73 -23.5t-56 -55.5l-137 -787h-278l188 1082zM616 1397l137 139l240 4l1 -17l-298 -278h-171l-224 280v16l228 -4z" />
<glyph unicode="&#x149;" horiz-adv-x="988" d="M434 1083l-20 -109q114 133 253 129q114 -2 173.5 -85.5t58.5 -237.5l-6 -92l-115 -688h-277l114 690l5 59q4 117 -88 117q-43 0 -73 -23.5t-56 -55.5l-137 -787h-278l188 1082zM151 1111l-132 81q78 127 101 236l20 108h192l-5 -53q-21 -213 -176 -372z" />
<glyph unicode="&#x14a;" horiz-adv-x="1221" d="M1250 1456l-253 -1481q-26 -198 -126.5 -307t-262.5 -109q-60 0 -134 18l34 243q48 -17 83 -15q79 3 110 126l10 44l4 25l-262 912l-158 -912h-287l252 1456h281l262 -909l159 909h288z" />
<glyph unicode="&#x14b;" horiz-adv-x="996" d="M436 1083l-23 -145l28 38q103 130 228 127q118 -2 176.5 -94t55.5 -257l-6 -93l-112 -692q-27 -197 -125.5 -302.5t-255.5 -105.5q-63 2 -127 18l34 236q50 -17 80 -16q83 3 110 137l118 726l7 59q12 144 -75 146q-68 3 -141 -70l-140 -795h-276l188 1082z" />
<glyph unicode="&#x14c;" horiz-adv-x="1209" d="M512 -20q-192 4 -304.5 126t-122.5 339q-4 75 6 152l37 242q29 194 113 344t209 223t282 70q194 -4 304.5 -132.5t118.5 -351.5q2 -84 -9 -159l-33 -223q-45 -300 -202.5 -467.5t-398.5 -162.5zM859 843q12 103 12 159q-5 223 -161 229q-120 5 -193.5 -90.5 t-102.5 -299.5l-35 -245q-12 -99 -9 -155q5 -210 165 -217q114 -4 187 84t102 288zM1081 1598h-614l27 167h614z" />
<glyph unicode="&#x14d;" horiz-adv-x="998" d="M565 1102q164 -4 256 -111t101 -287v-71q-13 -314 -150.5 -486.5t-358.5 -166.5q-129 3 -213 69.5t-120.5 184.5t-20.5 271l6 54q29 255 163 401.5t337 141.5zM331 392q0 -173 106 -179q144 -8 187 220l11 72q14 144 14 185q0 172 -109 179q-79 4 -130 -73t-65 -222.5 t-14 -181.5zM906 1289h-614l27 167h614z" />
<glyph unicode="&#x14e;" horiz-adv-x="1209" d="M512 -20q-192 4 -304.5 126t-122.5 339q-4 75 6 152l37 242q29 194 113 344t209 223t282 70q194 -4 304.5 -132.5t118.5 -351.5q2 -84 -9 -159l-33 -223q-45 -300 -202.5 -467.5t-398.5 -162.5zM859 843q12 103 12 159q-5 223 -161 229q-120 5 -193.5 -90.5 t-102.5 -299.5l-35 -245q-12 -99 -9 -155q5 -210 165 -217q114 -4 187 84t102 288zM1139 1839q-8 -139 -108.5 -221t-246.5 -78q-142 2 -228 83.5t-86 214.5l201 -1q-4 -129 116 -131q64 -1 102.5 34.5t50.5 95.5z" />
<glyph unicode="&#x14f;" horiz-adv-x="998" d="M565 1102q164 -4 256 -111t101 -287v-71q-13 -314 -150.5 -486.5t-358.5 -166.5q-129 3 -213 69.5t-120.5 184.5t-20.5 271l6 54q29 255 163 401.5t337 141.5zM331 392q0 -173 106 -179q144 -8 187 220l11 72q14 144 14 185q0 172 -109 179q-79 4 -130 -73t-65 -222.5 t-14 -181.5zM964 1529q-8 -139 -108.5 -221t-246.5 -78q-142 2 -228 83.5t-86 214.5l201 -1q-4 -129 116 -131q64 -1 102.5 34.5t50.5 95.5z" />
<glyph unicode="&#x150;" horiz-adv-x="1209" d="M512 -20q-192 4 -304.5 126t-122.5 339q-4 75 6 152l37 242q29 194 113 344t209 223t282 70q194 -4 304.5 -132.5t118.5 -351.5q2 -84 -9 -159l-33 -223q-45 -300 -202.5 -467.5t-398.5 -162.5zM859 843q12 103 12 159q-5 223 -161 229q-120 5 -193.5 -90.5 t-102.5 -299.5l-35 -245q-12 -99 -9 -155q5 -210 165 -217q114 -4 187 84t102 288zM1020 1845h257l-266 -301h-219zM684 1845h253l-238 -301h-212z" />
<glyph unicode="&#x151;" horiz-adv-x="998" d="M565 1102q164 -4 256 -111t101 -287v-71q-13 -314 -150.5 -486.5t-358.5 -166.5q-129 3 -213 69.5t-120.5 184.5t-20.5 271l6 54q29 255 163 401.5t337 141.5zM331 392q0 -173 106 -179q144 -8 187 220l11 72q14 144 14 185q0 172 -109 179q-79 4 -130 -73t-65 -222.5 t-14 -181.5zM845 1535h257l-266 -301h-219zM509 1535h253l-238 -301h-212z" />
<glyph unicode="&#x152;" horiz-adv-x="1681" d="M1460 0h-717l-173 -17l-58 -1q-183 5 -296 127.5t-127 323.5q-5 71 4 143l46 292q45 285 205.5 447.5t390.5 162.5l51 -2l179 -20h745l-43 -245h-523l-60 -344h444l-42 -237h-443l-67 -386h526zM528 217q65 -3 152 8l184 1006q-84 14 -144 14q-116 2 -194.5 -88.5 t-106.5 -261.5l-49 -320q-11 -87 -6 -150q10 -201 164 -208z" />
<glyph unicode="&#x153;" horiz-adv-x="1542" d="M77 545q24 200 120 348q139 213 378 210q176 -5 270 -125q134 128 289 124q135 -3 218 -88t99 -228q9 -86 -1 -173l-26 -164h-503l-1 -76q4 -71 37 -113t90 -44q69 -3 129.5 20t119.5 55l56 -190q-62 -60 -155 -91.5t-196 -29.5q-181 5 -275 125q-142 -129 -307 -125 q-157 2 -249.5 112.5t-99.5 305.5q-3 64 4 126zM341 407q-6 -192 104 -195q165 -9 197 330l10 130q6 193 -104 196q-166 9 -198 -342zM1107 870q-90 2 -140 -140l-26 -83l239 -1l12 88q4 62 -18 98.5t-67 37.5z" />
<glyph unicode="&#x154;" horiz-adv-x="1110" d="M535 532h-146l-92 -532h-287l252 1456l440 -1q195 -6 299 -120t88 -311q-25 -299 -272 -416l146 -592v-16h-308zM431 777l151 -2q104 2 164 82.5t59 213.5q-4 131 -115 139l-183 1zM765 1846h326l-319 -310h-246z" />
<glyph unicode="&#x155;" horiz-adv-x="669" d="M663 810l-88 10q-111 2 -179 -105l-125 -715h-277l188 1082l259 1l-22 -119q49 78 96 109.5t101 31.5q32 0 85 -15zM559 1536h326l-319 -310h-246z" />
<glyph unicode="&#x156;" horiz-adv-x="1110" d="M535 532h-146l-92 -532h-287l252 1456l440 -1q195 -6 299 -120t88 -311q-25 -299 -272 -416l146 -592v-16h-308zM431 777l151 -2q104 2 164 82.5t59 213.5q-4 131 -115 139l-183 1zM314 -507l-132 81q78 127 101 236l20 108h192l-5 -53q-21 -213 -176 -372z" />
<glyph unicode="&#x157;" horiz-adv-x="669" d="M663 810l-88 10q-111 2 -179 -105l-125 -715h-277l188 1082l259 1l-22 -119q49 78 96 109.5t101 31.5q32 0 85 -15zM37 -507l-132 81q78 127 101 236l20 108h192l-5 -53q-21 -213 -176 -372z" />
<glyph unicode="&#x158;" horiz-adv-x="1110" d="M535 532h-146l-92 -532h-287l252 1456l440 -1q195 -6 299 -120t88 -311q-25 -299 -272 -416l146 -592v-16h-308zM431 777l151 -2q104 2 164 82.5t59 213.5q-4 131 -115 139l-183 1zM687 1707l137 139l240 4l1 -17l-298 -278h-171l-224 280v16l228 -4z" />
<glyph unicode="&#x159;" horiz-adv-x="669" d="M663 810l-88 10q-111 2 -179 -105l-125 -715h-277l188 1082l259 1l-22 -119q49 78 96 109.5t101 31.5q32 0 85 -15zM482 1397l137 139l240 4l1 -17l-298 -278h-171l-224 280v16l228 -4z" />
<glyph unicode="&#x15a;" horiz-adv-x="1083" d="M680 390q10 74 -21.5 123.5t-131 97t-166.5 98.5q-183 139 -168 351q9 122 76.5 217.5t180.5 148.5t242 50q187 -4 292.5 -129.5t97.5 -321.5l-286 1q11 205 -131 208q-73 2 -125.5 -47.5t-63.5 -127.5q-15 -117 162 -200t254 -187q86 -115 73 -280q-15 -190 -150 -303.5 t-337 -109.5q-203 4 -321 138t-108 343l288 -1q-8 -129 33.5 -184.5t130.5 -55.5q78 1 123 48.5t56 122.5zM810 1846h326l-319 -310h-246z" />
<glyph unicode="&#x15b;" horiz-adv-x="912" d="M516 297q10 70 -109 125t-178.5 103.5t-87 107.5t-24.5 134q7 147 120.5 242.5t277.5 93.5q162 -4 255.5 -96.5t91.5 -244.5h-276q3 71 -18.5 100.5t-67.5 29.5q-48 0 -81.5 -32.5t-41.5 -78.5q-12 -65 101.5 -116t163.5 -85q149 -99 139 -271q-6 -101 -62.5 -176.5 t-151 -115.5t-204.5 -37q-158 4 -258 103t-98 253l263 -1q-3 -78 25 -112t87 -34q52 0 88.5 27.5t45.5 80.5zM647 1536h326l-319 -310h-246z" />
<glyph unicode="&#x15c;" horiz-adv-x="1083" d="M680 390q10 74 -21.5 123.5t-131 97t-166.5 98.5q-183 139 -168 351q9 122 76.5 217.5t180.5 148.5t242 50q187 -4 292.5 -129.5t97.5 -321.5l-286 1q11 205 -131 208q-73 2 -125.5 -47.5t-63.5 -127.5q-15 -117 162 -200t254 -187q86 -115 73 -280q-15 -190 -150 -303.5 t-337 -109.5q-203 4 -321 138t-108 343l288 -1q-8 -129 33.5 -184.5t130.5 -55.5q78 1 123 48.5t56 122.5zM1056 1569v-18l-210 3l-95 143l-147 -142l-216 -3v20l289 274l155 1z" />
<glyph unicode="&#x15d;" horiz-adv-x="912" d="M516 297q10 70 -109 125t-178.5 103.5t-87 107.5t-24.5 134q7 147 120.5 242.5t277.5 93.5q162 -4 255.5 -96.5t91.5 -244.5h-276q3 71 -18.5 100.5t-67.5 29.5q-48 0 -81.5 -32.5t-41.5 -78.5q-12 -65 101.5 -116t163.5 -85q149 -99 139 -271q-6 -101 -62.5 -176.5 t-151 -115.5t-204.5 -37q-158 4 -258 103t-98 253l263 -1q-3 -78 25 -112t87 -34q52 0 88.5 27.5t45.5 80.5zM894 1259v-18l-210 3l-95 143l-147 -142l-216 -3v20l289 274l155 1z" />
<glyph unicode="&#x15e;" horiz-adv-x="1083" d="M680 390q10 74 -21.5 123.5t-131 97t-166.5 98.5q-183 139 -168 351q9 122 76.5 217.5t180.5 148.5t242 50q187 -4 292.5 -129.5t97.5 -321.5l-286 1q11 205 -131 208q-73 2 -125.5 -47.5t-63.5 -127.5q-15 -117 162 -200t254 -187q86 -115 73 -280q-15 -190 -150 -303.5 t-337 -109.5q-203 4 -321 138t-108 343l288 -1q-8 -129 33.5 -184.5t130.5 -55.5q78 1 123 48.5t56 122.5zM548 7l-18 -61q94 -28 94 -163q-3 -114 -88 -178t-244 -69l12 168q77 12 89 90q7 55 -52 65l-40 5l41 142z" />
<glyph unicode="&#x15f;" horiz-adv-x="912" d="M516 297q10 70 -109 125t-178.5 103.5t-87 107.5t-24.5 134q7 147 120.5 242.5t277.5 93.5q162 -4 255.5 -96.5t91.5 -244.5h-276q3 71 -18.5 100.5t-67.5 29.5q-48 0 -81.5 -32.5t-41.5 -78.5q-12 -65 101.5 -116t163.5 -85q149 -99 139 -271q-6 -101 -62.5 -176.5 t-151 -115.5t-204.5 -37q-158 4 -258 103t-98 253l263 -1q-3 -78 25 -112t87 -34q52 0 88.5 27.5t45.5 80.5zM457 -2l-18 -61q94 -28 94 -163q-3 -114 -88 -178t-244 -69l12 168q77 12 89 90q7 55 -52 65l-40 5l41 142z" />
<glyph unicode="&#x160;" horiz-adv-x="1083" d="M680 390q10 74 -21.5 123.5t-131 97t-166.5 98.5q-183 139 -168 351q9 122 76.5 217.5t180.5 148.5t242 50q187 -4 292.5 -129.5t97.5 -321.5l-286 1q11 205 -131 208q-73 2 -125.5 -47.5t-63.5 -127.5q-15 -117 162 -200t254 -187q86 -115 73 -280q-15 -190 -150 -303.5 t-337 -109.5q-203 4 -321 138t-108 343l288 -1q-8 -129 33.5 -184.5t130.5 -55.5q78 1 123 48.5t56 122.5zM732 1707l137 139l240 4l1 -17l-298 -278h-171l-224 280v16l228 -4z" />
<glyph unicode="&#x161;" horiz-adv-x="912" d="M516 297q10 70 -109 125t-178.5 103.5t-87 107.5t-24.5 134q7 147 120.5 242.5t277.5 93.5q162 -4 255.5 -96.5t91.5 -244.5h-276q3 71 -18.5 100.5t-67.5 29.5q-48 0 -81.5 -32.5t-41.5 -78.5q-12 -65 101.5 -116t163.5 -85q149 -99 139 -271q-6 -101 -62.5 -176.5 t-151 -115.5t-204.5 -37q-158 4 -258 103t-98 253l263 -1q-3 -78 25 -112t87 -34q52 0 88.5 27.5t45.5 80.5zM569 1397l137 139l240 4l1 -17l-298 -278h-171l-224 280v16l228 -4z" />
<glyph unicode="&#x162;" horiz-adv-x="1089" d="M1135 1211h-349l-210 -1211h-288l210 1211h-344l43 245h981zM532 14l-18 -61q94 -28 94 -163q-3 -114 -88 -178t-244 -69l12 168q77 12 89 90q7 55 -52 65l-40 5l41 142z" />
<glyph unicode="&#x163;" horiz-adv-x="620" d="M550 1348l-46 -266h140l-37 -213h-140l-92 -545l-3 -32q-4 -67 56 -69q17 -1 68 5l-25 -222q-62 -25 -144 -25q-121 2 -182 87t-47 232l93 569h-122l37 213h121l47 266h276zM372 7l-18 -61q94 -28 94 -163q-3 -114 -88 -178t-244 -69l12 168q77 12 89 90q7 55 -52 65 l-40 5l41 142z" />
<glyph unicode="&#x164;" horiz-adv-x="1089" d="M1135 1211h-349l-210 -1211h-288l210 1211h-344l43 245h981zM716 1707l137 139l240 4l1 -17l-298 -278h-171l-224 280v16l228 -4z" />
<glyph unicode="&#x165;" horiz-adv-x="660" d="M550 1348l-46 -266h140l-37 -213h-140l-92 -545l-3 -32q-4 -67 56 -69q17 -1 68 5l-25 -222q-62 -25 -144 -25q-121 2 -182 87t-47 232l93 569h-122l37 213h121l47 266h276zM754 1243l-132 81q78 127 101 236l20 108h192l-5 -53q-21 -213 -176 -372z" />
<glyph unicode="&#x166;" horiz-adv-x="1089" d="M845 746h-140l-129 -746h-288l129 746h-163l33 183h162l49 282h-344l43 245h981l-43 -245h-349l-49 -282h140z" />
<glyph unicode="&#x167;" horiz-adv-x="620" d="M563 529h-154q-36 -216 -37 -237q-4 -67 56 -69q17 -1 68 5l-25 -222q-62 -25 -144 -25q-121 2 -182 87t-47 232l37 229h-163l33 183h160l26 157h-122l37 213h121l47 266h276l-46 -266h140l-37 -213h-140l-27 -157h155z" />
<glyph unicode="&#x168;" horiz-adv-x="1145" d="M1195 1456l-170 -1000q-31 -227 -169 -354t-362 -123q-210 4 -318 132t-83 345l170 1000h288l-168 -1001l-4 -86q0 -140 139 -145q96 -3 150 51t71 180l169 1001h287zM1077 1832q-8 -119 -65 -195t-144 -74q-33 0 -59 15l-94 58q-33 18 -65 16q-56 -3 -79 -96l-157 9 q8 119 66.5 196t144.5 75q42 -1 110 -46.5t110 -42.5q48 3 71 66l10 30z" />
<glyph unicode="&#x169;" horiz-adv-x="988" d="M540 99q-102 -122 -238 -120q-106 1 -170 71.5t-74 192.5q-6 71 1 139l117 700h276l-117 -704l-3 -49q-4 -50 14.5 -81t55.5 -32q82 -3 150 83l136 783h279l-188 -1082h-257zM947 1523q-8 -119 -65 -195t-144 -74q-33 0 -59 15l-94 58q-33 18 -65 16q-56 -3 -79 -96 l-157 9q8 119 66.5 196t144.5 75q42 -1 110 -46.5t110 -42.5q48 3 71 66l10 30z" />
<glyph unicode="&#x16a;" horiz-adv-x="1145" d="M1195 1456l-170 -1000q-31 -227 -169 -354t-362 -123q-210 4 -318 132t-83 345l170 1000h288l-168 -1001l-4 -86q0 -140 139 -145q96 -3 150 51t71 180l169 1001h287zM1042 1598h-614l27 167h614z" />
<glyph unicode="&#x16b;" horiz-adv-x="988" d="M540 99q-102 -122 -238 -120q-106 1 -170 71.5t-74 192.5q-6 71 1 139l117 700h276l-117 -704l-3 -49q-4 -50 14.5 -81t55.5 -32q82 -3 150 83l136 783h279l-188 -1082h-257zM912 1289h-614l27 167h614z" />
<glyph unicode="&#x16c;" horiz-adv-x="1145" d="M1195 1456l-170 -1000q-31 -227 -169 -354t-362 -123q-210 4 -318 132t-83 345l170 1000h288l-168 -1001l-4 -86q0 -140 139 -145q96 -3 150 51t71 180l169 1001h287zM1100 1839q-8 -139 -108.5 -221t-246.5 -78q-142 2 -228 83.5t-86 214.5l201 -1q-4 -129 116 -131 q64 -1 102.5 34.5t50.5 95.5z" />
<glyph unicode="&#x16d;" horiz-adv-x="988" d="M540 99q-102 -122 -238 -120q-106 1 -170 71.5t-74 192.5q-6 71 1 139l117 700h276l-117 -704l-3 -49q-4 -50 14.5 -81t55.5 -32q82 -3 150 83l136 783h279l-188 -1082h-257zM970 1529q-8 -139 -108.5 -221t-246.5 -78q-142 2 -228 83.5t-86 214.5l201 -1 q-4 -129 116 -131q64 -1 102.5 34.5t50.5 95.5z" />
<glyph unicode="&#x16e;" horiz-adv-x="1145" d="M1195 1456l-170 -1000q-31 -227 -169 -354t-362 -123q-210 4 -318 132t-83 345l170 1000h288l-168 -1001l-4 -86q0 -140 139 -145q96 -3 150 51t71 180l169 1001h287zM541 1723q0 89 67 151t159 62q85 0 146 -57t61 -142q0 -86 -65.5 -147.5t-160.5 -61.5q-85 0 -146 56 t-61 139zM654 1724q-5 -41 17 -71t65 -30q46 0 82.5 33t42.5 80q6 43 -17.5 73t-64.5 30q-44 0 -81.5 -33.5t-43.5 -81.5z" />
<glyph unicode="&#x16f;" horiz-adv-x="988" d="M540 99q-102 -122 -238 -120q-106 1 -170 71.5t-74 192.5q-6 71 1 139l117 700h276l-117 -704l-3 -49q-4 -50 14.5 -81t55.5 -32q82 -3 150 83l136 783h279l-188 -1082h-257zM411 1413q0 89 67 151t159 62q85 0 146 -57t61 -142q0 -86 -65.5 -147.5t-160.5 -61.5 q-85 0 -146 56t-61 139zM524 1414q-5 -41 17 -71t65 -30q46 0 82.5 33t42.5 80q6 43 -17.5 73t-64.5 30q-44 0 -81.5 -33.5t-43.5 -81.5z" />
<glyph unicode="&#x170;" horiz-adv-x="1145" d="M1195 1456l-170 -1000q-31 -227 -169 -354t-362 -123q-210 4 -318 132t-83 345l170 1000h288l-168 -1001l-4 -86q0 -140 139 -145q96 -3 150 51t71 180l169 1001h287zM981 1845h257l-266 -301h-219zM645 1845h253l-238 -301h-212z" />
<glyph unicode="&#x171;" horiz-adv-x="988" d="M540 99q-102 -122 -238 -120q-106 1 -170 71.5t-74 192.5q-6 71 1 139l117 700h276l-117 -704l-3 -49q-4 -50 14.5 -81t55.5 -32q82 -3 150 83l136 783h279l-188 -1082h-257zM851 1535h257l-266 -301h-219zM515 1535h253l-238 -301h-212z" />
<glyph unicode="&#x172;" horiz-adv-x="1145" d="M1194 1456l-170 -1000q-23 -164 -101.5 -278t-212.5 -164q-69 -62 -77 -127q-2 -20 2.5 -38t28.5 -19q18 -1 63 18l15 -160q-57 -41 -135 -41q-82 0 -132.5 56.5t-48.5 144.5q0 72 36 133q-200 14 -297 142.5t-73 332.5l170 1000h288l-168 -1001l-4 -86q0 -140 139 -145 q96 -3 150 51t71 180l169 1001h287z" />
<glyph unicode="&#x173;" horiz-adv-x="988" d="M747 0l-58 -46q-81 -68 -87 -135q-2 -20 2.5 -38t28.5 -19q18 -1 63 18l15 -160q-57 -41 -135 -41q-82 0 -132.5 56.5t-48.5 144.5q2 139 129 231l16 88q-102 -122 -238 -120q-106 1 -170 71.5t-74 192.5q-6 71 1 139l117 700h276l-117 -704l-3 -49q-4 -50 14.5 -81 t55.5 -32q82 -3 150 83l136 783h279l-188 -1082h-32z" />
<glyph unicode="&#x174;" horiz-adv-x="1498" d="M1020 545l276 911h288l-478 -1456h-288l-30 854l-296 -854h-289l-25 1456h282l-11 -908l307 908h242zM1241 1569v-18l-210 3l-95 143l-147 -142l-216 -3v20l289 274l155 1z" />
<glyph unicode="&#x175;" horiz-adv-x="1267" d="M840 477l199 605h270l-405 -1082h-229l-39 622l-256 -622h-231l-30 1082h260l-13 -601l243 601h197zM1079 1259v-18l-210 3l-95 143l-147 -142l-216 -3v20l289 274l155 1z" />
<glyph unicode="&#x176;" horiz-adv-x="1088" d="M570 805l325 651h323l-548 -942l-89 -514h-291l95 543l-216 913h302zM1047 1569v-18l-210 3l-95 143l-147 -142l-216 -3v20l289 274l155 1z" />
<glyph unicode="&#x177;" horiz-adv-x="897" d="M411 476l245 606h302l-558 -1245q-61 -146 -142 -211.5t-187 -65.5q-43 0 -122 21l24 221l30 -2q113 -2 166 101l46 103l-112 1078h289zM897 1259v-18l-210 3l-95 143l-147 -142l-216 -3v20l289 274l155 1z" />
<glyph unicode="&#x178;" horiz-adv-x="1088" d="M570 805l325 651h323l-548 -942l-89 -514h-291l95 543l-216 913h302zM352 1671q0 53 38.5 92t96.5 41q56 0 96 -36.5t40 -88.5q0 -56 -39 -93t-95 -39q-59 0 -98 36.5t-39 87.5zM827 1671q0 56 39 93t95 39q58 0 97 -37t39 -87q0 -56 -39 -93t-95 -39q-58 0 -97 35.5 t-39 88.5z" />
<glyph unicode="&#x179;" horiz-adv-x="1063" d="M356 244h575l-43 -244h-917l33 190l746 1021h-575l43 245h912l-32 -186zM795 1846h326l-319 -310h-246z" />
<glyph unicode="&#x17a;" horiz-adv-x="909" d="M349 235h408l-41 -235h-743l33 190l512 656h-389l42 236h727l-32 -184zM652 1536h326l-319 -310h-246z" />
<glyph unicode="&#x17b;" horiz-adv-x="1063" d="M356 244h575l-43 -244h-917l33 190l746 1021h-575l43 245h912l-32 -186zM583 1697q-2 61 40 102.5t104 41.5q61 2 103 -37t42 -97q2 -60 -39.5 -101t-104.5 -41q-64 0 -104.5 38t-40.5 94z" />
<glyph unicode="&#x17c;" horiz-adv-x="909" d="M349 235h408l-41 -235h-743l33 190l512 656h-389l42 236h727l-32 -184zM440 1387q-2 61 40 102.5t104 41.5q61 2 103 -37t42 -97q2 -60 -39.5 -101t-104.5 -41q-64 0 -104.5 38t-40.5 94z" />
<glyph unicode="&#x17d;" horiz-adv-x="1063" d="M356 244h575l-43 -244h-917l33 190l746 1021h-575l43 245h912l-32 -186zM717 1707l137 139l240 4l1 -17l-298 -278h-171l-224 280v16l228 -4z" />
<glyph unicode="&#x17e;" horiz-adv-x="909" d="M349 235h408l-41 -235h-743l33 190l512 656h-389l42 236h727l-32 -184zM574 1397l137 139l240 4l1 -17l-298 -278h-171l-224 280v16l228 -4z" />
<glyph unicode="&#x17f;" horiz-adv-x="499" d="M0 0l200 1174q22 180 125 284t270 102q49 0 144 -21l-44 -227q-53 14 -77 14q-114 0 -141 -157l-201 -1169h-276z" />
<glyph unicode="&#x18f;" horiz-adv-x="1204" d="M495 -20q-201 4 -312.5 140.5t-112.5 384.5q-1 80 10 159l27 164h741q10 67 7 134q-7 114 -67 179t-165 68q-144 4 -316 -62l-17 252q94 76 369 76q140 -1 246.5 -62.5t168 -179.5t68.5 -265q4 -83 -7 -168l-23 -150q-30 -194 -121.5 -354t-219.5 -239.5t-276 -76.5z M521 242q100 -2 173.5 81.5t122.5 259.5h-460q-15 -85 -14 -140q2 -92 47.5 -145t130.5 -56z" />
<glyph unicode="&#x192;" horiz-adv-x="667" d="M633 869h-156l-141 -917q-22 -188 -116.5 -291t-243.5 -101q-67 2 -131 20l34 231q44 -17 76 -17q78 0 98 117l6 41l141 917h-127l33 213h127l8 76q21 195 124.5 299.5t268.5 102.5q53 -1 143 -22l-42 -227q-48 12 -79 12q-113 0 -136 -161l-11 -80h157z" />
<glyph unicode="&#x1a0;" horiz-adv-x="1218" d="M502 -20q-187 4 -296 139.5t-122 371.5l-1 45q-2 182 43.5 360.5t133.5 313t205.5 202t257.5 64.5q106 -3 195.5 -50.5t149.5 -135.5q94 49 120 203l11 73l180 1q-16 -176 -76.5 -276t-168.5 -144q13 -98 14 -194q0 -124 -28 -288t-88 -296q-88 -194 -224.5 -294 t-305.5 -95zM857 937q5 280 -158 290q-119 6 -198 -108.5t-110 -342.5q-22 -164 -24 -257q-3 -141 38 -215t120 -77q113 -6 189 97t110 301l11 70q21 173 22 242z" />
<glyph unicode="&#x1a1;" horiz-adv-x="1029" d="M59 545l12 73q47 229 176.5 359.5t311.5 125.5q88 -2 163.5 -38.5t124.5 -110.5q37 34 60.5 84.5t37.5 144.5h162q-12 -137 -61 -220.5t-137 -129.5q28 -220 -29.5 -428.5t-182.5 -319t-291 -106.5q-160 4 -252 115t-101 302q-3 55 6 149zM324 406q-3 -93 25 -142t82 -51 q89 -5 141.5 95t65.5 327l2 37q0 193 -107 196q-90 5 -142 -95t-66 -329z" />
<glyph unicode="&#x1af;" horiz-adv-x="1254" d="M1196 1456l-47 -231q159 25 192 208l16 104h177q-22 -234 -120 -345.5t-279 -121.5l-103 -574q-21 -155 -93.5 -274.5t-186.5 -182.5t-258 -59q-207 4 -313.5 148t-80.5 368l164 960h288l-161 -961l-6 -88q-2 -83 33 -132.5t102 -51.5q185 -10 226 272l163 961h287z" />
<glyph unicode="&#x1b0;" horiz-adv-x="1084" d="M1223 1178q-14 -178 -87 -266.5t-212 -107.5l-145 -804h-257l18 99q-103 -123 -239 -121q-118 2 -180.5 84.5t-65.5 227.5q-1 47 4 92l117 700h276l-117 -704l-3 -49q-3 -49 15 -81t56 -33q81 -3 149 84l136 783h278l-31 -140q93 39 118 156l14 79z" />
<glyph unicode="&#x1f0;" horiz-adv-x="544" d="M495 1082l-190 -1114q-27 -199 -127.5 -304.5t-254.5 -103.5q-66 2 -132 20l38 230q57 -17 82 -16q83 3 112 140l196 1148h276zM378 1372l137 139l240 4l1 -17l-298 -278h-171l-224 280v16l228 -4z" />
<glyph unicode="&#x1fa;" horiz-adv-x="1196" d="M738 298h-387l-127 -298h-312l694 1456h263l191 -1456h-297zM456 543h262l-41 516zM917 2000l265 -1l-270 -206h-187zM587 1559q0 79 53 137t127 58t121 -55t47 -126q0 -79 -51 -135.5t-126 -56.5q-73 0 -122 51.5t-49 126.5zM689 1561v-29q7 -55 55 -55q32 0 57.5 28.5 t30.5 65.5l1 28q-2 26 -16 42t-35 16q-34 0 -59.5 -27t-33.5 -69z" />
<glyph unicode="&#x1fb;" horiz-adv-x="945" d="M510 0q-8 34 -8 84q-92 -105 -210 -105q-125 2 -200.5 92t-69.5 224q9 172 134 269.5t336 97.5h81l13 88l3 45q0 87 -70 87q-97 3 -118 -124l-275 -2q9 154 128 251.5t290 95.5q161 -4 246.5 -101.5t69.5 -257.5l-88 -550l-4 -53q-4 -70 14 -123l-1 -18h-271zM368 200 q73 -2 136 64l49 229h-60q-80 -4 -129 -54t-59 -126l-1 -38q0 -32 16.5 -53t47.5 -22zM732 1691l265 -1l-270 -206h-187zM402 1250q0 79 53 137t127 58t121 -55t47 -126q0 -79 -51 -135.5t-126 -56.5q-73 0 -122 51.5t-49 126.5zM504 1252v-29q7 -55 55 -55q32 0 57.5 28.5 t30.5 65.5l1 28q-2 26 -16 42t-35 16q-34 0 -59.5 -27t-33.5 -69z" />
<glyph unicode="&#x1fc;" horiz-adv-x="1634" d="M1451 0h-756l47 333h-317l-186 -333h-335l876 1456h873l-42 -238h-470l-49 -352h393l-42 -238h-384l-55 -390h489zM563 582h214l69 505zM1037 1858h326l-319 -310h-246z" />
<glyph unicode="&#x1fd;" horiz-adv-x="1456" d="M945 -20q-200 5 -293 135q-145 -139 -333 -135q-141 2 -222.5 92t-73.5 239q10 161 131 250.5t328 89.5l119 -1l11 57l4 50q2 49 -17.5 79.5t-57.5 31.5q-46 2 -81.5 -29.5t-50.5 -93.5l-273 18q11 155 132 248.5t298 91.5q161 -2 249 -94q125 96 269 92t226 -104 t88 -271q2 -58 -5 -114l-25 -163h-518q-4 -41 -1 -81q5 -70 41.5 -109.5t100.5 -42.5q68 -2 127 20.5t117 54.5l53 -193q-57 -57 -149 -87.5t-194 -30.5zM386 192q63 0 152 67l38 201l-96 1q-73 -4 -120.5 -46.5t-57.5 -107.5q-7 -48 12.5 -81t71.5 -34zM1056 869 q-114 5 -169 -164l-18 -61l254 -1l11 88q8 133 -78 138zM929 1537h326l-319 -310h-246z" />
<glyph unicode="&#x1fe;" horiz-adv-x="1206" d="M517 -21q-127 2 -228 66l-96 -140l-186 1l169 246q-86 174 -79 402l2 40q16 278 104 479t227.5 304.5t309.5 99.5q132 -4 237 -72l78 113l188 -1l-156 -224q57 -127 69 -262q16 -178 -22 -383t-128 -362t-215 -233.5t-274 -73.5zM368 458l464 713q-43 54 -112 58 q-116 6 -195 -100t-117 -342q-34 -209 -40 -329zM888 977l-457 -703q39 -45 107 -49q227 -8 302 398q30 165 48 354zM875 1920h326l-319 -310h-246z" />
<glyph unicode="&#x1ff;" horiz-adv-x="996" d="M60 545q33 252 165 407t336 152q76 -2 146 -28l86 140l160 -1l-132 -214q96 -132 95 -331q-1 -49 -9 -139q-34 -254 -169.5 -406t-333.5 -147q-68 2 -139 25l-89 -145l-160 1l133 216q-98 131 -98 332q0 59 7 117zM310 370l281 488q-25 11 -47 13q-165 8 -212 -323 l-18 -125zM656 699l-279 -478q20 -8 43 -10q155 -4 205 269l9 51q20 137 22 168zM668 1532h326l-319 -310h-246z" />
<glyph unicode="&#x218;" horiz-adv-x="1083" d="M680 390q10 74 -21.5 123.5t-131 97t-166.5 98.5q-183 139 -168 351q9 122 76.5 217.5t180.5 148.5t242 50q187 -4 292.5 -129.5t97.5 -321.5l-286 1q11 205 -131 208q-73 2 -125.5 -47.5t-63.5 -127.5q-15 -117 162 -200t254 -187q86 -115 73 -280q-15 -190 -150 -303.5 t-337 -109.5q-203 4 -321 138t-108 343l288 -1q-8 -129 33.5 -184.5t130.5 -55.5q78 1 123 48.5t56 122.5zM345 -517l-132 81q78 127 101 236l20 108h192l-5 -53q-21 -213 -176 -372z" />
<glyph unicode="&#x219;" horiz-adv-x="912" d="M516 297q10 70 -109 125t-178.5 103.5t-87 107.5t-24.5 134q7 147 120.5 242.5t277.5 93.5q162 -4 255.5 -96.5t91.5 -244.5h-276q3 71 -18.5 100.5t-67.5 29.5q-48 0 -81.5 -32.5t-41.5 -78.5q-12 -65 101.5 -116t163.5 -85q149 -99 139 -271q-6 -101 -62.5 -176.5 t-151 -115.5t-204.5 -37q-158 4 -258 103t-98 253l263 -1q-3 -78 25 -112t87 -34q52 0 88.5 27.5t45.5 80.5zM254 -527l-132 81q78 127 101 236l20 108h192l-5 -53q-21 -213 -176 -372z" />
<glyph unicode="&#x21a;" horiz-adv-x="1089" d="M1135 1211h-349l-210 -1211h-288l210 1211h-344l43 245h981zM329 -510l-132 81q78 127 101 236l20 108h192l-5 -53q-21 -213 -176 -372z" />
<glyph unicode="&#x21b;" horiz-adv-x="620" d="M550 1348l-46 -266h140l-37 -213h-140l-92 -545l-3 -32q-4 -67 56 -69q17 -1 68 5l-25 -222q-62 -25 -144 -25q-121 2 -182 87t-47 232l93 569h-122l37 213h121l47 266h276zM169 -517l-132 81q78 127 101 236l20 108h192l-5 -53q-21 -213 -176 -372z" />
<glyph unicode="&#x237;" horiz-adv-x="544" d="M495 1082l-190 -1114q-27 -199 -127.5 -304.5t-254.5 -103.5q-66 2 -132 20l38 230q57 -17 82 -16q83 3 112 140l196 1148h276z" />
<glyph unicode="&#x259;" horiz-adv-x="940" d="M507 1102q170 -3 267 -132t90 -346l-3 -48l-4 -33q-32 -259 -160 -413.5t-319 -149.5q-135 4 -218 88t-100 229q-11 86 0 173l26 164h503q3 36 1 76l-2 18q-19 132 -127 137q-68 4 -128 -19t-118 -55l-56 190q57 57 150 90t198 31zM403 213q95 -2 144 151l22 71l-239 1 l-5 -28l-6 -59q-5 -60 16.5 -97.5t67.5 -38.5z" />
<glyph unicode="&#x2bc;" horiz-adv-x="456" d="M285 1007l-133 83q92 156 116 269l31 177h216l-22 -143q-35 -224 -208 -386z" />
<glyph unicode="&#x2c6;" horiz-adv-x="911" d="M897 1259v-18l-210 3l-95 143l-147 -142l-216 -3v20l289 274l155 1z" />
<glyph unicode="&#x2c7;" horiz-adv-x="867" d="M553 1397l137 139l240 4l1 -17l-298 -278h-171l-224 280v16l228 -4z" />
<glyph unicode="&#x2c9;" horiz-adv-x="920" d="M869 1290h-614l27 167h614z" />
<glyph unicode="&#x2d8;" horiz-adv-x="893" d="M913 1529q-8 -139 -108.5 -221t-246.5 -78q-142 2 -228 83.5t-86 214.5l201 -1q-4 -129 116 -131q64 -1 102.5 34.5t50.5 95.5z" />
<glyph unicode="&#x2d9;" horiz-adv-x="538" d="M250 1369q-2 61 40 102.5t104 41.5q61 2 103 -37t42 -97q2 -60 -39.5 -101t-104.5 -41q-64 0 -104.5 38t-40.5 94z" />
<glyph unicode="&#x2da;" horiz-adv-x="672" d="M241 1316q0 89 67 151t159 62q85 0 146 -57t61 -142q0 -86 -65.5 -147.5t-160.5 -61.5q-85 0 -146 56t-61 139zM354 1317q-5 -41 17 -71t65 -30q46 0 82.5 33t42.5 80q6 43 -17.5 73t-64.5 30q-44 0 -81.5 -33.5t-43.5 -81.5z" />
<glyph unicode="&#x2db;" horiz-adv-x="576" d="M271 0l-58 -46q-81 -68 -87 -135q-2 -20 2.5 -38t28.5 -19q18 -1 63 18l15 -160q-57 -41 -135 -41q-82 0 -132.5 56.5t-48.5 144.5q3 177 210 280z" />
<glyph unicode="&#x2dc;" horiz-adv-x="878" d="M888 1525q-8 -119 -65 -195t-144 -74q-33 0 -59 15l-94 58q-33 18 -65 16q-56 -3 -79 -96l-157 9q8 119 66.5 196t144.5 75q42 -1 110 -46.5t110 -42.5q48 3 71 66l10 30z" />
<glyph unicode="&#x2dd;" horiz-adv-x="745" d="M687 1535h257l-266 -301h-219zM351 1535h253l-238 -301h-212z" />
<glyph unicode="&#x2f3;" horiz-adv-x="575" d="M-14 -236q0 75 48 127.5t115 52.5t112 -49.5t45 -118.5q0 -75 -48 -125.5t-114 -50.5q-69 0 -113.5 48.5t-44.5 115.5zM85 -235q-3 -22 7.5 -44.5t36.5 -23.5q25 0 48 23t28 55l1 22q-4 50 -42 50q-26 0 -50 -25.5t-29 -56.5z" />
<glyph unicode="&#x300;" horiz-adv-x="0" d="M-172 1226h-207l-185 310h283z" />
<glyph unicode="&#x301;" horiz-adv-x="0" d="M-237 1536h315l-293 -310h-237z" />
<glyph unicode="&#x303;" horiz-adv-x="0" d="M16 1525q-8 -119 -65 -195t-144 -74q-33 0 -59 15l-94 58q-33 18 -65 16q-56 -3 -79 -96l-157 9q8 119 66.5 196t144.5 75q42 -1 110 -46.5t110 -42.5q48 3 71 66l10 30z" />
<glyph unicode="&#x309;" horiz-adv-x="0" d="M-469 1266l2 135l35 5q80 14 87 67q7 50 -51 57l-37 3l18 138q304 -14 298 -188q-4 -120 -130 -151l-9 -66h-213z" />
<glyph unicode="&#x30f;" horiz-adv-x="0" d="M-261 1252h-239l-190 266h282zM35 1252h-234l-153 266h278z" />
<glyph unicode="&#x323;" horiz-adv-x="0" d="M-885 -239q0 64 47 104.5t112 40.5q69 0 114 -39t45 -96q2 -63 -46 -104t-113 -41q-66 0 -111.5 37t-47.5 98z" />
<glyph unicode="&#x384;" horiz-adv-x="684" d="M454 1601h268l-221 -345h-179z" />
<glyph unicode="&#x385;" horiz-adv-x="996" d="M636 1753h252l-203 -333h-144zM221 1361q0 56 36.5 93.5t88.5 39.5q53 2 91 -35.5t38 -89.5q0 -54 -36 -92t-90 -40q-51 -2 -89.5 34.5t-38.5 89.5zM751 1361q0 52 35 91t90 41q54 2 91 -36t37 -88q0 -56 -36 -93t-89 -39q-51 -2 -89.5 34t-38.5 90z" />
<glyph unicode="&#x386;" horiz-adv-x="1196" d="M738 298h-387l-127 -298h-312l694 1456h263l191 -1456h-297zM456 543h262l-41 516zM284 1601h268l-221 -345h-179z" />
<glyph unicode="&#x387;" horiz-adv-x="576" d="M144 690q0 71 44 117t108 46q64 2 107.5 -42t43.5 -109q0 -69 -43.5 -115.5t-108.5 -46.5q-64 -2 -107.5 41.5t-43.5 108.5z" />
<glyph unicode="&#x388;" horiz-adv-x="1085" d="M949 630h-444l-67 -386h526l-43 -244h-812l252 1456h811l-43 -245h-523l-60 -344h445zM12 1602h268l-221 -345h-179z" />
<glyph unicode="&#x389;" horiz-adv-x="1329" d="M1101 0h-286l108 623h-419l-108 -623h-287l252 1456h287l-102 -589h419l103 589h286zM12 1599h268l-221 -345h-179z" />
<glyph unicode="&#x38a;" horiz-adv-x="647" d="M408 0h-287l253 1456h287zM10 1603h268l-221 -345h-179z" />
<glyph unicode="&#x38c;" horiz-adv-x="1229" d="M532 -20q-192 4 -304.5 126t-122.5 339q-4 75 6 152l37 242q29 194 113 344t209 223t282 70q194 -4 304.5 -132.5t118.5 -351.5q2 -84 -9 -159l-33 -223q-45 -300 -202.5 -467.5t-398.5 -162.5zM879 843q12 103 12 159q-5 223 -161 229q-120 5 -193.5 -90.5 t-102.5 -299.5l-35 -245q-12 -99 -9 -155q5 -210 165 -217q114 -4 187 84t102 288zM90 1601h268l-221 -345h-179z" />
<glyph unicode="&#x38e;" horiz-adv-x="1188" d="M670 805l325 651h323l-548 -942l-89 -514h-291l95 543l-216 913h302zM-53 1601h268l-221 -345h-179z" />
<glyph unicode="&#x38f;" horiz-adv-x="1199" d="M570 250q157 88 201 399l29 215l12 132q6 228 -109 234q-84 4 -139.5 -80t-83.5 -287l-10 -86l-28 -183l-8 -92q-7 -91 10.5 -157.5t58.5 -93.5l-41 -251h-432l45 247l178 1q-138 263 -104 529l8 62q37 282 191 461.5t380 174.5q166 -4 269.5 -117.5t125.5 -306.5l4 -49 q3 -72 -5 -141l-11 -76q-49 -341 -293 -542l179 4l-44 -247h-424zM110 1601h268l-221 -345h-179z" />
<glyph unicode="&#x390;" horiz-adv-x="631" d="M493 1082l-126 -745l-3 -38q-4 -67 55 -69q21 -1 68 7l-25 -223q-67 -25 -146 -23q-123 2 -182 88t-45 230l128 773h276zM438 1732h252l-203 -333h-144zM23 1340q0 56 36.5 93.5t88.5 39.5q53 2 91 -35.5t38 -89.5q0 -54 -36 -92t-90 -40q-51 -2 -89.5 34.5t-38.5 89.5z M553 1340q0 52 35 91t90 41q54 2 91 -36t37 -88q0 -56 -36 -93t-89 -39q-51 -2 -89.5 34t-38.5 90z" />
<glyph unicode="&#x391;" horiz-adv-x="1196" d="M738 298h-387l-127 -298h-312l694 1456h263l191 -1456h-297zM456 543h262l-41 516z" />
<glyph unicode="&#x392;" horiz-adv-x="1125" d="M9 0l252 1456l403 -1q210 0 320 -101.5t97 -288.5q-17 -222 -232 -322q77 -32 113 -111.5t28 -195.5q-15 -203 -144.5 -319.5t-347.5 -116.5h-489zM406 633l-68 -389l168 -2q95 2 149.5 69.5t56.5 192.5q0 120 -101 128zM442 847l136 -2q109 2 165 74t48 184 q-10 101 -120 107l-165 1z" />
<glyph unicode="&#x393;" horiz-adv-x="981" d="M1016 1211h-507l-210 -1211h-287l252 1456h795z" />
<glyph unicode="&#x394;" horiz-adv-x="1284" d="M640 1456h297l207 -1456h-1223zM346 244h476l-98 794z" />
<glyph unicode="&#x2206;" horiz-adv-x="1284" d="M640 1456h297l207 -1456h-1223zM346 244h476l-98 794z" />
<glyph unicode="&#x395;" horiz-adv-x="985" d="M849 630h-444l-67 -386h526l-43 -244h-812l252 1456h811l-43 -245h-523l-60 -344h445z" />
<glyph unicode="&#x396;" horiz-adv-x="1063" d="M356 244h575l-43 -244h-917l33 190l746 1021h-575l43 245h912l-32 -186z" />
<glyph unicode="&#x397;" horiz-adv-x="1229" d="M1001 0h-286l108 623h-419l-108 -623h-287l252 1456h287l-102 -589h419l103 589h286z" />
<glyph unicode="&#x398;" horiz-adv-x="1204" d="M744 606h-278l41 234h278zM509 -20q-131 3 -225 71t-143.5 196.5t-51.5 288.5q-2 174 42.5 353.5t132.5 317t206 205t259 64.5q132 -3 226 -72t144 -199t51 -289q0 -82 -9 -157l-7 -50q-33 -231 -124.5 -400.5t-220 -251.5t-280.5 -77zM850 762q13 140 14 175 q0 150 -40 217.5t-118 72.5q-110 6 -186 -92t-110 -285t-37 -331q-3 -141 38.5 -215t120.5 -77q116 -6 193 102t111 329z" />
<glyph unicode="&#x399;" horiz-adv-x="547" d="M308 0h-287l253 1456h287z" />
<glyph unicode="&#x39a;" horiz-adv-x="1109" d="M512 558l-146 -154l-70 -404h-287l252 1456h287l-108 -619l116 154l336 465h367l-527 -653l266 -803h-327z" />
<glyph unicode="&#x39b;" horiz-adv-x="1130" d="M635 1008l-405 -1008h-317l643 1456h297l139 -1456h-304z" />
<glyph unicode="&#x39c;" horiz-adv-x="1516" d="M631 1456l85 -1047l447 1047h378l-253 -1456h-288l70 403l126 575l-446 -978h-195l-110 1011l-83 -627l-66 -384h-287l252 1456h370z" />
<glyph unicode="&#x39d;" horiz-adv-x="1226" d="M998 0h-280l-254 965l-168 -965h-287l252 1456h281l255 -966l168 966h286z" />
<glyph unicode="&#x39e;" horiz-adv-x="1001" d="M31 244h818l-43 -244h-818zM233 852h628l-41 -234h-629zM262 1456h761l-43 -245h-761z" />
<glyph unicode="&#x39f;" horiz-adv-x="1209" d="M512 -20q-192 4 -304.5 126t-122.5 339q-4 75 6 152l37 242q29 194 113 344t209 223t282 70q194 -4 304.5 -132.5t118.5 -351.5q2 -84 -9 -159l-33 -223q-45 -300 -202.5 -467.5t-398.5 -162.5zM859 843q12 103 12 159q-5 223 -161 229q-120 5 -193.5 -90.5 t-102.5 -299.5l-35 -245q-12 -99 -9 -155q5 -210 165 -217q114 -4 187 84t102 288z" />
<glyph unicode="&#x3a0;" horiz-adv-x="1231" d="M1002 0h-287l210 1211h-417l-210 -1211h-287l252 1456h991z" />
<glyph unicode="&#x3a1;" horiz-adv-x="1140" d="M385 512l-89 -512h-287l252 1456l467 -1q191 -6 299.5 -136.5t91.5 -336.5q-20 -214 -162 -342.5t-362 -128.5zM427 757l185 -2q107 2 166 82.5t56 216.5q-2 69 -33 110t-86 45l-209 2z" />
<glyph unicode="&#x3a3;" horiz-adv-x="1001" d="M748 728l-357 -485h478l-43 -243h-850l28 164l442 584l-242 570l25 138h836l-43 -245h-475l202 -467z" />
<glyph unicode="&#x3a4;" horiz-adv-x="1089" d="M1135 1211h-349l-210 -1211h-288l210 1211h-344l43 245h981z" />
<glyph unicode="&#x3a5;" horiz-adv-x="1088" d="M570 805l325 651h323l-548 -942l-89 -514h-291l95 543l-216 913h302z" />
<glyph unicode="&#x3a6;" horiz-adv-x="1353" d="M940 1285q128 -12 215.5 -88.5t126.5 -200.5t24 -269q-17 -158 -90 -284t-190.5 -198t-266.5 -80l-35 -165h-286l35 166q-127 9 -216 82.5t-130 196t-26 264.5q17 161 90.5 291.5t193.5 205t269 80.5l36 170h286zM377 621q0 -77 33 -128.5t96 -64.5l116 599 q-115 -18 -180 -127.5t-65 -278.5zM1031 816q2 84 -30 138.5t-94 69.5l-116 -598q112 20 174 119t66 271z" />
<glyph unicode="&#x3a7;" horiz-adv-x="1122" d="M607 958l267 498h339l-452 -735l221 -721h-322l-113 507l-272 -507h-343l462 746l-216 710h317z" />
<glyph unicode="&#x3a8;" horiz-adv-x="1273" d="M778 639q152 52 201 260l14 66l82 491h288l-78 -461q-39 -261 -178 -418t-358 -184l-75 -393h-287l75 393q-147 22 -239 128.5t-110 273.5q-11 100 2 200l78 461h286l-77 -462l-10 -95l-2 -41q0 -163 102 -215l148 813h287z" />
<glyph unicode="&#x3a9;" horiz-adv-x="1179" d="M550 250q157 88 201 399l29 215l12 132q6 228 -109 234q-84 4 -139.5 -80t-83.5 -287l-10 -86l-28 -183l-8 -92q-7 -91 10.5 -157.5t58.5 -93.5l-41 -251h-432l45 247l178 1q-138 263 -104 529l8 62q37 282 191 461.5t380 174.5q166 -4 269.5 -117.5t125.5 -306.5l4 -49 q3 -72 -5 -141l-11 -76q-49 -341 -293 -542l179 4l-44 -247h-424z" />
<glyph unicode="&#x2126;" horiz-adv-x="1179" d="M550 250q157 88 201 399l29 215l12 132q6 228 -109 234q-84 4 -139.5 -80t-83.5 -287l-10 -86l-28 -183l-8 -92q-7 -91 10.5 -157.5t58.5 -93.5l-41 -251h-432l45 247l178 1q-138 263 -104 529l8 62q37 282 191 461.5t380 174.5q166 -4 269.5 -117.5t125.5 -306.5l4 -49 q3 -72 -5 -141l-11 -76q-49 -341 -293 -542l179 4l-44 -247h-424z" />
<glyph unicode="&#x3aa;" horiz-adv-x="547" d="M308 0h-287l253 1456h287zM79 1674q0 53 38.5 92t96.5 41q56 0 96 -36.5t40 -88.5q0 -56 -39 -93t-95 -39q-59 0 -98 36.5t-39 87.5zM554 1674q0 56 39 93t95 39q58 0 97 -37t39 -87q0 -56 -39 -93t-95 -39q-58 0 -97 35.5t-39 88.5z" />
<glyph unicode="&#x3ab;" horiz-adv-x="1088" d="M570 805l325 651h323l-548 -942l-89 -514h-291l95 543l-216 913h302zM352 1671q0 53 38.5 92t96.5 41q56 0 96 -36.5t40 -88.5q0 -56 -39 -93t-95 -39q-59 0 -98 36.5t-39 87.5zM827 1671q0 56 39 93t95 39q58 0 97 -37t39 -87q0 -56 -39 -93t-95 -39q-58 0 -97 35.5 t-39 88.5z" />
<glyph unicode="&#x3ac;" horiz-adv-x="990" d="M957 1082l-124 -732l-8 -71q-3 -55 26 -57q4 0 10 3l-1 -223q-51 -22 -105 -21q-149 2 -187 150q-55 -81 -111.5 -117t-123.5 -36q-137 2 -210 112.5t-73 310.5q0 111 28.5 247.5t86.5 244.5t139 160.5t181 48.5q124 -4 188 -130l42 110h242zM334 506l-9 -109 q-6 -180 94 -183q60 -3 122 64l91 514q-32 73 -95 76q-78 4 -129 -77.5t-71 -263.5zM661 1601h268l-221 -345h-179z" />
<glyph unicode="&#x3ad;" horiz-adv-x="980" d="M46 298q5 90 56 155.5t155 109.5q-54 37 -84.5 92.5t-27.5 121.5q5 151 129 240t310 84q155 -4 249.5 -95.5t94.5 -236.5h-274q0 111 -101 111q-55 -1 -95 -36t-48 -89q-8 -48 16.5 -74.5t71.5 -29.5l171 -1l-34 -194l-142 1q-66 -2 -111 -35.5t-54 -101.5 q-8 -53 20.5 -87.5t81.5 -36.5q60 -1 99 32.5t50 90.5l276 1q-11 -158 -131 -251.5t-294 -89.5q-78 1 -153 24t-128 66q-110 88 -103 229zM640 1601h268l-221 -345h-179z" />
<glyph unicode="&#x3ae;" horiz-adv-x="996" d="M435 1083l-21 -124q114 147 256 144q115 -2 175 -84.5t60 -234.5l-5 -92l-187 -1107h-278l188 1108l5 54q4 118 -78 120q-71 2 -143 -75l-139 -792h-277l188 1082zM628 1601h268l-221 -345h-179z" />
<glyph unicode="&#x3af;" horiz-adv-x="631" d="M493 1082l-126 -745l-3 -38q-4 -67 55 -69q21 -1 68 7l-25 -223q-67 -25 -146 -23q-123 2 -182 88t-45 230l128 773h276zM413 1580h268l-221 -345h-179z" />
<glyph unicode="&#x3b0;" horiz-adv-x="966" d="M473 1082l-109 -669q-10 -71 -7 -113q5 -84 52 -87q71 -6 125.5 82.5t85.5 275.5q18 128 21 257t-20 256l252 -1q35 -125 35 -255q0 -275 -64 -469t-181 -290t-273 -92q-165 5 -244.5 123.5t-58.5 316.5l111 665h275zM649 1748h252l-203 -333h-144zM234 1356 q0 56 36.5 93.5t88.5 39.5q53 2 91 -35.5t38 -89.5q0 -54 -36 -92t-90 -40q-51 -2 -89.5 34.5t-38.5 89.5zM764 1356q0 52 35 91t90 41q54 2 91 -36t37 -88q0 -56 -36 -93t-89 -39q-51 -2 -89.5 34t-38.5 90z" />
<glyph unicode="&#x3b1;" horiz-adv-x="990" d="M957 1082l-124 -732l-8 -71q-3 -55 26 -57q4 0 10 3l-1 -223q-51 -22 -105 -21q-149 2 -187 150q-55 -81 -111.5 -117t-123.5 -36q-137 2 -210 112.5t-73 310.5q0 111 28.5 247.5t86.5 244.5t139 160.5t181 48.5q124 -4 188 -130l42 110h242zM334 506l-9 -109 q-6 -180 94 -183q60 -3 122 64l91 514q-32 73 -95 76q-78 4 -129 -77.5t-71 -263.5z" />
<glyph unicode="&#x3b2;" horiz-adv-x="1057" d="M668 1477q171 -4 265.5 -110t82.5 -277q-17 -204 -216 -327q79 -47 115.5 -137.5t27.5 -204.5q-16 -201 -128 -323.5t-289 -118.5q-114 1 -212 66l-87 -451h-275l246 1438q26 195 157 322t313 123zM569 856q70 2 112 58t50 154l2 55q-8 116 -90 121q-63 3 -109 -54 t-61 -157l-134 -776q60 -46 140 -44q83 0 140 74t59 206q0 66 -25.5 106t-75.5 44l-76 1l23 213z" />
<glyph unicode="&#x3b3;" horiz-adv-x="912" d="M419 412l249 670h295l-479 -1083l-72 -416h-276l80 458l-101 1041h282z" />
<glyph unicode="&#x3b4;" horiz-adv-x="996" d="M286 1241q8 154 113.5 244.5t266.5 88.5q80 -1 211 -46l-22 -225q-102 51 -177 48q-113 -2 -135 -102q-16 -78 69.5 -129t146.5 -109q184 -175 155 -464q-16 -164 -85 -296t-175.5 -204t-240.5 -68q-159 4 -253 112.5t-106 290.5q-4 62 4 146q22 177 108.5 295t219.5 149 l-1 13q-109 105 -99 256zM330 412q0 -197 107 -200q121 -6 174 185q32 117 34 249q0 85 -27.5 145t-79.5 82q-187 -10 -207 -418z" />
<glyph unicode="&#x3b5;" horiz-adv-x="980" d="M46 298q5 90 56 155.5t155 109.5q-54 37 -84.5 92.5t-27.5 121.5q5 151 129 240t310 84q155 -4 249.5 -95.5t94.5 -236.5h-274q0 111 -101 111q-55 -1 -95 -36t-48 -89q-8 -48 16.5 -74.5t71.5 -29.5l171 -1l-34 -194l-142 1q-66 -2 -111 -35.5t-54 -101.5 q-8 -53 20.5 -87.5t81.5 -36.5q60 -1 99 32.5t50 90.5l276 1q-11 -158 -131 -251.5t-294 -89.5q-78 1 -153 24t-128 66q-110 88 -103 229z" />
<glyph unicode="&#x3b6;" horiz-adv-x="895" d="M983 1456l-31 -179l-360 -434l-62 -78q-138 -176 -164 -346l-5 -51q-7 -97 58 -133q110 -46 146 -65q134 -69 126 -210q-5 -87 -68 -179t-172 -172l-137 119q80 95 94 171q7 36 -5.5 55t-45.5 33l-57 22q-242 98 -216 366q23 229 211 474l75 95l236 278h-400l41 234h736z " />
<glyph unicode="&#x3b7;" horiz-adv-x="996" d="M435 1083l-21 -124q114 147 256 144q115 -2 175 -84.5t60 -234.5l-5 -92l-187 -1107h-278l188 1108l5 54q4 118 -78 120q-71 2 -143 -75l-139 -792h-277l188 1082z" />
<glyph unicode="&#x3b8;" horiz-adv-x="1038" d="M426 -20q-158 4 -242 120.5t-88 330.5v43q2 70 10 133l34 232q47 316 175 479t329 158q112 -3 188.5 -64t111 -176t30.5 -253q-2 -70 -10 -132l-44 -287q-51 -290 -177.5 -440.5t-316.5 -143.5zM659 620h-273l-9 -54l-6 -44q-12 -79 -10 -156q4 -148 90 -153 q135 -11 184 270l13 83zM409 845h275l7 48q19 115 17 199l-2 28q-13 118 -86 123q-139 11 -190 -277l-12 -73z" />
<glyph unicode="&#x3b9;" horiz-adv-x="631" d="M493 1082l-126 -745l-3 -38q-4 -67 55 -69q21 -1 68 7l-25 -223q-67 -25 -146 -23q-123 2 -182 88t-45 230l128 773h276z" />
<glyph unicode="&#x3ba;" horiz-adv-x="1055" d="M446 397h-88l-68 -397h-276l187 1082h277l-77 -408h52l268 408h362l-393 -519l197 -563h-335z" />
<glyph unicode="&#x3bb;" horiz-adv-x="964" d="M404 1545q81 -3 134 -48.5t72 -123.5l176 -1084q11 -62 45 -68l31 -1l-25 -232q-45 -6 -90 -4q-89 4 -148.5 59t-82.5 163l-54 412l-249 -618h-305l492 1070l-29 152q-12 49 -28.5 65.5t-44.5 19.5l-27 1l-27 -2l17 220q67 21 143 19z" />
<glyph unicode="&#x3bc;" horiz-adv-x="1101" d="M486 1082l-101 -622l-10 -95q-5 -146 86 -149q88 -2 155 86l135 780h278l-188 -1082h-246l7 52q-88 -74 -172 -74q-62 0 -121 36l-83 -430h-275l260 1498h275z" />
<glyph unicode="&#x3bd;" horiz-adv-x="902" d="M411 405l238 677h294l-457 -1082h-263l-121 1082h283z" />
<glyph unicode="&#x3be;" horiz-adv-x="948" d="M886 1198l-84 27q-43 13 -88 12q-77 -2 -126 -41.5t-60 -106.5q-10 -66 22.5 -100.5t96.5 -37.5l143 -1l-43 -244l-106 2q-188 -2 -259 -144q-44 -89 -33 -183q13 -111 114 -151l77 -25q127 -44 174.5 -103.5t42.5 -145.5q-5 -85 -65 -176.5t-174 -174.5l-142 120 q84 92 97 172q9 58 -52 88l-56 24q-132 58 -192.5 115t-85 133.5t-15.5 183.5q22 280 316 392q-141 84 -131 249q8 179 133 288.5t308 107.5q127 -2 258 -53z" />
<glyph unicode="&#x3bf;" horiz-adv-x="998" d="M565 1102q164 -4 256 -111t101 -287v-71q-13 -314 -150.5 -486.5t-358.5 -166.5q-129 3 -213 69.5t-120.5 184.5t-20.5 271l6 54q29 255 163 401.5t337 141.5zM331 392q0 -173 106 -179q144 -8 187 220l11 72q14 144 14 185q0 172 -109 179q-79 4 -130 -73t-65 -222.5 t-14 -181.5z" />
<glyph unicode="&#x3c0;" horiz-adv-x="1141" d="M1110 860h-134l-88 -522l-3 -38q-4 -67 56 -69q11 -1 68 6l-24 -223q-71 -26 -146 -24q-122 2 -182 87.5t-46 231.5l89 551h-177l-150 -860h-276l149 860h-141l39 222h1005z" />
<glyph unicode="&#x3c1;" horiz-adv-x="996" d="M582 1103q104 -3 178.5 -56.5t113 -156t39.5 -229.5q0 -65 -6 -125l-9 -65q-39 -237 -146 -367t-265 -125q-121 4 -192 103l-95 -498h-276l177 1032q46 232 173 362t308 125zM323 280q35 -65 111 -68q144 -5 186 240l9 63l11 142q6 210 -99 213q-66 2 -110.5 -73 t-66.5 -247z" />
<glyph unicode="&#x3c2;" horiz-adv-x="900" d="M551 1103q162 -5 246.5 -121.5t75.5 -304.5l-259 1l1 59q0 127 -90 132q-142 4 -180 -258q-16 -109 -16 -175q0 -151 115.5 -204.5t145.5 -76.5q85 -65 81 -179q-3 -84 -62 -174t-176 -178l-141 120q32 37 61.5 80t36.5 93q10 62 -42 87q-176 85 -242 206t-46 313 q28 268 160 426.5t331 153.5z" />
<glyph unicode="&#x3c3;" horiz-adv-x="1012" d="M1004 846l-204 -2q96 -170 82 -331l-3 -22q-16 -148 -83.5 -271t-168.5 -183t-221 -57q-162 4 -254 116.5t-99 303.5q-3 55 6 149q29 240 162 384t340 153q0 -4 3 -6v2h482zM325 406q-5 -192 106 -195q130 -4 169 233l11 88l11 131l-1 42q-7 139 -94 142 q-87 5 -137.5 -90.5t-63.5 -310.5z" />
<glyph unicode="&#x3c4;" horiz-adv-x="924" d="M906 849h-276l-87 -514q-8 -46 -5 -71q2 -42 35 -44h23l56 14l6 -224q-74 -31 -158 -29q-123 3 -185 95.5t-47 256.5l85 516h-261l41 233h814z" />
<glyph unicode="&#x3c5;" horiz-adv-x="966" d="M473 1082l-109 -669q-10 -71 -7 -113q5 -84 52 -87q71 -6 125.5 82.5t85.5 275.5q18 128 21 257t-20 256l252 -1q35 -125 35 -255q0 -275 -64 -469t-181 -290t-273 -92q-165 5 -244.5 123.5t-58.5 316.5l111 665h275z" />
<glyph unicode="&#x3c6;" horiz-adv-x="1320" d="M427 -8q-201 43 -295.5 203.5t-65.5 394.5q20 160 84 290t164 217l178 -157q-149 -201 -159 -452q-7 -187 123 -252l100 566q15 132 99.5 215t202.5 81q132 -2 228 -72.5t141.5 -194.5t29.5 -266q-28 -243 -173.5 -394t-382.5 -183l-87 -466h-275zM730 229 q218 78 249 338q7 47 5 108q-6 204 -105 188q-23 -5 -31 -18t-12 -34z" />
<glyph unicode="&#x3c7;" horiz-adv-x="909" d="M471 763l172 319h303l-330 -542l159 -540h-283l-75 337l-181 -337h-305l343 566l-152 516h283z" />
<glyph unicode="&#x3c8;" horiz-adv-x="1317" d="M867 1082l-155 -849q138 55 207.5 196t69.5 414q0 122 -22 241l244 -1q39 -115 45 -238q15 -377 -136 -596.5t-437 -260.5l-87 -466h-276l88 471q-150 31 -240 134t-108 262q-11 97 2 200l83 493h277l-83 -497l-8 -95q-5 -87 22 -153.5t85 -99.5l152 845h277z" />
<glyph unicode="&#x3c9;" horiz-adv-x="1417" d="M541 1081l-80 -175q-81 -184 -104 -303.5t-24 -233.5l1 -40q8 -113 63 -117q99 -10 138 191l70 443h291l-55 -348q-14 -89 -10 -164q4 -119 70 -122q110 -3 147 274l10 85q16 129 13 259q-3 129 -39 255l252 -2q66 -168 56 -383t-66.5 -389t-156 -255.5t-233.5 -76.5 q-85 2 -148 55t-87 146q-120 -205 -288 -202q-224 6 -281 243q-23 98 -18 217q9 198 61.5 350.5t148.5 292.5h269z" />
<glyph unicode="&#x3ca;" horiz-adv-x="631" d="M493 1082l-126 -745l-3 -38q-4 -67 55 -69q21 -1 68 7l-25 -223q-67 -25 -146 -23q-123 2 -182 88t-45 230l128 773h276zM32 1340q0 53 38.5 92t96.5 41q56 0 96 -36.5t40 -88.5q0 -56 -39 -93t-95 -39q-59 0 -98 36.5t-39 87.5zM507 1340q0 56 39 93t95 39q58 0 97 -37 t39 -87q0 -56 -39 -93t-95 -39q-58 0 -97 35.5t-39 88.5z" />
<glyph unicode="&#x3cb;" horiz-adv-x="966" d="M473 1082l-109 -669q-10 -71 -7 -113q5 -84 52 -87q71 -6 125.5 82.5t85.5 275.5q18 128 21 257t-20 256l252 -1q35 -125 35 -255q0 -275 -64 -469t-181 -290t-273 -92q-165 5 -244.5 123.5t-58.5 316.5l111 665h275zM243 1356q0 53 38.5 92t96.5 41q56 0 96 -36.5 t40 -88.5q0 -56 -39 -93t-95 -39q-59 0 -98 36.5t-39 87.5zM718 1356q0 56 39 93t95 39q58 0 97 -37t39 -87q0 -56 -39 -93t-95 -39q-58 0 -97 35.5t-39 88.5z" />
<glyph unicode="&#x3cc;" horiz-adv-x="998" d="M565 1102q164 -4 256 -111t101 -287v-71q-13 -314 -150.5 -486.5t-358.5 -166.5q-129 3 -213 69.5t-120.5 184.5t-20.5 271l6 54q29 255 163 401.5t337 141.5zM331 392q0 -173 106 -179q144 -8 187 220l11 72q14 144 14 185q0 172 -109 179q-79 4 -130 -73t-65 -222.5 t-14 -181.5zM616 1601h268l-221 -345h-179z" />
<glyph unicode="&#x3cd;" horiz-adv-x="966" d="M473 1082l-109 -669q-10 -71 -7 -113q5 -84 52 -87q71 -6 125.5 82.5t85.5 275.5q18 128 21 257t-20 256l252 -1q35 -125 35 -255q0 -275 -64 -469t-181 -290t-273 -92q-165 5 -244.5 123.5t-58.5 316.5l111 665h275zM624 1596h268l-221 -345h-179z" />
<glyph unicode="&#x3ce;" horiz-adv-x="1417" d="M541 1081l-80 -175q-81 -184 -104 -303.5t-24 -233.5l1 -40q8 -113 63 -117q99 -10 138 191l70 443h291l-55 -348q-14 -89 -10 -164q4 -119 70 -122q110 -3 147 274l10 85q16 129 13 259q-3 129 -39 255l252 -2q66 -168 56 -383t-66.5 -389t-156 -255.5t-233.5 -76.5 q-85 2 -148 55t-87 146q-120 -205 -288 -202q-224 6 -281 243q-23 98 -18 217q9 198 61.5 350.5t148.5 292.5h269zM836 1596h268l-221 -345h-179z" />
<glyph unicode="&#x3d1;" horiz-adv-x="1052" d="M1025 576l-88 -25l-15 -93q-35 -225 -167 -354t-318 -124q-117 4 -200 67.5t-121 174t-24 236.5l40 244h261l-38 -245q-4 -34 -2 -75q4 -72 36.5 -115.5t89.5 -44.5q115 -3 155 235l18 96q-141 55 -216 189.5t-62 306.5l3 23q19 184 124.5 297t256.5 108q175 -6 237 -181 q37 -106 22 -242l-42 -249l71 17zM631 1063q-5 -62 4 -120.5t52 -106.5l42 250l9 73q0 57 -25 60q-60 5 -79 -131z" />
<glyph unicode="&#x3d2;" horiz-adv-x="1054" d="M554 808l205 430q61 139 130 194.5t161 53.5q52 -1 135 -29l-60 -231q-30 6 -40 5q-35 -3 -51.5 -24t-29.5 -49l-361 -682l-83 -476h-288l87 503l-122 683q-9 36 -42 40q-14 1 -43 -4l-8 237q66 23 117 21q178 -3 228 -235z" />
<glyph unicode="&#x3d6;" horiz-adv-x="1444" d="M1461 875l-96 1q-4 -325 -60 -523t-153.5 -288t-238.5 -86q-97 3 -162 59.5t-87 148.5q-68 -113 -143 -162t-162 -46q-217 6 -272 240q-24 102 -17 222q6 136 33 238.5t76 198.5l-99 -2l38 206h1382zM1076 570q13 114 16 305l-632 2q-63 -136 -89 -255.5t-30 -250.5 q-3 -71 10.5 -113.5t43.5 -45.5q124 -15 164 253l34 227h291l-34 -240l-4 -59q-6 -178 83 -181q107 -4 139 287z" />
<glyph unicode="&#x400;" horiz-adv-x="985" d="M849 630h-444l-67 -386h526l-43 -244h-812l252 1456h811l-43 -245h-523l-60 -344h445zM837 1539h-217l-220 310h293z" />
<glyph unicode="&#x401;" horiz-adv-x="985" d="M849 630h-444l-67 -386h526l-43 -244h-812l252 1456h811l-43 -245h-523l-60 -344h445zM351 1674q0 53 38.5 92t96.5 41q56 0 96 -36.5t40 -88.5q0 -56 -39 -93t-95 -39q-59 0 -98 36.5t-39 87.5zM826 1674q0 56 39 93t95 39q58 0 97 -37t39 -87q0 -56 -39 -93t-95 -39 q-58 0 -97 35.5t-39 88.5z" />
<glyph unicode="&#x402;" horiz-adv-x="1299" d="M1073 1211h-362l-68 -342q92 24 172 24q193 -2 299.5 -121t89.5 -321q-19 -215 -164.5 -341t-379.5 -130l26 230q126 6 181 87t47 212q-5 63 -39.5 99t-93.5 39q-65 3 -165 -14l-116 -633h-288l211 1211h-282l43 245h932z" />
<glyph unicode="&#x403;" horiz-adv-x="981" d="M1016 1211h-507l-210 -1211h-287l252 1456h795zM781 1849h326l-319 -310h-246z" />
<glyph unicode="&#x404;" horiz-adv-x="1153" d="M1043 486q-30 -232 -181 -372t-366 -134q-132 3 -224 69t-139 192.5t-47 282.5q0 137 31.5 302.5t94 293.5t141.5 207q154 153 367 149q196 -5 306 -139.5t115 -377.5l-288 1l1 63q-3 105 -41 155t-116 54q-186 7 -265 -268l-30 -113h341l-43 -244h-324q-12 -96 -12 -155 q0 -225 154 -232q97 -3 157 59.5t85 204.5z" />
<glyph unicode="&#x405;" horiz-adv-x="1083" d="M680 390q10 74 -21.5 123.5t-131 97t-166.5 98.5q-183 139 -168 351q9 122 76.5 217.5t180.5 148.5t242 50q187 -4 292.5 -129.5t97.5 -321.5l-286 1q11 205 -131 208q-73 2 -125.5 -47.5t-63.5 -127.5q-15 -117 162 -200t254 -187q86 -115 73 -280q-15 -190 -150 -303.5 t-337 -109.5q-203 4 -321 138t-108 343l288 -1q-8 -129 33.5 -184.5t130.5 -55.5q78 1 123 48.5t56 122.5z" />
<glyph unicode="&#x406;" horiz-adv-x="547" d="M308 0h-287l253 1456h287z" />
<glyph unicode="&#x407;" horiz-adv-x="547" d="M308 0h-287l253 1456h287zM79 1674q0 53 38.5 92t96.5 41q56 0 96 -36.5t40 -88.5q0 -56 -39 -93t-95 -39q-59 0 -98 36.5t-39 87.5zM554 1674q0 56 39 93t95 39q58 0 97 -37t39 -87q0 -56 -39 -93t-95 -39q-58 0 -97 35.5t-39 88.5z" />
<glyph unicode="&#x408;" horiz-adv-x="984" d="M732 1456h287l-172 -1008q-29 -212 -158 -342.5t-316 -126.5q-181 4 -274 125.5t-82 326.5l290 -1l-2 -63q-2 -65 22 -104t73 -40q118 -3 156 194z" />
<glyph unicode="&#x409;" horiz-adv-x="1818" d="M1180 963l155 -1q128 -4 223 -66.5t140 -170t33 -235.5q-11 -137 -79.5 -248t-183 -175.5t-246.5 -66.5h-496l210 1211h-275l-102 -490l-29 -149q-63 -299 -182 -433.5t-303 -138.5h-93l29 244l31 1q108 9 175 123t99 356l13 85l128 647h839zM1138 719l-82 -475l157 -2 q106 2 174 95.5t61 228.5q-3 65 -36 106t-89 45z" />
<glyph unicode="&#x40a;" horiz-adv-x="1808" d="M445 843h415l107 613h287l-87 -501l157 -1q126 -4 219.5 -63.5t140 -166.5t35.5 -238q-11 -136 -80 -247t-182.5 -174t-246.5 -65h-496l104 599h-415l-104 -599h-287l252 1456h287zM1125 711l-81 -466l159 -2q70 1 125.5 44t84.5 118.5t23 155.5q-5 66 -38 105.5 t-87 43.5z" />
<glyph unicode="&#x40b;" horiz-adv-x="1326" d="M1054 1211h-357l-58 -294q88 13 136 13q212 0 322 -131.5t85 -350.5l-73 -448h-288l74 449q6 46 5 89q-3 143 -145 148q-52 3 -145 -10l-123 -676h-289l210 1211h-259l43 245h905z" />
<glyph unicode="&#x40c;" horiz-adv-x="1109" d="M512 558l-146 -154l-70 -404h-287l252 1456h287l-108 -619l116 154l336 465h367l-527 -653l266 -803h-327zM764 1846h326l-319 -310h-246z" />
<glyph unicode="&#x40d;" horiz-adv-x="1214" d="M947 1456h293l-253 -1456h-287l165 946l-573 -946h-294l253 1456h288l-165 -947zM895 1539h-217l-220 310h293z" />
<glyph unicode="&#x40e;" horiz-adv-x="1104" d="M591 811l302 645h318l-604 -1205l-39 -69q-125 -206 -324 -206l-99 5l23 245l62 -6q90 0 136 88l50 107l-219 1041h297zM1109 1842q-8 -139 -108.5 -221t-246.5 -78q-142 2 -228 83.5t-86 214.5l201 -1q-4 -129 116 -131q64 -1 102.5 34.5t50.5 95.5z" />
<glyph unicode="&#x40f;" horiz-adv-x="1219" d="M249 1456h287l-211 -1212h417l210 1212h289l-253 -1456h-339l-63 -360h-289l63 360h-364z" />
<glyph unicode="&#x410;" horiz-adv-x="1196" d="M738 298h-387l-127 -298h-312l694 1456h263l191 -1456h-297zM456 543h262l-41 516z" />
<glyph unicode="&#x411;" horiz-adv-x="1094" d="M1012 1211h-507l-48 -278l157 -1q196 -6 306 -130t94 -322q-18 -212 -162 -345t-352 -135h-492l252 1456h795zM415 689l-77 -445l158 -2q71 1 126.5 43t85 117t22.5 152q-14 126 -129 134z" />
<glyph unicode="&#x412;" horiz-adv-x="1125" d="M9 0l252 1456l403 -1q210 0 320 -101.5t97 -288.5q-17 -222 -232 -322q77 -32 113 -111.5t28 -195.5q-15 -203 -144.5 -319.5t-347.5 -116.5h-489zM406 633l-68 -389l168 -2q95 2 149.5 69.5t56.5 192.5q0 120 -101 128zM442 847l136 -2q109 2 165 74t48 184 q-10 101 -120 107l-165 1z" />
<glyph unicode="&#x413;" horiz-adv-x="981" d="M1016 1211h-507l-210 -1211h-287l252 1456h795z" />
<glyph unicode="&#x414;" horiz-adv-x="1313" d="M1080 -358h-264l62 358h-666l-63 -357h-271l90 601l83 -3q154 108 224 398l55 255l128 562h815l-210 -1212h147zM365 240l412 4l168 967h-254l-114 -500q-72 -300 -212 -471z" />
<glyph unicode="&#x415;" horiz-adv-x="985" d="M849 630h-444l-67 -386h526l-43 -244h-812l252 1456h811l-43 -245h-523l-60 -344h445z" />
<glyph unicode="&#x416;" horiz-adv-x="1765" d="M1172 591h-138l-103 -591h-287l103 591h-133l-325 -591h-368l503 812l-222 644h344l129 -585h120l102 585h287l-102 -585h105l324 585h368l-456 -669l206 -787h-345z" />
<glyph unicode="&#x417;" horiz-adv-x="1086" d="M573 859q76 2 124 54.5t60 150.5q7 75 -26 121.5t-100 48.5q-63 2 -109 -43.5t-61 -128.5l-286 -1q9 120 75.5 217t173.5 149t230 49q192 -4 300 -113t95 -294q-18 -207 -239 -327q157 -95 143 -326q-10 -131 -79.5 -231t-186 -153.5t-253.5 -50.5q-187 4 -296.5 120 t-103.5 304h287q-2 -85 34 -132.5t102 -49.5q95 -2 159 72t59 198q-7 125 -119 130l-160 1l42 237z" />
<glyph unicode="&#x418;" horiz-adv-x="1214" d="M947 1456h293l-253 -1456h-287l165 946l-573 -946h-294l253 1456h288l-165 -947z" />
<glyph unicode="&#x419;" horiz-adv-x="1214" d="M947 1456h293l-253 -1456h-287l165 946l-573 -946h-294l253 1456h288l-165 -947zM1138 1842q-8 -139 -108.5 -221t-246.5 -78q-142 2 -228 83.5t-86 214.5l201 -1q-4 -129 116 -131q64 -1 102.5 34.5t50.5 95.5z" />
<glyph unicode="&#x41a;" horiz-adv-x="1130" d="M529 594h-128l-103 -594h-287l252 1456h287l-101 -582h88l347 582h362l-473 -692l245 -764h-328z" />
<glyph unicode="&#x41b;" horiz-adv-x="1230" d="M1253 1456l-252 -1456h-288l210 1211h-259l-142 -685q-63 -272 -179 -397t-294 -129h-93l29 244l30 1q106 9 173.5 118t101.5 349l16 107l124 637h823z" />
<glyph unicode="&#x41c;" horiz-adv-x="1516" d="M631 1456l85 -1047l447 1047h378l-253 -1456h-288l70 403l126 575l-446 -978h-195l-110 1011l-83 -627l-66 -384h-287l252 1456h370z" />
<glyph unicode="&#x41d;" horiz-adv-x="1229" d="M1001 0h-286l108 623h-419l-108 -623h-287l252 1456h287l-102 -589h419l103 589h286z" />
<glyph unicode="&#x41e;" horiz-adv-x="1209" d="M512 -20q-192 4 -304.5 126t-122.5 339q-4 75 6 152l37 242q29 194 113 344t209 223t282 70q194 -4 304.5 -132.5t118.5 -351.5q2 -84 -9 -159l-33 -223q-45 -300 -202.5 -467.5t-398.5 -162.5zM859 843q12 103 12 159q-5 223 -161 229q-120 5 -193.5 -90.5 t-102.5 -299.5l-35 -245q-12 -99 -9 -155q5 -210 165 -217q114 -4 187 84t102 288z" />
<glyph unicode="&#x41f;" horiz-adv-x="1231" d="M1002 0h-287l210 1211h-417l-210 -1211h-287l252 1456h991z" />
<glyph unicode="&#x420;" horiz-adv-x="1140" d="M385 512l-89 -512h-287l252 1456l467 -1q191 -6 299.5 -136.5t91.5 -336.5q-20 -214 -162 -342.5t-362 -128.5zM427 757l185 -2q107 2 166 82.5t56 216.5q-2 69 -33 110t-86 45l-209 2z" />
<glyph unicode="&#x421;" horiz-adv-x="1143" d="M1042 486q-27 -237 -174.5 -374.5t-373.5 -131.5q-194 4 -300 128t-112 344q-2 75 8 151l37 241q47 309 203.5 473t388.5 159q203 -3 312 -134.5t109 -381.5l-289 1l2 99q-3 168 -157 173q-119 4 -188 -86.5t-93 -293.5l-36 -251q-14 -120 -15 -157q-10 -216 152 -223 q101 -5 161 53.5t84 208.5z" />
<glyph unicode="&#x422;" horiz-adv-x="1089" d="M1135 1211h-349l-210 -1211h-288l210 1211h-344l43 245h981z" />
<glyph unicode="&#x423;" horiz-adv-x="1104" d="M591 811l302 645h318l-604 -1205l-39 -69q-125 -206 -324 -206l-99 5l23 245l62 -6q90 0 136 88l50 107l-219 1041h297z" />
<glyph unicode="&#x424;" horiz-adv-x="1447" d="M989 1324q115 -4 204.5 -61.5t141 -162t60.5 -232.5q14 -192 -59.5 -366.5t-217 -274.5t-323.5 -100l-39 -187l-278 1l48 185q-117 0 -208.5 55t-144.5 158.5t-63 231.5q-16 189 61.5 374.5t220.5 286t314 94.5l8 -1l40 191h275zM686 1078q-86 10 -155 -44.5 t-112.5 -171.5t-41.5 -260q0 -95 43.5 -155t124.5 -69l6 -1l137 700zM1129 802v47q-10 212 -170 227l-131 -701q133 6 212 116.5t89 310.5z" />
<glyph unicode="&#x425;" horiz-adv-x="1122" d="M607 958l267 498h339l-452 -735l221 -721h-322l-113 507l-272 -507h-343l462 746l-216 710h317z" />
<glyph unicode="&#x426;" horiz-adv-x="1336" d="M251 1456h287l-211 -1212h417l210 1212h288l-211 -1213h175l-123 -594h-268l61 351h-878z" />
<glyph unicode="&#x427;" horiz-adv-x="1224" d="M1262 1456l-253 -1456h-287l103 550q-114 -27 -210 -25q-211 2 -321 132t-85 350l74 449h288l-74 -450q-6 -47 -5 -89q3 -143 144 -148q89 -3 218 23l121 664h287z" />
<glyph unicode="&#x428;" horiz-adv-x="1664" d="M549 1456l-210 -1212h285l211 1212h287l-211 -1212h282l210 1212h287l-253 -1456h-1428l252 1456h288z" />
<glyph unicode="&#x429;" horiz-adv-x="1789" d="M549 1456l-210 -1212h285l211 1212h287l-211 -1212h282l210 1212h287l-212 -1222h167l-120 -584h-257l61 350h-1320l252 1456h288z" />
<glyph unicode="&#x42a;" horiz-adv-x="1329" d="M198 1456h587l-91 -523l156 -1q196 -6 305 -129.5t93 -322.5q-18 -213 -161.5 -345.5t-350.5 -134.5h-492l211 1221h-298zM652 689l-77 -445l157 -2q70 1 126 44t84.5 118t21.5 150q-14 126 -127 134z" />
<glyph unicode="&#x42b;" horiz-adv-x="1524" d="M461 933l157 -1q196 -6 306 -130t94 -322q-18 -212 -162 -345t-352 -135h-492l252 1456h288zM419 689l-77 -445l158 -2q71 1 126.5 43t85 117t22.5 152q-14 126 -129 134zM1295 0h-287l253 1456h287z" />
<glyph unicode="&#x42c;" horiz-adv-x="1101" d="M457 933l157 -1q196 -6 306 -130t94 -322q-18 -212 -162 -345t-352 -135h-492l252 1456h288zM415 689l-77 -445l158 -2q71 1 126.5 43t85 117t22.5 152q-14 126 -129 134z" />
<glyph unicode="&#x42d;" horiz-adv-x="1133" d="M320 485l1 -73q10 -186 160 -191q194 -8 269 290l22 94h-354l43 245h337q11 83 9 153q-5 223 -155 230q-94 5 -155 -58t-87 -214l-286 -1q24 153 100.5 273.5t193 184t257.5 59.5q130 -3 223 -70.5t141 -196.5t48 -283q0 -171 -43.5 -360.5t-129 -324t-201 -200 t-255.5 -62.5q-201 5 -313 139t-112 367z" />
<glyph unicode="&#x42e;" horiz-adv-x="1632" d="M941 -20q-225 5 -338 168t-85 430h-117l-100 -578h-287l253 1456h287l-112 -642h111l3 20q49 309 206.5 478t398.5 164q194 -4 304.5 -132.5t118.5 -351.5q2 -84 -9 -159l-33 -223q-45 -300 -202.5 -467.5t-398.5 -162.5zM1288 843q12 103 12 159q-5 223 -161 229 q-120 5 -193.5 -90.5t-102.5 -299.5l-35 -245q-12 -99 -9 -155q5 -210 165 -217q114 -4 187 84t102 288z" />
<glyph unicode="&#x42f;" horiz-adv-x="1046" d="M535 0l92 524h-142l-300 -524h-321l370 634q-102 102 -113 264q-9 108 22 216.5t99.5 185.5t168.5 117t221 40l444 -1l-253 -1456h-288zM400 899q0 -137 121 -145l145 -1l80 458l-128 2q-107 -2 -163.5 -86.5t-54.5 -227.5z" />
<glyph unicode="&#x430;" horiz-adv-x="945" d="M510 0q-8 34 -8 84q-92 -105 -210 -105q-125 2 -200.5 92t-69.5 224q9 172 134 269.5t336 97.5h81l13 88l3 45q0 87 -70 87q-97 3 -118 -124l-275 -2q9 154 128 251.5t290 95.5q161 -4 246.5 -101.5t69.5 -257.5l-88 -550l-4 -53q-4 -70 14 -123l-1 -18h-271zM368 200 q73 -2 136 64l49 229h-60q-80 -4 -129 -54t-59 -126l-1 -38q0 -32 16.5 -53t47.5 -22z" />
<glyph unicode="&#x431;" horiz-adv-x="1006" d="M609 1022q92 -1 161.5 -49t107 -139.5t42.5 -202.5q2 -59 -3 -113l-3 -22q-17 -156 -85 -278.5t-172 -182.5t-228 -57q-161 4 -255 119.5t-101 314.5q-3 65 4 128l3 21l-1 2l9 67q50 340 170.5 533t315.5 256l89 26q96 32 113 113h222q-10 -148 -90 -231t-268 -126 q-101 -23 -170 -90.5t-126 -209.5q129 124 265 121zM531 789q-155 3 -183 -275l-1 -21q-6 -70 -5 -111q5 -166 111 -169q142 -5 178 228l9 77l4 109q-6 87 -34.5 123.5t-78.5 38.5z" />
<glyph unicode="&#x432;" horiz-adv-x="998" d="M13 0l187 1082l367 -1q172 -5 261 -82t82 -211q-10 -158 -204 -240q82 -23 126.5 -84.5t40.5 -147.5q-5 -148 -110.5 -232t-296.5 -84h-453zM366 448l-38 -215l150 -1q108 6 128 114q8 44 -4 70.5t-59 30.5zM399 643l99 -1q111 4 130 104q17 96 -72 102l-121 1z" />
<glyph unicode="&#x433;" horiz-adv-x="746" d="M757 846h-340l-147 -846h-276l188 1082h617z" />
<glyph unicode="&#x434;" horiz-adv-x="1132" d="M52 232q144 141 195 353l17 75l79 422h686l-147 -847h138l-97 -560h-276l57 325h-483l-56 -325h-283l97 559zM359 231l248 4l105 606h-138l-31 -178q-55 -277 -184 -432z" />
<glyph unicode="&#x435;" d="M441 -20q-131 1 -222.5 64t-132 176.5t-24.5 258.5l9 74q33 269 163.5 411.5t332.5 137.5q148 -4 232.5 -92.5t98.5 -247.5q8 -95 -4 -186l-19 -130h-540q-5 -43 -3 -83q7 -144 141 -147q125 -4 242 95l93 -172q-55 -75 -153.5 -118t-213.5 -41zM540 869 q-119 5 -166 -152l-20 -73l275 -1q10 58 11 94q4 127 -100 132z" />
<glyph unicode="&#x436;" horiz-adv-x="1506" d="M957 400h-103l-68 -400h-276l70 400h-86l-209 -400h-342l368 597l-173 485h328l81 -403h81l70 403h275l-70 -403h70l223 403h354l-356 -506l154 -576h-322z" />
<glyph unicode="&#x437;" horiz-adv-x="909" d="M455 646q62 6 91 53t28 110q-4 72 -64 75q-44 2 -74 -29t-40 -84l-277 -1q11 150 120.5 242t272.5 90q162 -2 256 -86t85 -221q-10 -150 -175 -244q56 -31 84.5 -93.5t24.5 -143.5q-6 -103 -63.5 -179.5t-154.5 -117t-210 -37.5q-157 2 -250 97.5t-89 243.5h274 q0 -121 99 -121q52 0 86 37.5t43 97.5l2 45q-3 73 -74 78l-144 1l32 188z" />
<glyph unicode="&#x438;" horiz-adv-x="1002" d="M697 1082h280l-188 -1082h-275l113 646l-350 -646h-283l188 1082h277l-112 -645z" />
<glyph unicode="&#x439;" horiz-adv-x="1002" d="M697 1082h280l-188 -1082h-275l113 646l-350 -646h-283l188 1082h277l-112 -645zM987 1524q-8 -139 -108.5 -221t-246.5 -78q-142 2 -228 83.5t-86 214.5l201 -1q-4 -129 116 -131q64 -1 102.5 34.5t50.5 95.5z" />
<glyph unicode="&#x43a;" horiz-adv-x="1011" d="M437 397l-73 1l-74 -398h-275l187 1082h276l-77 -408h64l232 408h359l-373 -512l193 -570h-348z" />
<glyph unicode="&#x43b;" horiz-adv-x="1003" d="M978 1082l-188 -1082h-276l147 846h-161l-66 -313l-19 -94q-51 -235 -147 -339t-239 -100h-98l33 235l27 2q126 16 172 238l24 146l93 461h698z" />
<glyph unicode="&#x43c;" horiz-adv-x="1329" d="M602 347l324 735h350l-188 -1082h-276l98 558l-267 -558h-184l-72 569l-99 -569h-275l187 1082h337z" />
<glyph unicode="&#x43d;" horiz-adv-x="1001" d="M787 0h-276l73 415h-240l-73 -415h-277l188 1082h277l-75 -433h240l75 433h276z" />
<glyph unicode="&#x43e;" horiz-adv-x="998" d="M565 1102q164 -4 256 -111t101 -287v-71q-13 -314 -150.5 -486.5t-358.5 -166.5q-129 3 -213 69.5t-120.5 184.5t-20.5 271l6 54q29 255 163 401.5t337 141.5zM331 392q0 -173 106 -179q144 -8 187 220l11 72q14 144 14 185q0 172 -109 179q-79 4 -130 -73t-65 -222.5 t-14 -181.5z" />
<glyph unicode="&#x43f;" horiz-adv-x="1002" d="M789 0h-276l147 846h-242l-147 -846h-277l188 1082h795z" />
<glyph unicode="&#x440;" horiz-adv-x="994" d="M493 -20q-127 4 -198 109l-96 -505h-276l260 1498l252 1l-15 -100q99 122 225 120q142 -2 212 -108t63 -304q-8 -233 -60 -395.5t-145.5 -241.5t-221.5 -74zM646 694q0 94 -24.5 132t-76.5 40q-74 2 -135 -73l-90 -510q32 -65 112 -69q154 -8 190 239l22 204z" />
<glyph unicode="&#x441;" horiz-adv-x="924" d="M419 213q114 -3 141 161l259 1q-17 -180 -133 -290t-283 -106q-151 4 -240.5 90.5t-106.5 241.5q-15 126 14.5 304t109.5 297q131 196 373 190q164 -5 250 -118.5t77 -306.5l-260 1l1 62q-4 124 -98 129q-147 8 -175 -228l-19 -181q-12 -81 -8 -135q7 -109 98 -112z" />
<glyph unicode="&#x442;" horiz-adv-x="912" d="M900 849h-270l-147 -849h-276l147 849h-268l41 233h813z" />
<glyph unicode="&#x443;" horiz-adv-x="897" d="M411 476l245 606h302l-558 -1245q-61 -146 -142 -211.5t-187 -65.5q-43 0 -122 21l24 221l30 -2q113 -2 166 101l46 103l-112 1078h289z" />
<glyph unicode="&#x444;" horiz-adv-x="1271" d="M57 528q35 281 141 431t268 145q45 -2 101 -22l87 454h276l-88 -456q46 20 96 20q91 0 151 -57.5t85 -166.5t20 -234l-8 -106l-8 -56q-39 -247 -142 -376.5t-257 -125.5q-48 2 -107 22l-81 -416h-276l81 415q-46 -17 -92 -17q-88 0 -148 52.5t-86 152.5t-22 217zM910 539 q14 122 14 185q-4 134 -77 142l-14 1l-14 -2l-122 -652l27 -2q73 0 118.5 69.5t64.5 237.5zM330 508l-12 -108l-1 -59q4 -117 77 -125h13h12l122 652l-21 3q-137 0 -177 -264l-10 -78z" />
<glyph unicode="&#x445;" horiz-adv-x="909" d="M471 763l172 319h303l-330 -542l159 -540h-283l-75 337l-181 -337h-305l343 566l-152 516h283z" />
<glyph unicode="&#x446;" horiz-adv-x="1086" d="M182 1082h277l-147 -847h242l147 847h276l-147 -849h144l-115 -554h-257l56 321h-664z" />
<glyph unicode="&#x447;" horiz-adv-x="983" d="M783 0h-277l66 335q-49 -9 -88 -9q-183 -2 -282 111t-78 303l55 342h277l-55 -343l-4 -66q0 -109 105 -112q40 -2 97 8l95 513h277z" />
<glyph unicode="&#x448;" horiz-adv-x="1446" d="M459 1082l-147 -847h195l147 847h278l-148 -847h198l147 847h276l-188 -1082h-1223l188 1082h277z" />
<glyph unicode="&#x449;" horiz-adv-x="1593" d="M456 1082l-147 -847h195l148 847h277l-147 -847h197l147 847h276l-147 -849h194l-115 -554h-257l56 321h-1142l188 1082h277z" />
<glyph unicode="&#x44a;" horiz-adv-x="1151" d="M592 767l127 -1q167 -6 261 -109.5t82 -267.5q-11 -172 -133 -280.5t-312 -108.5h-434l147 846h-243l42 236h518zM552 532l-52 -299l130 -1q78 3 121 63t40 142q-4 86 -82 94z" />
<glyph unicode="&#x44b;" horiz-adv-x="1465" d="M422 767l127 -1q166 -6 261 -108.5t83 -268.5q-11 -172 -134.5 -280.5t-311.5 -108.5h-434l188 1082h276zM381 532l-52 -299l130 -1q93 3 138 88q28 54 25 118q-7 85 -84 93zM1221 0h-276l187 1082h277z" />
<glyph unicode="&#x44c;" horiz-adv-x="990" d="M422 767l127 -1q166 -6 261 -108.5t83 -268.5q-11 -172 -134.5 -280.5t-311.5 -108.5h-434l188 1082h276zM381 532l-52 -299l130 -1q93 3 138 88q28 54 25 118q-7 85 -84 93z" />
<glyph unicode="&#x44d;" horiz-adv-x="912" d="M479 869q-51 0 -83.5 -37t-48.5 -124l-257 -2q8 111 64 204.5t147 144.5t199 48q157 -4 247.5 -115t98.5 -306q2 -64 -4 -125l-12 -82q-42 -231 -170 -366t-311 -130q-160 5 -245.5 121t-76.5 304l261 -1l-1 -57q0 -129 86 -134q113 -5 165 175l19 69h-200l31 177h182 l5 68q4 166 -96 168z" />
<glyph unicode="&#x44e;" horiz-adv-x="1404" d="M402 666l88 1q71 222 194 331.5t286 104.5q159 -4 252.5 -115.5t102.5 -306.5q3 -65 -4 -128l-2 -16q-36 -263 -169 -412.5t-331 -144.5q-114 2 -197 62.5t-124.5 164.5t-32.5 227l-97 -1l-75 -433h-276l188 1082h268zM737 406q-5 -191 106 -194q91 -5 143 97t65 324 l2 39q0 193 -108 196q-93 2 -143.5 -100.5t-63.5 -325.5z" />
<glyph unicode="&#x44f;" horiz-adv-x="990" d="M944 1082l-188 -1082h-274l65 373h-93l-237 -373h-290l279 431q-66 51 -95 124t-24 155q11 165 133.5 269t307.5 104zM361 702q-8 -48 12 -84t71 -41l138 -1l48 273l-113 1q-60 -4 -103 -45.5t-53 -102.5z" />
<glyph unicode="&#x450;" d="M441 -20q-131 1 -222.5 64t-132 176.5t-24.5 258.5l9 74q33 269 163.5 411.5t332.5 137.5q148 -4 232.5 -92.5t98.5 -247.5q8 -95 -4 -186l-19 -130h-540q-5 -43 -3 -83q7 -144 141 -147q125 -4 242 95l93 -172q-55 -75 -153.5 -118t-213.5 -41zM540 869 q-119 5 -166 -152l-20 -73l275 -1q10 58 11 94q4 127 -100 132zM690 1226h-217l-220 310h293z" />
<glyph unicode="&#x451;" d="M441 -20q-131 1 -222.5 64t-132 176.5t-24.5 258.5l9 74q33 269 163.5 411.5t332.5 137.5q148 -4 232.5 -92.5t98.5 -247.5q8 -95 -4 -186l-19 -130h-540q-5 -43 -3 -83q7 -144 141 -147q125 -4 242 95l93 -172q-55 -75 -153.5 -118t-213.5 -41zM540 869 q-119 5 -166 -152l-20 -73l275 -1q10 58 11 94q4 127 -100 132zM205 1361q0 53 38.5 92t96.5 41q56 0 96 -36.5t40 -88.5q0 -56 -39 -93t-95 -39q-59 0 -98 36.5t-39 87.5zM680 1361q0 56 39 93t95 39q58 0 97 -37t39 -87q0 -56 -39 -93t-95 -39q-58 0 -97 35.5t-39 88.5z " />
<glyph unicode="&#x452;" horiz-adv-x="988" d="M665 1189h-194l-46 -203q104 118 228 116q118 -2 180.5 -87.5t62.5 -239.5l-5 -94l-115 -714q-27 -198 -124.5 -304.5t-255.5 -104.5q-59 2 -128 19l34 234q50 -18 80 -17q82 0 110 140l123 750l5 60q4 121 -88 121q-67 0 -128 -70l-139 -795h-277l207 1189h-121l32 183 h120l29 164h276l-29 -164h195z" />
<glyph unicode="&#x453;" horiz-adv-x="746" d="M757 846h-340l-147 -846h-276l188 1082h617zM572 1531h326l-319 -310h-246z" />
<glyph unicode="&#x454;" horiz-adv-x="912" d="M414 214q55 -2 92 39.5t51 120.5l257 1q-15 -174 -132 -287t-283 -109q-105 3 -182 53.5t-119 147.5t-46 217q-8 173 51 346.5t175.5 268t271.5 90.5q161 -4 248 -120t78 -305l-258 1q7 185 -97 191q-118 5 -165 -177l-18 -75h214l-32 -178h-194l-5 -67q-5 -69 18 -113 t75 -45z" />
<glyph unicode="&#x455;" horiz-adv-x="912" d="M516 297q10 70 -109 125t-178.5 103.5t-87 107.5t-24.5 134q7 147 120.5 242.5t277.5 93.5q162 -4 255.5 -96.5t91.5 -244.5h-276q3 71 -18.5 100.5t-67.5 29.5q-48 0 -81.5 -32.5t-41.5 -78.5q-12 -65 101.5 -116t163.5 -85q149 -99 139 -271q-6 -101 -62.5 -176.5 t-151 -115.5t-204.5 -37q-158 4 -258 103t-98 253l263 -1q-3 -78 25 -112t87 -34q52 0 88.5 27.5t45.5 80.5z" />
<glyph unicode="&#x456;" horiz-adv-x="511" d="M285 0h-277l188 1082h277zM232 1357q0 69 43.5 112.5t106.5 43.5q62 2 105.5 -40.5t43.5 -105.5q0 -70 -43.5 -113.5t-106.5 -43.5q-64 -2 -106.5 40.5t-42.5 106.5z" />
<glyph unicode="&#x457;" horiz-adv-x="531" d="M292 0h-276l187 1082h277zM15 1346q0 53 38.5 92t96.5 41q56 0 96 -36.5t40 -88.5q0 -56 -39 -93t-95 -39q-59 0 -98 36.5t-39 87.5zM490 1346q0 56 39 93t95 39q58 0 97 -37t39 -87q0 -56 -39 -93t-95 -39q-58 0 -97 35.5t-39 88.5z" />
<glyph unicode="&#x458;" horiz-adv-x="498" d="M474 1082l-194 -1139q-24 -186 -118.5 -285t-246.5 -99q-67 2 -133 18l21 234q47 -13 74 -13q100 0 125 144l195 1140h277zM227 1357q0 66 42 110t108 46q62 2 105.5 -40.5t43.5 -105.5q0 -70 -43.5 -113.5t-106.5 -43.5q-64 -2 -106.5 40.5t-42.5 106.5z" />
<glyph unicode="&#x459;" horiz-adv-x="1481" d="M970 1082l-60 -340l113 -1q175 -1 273 -102t86 -259q-11 -170 -131.5 -275t-310.5 -105h-436l147 846h-151l-89 -429q-49 -219 -144.5 -320t-237.5 -97h-97l33 235l27 2q71 9 115.5 81t69.5 235l11 68l93 461h689zM870 508l-48 -275l130 -1q66 3 106.5 44t50.5 105 q8 51 -10 86.5t-72 39.5z" />
<glyph unicode="&#x45a;" horiz-adv-x="1486" d="M386 664h240l73 418h276l-59 -340l112 -1q174 -1 272.5 -100t88.5 -261q-12 -173 -136 -277t-306 -103h-436l75 430h-240l-75 -430h-277l188 1082h277zM876 508l-48 -275l129 -1q66 3 107 44t51 105q8 50 -10 86t-72 40z" />
<glyph unicode="&#x45b;" horiz-adv-x="996" d="M680 1201h-214l-41 -215q103 119 227 117q119 -2 182 -88t63 -239l-5 -95l-114 -681h-277l113 684l5 59q4 122 -87 122q-66 2 -128 -70l-139 -795h-277l209 1201h-108l33 183h106l27 152h276l-30 -152h211z" />
<glyph unicode="&#x45c;" horiz-adv-x="1011" d="M437 397l-73 1l-74 -398h-275l187 1082h276l-77 -408h64l232 408h359l-373 -512l193 -570h-348zM704 1531h326l-319 -310h-246z" />
<glyph unicode="&#x45d;" horiz-adv-x="1002" d="M697 1082h280l-188 -1082h-275l113 646l-350 -646h-283l188 1082h277l-112 -645zM744 1221h-217l-220 310h293z" />
<glyph unicode="&#x45e;" horiz-adv-x="897" d="M411 476l245 606h302l-558 -1245q-61 -146 -142 -211.5t-187 -65.5q-43 0 -122 21l24 221l30 -2q113 -2 166 101l46 103l-112 1078h289zM930 1529q-8 -139 -108.5 -221t-246.5 -78q-142 2 -228 83.5t-86 214.5l201 -1q-4 -129 116 -131q64 -1 102.5 34.5t50.5 95.5z" />
<glyph unicode="&#x45f;" horiz-adv-x="1002" d="M459 1082l-147 -847h242l147 847h276l-188 -1082h-259l-63 -359h-275l63 359h-261l188 1082h277z" />
<glyph unicode="&#x460;" horiz-adv-x="1648" d="M1680 1456l-169 -988q-35 -230 -165 -362t-327 -128q-84 2 -155 38t-111 111q-133 -153 -307 -149q-121 2 -207 65t-125.5 176.5t-23.5 247.5l168 989h288l-166 -990l-5 -71q-5 -76 20.5 -123.5t79.5 -49.5q150 -9 183 244l167 990h289l-167 -990l-5 -72v-26 q5 -142 104 -146q134 -8 175 212l5 32l167 990h287z" />
<glyph unicode="&#x461;" horiz-adv-x="1404" d="M1418 1082l-108 -633q-33 -228 -148.5 -351.5t-288.5 -118.5q-164 5 -231 130q-122 -134 -272 -130q-141 2 -222 99.5t-88 259.5q-3 55 3 110l106 634h279l-105 -635l-9 -88l1 -47q4 -97 64 -100q119 -8 151 206l4 29l105 635h278l-105 -635q-12 -94 -7 -139 q10 -93 76 -96q99 -5 127 176l9 59l104 635h277z" />
<glyph unicode="&#x462;" horiz-adv-x="1101" d="M648 1088h-164l-27 -155l157 -1q196 -6 306 -130t94 -322q-18 -212 -162 -345t-352 -135h-492l188 1088h-139l33 183h138l32 185h288l-32 -185h164zM415 689l-77 -445l158 -2q71 1 126.5 43t85 117t22.5 152q-14 126 -129 134z" />
<glyph unicode="&#x463;" horiz-adv-x="990" d="M673 1082h-196l-51 -290l121 -1q110 -1 192.5 -50t122.5 -137.5t32 -198.5q-12 -182 -137.5 -295.5t-309.5 -109.5h-435l187 1082h-118l32 184h118l52 295h277l-52 -295h198zM386 557l-57 -324l130 -1q76 2 121 65.5t44 156.5q-4 96 -82 101z" />
<glyph unicode="&#x464;" horiz-adv-x="1539" d="M433 860h110q83 308 233.5 465t366.5 152q197 -5 307 -138.5t115 -377.5l-287 1l-1 88q-8 173 -157 181q-187 8 -265 -283l-22 -88h342l-42 -235h-325q-15 -121 -16 -157q-5 -236 150 -242q196 -7 243 259l285 1q-19 -148 -95 -265.5t-195 -180.5t-261 -59 q-123 3 -214.5 64.5t-142 177.5t-52.5 256q-2 75 8 147l-126 -1l-108 -625h-286l253 1456h286z" />
<glyph unicode="&#x465;" horiz-adv-x="1312" d="M380 632l78 1q64 239 187 356.5t293 112.5q161 -4 248.5 -119.5t78.5 -305.5l-258 1q4 102 -21.5 146t-75.5 45q-114 2 -160 -165l-19 -70h245l-32 -183h-228l-7 -95q0 -139 95 -142q55 -2 92 39.5t51 120.5l256 1q-8 -111 -65 -204t-149.5 -144t-200.5 -48 q-117 4 -199 66.5t-120 171.5t-25 235l-90 -1l-78 -451h-277l188 1082h270z" />
<glyph unicode="&#x466;" horiz-adv-x="1174" d="M712 419h-37l-77 -419h-236l78 420h-30l-182 -420h-309l666 1456h298l157 -1456h-286zM500 628h192l-32 367z" />
<glyph unicode="&#x467;" horiz-adv-x="995" d="M554 269h-37l-51 -269h-178l52 270h-24l-116 -270h-289l512 1082h285l137 -1082h-266zM393 457h144l-17 221l-2 89l-42 -114z" />
<glyph unicode="&#x468;" horiz-adv-x="1632" d="M412 626h240l379 830h298l159 -1456h-293l-35 419h-39l-77 -419h-236l79 420h-29l-183 -420h-308l191 419h-181l-74 -419h-287l252 1456h288zM948 628h192l-32 367z" />
<glyph unicode="&#x469;" horiz-adv-x="1398" d="M358 456h174l298 626h284l137 -1082h-273l-18 269h-37l-51 -269h-179l53 270h-25l-115 -270h-289l128 269h-119l-47 -269h-276l188 1082h276zM798 457h144l-17 221l-1 88l-43 -112z" />
<glyph unicode="&#x46a;" horiz-adv-x="1534" d="M1049 794q179 -13 264 -134t63 -325l-54 -335h-286l55 336q5 43 4 81q-3 129 -130 135l-48 2l-102 -554h-287l101 555l-65 1q-97 0 -153 -51.5t-75 -163.5l-56 -341h-286l55 335q32 232 160.5 346t361.5 119l-181 656h1089zM824 892l185 316h-258z" />
<glyph unicode="&#x46b;" horiz-adv-x="1289" d="M-4 0l31 208q30 186 126 284t267 118l-131 472h897l-316 -478q104 -20 164.5 -93.5t70.5 -188.5q6 -70 -2 -140l-27 -182h-276l28 183l8 66q11 128 -85 142l-73 -391h-277l76 393l-1 1q-126 32 -170 -176l-6 -36l-29 -182h-275zM654 673l117 217h-158z" />
<glyph unicode="&#x46c;" horiz-adv-x="2031" d="M492 0l60 350q24 127 79 218l-224 -3l-98 -565h-288l253 1456h288l-114 -653h629l-188 653h1089l-430 -662q182 -15 265.5 -137.5t61.5 -321.5l-54 -335h-287l54 336l5 81q-3 127 -129 135l-49 2l-102 -554h-287l96 553l-59 2q-101 0 -156 -52t-73 -162l-55 -341h-287z M1323 893l185 315h-259z" />
<glyph unicode="&#x46d;" horiz-adv-x="1770" d="M474 0l31 181q21 128 77 221l-221 -3l-69 -399h-276l187 1082h277l-82 -468h509l-138 468h896l-315 -479q104 -20 164 -92t72 -190q6 -69 -2 -139l-27 -182h-278l29 184l7 65q11 127 -84 142l-74 -391h-275l73 393q-30 9 -54 3q-94 -23 -126 -232l-25 -164h-276z M1133 674l118 216h-160z" />
<glyph unicode="&#x46e;" horiz-adv-x="906" d="M361 865q77 2 126.5 54t60.5 137q18 149 -113 156l-215 1l43 243l166 -1q203 -1 307.5 -99.5t91.5 -270.5q-15 -235 -244 -344q93 -50 133 -136t33 -189q-14 -201 -141.5 -319t-321.5 -119h-46q-92 -6 -109 -102q-9 -53 16.5 -87.5t67.5 -59.5l-93 -175q-120 36 -182 131 t-53 234q8 143 102.5 224t242.5 79l50 -1q65 2 112.5 38.5t69 101t14.5 130.5q-17 125 -143 131l-136 1l43 244zM604 1788l136 139l240 4v-17l-297 -278h-171l-224 280v16l228 -4z" />
<glyph unicode="&#x46f;" horiz-adv-x="897" d="M344 626q63 2 101.5 39t47.5 99q14 95 -107 105l-224 1l38 212l196 -1q186 -5 284.5 -78.5t91.5 -208.5q-6 -87 -50.5 -148.5t-138.5 -110.5q150 -70 144 -223q-5 -152 -119.5 -243t-297.5 -91l-42 1q-110 -4 -125 -102q-16 -89 71 -149l-92 -159q-102 45 -159 140 t-51 210q5 122 86 195.5t218 76.5h57q73 2 122.5 37t60.5 95q10 56 -22.5 88.5t-101.5 34.5l-152 1l32 180zM542 1400l136 139l240 4l1 -17l-298 -278h-171l-223 279v17l227 -4z" />
<glyph unicode="&#x470;" horiz-adv-x="1273" d="M778 639q152 52 201 260l14 66l82 491h288l-78 -461q-39 -261 -178 -418t-358 -184l-75 -393h-287l75 393q-147 22 -239 128.5t-110 273.5q-11 100 2 200l78 461h286l-77 -462l-10 -95l-2 -41q0 -163 102 -215l148 813h287z" />
<glyph unicode="&#x471;" horiz-adv-x="1317" d="M867 1082l-155 -849q138 55 207.5 196t69.5 414q0 122 -22 241l244 -1q39 -115 45 -238q15 -377 -136 -596.5t-437 -260.5l-87 -466h-276l88 471q-150 31 -240 134t-108 262q-11 97 2 200l83 493h277l-83 -497l-8 -95q-5 -87 22 -153.5t85 -99.5l152 845h277z" />
<glyph unicode="&#x472;" horiz-adv-x="1204" d="M517 -20q-131 3 -226 72t-143.5 197t-50.5 287q-2 178 44.5 361t134.5 316.5t204.5 199.5t256.5 63q132 -3 226 -72t143.5 -200t50.5 -288q0 -191 -50.5 -380t-155 -331t-256.5 -198q-81 -30 -178 -27zM541 227q194 -11 284 325l22 88h-456q-12 -90 -10 -160 q5 -246 160 -253zM714 1228q-102 6 -177.5 -84.5t-129.5 -320.5h455q11 83 9 158q-5 237 -157 247z" />
<glyph unicode="&#x473;" horiz-adv-x="992" d="M59 544q19 163 89.5 296.5t174.5 199t234 62.5q106 -3 185 -54.5t122.5 -150t48.5 -216.5q2 -65 -4 -128l-7 -48q-40 -244 -172 -387.5t-324 -138.5q-159 4 -252 115.5t-102 302.5q-3 64 4 126zM533 869q-115 3 -173 -177l-19 -63h294l3 46q8 190 -105 194zM429 213 q113 -5 170 166l21 67h-294l-3 -69q0 -159 106 -164z" />
<glyph unicode="&#x474;" horiz-adv-x="1135" d="M516 395l-1 -74l296 802q66 186 157.5 270t210.5 84l45 -1l-30 -256l-24 1q-59 -5 -90 -83l-13 -34l-450 -1104h-296l-145 1456l290 1z" />
<glyph unicode="&#x475;" horiz-adv-x="909" d="M391 415l-5 -76l26 77l108 348q51 163 142.5 252.5t208.5 89.5q45 0 96 -19l-44 -233l-37 6q-64 -3 -104 -98l-312 -762h-264l-91 1082l276 1v-668z" />
<glyph unicode="&#x476;" horiz-adv-x="1135" d="M516 395l-1 -74l296 802q66 186 157.5 270t210.5 84l45 -1l-30 -256l-24 1q-59 -5 -90 -83l-13 -34l-450 -1104h-296l-145 1456l290 1zM706 1547h-239l-190 266h282zM1002 1547h-234l-153 266h278z" />
<glyph unicode="&#x477;" horiz-adv-x="909" d="M391 415l-5 -76l26 77l108 348q51 163 142.5 252.5t208.5 89.5q45 0 96 -19l-44 -233l-37 6q-64 -3 -104 -98l-312 -762h-264l-91 1082l276 1v-668zM572 1241h-239l-190 266h282zM868 1241h-234l-153 266h278z" />
<glyph unicode="&#x478;" horiz-adv-x="2106" d="M512 -20q-192 4 -304.5 126t-122.5 339q-4 75 6 152l37 242q29 194 113 344t209 223t282 70q194 -4 304.5 -132.5t118.5 -351.5q2 -84 -9 -159l-33 -223q-45 -300 -202.5 -467.5t-398.5 -162.5zM859 843q12 103 12 159q-5 223 -161 229q-120 5 -193.5 -90.5 t-102.5 -299.5l-35 -245q-12 -99 -9 -155q5 -210 165 -217q114 -4 187 84t102 288zM1620 476l245 606h302l-558 -1245q-61 -146 -142 -211.5t-187 -65.5q-43 0 -122 21l24 221l30 -2q113 -2 166 101l46 103l-112 1078h289z" />
<glyph unicode="&#x479;" horiz-adv-x="1895" d="M565 1102q164 -4 256 -111t101 -287v-71q-13 -314 -150.5 -486.5t-358.5 -166.5q-129 3 -213 69.5t-120.5 184.5t-20.5 271l6 54q29 255 163 401.5t337 141.5zM331 392q0 -173 106 -179q144 -8 187 220l11 72q14 144 14 185q0 172 -109 179q-79 4 -130 -73t-65 -222.5 t-14 -181.5zM1409 476l245 606h302l-558 -1245q-61 -146 -142 -211.5t-187 -65.5q-43 0 -122 21l24 221l30 -2q113 -2 166 101l46 103l-112 1078h289z" />
<glyph unicode="&#x47a;" horiz-adv-x="1204" d="M594 -12l-27 -124l-184 1l28 127q-157 44 -237.5 191.5t-75.5 375.5q3 220 68 421.5t190.5 327.5t295.5 158l24 110l184 -1l-24 -109q160 -40 244 -189.5t80 -373.5q-7 -251 -77.5 -451t-195 -318.5t-293.5 -145.5zM879 996q-3 147 -77 207l-19 -94l-185 2l20 89 q-84 -58 -137 -164t-79 -297t-25 -272q0 -141 68 -209l17 82l185 -2l-21 -91q88 53 142.5 156.5t82 292.5t28.5 268v32z" />
<glyph unicode="&#x47b;" horiz-adv-x="996" d="M60 545q29 232 142.5 376.5t296.5 174.5l24 108l153 -1l-25 -111q123 -31 193 -142.5t72 -286.5q0 -57 -6 -109l-3 -22q-30 -231 -144.5 -374.5t-295.5 -171.5l-24 -110l-154 1l25 113q-123 31 -191.5 141.5t-69.5 284.5q-1 47 7 129zM498 236q103 84 133 297l16 116 l3 49q0 89 -32 138l-18 -86l-153 2l21 93q-100 -84 -131 -288l-18 -125l-2 -48q-2 -91 31 -139l19 99l155 -2z" />
<glyph unicode="&#x47c;" horiz-adv-x="1649" d="M1222 1456q189 -11 282.5 -150t69.5 -346l-79 -487q-33 -233 -166 -366.5t-328 -128.5q-78 2 -147 35.5t-111 101.5q-132 -141 -296 -137q-123 2 -209.5 67t-124.5 178.5t-22 249.5l81 506q36 219 162 344q133 131 343 135l-29 -245q-152 -6 -190 -246l-77 -495l-5 -72 v-45q9 -130 99 -134q150 -6 183 245l56 349h271l-55 -349l-5 -73v-30q6 -138 104 -142q145 -6 180 251l77 489l8 74q12 162 -94 174zM1366 1709l-9 -136h-14q-53 2 -106 24l-171 76q-60 24 -110 24q-74 0 -96 -105l-2 -19l-120 2l2 37q9 107 62.5 164t142.5 55 q43 -1 82.5 -13t117.5 -48.5t119.5 -48.5t101.5 -12zM825 1339q65 84 78 143l19 99l157 -1l-13 -94q-17 -120 -159 -210z" />
<glyph unicode="&#x47d;" horiz-adv-x="1392" d="M965 1100q170 -11 258 -138t67 -328l-25 -183q-31 -227 -145.5 -352.5t-283.5 -120.5q-70 2 -124.5 36.5t-84.5 97.5l-27 -31q-99 -106 -216 -103q-109 1 -181 62t-104 167.5t-17 235.5l26 190q29 218 152 341t319 127l-28 -235q-132 -6 -165 -224l-26 -200l-8 -85l1 -46 q4 -96 59 -99q53 -4 85 53t47 182l23 160h263l-23 -160l-8 -83q-6 -150 66 -153q87 -3 116 169l34 255l7 66q16 149 -78 161zM1201 1371l-9 -136h-17q-36 1 -72 12t-118 50t-119.5 51t-76.5 11q-37 0 -62 -28.5t-33 -76.5l-2 -19l-121 2l2 37q9 106 63.5 163.5t143.5 55.5 q41 -1 79.5 -12.5t119 -49.5t120 -49t102.5 -11zM670 1008q65 84 78 143l19 99l157 -1l-13 -94q-17 -120 -159 -210z" />
<glyph unicode="&#x47e;" horiz-adv-x="1648" d="M1680 1456l-169 -988q-32 -229 -164.5 -362t-327.5 -129q-83 2 -154.5 38.5t-111.5 111.5q-134 -154 -306 -150q-123 4 -208.5 67t-125 176t-23.5 247l168 989h288l-166 -990l-5 -71q-5 -76 20.5 -123.5t79.5 -49.5q150 -9 183 244l167 990h289l-167 -990l-5 -72v-30 q7 -138 104 -142q147 -6 180 244l167 990h287zM635 1687l24 134h751l-23 -134h-298l-23 -127h-169l23 127h-285z" />
<glyph unicode="&#x47f;" horiz-adv-x="1404" d="M1418 1082l-108 -633q-33 -228 -148.5 -351.5t-288.5 -118.5q-164 5 -231 130q-122 -134 -272 -130q-141 2 -222 99.5t-88 259.5q-3 55 3 110l106 634h279l-105 -635l-9 -88l1 -47q4 -97 64 -100q119 -8 151 206l4 29l105 635h277l-104 -635q-12 -94 -7 -139 q10 -93 76 -96q99 -5 127 176l9 59l104 635h277zM491 1322l24 135h692l-19 -135h-274l-23 -127h-167l23 127h-256z" />
<glyph unicode="&#x480;" horiz-adv-x="1085" d="M566 -360h-287l68 354q-132 41 -203 166t-69 303q0 59 7 115l44 285q44 287 191 453.5t359 161.5q202 -4 303.5 -136t85.5 -372h-288l6 88q4 172 -133 177q-175 4 -229 -317l-6 -40l-46 -301q-11 -82 -12 -130q-6 -212 111 -222l200 -3z" />
<glyph unicode="&#x481;" horiz-adv-x="948" d="M511 -364h-277l68 358q-115 38 -176 149.5t-59 277.5l5 103l4 28q20 166 90 296t172 193.5t226 60.5q157 -3 244 -119t78 -306l-260 1l1 58q0 59 -22.5 94.5t-65.5 37.5q-143 8 -182 -264q-26 -180 -22 -259q4 -121 86 -129l191 -3z" />
<glyph unicode="&#x482;" horiz-adv-x="1096" d="M490 439l207 -172l-78 -115l-208 169l-203 -321h-168l260 408l-207 171l77 115l209 -170l230 372l-207 171l79 117l209 -171l203 329h166l-260 -415l210 -171l-81 -115l-206 170z" />
<glyph unicode="&#x483;" horiz-adv-x="0" d="M-449 1312l-23 -126l-165 1l43 238h455l18 108l166 -1l-39 -220h-455z" />
<glyph unicode="&#x484;" horiz-adv-x="0" d="M-140 1555q86 0 133.5 -56.5t43.5 -156.5l-3 -40l-122 1l2 20v33q0 62 -51 65q-54 3 -114 -18l-204 -80q-57 -21 -137 -21l11 135q54 0 91 9t130.5 48t134.5 50t85 11z" />
<glyph unicode="&#x485;" horiz-adv-x="0" d="M-323 1513l24 131h171l-32 -176l26 -105l-73 -59z" />
<glyph unicode="&#x486;" horiz-adv-x="0" d="M-264 1307l-73 79l68 110l25 148h170l-27 -156z" />
<glyph unicode="&#x488;" horiz-adv-x="0" d="M-599 1267q8 87 63.5 138t146.5 51q89 -1 142 -52.5t55 -139.5l-107 2q5 102 -74 102q-84 0 -113 -100zM-73 990q8 88 63 139t145 50q89 -1 142.5 -52t55.5 -140l-108 2q3 55 -15.5 78.5t-58.5 23.5q-82 0 -111 -100zM22 486q8 88 62.5 139t145.5 50q89 -1 142 -52 t55 -139l-107 2q5 102 -75 102q-83 2 -113 -100zM-258 -33q8 88 63.5 139.5t143.5 49.5q88 -1 141.5 -52t55.5 -139l-107 2q5 102 -75 102q-82 2 -112 -100zM-868 -316q8 88 63.5 139t146.5 50q88 -1 141.5 -52.5t55.5 -139.5l-107 2q5 102 -75 102q-83 2 -113 -100z M-1203 990q8 89 64 139.5t147 49.5q89 -1 142 -52.5t55 -139.5l-107 2q5 102 -74 102q-86 2 -113 -100zM-1458 486q8 88 62.5 139t145.5 50q88 -1 141.5 -52t54.5 -139l-107 2q3 55 -15.5 78.5t-58.5 23.5q-83 2 -113 -100zM-1387 -33q8 88 62.5 139t145.5 50q88 -1 142 -52 t55 -139l-107 2q5 102 -75 102q-83 0 -112 -101z" />
<glyph unicode="&#x489;" horiz-adv-x="0" d="M-506 -58l15 -19l-171 -336h-102l125 352zM-474 1124l-15 17l169 337h103l-125 -351zM84 632l9 10l314 -128l-17 -90l-319 68zM-1067 432l-10 -10l-313 128l16 90l319 -68zM-80 1002l2 18l331 152l63 -79l-304 -190zM-910 21l-3 -19l-330 -152l-64 80l305 190zM-892 860 l-17 1l-95 339l65 59l150 -305zM-101 161l19 -2l94 -337l-66 -61l-149 304z" />
<glyph unicode="&#x48a;" horiz-adv-x="1214" d="M947 1456h293l-253 -1456h-287l165 946l-573 -946h-294l253 1456h288l-165 -947zM1138 1842q-8 -139 -108.5 -221t-246.5 -78q-142 2 -228 83.5t-86 214.5l201 -1q-4 -129 116 -131q64 -1 102.5 34.5t50.5 95.5zM956 -410l-146 80l62 99q75 123 92 221l37 213h240 l-32 -192q-43 -255 -253 -421z" />
<glyph unicode="&#x48b;" horiz-adv-x="1002" d="M697 1082h280l-188 -1082h-275l113 646l-350 -646h-283l188 1082h277l-112 -645zM987 1524q-8 -139 -108.5 -221t-246.5 -78q-142 2 -228 83.5t-86 214.5l201 -1q-4 -129 116 -131q64 -1 102.5 34.5t50.5 95.5zM759 -410l-146 80l62 99q75 123 92 221l37 213h240 l-32 -192q-43 -255 -253 -421z" />
<glyph unicode="&#x48c;" horiz-adv-x="1101" d="M648 1088h-164l-27 -155l157 -1q196 -6 306 -130t94 -322q-18 -212 -162 -345t-352 -135h-492l188 1088h-139l33 183h138l32 185h288l-32 -185h164zM415 689l-77 -445l158 -2q71 1 126.5 43t85 117t22.5 152q-14 126 -129 134z" />
<glyph unicode="&#x48d;" horiz-adv-x="990" d="M706 1272h-196l-84 -480l121 -1q110 -1 192.5 -50t122.5 -137.5t32 -198.5q-12 -182 -137.5 -295.5t-309.5 -109.5h-435l220 1272h-118l32 184h118l28 158h277l-28 -158h197zM386 557l-57 -324l130 -1q76 2 121 65.5t44 156.5q-4 96 -82 101z" />
<glyph unicode="&#x48e;" horiz-adv-x="1099" d="M386 512l-89 -512h-287l252 1456l466 -1q193 -6 302 -138.5t90 -335.5q-23 -212 -176 -342l78 -141l-97 -79l-83 145q-115 -52 -244 -52h-212zM793 878q38 86 38 174q0 68 -29.5 110.5t-85.5 46.5l-209 2l-79 -454h182q47 2 93 18l-78 149l93 78z" />
<glyph unicode="&#x48f;" horiz-adv-x="990" d="M908 537q-16 -117 -55.5 -223.5t-117.5 -197.5l66 -124l-100 -79l-58 113q-85 -47 -161 -45q-117 2 -189 94l-94 -491h-276l260 1498l250 2l-13 -87q98 107 218 105q200 -3 259 -235q23 -92 21 -197l-8 -111zM631 558q10 63 11 114q6 191 -98 194q-46 2 -78.5 -23.5 t-58.5 -60.5l-86 -488q29 -76 104 -78q38 0 86 31l-72 144l99 76l48 -88q29 75 43 158z" />
<glyph unicode="&#x490;" horiz-adv-x="977" d="M1032 1221h-12l-1 -10h-514l-210 -1211h-288l252 1456h532l65 374h268z" />
<glyph unicode="&#x491;" horiz-adv-x="830" d="M795 846h-380l-147 -846h-277l188 1082h381l55 315h276z" />
<glyph unicode="&#x492;" horiz-adv-x="981" d="M581 661h-168l-114 -661h-287l114 661h-136l33 183h135l106 612h795l-43 -245h-507l-64 -367h168z" />
<glyph unicode="&#x493;" horiz-adv-x="746" d="M528 452h-180l-78 -452h-276l78 452h-135l33 183h134l78 447h617l-42 -236h-340l-37 -211h180z" />
<glyph unicode="&#x494;" horiz-adv-x="990" d="M1016 1211h-507l-65 -375h109q220 -5 331 -162.5t81 -417.5q-30 -271 -178 -433t-378 -167l25 223q180 8 234 255q31 143 28 254q-5 202 -154 209l-140 1l-103 -598h-287l252 1456h795z" />
<glyph unicode="&#x495;" horiz-adv-x="944" d="M755 846h-339l-39 -182q213 0 322 -132t90 -346q-13 -150 -114.5 -280t-257.5 -194l-97 198q208 137 195 362q-11 150 -148 156l-18 1l-81 -429h-277l188 1082h618z" />
<glyph unicode="&#x496;" horiz-adv-x="1765" d="M1172 591h-138l-103 -591h-287l103 591h-133l-325 -591h-368l503 812l-222 644h344l129 -585h120l102 585h287l-102 -585h105l324 585h368l-456 -669l206 -787h-345zM1699 -357h-276l98 564h276z" />
<glyph unicode="&#x497;" horiz-adv-x="1506" d="M957 400h-103l-68 -400h-276l70 400h-86l-209 -400h-342l368 597l-173 485h328l81 -403h81l70 403h275l-70 -403h70l223 403h354l-356 -506l154 -576h-322zM1406 -357h-276l98 564h276z" />
<glyph unicode="&#x498;" horiz-adv-x="1086" d="M573 859q76 2 124 54.5t60 150.5q7 75 -26 121.5t-100 48.5q-63 2 -109 -43.5t-61 -128.5l-286 -1q9 120 75.5 217t173.5 149t230 49q192 -4 300 -113t95 -294q-18 -207 -239 -327q157 -95 143 -326q-10 -131 -79.5 -231t-186 -153.5t-253.5 -50.5q-187 4 -296.5 120 t-103.5 304h287q-2 -85 34 -132.5t102 -49.5q95 -2 159 72t59 198q-7 125 -119 130l-160 1l42 237zM480 -481h-276l98 564h276z" />
<glyph unicode="&#x499;" horiz-adv-x="909" d="M455 646q62 6 91 53t28 110q-4 72 -64 75q-44 2 -74 -29t-40 -84l-277 -1q11 150 120.5 242t272.5 90q162 -2 256 -86t85 -221q-10 -150 -175 -244q56 -31 84.5 -93.5t24.5 -143.5q-6 -103 -63.5 -179.5t-154.5 -117t-210 -37.5q-157 2 -250 97.5t-89 243.5h274 q0 -121 99 -121q52 0 86 37.5t43 97.5l2 45q-3 73 -74 78l-144 1l32 188zM409 -480h-276l98 564h276z" />
<glyph unicode="&#x49a;" horiz-adv-x="1130" d="M529 594h-128l-103 -594h-287l252 1456h287l-101 -582h88l347 582h362l-473 -692l245 -764h-328zM1078 -357h-276l98 564h276z" />
<glyph unicode="&#x49b;" horiz-adv-x="1011" d="M437 397l-73 1l-74 -398h-275l187 1082h276l-77 -408h64l232 408h359l-373 -512l193 -570h-348zM935 -357h-276l98 564h276z" />
<glyph unicode="&#x49c;" horiz-adv-x="1175" d="M1307 1456l-423 -661l185 -795h-355l-77 590h-30l-44 -228h-157l45 229h-49l-106 -591h-288l252 1456h288l-107 -589h49l49 259h157l-51 -259h14l282 589h366z" />
<glyph unicode="&#x49d;" horiz-adv-x="1082" d="M1144 1082l-330 -514l136 -568h-342l-32 398h-25l-33 -170h-141l35 171h-49l-73 -399h-276l187 1082h277l-76 -408h48l38 192h141l-39 -192h23l174 408h357z" />
<glyph unicode="&#x49e;" horiz-adv-x="1150" d="M648 1098h-140l-39 -224h88l347 582h362l-473 -692l245 -764h-328l-161 594h-128l-103 -594h-287l190 1098h-164l33 183h162l31 175h287l-31 -175h141z" />
<glyph unicode="&#x49f;" horiz-adv-x="983" d="M623 1207h-123l-95 -531h53l234 406h330l-355 -504l185 -578h-297l-118 446l-61 1l-83 -447h-277l210 1207h-194l33 183h192l26 146h277l-27 -146h122z" />
<glyph unicode="&#x4a0;" horiz-adv-x="1436" d="M837 594h-129l-103 -594h-287l212 1220h-384l42 236h670l-102 -582h89l347 582h361l-473 -692l245 -764h-327z" />
<glyph unicode="&#x4a1;" horiz-adv-x="1270" d="M711 397l-73 1l-74 -398h-277l147 846h-322l41 236h599l-77 -408h64l232 408h359l-375 -513l195 -569h-349z" />
<glyph unicode="&#x4a2;" horiz-adv-x="1229" d="M1001 0h-286l108 623h-419l-108 -623h-287l252 1456h287l-102 -589h419l103 589h286zM1143 -357h-276l98 564h276z" />
<glyph unicode="&#x4a3;" horiz-adv-x="1001" d="M787 0h-276l73 415h-240l-73 -415h-277l188 1082h277l-75 -433h240l75 433h276zM932 -357h-276l98 564h276z" />
<glyph unicode="&#x4a4;" horiz-adv-x="1676" d="M447 867h418l103 589h764l-41 -235h-477l-212 -1221h-287l108 623h-418l-108 -623h-287l252 1456h287z" />
<glyph unicode="&#x4a5;" horiz-adv-x="1218" d="M381 649h240l75 433h530l-42 -236h-253l-146 -846h-277l73 415h-240l-73 -415h-277l188 1082h277z" />
<glyph unicode="&#x4a6;" horiz-adv-x="1803" d="M1149 833h95q220 -5 331 -162.5t81 -417.5q-30 -271 -178 -433t-378 -167l25 223q180 8 234 255q31 143 28 254q-5 202 -154 209l-125 1l-103 -595h-287l210 1211h-417l-210 -1211h-287l252 1456h991z" />
<glyph unicode="&#x4a7;" horiz-adv-x="1504" d="M896 671h46q138 0 240.5 -59.5t150.5 -168.5t36 -249q-13 -152 -114.5 -280.5t-254.5 -194.5l-100 199q210 143 192 366q-14 143 -156 151l-67 2l-83 -437h-276l147 846h-242l-147 -846h-277l188 1082h788z" />
<glyph unicode="&#x4a8;" horiz-adv-x="1411" d="M1214 -15q-192 7 -328 68q-158 -77 -301 -73q-133 1 -240 65.5t-171.5 183t-75.5 268.5q-7 83 4 161l31 202q44 285 186.5 449.5t353.5 169.5l-32 -255q-142 -8 -193 -293l-42 -273l-7 -84q-7 -157 45.5 -246t157.5 -93l56 3q-117 238 -82 496l27 181q39 262 154 414.5 t280 147.5q151 -4 233 -133.5t81 -345.5q-1 -66 -8 -122l-25 -171q-46 -278 -220 -472q51 -11 136 -13zM837 555q6 -89 47 -170q112 136 145 326l33 222q13 88 14 154q0 133 -68 138q-97 7 -127 -223l-8 -72l-29 -199q-13 -88 -7 -176z" />
<glyph unicode="&#x4a9;" horiz-adv-x="1147" d="M986 -29q-163 4 -285 54q-117 -48 -225 -44q-134 2 -231 76t-141 199t-28 272l10 83q27 224 146 356t301 137l-31 -243q-82 -24 -110 -165t-31 -259q-3 -85 29 -142.5t96 -69.5q-42 150 -21 305l21 149q29 202 118.5 315t220.5 108q119 -4 183.5 -105.5t66.5 -262.5 l-3 -77l-22 -167q-29 -195 -175 -341q45 -8 121 -10zM656 409q1 -52 18 -103q81 89 100 202l23 167l5 95q0 89 -35 92q-59 2 -80 -166l-2 -19l-28 -204z" />
<glyph unicode="&#x4aa;" horiz-adv-x="1143" d="M1042 486q-27 -237 -174.5 -374.5t-373.5 -131.5q-194 4 -300 128t-112 344q-2 75 8 151l37 241q47 309 203.5 473t388.5 159q203 -3 312 -134.5t109 -381.5l-289 1l2 99q-3 168 -157 173q-119 4 -188 -86.5t-93 -293.5l-36 -251q-14 -120 -15 -157q-10 -216 152 -223 q101 -5 161 53.5t84 208.5zM531 -473h-276l98 564h276z" />
<glyph unicode="&#x4ab;" horiz-adv-x="924" d="M419 213q114 -3 141 161l259 1q-17 -180 -133 -290t-283 -106q-151 4 -240.5 90.5t-106.5 241.5q-15 126 14.5 304t109.5 297q131 196 373 190q164 -5 250 -118.5t77 -306.5l-260 1l1 62q-4 124 -98 129q-147 8 -175 -228l-19 -181q-12 -81 -8 -135q7 -109 98 -112z M435 -473h-276l98 564h276z" />
<glyph unicode="&#x4ac;" horiz-adv-x="1089" d="M1135 1211h-349l-210 -1211h-288l210 1211h-344l43 245h981zM689 -357h-276l98 564h276z" />
<glyph unicode="&#x4ad;" horiz-adv-x="912" d="M900 849h-270l-147 -849h-276l147 849h-268l41 233h813zM627 -357h-276l98 564h276z" />
<glyph unicode="&#x4ae;" horiz-adv-x="1088" d="M570 805l325 651h323l-548 -942l-89 -514h-291l95 543l-216 913h302z" />
<glyph unicode="&#x4af;" horiz-adv-x="912" d="M419 412l249 670h295l-479 -1083l-72 -416h-276l80 458l-101 1041h282z" />
<glyph unicode="&#x4b0;" horiz-adv-x="1088" d="M830 513h-160l-89 -513h-291l90 513h-141l33 183h77l-180 760h302l99 -651l325 651h323l-442 -760h86z" />
<glyph unicode="&#x4b1;" horiz-adv-x="912" d="M654 11h-165l-5 -12l-72 -416h-276l75 428h-148l33 183h105l-86 888h282l22 -670l249 670h295l-393 -888h116z" />
<glyph unicode="&#x4b2;" horiz-adv-x="1122" d="M607 958l267 498h339l-452 -735l221 -721h-322l-113 507l-272 -507h-343l462 746l-216 710h317zM992 -357h-276l98 564h276z" />
<glyph unicode="&#x4b3;" horiz-adv-x="909" d="M471 763l172 319h303l-330 -542l159 -540h-283l-75 337l-181 -337h-305l343 566l-152 516h283zM775 -357h-276l98 564h276z" />
<glyph unicode="&#x4b4;" horiz-adv-x="1559" d="M413 1220h-257l41 236h788l-42 -236h-244l-169 -976h416l211 1212h289l-211 -1213h174l-123 -594h-268l61 351h-878z" />
<glyph unicode="&#x4b5;" horiz-adv-x="1211" d="M263 846h-162l41 236h578l-41 -236h-140l-106 -611h242l147 847h277l-148 -849h144l-115 -554h-257l56 321h-663z" />
<glyph unicode="&#x4b6;" horiz-adv-x="1224" d="M1262 1456l-253 -1456h-287l103 550q-114 -27 -210 -25q-211 2 -321 132t-85 350l74 449h288l-74 -450q-6 -47 -5 -89q3 -143 144 -148q89 -3 218 23l121 664h287zM1135 -357h-276l98 564h276z" />
<glyph unicode="&#x4b7;" horiz-adv-x="983" d="M783 0h-277l66 335q-49 -9 -88 -9q-183 -2 -282 111t-78 303l55 342h277l-55 -343l-4 -66q0 -109 105 -112q40 -2 97 8l95 513h277zM916 -357h-276l98 564h276z" />
<glyph unicode="&#x4b8;" horiz-adv-x="1194" d="M543 1456l-77 -465l-5 -57q-11 -130 84 -162l56 287h154l-54 -289l125 22l121 664h287l-253 -1456h-287l102 551q-49 -12 -127 -22l-47 -234h-155l48 232q-179 20 -268.5 149.5t-65.5 330.5l75 449h287z" />
<glyph unicode="&#x4b9;" horiz-adv-x="987" d="M789 0h-277l64 336l-49 -7l-30 -152h-155l33 158q-135 31 -199 138.5t-46 266.5l55 342h278l-63 -361l-6 -57q-3 -39 15 -73l46 238h155l-51 -270l49 10l92 513h277z" />
<glyph unicode="&#x4ba;" horiz-adv-x="1233" d="M183 0l253 1456h287l-103 -550q114 27 210 25q211 -2 321 -132t85 -350l-74 -449h-288l74 450q6 46 5 89q-3 143 -144 148q-89 3 -218 -23l-121 -664h-287z" />
<glyph unicode="&#x4bb;" horiz-adv-x="988" d="M425 986q103 119 227 117q119 -2 182 -88t63 -239l-5 -95l-114 -681h-277l113 684l5 59q4 122 -87 122q-66 2 -128 -70l-139 -795h-277l267 1536h276z" />
<glyph unicode="&#x4bc;" horiz-adv-x="1318" d="M727 -22q-135 2 -238.5 59t-163.5 165t-67 245q-4 78 10 160l9 47q-109 33 -161 141t-41 288l188 -2l-5 -53q-11 -102 43 -151q41 188 130 328t205 206.5t254 63.5q126 -3 213 -69t128 -191t37 -278q-2 -75 -11 -142l-27 -169l-672 2q-17 -79 -16 -147q2 -109 55 -172 t150 -66q135 -3 298 62l18 -252q-76 -68 -266 -74zM863 1211q-96 4 -166 -76t-112 -265h394q17 99 17 161q-5 173 -133 180z" />
<glyph unicode="&#x4bd;" horiz-adv-x="1050" d="M573 -20q-123 2 -213.5 67.5t-133 177.5t-28.5 243q-208 68 -192 395l168 -1l-4 -54q-7 -96 50 -145q72 223 192.5 333t284.5 107q155 -4 243 -112.5t91 -296.5q1 -68 -8 -131l-17 -117h-537q-6 -113 30.5 -170.5t106.5 -59.5q119 -5 218 118l118 -161q-53 -91 -153 -143 t-216 -50zM672 869q-110 3 -163 -161l-20 -64l272 -1l5 26l5 64q0 62 -25.5 98.5t-73.5 37.5z" />
<glyph unicode="&#x4be;" horiz-adv-x="1318" d="M727 -22q-135 2 -238.5 59t-163.5 165t-67 245q-4 78 10 160l9 47q-109 33 -161 141t-41 288l188 -2l-5 -53q-11 -102 43 -151q41 188 130 328t205 206.5t254 63.5q126 -3 213 -69t128 -191t37 -278q-2 -75 -11 -142l-27 -169l-672 2q-17 -79 -16 -147q2 -109 55 -172 t150 -66q135 -3 298 62l18 -252q-76 -68 -266 -74zM863 1211q-96 4 -166 -76t-112 -265h394q17 99 17 161q-5 173 -133 180zM748 -471h-276l98 564h276z" />
<glyph unicode="&#x4bf;" horiz-adv-x="1050" d="M573 -20q-123 2 -213.5 67.5t-133 177.5t-28.5 243q-208 68 -192 395l168 -1l-4 -54q-7 -96 50 -145q72 223 192.5 333t284.5 107q155 -4 243 -112.5t91 -296.5q1 -68 -8 -131l-17 -117h-537q-6 -113 30.5 -170.5t106.5 -59.5q119 -5 218 118l118 -161q-53 -91 -153 -143 t-216 -50zM672 869q-110 3 -163 -161l-20 -64l272 -1l5 26l5 64q0 62 -25.5 98.5t-73.5 37.5zM563 -462h-276l98 564h276z" />
<glyph unicode="&#x4c0;" horiz-adv-x="547" d="M308 0h-287l253 1456h287z" />
<glyph unicode="&#x4c1;" horiz-adv-x="1765" d="M1172 591h-138l-103 -591h-287l103 591h-133l-325 -591h-368l503 812l-222 644h344l129 -585h120l102 585h287l-102 -585h105l324 585h368l-456 -669l206 -787h-345zM1421 1842q-8 -139 -108.5 -221t-246.5 -78q-142 2 -228 83.5t-86 214.5l201 -1q-4 -129 116 -131 q64 -1 102.5 34.5t50.5 95.5z" />
<glyph unicode="&#x4c2;" horiz-adv-x="1506" d="M957 400h-103l-68 -400h-276l70 400h-86l-209 -400h-342l368 597l-173 485h328l81 -403h81l70 403h275l-70 -403h70l223 403h354l-356 -506l154 -576h-322zM1246 1524q-8 -139 -108.5 -221t-246.5 -78q-142 2 -228 83.5t-86 214.5l201 -1q-4 -129 116 -131 q64 -1 102.5 34.5t50.5 95.5z" />
<glyph unicode="&#x4c3;" horiz-adv-x="1150" d="M753 818q125 -31 199 -134t86 -256q14 -186 -42.5 -361.5t-172.5 -281.5q-144 -133 -350 -139l21 234q182 10 232 253q29 139 28 245q-5 201 -146 208l-210 2l-102 -588h-288l252 1456h288l-107 -586h59l357 586h368z" />
<glyph unicode="&#x4c4;" horiz-adv-x="1022" d="M686 592q105 -56 155.5 -169t36.5 -261q-13 -149 -114 -276.5t-253 -191.5l-102 199q168 106 190 272q6 39 4 79q-11 141 -134 152l-110 1l-69 -397h-276l187 1082h277l-77 -408h52l243 408h361z" />
<glyph unicode="&#x4c5;" horiz-adv-x="1230" d="M1253 1456l-252 -1456h-288l210 1211h-259l-142 -685q-63 -272 -179 -397t-294 -129h-93l29 244l30 1q106 9 173.5 118t101.5 349l16 107l124 637h823zM966 -410l-146 80l62 99q75 123 92 221l37 213h240l-32 -192q-43 -255 -253 -421z" />
<glyph unicode="&#x4c6;" horiz-adv-x="1003" d="M978 1082l-188 -1082h-276l147 846h-161l-66 -313l-19 -94q-51 -235 -147 -339t-239 -100h-98l33 235l27 2q126 16 172 238l24 146l93 461h698zM760 -410l-146 80l62 99q75 123 92 221l37 213h240l-32 -192q-43 -255 -253 -421z" />
<glyph unicode="&#x4c7;" horiz-adv-x="1232" d="M551 1456l-107 -618h415l108 618h288l-253 -1482q-26 -197 -129.5 -306.5t-261.5 -107.5q-55 0 -136 19l39 240q50 -15 83 -15q86 3 114 157l106 633h-415l-103 -594h-287l252 1456h287z" />
<glyph unicode="&#x4c8;" horiz-adv-x="996" d="M456 1082l-75 -433h240l75 433h276l-189 -1115q-26 -193 -125 -300.5t-255 -107.5q-67 2 -131 18l34 234q53 -18 82 -17q84 3 113 145l80 476h-240l-73 -415h-277l188 1082h277z" />
<glyph unicode="&#x4c9;" horiz-adv-x="1229" d="M1001 0h-286l108 623h-419l-108 -623h-287l252 1456h287l-102 -589h419l103 589h286zM968 -410l-146 80l62 99q75 123 92 221l37 213h240l-32 -192q-43 -255 -253 -421z" />
<glyph unicode="&#x4ca;" horiz-adv-x="1001" d="M787 0h-276l73 415h-240l-73 -415h-277l188 1082h277l-75 -433h240l75 433h276zM757 -410l-146 80l62 99q75 123 92 221l37 213h240l-32 -192q-43 -255 -253 -421z" />
<glyph unicode="&#x4cb;" horiz-adv-x="1224" d="M1262 1456l-253 -1456h-287l103 550q-114 -27 -210 -25q-211 2 -321 132t-85 350l74 449h288l-74 -450q-6 -47 -5 -89q3 -143 144 -148q89 -3 218 23l121 664h287zM713 -357h-276l98 564h276z" />
<glyph unicode="&#x4cc;" horiz-adv-x="983" d="M783 0h-277l66 335q-49 -9 -88 -9q-183 -2 -282 111t-78 303l55 342h277l-55 -343l-4 -66q0 -109 105 -112q40 -2 97 8l95 513h277zM494 -357h-276l98 564h276z" />
<glyph unicode="&#x4cd;" horiz-adv-x="1516" d="M631 1456l85 -1047l447 1047h378l-253 -1456h-288l70 403l126 575l-446 -978h-195l-110 1011l-83 -627l-66 -384h-287l252 1456h370zM1251 -410l-146 80l62 99q75 123 92 221l37 213h240l-32 -192q-43 -255 -253 -421z" />
<glyph unicode="&#x4ce;" horiz-adv-x="1329" d="M602 347l324 735h350l-188 -1082h-276l98 558l-267 -558h-184l-72 569l-99 -569h-275l187 1082h337zM1057 -410l-146 80l62 99q75 123 92 221l37 213h240l-32 -192q-43 -255 -253 -421z" />
<glyph unicode="&#x4cf;" horiz-adv-x="547" d="M308 0h-287l253 1456h287z" />
<glyph unicode="&#x4d0;" horiz-adv-x="1196" d="M738 298h-387l-127 -298h-312l694 1456h263l191 -1456h-297zM456 543h262l-41 516zM1135 1839q-8 -139 -108.5 -221t-246.5 -78q-142 2 -228 83.5t-86 214.5l201 -1q-4 -129 116 -131q64 -1 102.5 34.5t50.5 95.5z" />
<glyph unicode="&#x4d1;" horiz-adv-x="945" d="M510 0q-8 34 -8 84q-92 -105 -210 -105q-125 2 -200.5 92t-69.5 224q9 172 134 269.5t336 97.5h81l13 88l3 45q0 87 -70 87q-97 3 -118 -124l-275 -2q9 154 128 251.5t290 95.5q161 -4 246.5 -101.5t69.5 -257.5l-88 -550l-4 -53q-4 -70 14 -123l-1 -18h-271zM368 200 q73 -2 136 64l49 229h-60q-80 -4 -129 -54t-59 -126l-1 -38q0 -32 16.5 -53t47.5 -22zM950 1529q-8 -139 -108.5 -221t-246.5 -78q-142 2 -228 83.5t-86 214.5l201 -1q-4 -129 116 -131q64 -1 102.5 34.5t50.5 95.5z" />
<glyph unicode="&#x4d2;" horiz-adv-x="1196" d="M738 298h-387l-127 -298h-312l694 1456h263l191 -1456h-297zM456 543h262l-41 516zM406 1671q0 53 38.5 92t96.5 41q56 0 96 -36.5t40 -88.5q0 -56 -39 -93t-95 -39q-59 0 -98 36.5t-39 87.5zM881 1671q0 56 39 93t95 39q58 0 97 -37t39 -87q0 -56 -39 -93t-95 -39 q-58 0 -97 35.5t-39 88.5z" />
<glyph unicode="&#x4d3;" horiz-adv-x="945" d="M510 0q-8 34 -8 84q-92 -105 -210 -105q-125 2 -200.5 92t-69.5 224q9 172 134 269.5t336 97.5h81l13 88l3 45q0 87 -70 87q-97 3 -118 -124l-275 -2q9 154 128 251.5t290 95.5q161 -4 246.5 -101.5t69.5 -257.5l-88 -550l-4 -53q-4 -70 14 -123l-1 -18h-271zM368 200 q73 -2 136 64l49 229h-60q-80 -4 -129 -54t-59 -126l-1 -38q0 -32 16.5 -53t47.5 -22zM221 1361q0 53 38.5 92t96.5 41q56 0 96 -36.5t40 -88.5q0 -56 -39 -93t-95 -39q-59 0 -98 36.5t-39 87.5zM696 1361q0 56 39 93t95 39q58 0 97 -37t39 -87q0 -56 -39 -93t-95 -39 q-58 0 -97 35.5t-39 88.5z" />
<glyph unicode="&#x4d4;" horiz-adv-x="1634" d="M1451 0h-756l47 333h-317l-186 -333h-335l876 1456h873l-42 -238h-470l-49 -352h393l-42 -238h-384l-55 -390h489zM563 582h214l69 505z" />
<glyph unicode="&#x4d5;" horiz-adv-x="1456" d="M945 -20q-200 5 -293 135q-145 -139 -333 -135q-141 2 -222.5 92t-73.5 239q10 161 131 250.5t328 89.5l119 -1l11 57l4 50q2 49 -17.5 79.5t-57.5 31.5q-46 2 -81.5 -29.5t-50.5 -93.5l-273 18q11 155 132 248.5t298 91.5q161 -2 249 -94q125 96 269 92t226 -104 t88 -271q2 -58 -5 -114l-25 -163h-518q-4 -41 -1 -81q5 -70 41.5 -109.5t100.5 -42.5q68 -2 127 20.5t117 54.5l53 -193q-57 -57 -149 -87.5t-194 -30.5zM386 192q63 0 152 67l38 201l-96 1q-73 -4 -120.5 -46.5t-57.5 -107.5q-7 -48 12.5 -81t71.5 -34zM1056 869 q-114 5 -169 -164l-18 -61l254 -1l11 88q8 133 -78 138z" />
<glyph unicode="&#x4d6;" horiz-adv-x="985" d="M849 630h-444l-67 -386h526l-43 -244h-812l252 1456h811l-43 -245h-523l-60 -344h445zM1080 1842q-8 -139 -108.5 -221t-246.5 -78q-142 2 -228 83.5t-86 214.5l201 -1q-4 -129 116 -131q64 -1 102.5 34.5t50.5 95.5z" />
<glyph unicode="&#x4d7;" d="M441 -20q-131 1 -222.5 64t-132 176.5t-24.5 258.5l9 74q33 269 163.5 411.5t332.5 137.5q148 -4 232.5 -92.5t98.5 -247.5q8 -95 -4 -186l-19 -130h-540q-5 -43 -3 -83q7 -144 141 -147q125 -4 242 95l93 -172q-55 -75 -153.5 -118t-213.5 -41zM540 869 q-119 5 -166 -152l-20 -73l275 -1q10 58 11 94q4 127 -100 132zM933 1529q-8 -139 -108.5 -221t-246.5 -78q-142 2 -228 83.5t-86 214.5l201 -1q-4 -129 116 -131q64 -1 102.5 34.5t50.5 95.5z" />
<glyph unicode="&#x4d8;" horiz-adv-x="1204" d="M643 1475q175 -2 295 -88.5t171 -240.5t26 -346l-22 -144q-31 -203 -123.5 -362t-219 -238t-275.5 -76q-201 4 -312.5 140.5t-112.5 383.5q-1 81 10 160l27 164h741q10 67 7 134q-7 114 -67 179t-165 68q-144 4 -316 -62l-18 252q83 70 291 75zM521 242 q100 -2 173.5 81.5t122.5 259.5h-460q-15 -85 -14 -140q2 -92 47.5 -145t130.5 -56z" />
<glyph unicode="&#x4d9;" horiz-adv-x="940" d="M507 1102q170 -3 267 -132t90 -346l-3 -48l-4 -33q-32 -259 -160 -413.5t-319 -149.5q-135 4 -218 88t-100 229q-11 86 0 173l26 164h503q3 36 1 76l-2 18q-19 132 -127 137q-68 4 -128 -19t-118 -55l-56 190q57 57 150 90t198 31zM403 213q95 -2 144 151l22 71l-239 1 l-5 -28l-6 -59q-5 -60 16.5 -97.5t67.5 -38.5z" />
<glyph unicode="&#x4da;" horiz-adv-x="1204" d="M643 1475q175 -2 295 -88.5t171 -240.5t26 -346l-22 -144q-31 -203 -123.5 -362t-219 -238t-275.5 -76q-201 4 -312.5 140.5t-112.5 383.5q-1 81 10 160l27 164h741q10 67 7 134q-7 114 -67 179t-165 68q-144 4 -316 -62l-18 252q83 70 291 75zM521 242 q100 -2 173.5 81.5t122.5 259.5h-460q-15 -85 -14 -140q2 -92 47.5 -145t130.5 -56zM351 1627q0 53 38.5 92t96.5 41q56 0 96 -36.5t40 -88.5q0 -56 -39 -93t-95 -39q-59 0 -98 36.5t-39 87.5zM826 1627q0 56 39 93t95 39q58 0 97 -37t39 -87q0 -56 -39 -93t-95 -39 q-58 0 -97 35.5t-39 88.5z" />
<glyph unicode="&#x4db;" horiz-adv-x="940" d="M507 1102q170 -3 267 -132t90 -346l-3 -48l-4 -33q-32 -259 -160 -413.5t-319 -149.5q-135 4 -218 88t-100 229q-11 86 0 173l26 164h503q3 36 1 76l-2 18q-19 132 -127 137q-68 4 -128 -19t-118 -55l-56 190q57 57 150 90t198 31zM403 213q95 -2 144 151l22 71l-239 1 l-5 -28l-6 -59q-5 -60 16.5 -97.5t67.5 -38.5zM218 1362q0 53 38.5 92t96.5 41q56 0 96 -36.5t40 -88.5q0 -56 -39 -93t-95 -39q-59 0 -98 36.5t-39 87.5zM693 1362q0 56 39 93t95 39q58 0 97 -37t39 -87q0 -56 -39 -93t-95 -39q-58 0 -97 35.5t-39 88.5z" />
<glyph unicode="&#x4dc;" horiz-adv-x="1765" d="M1172 591h-138l-103 -591h-287l103 591h-133l-325 -591h-368l503 812l-222 644h344l129 -585h120l102 585h287l-102 -585h105l324 585h368l-456 -669l206 -787h-345zM692 1674q0 53 38.5 92t96.5 41q56 0 96 -36.5t40 -88.5q0 -56 -39 -93t-95 -39q-59 0 -98 36.5 t-39 87.5zM1167 1674q0 56 39 93t95 39q58 0 97 -37t39 -87q0 -56 -39 -93t-95 -39q-58 0 -97 35.5t-39 88.5z" />
<glyph unicode="&#x4dd;" horiz-adv-x="1506" d="M957 400h-103l-68 -400h-276l70 400h-86l-209 -400h-342l368 597l-173 485h328l81 -403h81l70 403h275l-70 -403h70l223 403h354l-356 -506l154 -576h-322zM517 1356q0 53 38.5 92t96.5 41q56 0 96 -36.5t40 -88.5q0 -56 -39 -93t-95 -39q-59 0 -98 36.5t-39 87.5z M992 1356q0 56 39 93t95 39q58 0 97 -37t39 -87q0 -56 -39 -93t-95 -39q-58 0 -97 35.5t-39 88.5z" />
<glyph unicode="&#x4de;" horiz-adv-x="1086" d="M573 859q76 2 124 54.5t60 150.5q7 75 -26 121.5t-100 48.5q-63 2 -109 -43.5t-61 -128.5l-286 -1q9 120 75.5 217t173.5 149t230 49q192 -4 300 -113t95 -294q-18 -207 -239 -327q157 -95 143 -326q-10 -131 -79.5 -231t-186 -153.5t-253.5 -50.5q-187 4 -296.5 120 t-103.5 304h287q-2 -85 34 -132.5t102 -49.5q95 -2 159 72t59 198q-7 125 -119 130l-160 1l42 237zM335 1679q0 53 38.5 92t96.5 41q56 0 96 -36.5t40 -88.5q0 -56 -39 -93t-95 -39q-59 0 -98 36.5t-39 87.5zM810 1679q0 56 39 93t95 39q58 0 97 -37t39 -87q0 -56 -39 -93 t-95 -39q-58 0 -97 35.5t-39 88.5z" />
<glyph unicode="&#x4df;" horiz-adv-x="909" d="M455 646q62 6 91 53t28 110q-4 72 -64 75q-44 2 -74 -29t-40 -84l-277 -1q11 150 120.5 242t272.5 90q162 -2 256 -86t85 -221q-10 -150 -175 -244q56 -31 84.5 -93.5t24.5 -143.5q-6 -103 -63.5 -179.5t-154.5 -117t-210 -37.5q-157 2 -250 97.5t-89 243.5h274 q0 -121 99 -121q52 0 86 37.5t43 97.5l2 45q-3 73 -74 78l-144 1l32 188zM215 1361q0 53 38.5 92t96.5 41q56 0 96 -36.5t40 -88.5q0 -56 -39 -93t-95 -39q-59 0 -98 36.5t-39 87.5zM690 1361q0 56 39 93t95 39q58 0 97 -37t39 -87q0 -56 -39 -93t-95 -39q-58 0 -97 35.5 t-39 88.5z" />
<glyph unicode="&#x4e0;" horiz-adv-x="1016" d="M702 1209l-458 2l43 245h793l-36 -213l-358 -380q129 -39 192 -158t49 -290q-10 -130 -79 -231t-183.5 -155.5t-247.5 -51.5q-178 6 -279.5 122t-95.5 306l287 -1q-3 -85 26.5 -131.5t86.5 -48.5q92 -4 153.5 73.5t54.5 216.5q-11 159 -155 167l-130 1l35 200z" />
<glyph unicode="&#x4e1;" horiz-adv-x="1018" d="M1007 1082l-34 -205l-360 -390q129 -36 194 -153.5t50 -292.5q-10 -128 -79 -230t-182 -156t-245 -50q-176 4 -276.5 121t-94.5 304l276 -1q-3 -90 29 -138.5t91 -50.5q94 -4 157 75.5t57 223.5q-3 76 -42 120.5t-112 48.5l-136 1l34 196l301 341h-460l41 236h791z" />
<glyph unicode="&#x4e2;" horiz-adv-x="1214" d="M947 1456h293l-253 -1456h-287l165 946l-573 -946h-294l253 1456h288l-165 -947zM1080 1601h-614l27 167h614z" />
<glyph unicode="&#x4e3;" horiz-adv-x="1002" d="M697 1082h280l-188 -1082h-275l113 646l-350 -646h-283l188 1082h277l-112 -645zM929 1283h-614l27 167h614z" />
<glyph unicode="&#x4e4;" horiz-adv-x="1214" d="M947 1456h293l-253 -1456h-287l165 946l-573 -946h-294l253 1456h288l-165 -947zM409 1674q0 53 38.5 92t96.5 41q56 0 96 -36.5t40 -88.5q0 -56 -39 -93t-95 -39q-59 0 -98 36.5t-39 87.5zM884 1674q0 56 39 93t95 39q58 0 97 -37t39 -87q0 -56 -39 -93t-95 -39 q-58 0 -97 35.5t-39 88.5z" />
<glyph unicode="&#x4e5;" horiz-adv-x="1002" d="M697 1082h280l-188 -1082h-275l113 646l-350 -646h-283l188 1082h277l-112 -645zM258 1356q0 53 38.5 92t96.5 41q56 0 96 -36.5t40 -88.5q0 -56 -39 -93t-95 -39q-59 0 -98 36.5t-39 87.5zM733 1356q0 56 39 93t95 39q58 0 97 -37t39 -87q0 -56 -39 -93t-95 -39 q-58 0 -97 35.5t-39 88.5z" />
<glyph unicode="&#x4e6;" horiz-adv-x="1209" d="M512 -20q-192 4 -304.5 126t-122.5 339q-4 75 6 152l37 242q29 194 113 344t209 223t282 70q194 -4 304.5 -132.5t118.5 -351.5q2 -84 -9 -159l-33 -223q-45 -300 -202.5 -467.5t-398.5 -162.5zM859 843q12 103 12 159q-5 223 -161 229q-120 5 -193.5 -90.5 t-102.5 -299.5l-35 -245q-12 -99 -9 -155q5 -210 165 -217q114 -4 187 84t102 288zM410 1671q0 53 38.5 92t96.5 41q56 0 96 -36.5t40 -88.5q0 -56 -39 -93t-95 -39q-59 0 -98 36.5t-39 87.5zM885 1671q0 56 39 93t95 39q58 0 97 -37t39 -87q0 -56 -39 -93t-95 -39 q-58 0 -97 35.5t-39 88.5z" />
<glyph unicode="&#x4e7;" horiz-adv-x="998" d="M565 1102q164 -4 256 -111t101 -287v-71q-13 -314 -150.5 -486.5t-358.5 -166.5q-129 3 -213 69.5t-120.5 184.5t-20.5 271l6 54q29 255 163 401.5t337 141.5zM331 392q0 -173 106 -179q144 -8 187 220l11 72q14 144 14 185q0 172 -109 179q-79 4 -130 -73t-65 -222.5 t-14 -181.5zM235 1361q0 53 38.5 92t96.5 41q56 0 96 -36.5t40 -88.5q0 -56 -39 -93t-95 -39q-59 0 -98 36.5t-39 87.5zM710 1361q0 56 39 93t95 39q58 0 97 -37t39 -87q0 -56 -39 -93t-95 -39q-58 0 -97 35.5t-39 88.5z" />
<glyph unicode="&#x4e8;" horiz-adv-x="1204" d="M517 -20q-131 3 -226 72t-143.5 197t-50.5 287q-2 178 44.5 361t134.5 316.5t204.5 199.5t256.5 63q132 -3 226 -72t143.5 -200t50.5 -288q0 -191 -50.5 -380t-155 -331t-256.5 -198q-81 -30 -178 -27zM541 227q194 -11 284 325l22 88h-456q-12 -90 -10 -160 q5 -246 160 -253zM714 1228q-102 6 -177.5 -84.5t-129.5 -320.5h455q11 83 9 158q-5 237 -157 247z" />
<glyph unicode="&#x4e9;" horiz-adv-x="992" d="M59 544q19 163 89.5 296.5t174.5 199t234 62.5q106 -3 185 -54.5t122.5 -150t48.5 -216.5q2 -65 -4 -128l-7 -48q-40 -244 -172 -387.5t-324 -138.5q-159 4 -252 115.5t-102 302.5q-3 64 4 126zM533 869q-115 3 -173 -177l-19 -63h294l3 46q8 190 -105 194zM429 213 q113 -5 170 166l21 67h-294l-3 -69q0 -159 106 -164z" />
<glyph unicode="&#x4ea;" horiz-adv-x="1204" d="M517 -20q-131 3 -226 72t-143.5 197t-50.5 287q-2 178 44.5 361t134.5 316.5t204.5 199.5t256.5 63q132 -3 226 -72t143.5 -200t50.5 -288q0 -191 -50.5 -380t-155 -331t-256.5 -198q-81 -30 -178 -27zM541 227q194 -11 284 325l22 88h-456q-12 -90 -10 -160 q5 -246 160 -253zM714 1228q-102 6 -177.5 -84.5t-129.5 -320.5h455q11 83 9 158q-5 237 -157 247zM422 1672q0 53 38.5 92t96.5 41q56 0 96 -36.5t40 -88.5q0 -56 -39 -93t-95 -39q-59 0 -98 36.5t-39 87.5zM897 1672q0 56 39 93t95 39q58 0 97 -37t39 -87q0 -56 -39 -93 t-95 -39q-58 0 -97 35.5t-39 88.5z" />
<glyph unicode="&#x4eb;" horiz-adv-x="992" d="M59 544q19 163 89.5 296.5t174.5 199t234 62.5q106 -3 185 -54.5t122.5 -150t48.5 -216.5q2 -65 -4 -128l-7 -48q-40 -244 -172 -387.5t-324 -138.5q-159 4 -252 115.5t-102 302.5q-3 64 4 126zM533 869q-115 3 -173 -177l-19 -63h294l3 46q8 190 -105 194zM429 213 q113 -5 170 166l21 67h-294l-3 -69q0 -159 106 -164zM240 1361q0 53 38.5 92t96.5 41q56 0 96 -36.5t40 -88.5q0 -56 -39 -93t-95 -39q-59 0 -98 36.5t-39 87.5zM715 1361q0 56 39 93t95 39q58 0 97 -37t39 -87q0 -56 -39 -93t-95 -39q-58 0 -97 35.5t-39 88.5z" />
<glyph unicode="&#x4ec;" horiz-adv-x="1133" d="M320 485l1 -73q10 -186 160 -191q194 -8 269 290l22 94h-354l43 245h337q11 83 9 153q-5 223 -155 230q-94 5 -155 -58t-87 -214l-286 -1q24 153 100.5 273.5t193 184t257.5 59.5q130 -3 223 -70.5t141 -196.5t48 -283q0 -171 -43.5 -360.5t-129 -324t-201 -200 t-255.5 -62.5q-201 5 -313 139t-112 367zM358 1679q0 53 38.5 92t96.5 41q56 0 96 -36.5t40 -88.5q0 -56 -39 -93t-95 -39q-59 0 -98 36.5t-39 87.5zM833 1679q0 56 39 93t95 39q58 0 97 -37t39 -87q0 -56 -39 -93t-95 -39q-58 0 -97 35.5t-39 88.5z" />
<glyph unicode="&#x4ed;" horiz-adv-x="912" d="M479 869q-51 0 -83.5 -37t-48.5 -124l-257 -2q8 111 64 204.5t147 144.5t199 48q157 -4 247.5 -115t98.5 -306q2 -64 -4 -125l-12 -82q-42 -231 -170 -366t-311 -130q-160 5 -245.5 121t-76.5 304l261 -1l-1 -57q0 -129 86 -134q113 -5 165 175l19 69h-200l31 177h182 l5 68q4 166 -96 168zM200 1361q0 53 38.5 92t96.5 41q56 0 96 -36.5t40 -88.5q0 -56 -39 -93t-95 -39q-59 0 -98 36.5t-39 87.5zM675 1361q0 56 39 93t95 39q58 0 97 -37t39 -87q0 -56 -39 -93t-95 -39q-58 0 -97 35.5t-39 88.5z" />
<glyph unicode="&#x4ee;" horiz-adv-x="1104" d="M591 811l302 645h318l-604 -1205l-39 -69q-125 -206 -324 -206l-99 5l23 245l62 -6q90 0 136 88l50 107l-219 1041h297zM1051 1601h-614l27 167h614z" />
<glyph unicode="&#x4ef;" horiz-adv-x="897" d="M411 476l245 606h302l-558 -1245q-61 -146 -142 -211.5t-187 -65.5q-43 0 -122 21l24 221l30 -2q113 -2 166 101l46 103l-112 1078h289zM872 1289h-614l27 167h614z" />
<glyph unicode="&#x4f0;" horiz-adv-x="1104" d="M591 811l302 645h318l-604 -1205l-39 -69q-125 -206 -324 -206l-99 5l23 245l62 -6q90 0 136 88l50 107l-219 1041h297zM380 1674q0 53 38.5 92t96.5 41q56 0 96 -36.5t40 -88.5q0 -56 -39 -93t-95 -39q-59 0 -98 36.5t-39 87.5zM855 1674q0 56 39 93t95 39q58 0 97 -37 t39 -87q0 -56 -39 -93t-95 -39q-58 0 -97 35.5t-39 88.5z" />
<glyph unicode="&#x4f1;" horiz-adv-x="897" d="M411 476l245 606h302l-558 -1245q-61 -146 -142 -211.5t-187 -65.5q-43 0 -122 21l24 221l30 -2q113 -2 166 101l46 103l-112 1078h289zM202 1361q0 53 38.5 92t96.5 41q56 0 96 -36.5t40 -88.5q0 -56 -39 -93t-95 -39q-59 0 -98 36.5t-39 87.5zM677 1361q0 56 39 93 t95 39q58 0 97 -37t39 -87q0 -56 -39 -93t-95 -39q-58 0 -97 35.5t-39 88.5z" />
<glyph unicode="&#x4f2;" horiz-adv-x="1104" d="M591 811l302 645h318l-604 -1205l-39 -69q-125 -206 -324 -206l-99 5l23 245l62 -6q90 0 136 88l50 107l-219 1041h297zM990 1848h257l-266 -301h-219zM654 1848h253l-238 -301h-212z" />
<glyph unicode="&#x4f3;" horiz-adv-x="897" d="M411 476l245 606h302l-558 -1245q-61 -146 -142 -211.5t-187 -65.5q-43 0 -122 21l24 221l30 -2q113 -2 166 101l46 103l-112 1078h289zM811 1535h257l-266 -301h-219zM475 1535h253l-238 -301h-212z" />
<glyph unicode="&#x4f4;" horiz-adv-x="1224" d="M1262 1456l-253 -1456h-287l103 550q-114 -27 -210 -25q-211 2 -321 132t-85 350l74 449h288l-74 -450q-6 -47 -5 -89q3 -143 144 -148q89 -3 218 23l121 664h287zM455 1674q0 53 38.5 92t96.5 41q56 0 96 -36.5t40 -88.5q0 -56 -39 -93t-95 -39q-59 0 -98 36.5t-39 87.5 zM930 1674q0 56 39 93t95 39q58 0 97 -37t39 -87q0 -56 -39 -93t-95 -39q-58 0 -97 35.5t-39 88.5z" />
<glyph unicode="&#x4f5;" horiz-adv-x="983" d="M783 0h-277l66 335q-49 -9 -88 -9q-183 -2 -282 111t-78 303l55 342h277l-55 -343l-4 -66q0 -109 105 -112q40 -2 97 8l95 513h277zM258 1356q0 53 38.5 92t96.5 41q56 0 96 -36.5t40 -88.5q0 -56 -39 -93t-95 -39q-59 0 -98 36.5t-39 87.5zM733 1356q0 56 39 93t95 39 q58 0 97 -37t39 -87q0 -56 -39 -93t-95 -39q-58 0 -97 35.5t-39 88.5z" />
<glyph unicode="&#x4f6;" horiz-adv-x="981" d="M1016 1211h-507l-210 -1211h-287l252 1456h795zM437 -357h-276l98 564h276z" />
<glyph unicode="&#x4f7;" horiz-adv-x="746" d="M757 846h-340l-147 -846h-276l188 1082h617zM415 -357h-276l98 564h276z" />
<glyph unicode="&#x4f8;" horiz-adv-x="1524" d="M461 933l157 -1q196 -6 306 -130t94 -322q-18 -212 -162 -345t-352 -135h-492l252 1456h288zM419 689l-77 -445l158 -2q71 1 126.5 43t85 117t22.5 152q-14 126 -129 134zM1295 0h-287l253 1456h287zM570 1674q0 53 38.5 92t96.5 41q56 0 96 -36.5t40 -88.5 q0 -56 -39 -93t-95 -39q-59 0 -98 36.5t-39 87.5zM1045 1674q0 56 39 93t95 39q58 0 97 -37t39 -87q0 -56 -39 -93t-95 -39q-58 0 -97 35.5t-39 88.5z" />
<glyph unicode="&#x4f9;" horiz-adv-x="1465" d="M422 767l127 -1q166 -6 261 -108.5t83 -268.5q-11 -172 -134.5 -280.5t-311.5 -108.5h-434l188 1082h276zM381 532l-52 -299l130 -1q93 3 138 88q28 54 25 118q-7 85 -84 93zM1221 0h-276l187 1082h277zM481 1357q0 53 38.5 92t96.5 41q56 0 96 -36.5t40 -88.5 q0 -56 -39 -93t-95 -39q-59 0 -98 36.5t-39 87.5zM956 1357q0 56 39 93t95 39q58 0 97 -37t39 -87q0 -56 -39 -93t-95 -39q-58 0 -97 35.5t-39 88.5z" />
<glyph unicode="&#x4fa;" horiz-adv-x="1068" d="M1102 1211h-507l-210 -1211h-287l252 1456h795zM657 665h-591l33 183h590zM683 261l-47 -293q-27 -198 -127 -304t-256 -104q-66 2 -132 20l38 232q54 -16 82 -15q83 0 110 136l54 328h278z" />
<glyph unicode="&#x4fb;" horiz-adv-x="756" d="M836 846h-340l-147 -846h-276l188 1082h617zM610 489h-591l33 183h590zM615 254l-47 -293q-27 -198 -127 -304t-256 -104q-66 2 -132 20l38 232q54 -16 82 -15q83 0 110 136l54 328h278z" />
<glyph unicode="&#x4fc;" horiz-adv-x="1122" d="M607 958l267 498h339l-452 -735l221 -721h-322l-113 507l-272 -507h-343l462 746l-216 710h317zM1168 261l-47 -293q-27 -198 -127 -304t-256 -104q-66 2 -132 20l38 232q54 -16 82 -15q83 0 110 136l54 328h278z" />
<glyph unicode="&#x4fd;" horiz-adv-x="909" d="M471 763l172 319h303l-330 -542l159 -540h-283l-75 337l-181 -337h-305l343 566l-152 516h283zM951 261l-47 -293q-27 -198 -127 -304t-256 -104q-66 2 -132 20l38 232q54 -16 82 -15q83 0 110 136l54 328h278z" />
<glyph unicode="&#x4fe;" horiz-adv-x="1122" d="M864 654h-83l201 -654h-322l-113 507l-272 -507h-343l405 654h-64l33 183h60l-188 619h317l112 -498l267 498h339l-381 -619h64z" />
<glyph unicode="&#x4ff;" horiz-adv-x="909" d="M731 463h-93l137 -463h-283l-75 337l-181 -337h-305l280 463h-71l33 183h77l-128 436h283l66 -319l172 319h303l-266 -436h83z" />
<glyph unicode="&#x500;" horiz-adv-x="1125" d="M782 962l86 494h289l-253 -1456l-444 1q-128 5 -223 66.5t-140 168.5t-33 238q12 140 83 252t189.5 174.5t259.5 62.5zM657 244l83 473l-158 2q-106 -2 -173 -94.5t-60 -223.5q3 -67 35.5 -109t88.5 -46z" />
<glyph unicode="&#x501;" horiz-adv-x="995" d="M475 1103q119 -4 193 -111l102 544h278l-266 -1536h-248l15 110q-104 -132 -229 -132q-139 2 -209.5 107t-67.5 302l3 64q23 330 130.5 493.5t298.5 158.5zM318 391q-5 -87 20.5 -131.5t78.5 -44.5q71 -2 136 75l87 497q-37 76 -107 79q-148 8 -186 -214l-11 -76z" />
<glyph unicode="&#x502;" horiz-adv-x="1620" d="M502 1q-128 5 -222.5 66t-140 167.5t-33.5 239.5q13 142 84.5 253.5t189 173.5t258.5 62l185 -1l86 494h288l-215 -1215h36q132 5 185 211q31 120 39 267q6 106 -13 204l274 -1q16 -100 14 -204q-7 -356 -144.5 -538t-372.5 -180zM699 244l82 473l-157 2 q-107 -2 -175 -94.5t-59 -223.5q3 -68 35.5 -110t88.5 -46z" />
<glyph unicode="&#x503;" horiz-adv-x="1472" d="M503 1103q105 -4 175 -95l104 552h276l-200 -1185l-3 -43q-4 -111 57 -116q95 -8 149.5 122t70.5 396q6 100 -8 200l262 -1q11 -100 11 -199q-3 -345 -142.5 -552t-371.5 -204q-111 2 -183 46.5t-97 122.5l-33 -46q-98 -127 -220 -124q-137 2 -210 113t-71 307 q0 106 27 242.5t83.5 246.5t139 165t184.5 52zM650 805q-38 58 -96 62q-168 4 -201 -345l-11 -121q-6 -183 96 -186q66 -3 131 67l5 76z" />
<glyph unicode="&#x504;" horiz-adv-x="1363" d="M489 388l2 62q-2 63 -26.5 100t-69.5 41l-222 3l44 247l137 -1q213 2 239 209q21 150 -121 158l-292 1l44 248l245 -1q208 -1 317 -108.5t95 -298.5q-17 -234 -295 -347q100 -31 149 -110.5t40 -202.5l-7 -70l-2 -23q-4 -64 26 -71q56 -11 99 50.5t68 184.5t34 275 q6 100 -8 200l274 -1q10 -100 10 -199q0 -345 -143 -552t-377 -204q-134 2 -205 91t-62 250z" />
<glyph unicode="&#x505;" horiz-adv-x="1122" d="M627 258q-4 -44 -2 -54q2 -31 25 -42q98 15 130 200q20 117 20 220q-1 80 -15 158l260 -1q12 -78 19 -156q12 -157 -38 -305t-149 -227.5t-231 -78.5q-150 0 -228 62.5t-73 180.5l10 76l2 29q4 58 -37 66l-231 2l38 222l129 -1q129 5 141 141l1 19q0 71 -67 76l-227 1 l35 236l204 -1q164 -5 252.5 -88.5t79.5 -225.5q-6 -87 -51.5 -143t-118.5 -97q135 -53 126 -223z" />
<glyph unicode="&#x506;" horiz-adv-x="1046" d="M104 575l41 235l197 -2q105 2 164.5 78.5t54.5 200.5q-3 59 -33.5 94t-83.5 39l-266 1l35 235l227 -1q200 -1 305.5 -117.5t89.5 -305.5q-10 -123 -75.5 -204.5t-171.5 -135.5q132 -65 141 -240l-1 -72l-17 -128h213l-31 -187q-44 -261 -237 -426l-140 78l69 130 q44 78 69 153l-197 -1q-32 44 -33 123l1 48l26 200l3 52q0 143 -109 151z" />
<glyph unicode="&#x507;" horiz-adv-x="1004" d="M107 383l36 203l196 -1q77 4 119.5 55.5t35.5 123.5q-11 78 -82 84l-253 1l33 233l230 -1q166 -4 263.5 -98t86.5 -242q-10 -155 -175 -257q93 -55 99 -174q1 -36 -4 -72l209 1l-31 -187q-44 -263 -239 -427l-139 80l79 148q42 80 62 147l-211 -1q-17 36 -15 78 q1 46 16 153l2 55q-7 91 -93 96z" />
<glyph unicode="&#x508;" horiz-adv-x="1659" d="M922 1208h-241l-101 -487l-29 -149q-63 -298 -181.5 -433.5t-304.5 -138.5h-91l29 244l30 1q104 9 171.5 116t103.5 365l14 93l125 637h805l-181 -1077l-3 -42q-4 -45 10 -77t44 -34q122 -11 173 224l15 84q15 100 20 200t-9 200l274 -1q11 -100 10 -199 q-3 -347 -143 -555t-370 -202q-169 6 -248.5 114.5t-60.5 288.5z" />
<glyph unicode="&#x509;" horiz-adv-x="1479" d="M671 843h-131l-86 -411q-50 -229 -145.5 -332.5t-239.5 -99.5h-96l33 235l27 2q71 9 115.5 81t67.5 226l12 77l93 461h668l-118 -707l-1 -48q0 -108 74 -111q102 -4 140 206q23 128 29 260q4 94 -11 189l263 -1q11 -94 13 -188q2 -212 -57 -375.5t-163.5 -247.5 t-239.5 -82q-174 4 -258 111.5t-65 287.5z" />
<glyph unicode="&#x50a;" horiz-adv-x="1721" d="M1265 1456l-178 -1078l-3 -43q-8 -91 51 -109q133 10 177 237q25 130 32 271q5 100 -9 200l275 -1q11 -100 11 -199q-2 -240 -69.5 -412t-182.5 -261t-264 -85q-161 4 -241.5 111.5t-66.5 292.5l33 214h-432l-103 -594h-288l252 1456h288l-107 -618h432l107 618h286z" />
<glyph unicode="&#x50b;" horiz-adv-x="1426" d="M592 426l-262 -1l-74 -425h-276l188 1082h276l-73 -420h253l73 420h276l-117 -707l-2 -48q-2 -47 17.5 -78.5t56.5 -32.5q78 -3 119.5 122t50.5 344q4 95 -10 189l261 -1q11 -94 13 -188q3 -316 -124 -512t-337 -193q-168 2 -254.5 112t-63.5 286z" />
<glyph unicode="&#x50c;" horiz-adv-x="1112" d="M503 -21q-190 5 -309 133.5t-134 335.5q-6 76 4 148l36 238q45 296 216.5 472t409.5 172q169 -2 296 -89l-80 -229q-104 71 -234 73q-122 0 -205 -103.5t-110 -275.5l-40 -258l-5 -73q-4 -76 15 -147.5t62 -110.5t105 -40q100 -2 159 92.5t61 299.5q0 86 -10 171l275 -1 l10 -170q7 -203 -57.5 -345t-188 -219.5t-276.5 -73.5z" />
<glyph unicode="&#x50d;" horiz-adv-x="939" d="M469 216q107 4 105 220l-4 102h263l5 -101q4 -220 -106.5 -341.5t-290.5 -117.5q-132 4 -222.5 75.5t-131.5 195t-26 268.5l4 43q18 151 90.5 280t182 197.5t240.5 66.5q143 -2 238 -70l-68 -229q-81 65 -189 63q-101 0 -161.5 -113.5t-66.5 -292.5l1 -51 q13 -198 137 -195z" />
<glyph unicode="&#x50e;" horiz-adv-x="1225" d="M480 1208h-331l44 248h940l-43 -248h-324l-138 -829l-3 -44q-8 -94 53 -109q133 10 177 238q25 129 33 270q5 100 -9 200l274 -1q11 -100 10 -199q-2 -244 -70 -414t-182.5 -258.5t-261.5 -84.5q-162 4 -243 111.5t-65 291.5z" />
<glyph unicode="&#x50f;" horiz-adv-x="1113" d="M336 846h-221l42 236h740l-42 -236h-243l-76 -471l-2 -47q0 -110 71 -112q99 -3 137 177q19 90 16 181q-3 71 -20 141l261 -1q14 -70 22 -140q15 -154 -38.5 -297t-160.5 -221.5t-244 -77.5q-168 2 -251 110.5t-68 287.5z" />
<glyph unicode="&#x510;" horiz-adv-x="1144" d="M66 400q19 251 276 354q-73 52 -111 129.5t-32 168.5q10 187 148.5 304t349.5 121h33q119 -3 212.5 -56t143.5 -148t47 -213l-287 1q2 78 -33 123t-104 47q-111 3 -176.5 -72t-50.5 -182q13 -109 129 -115l181 -1l-42 -237l-152 1q-106 -1 -167.5 -58t-72.5 -163 q-9 -80 39 -131t133 -53q81 0 137 50.5t71 132.5l288 1q-17 -193 -161 -311t-356 -114q-134 3 -239.5 56t-158.5 147t-45 218z" />
<glyph unicode="&#x511;" horiz-adv-x="980" d="M46 298q5 90 56 155.5t155 109.5q-54 37 -84.5 92.5t-27.5 121.5q5 151 129 240t310 84q155 -4 249.5 -95.5t94.5 -236.5h-274q0 111 -101 111q-55 -1 -95 -36t-48 -89q-8 -48 16.5 -74.5t71.5 -29.5l171 -1l-34 -194l-142 1q-66 -2 -111 -35.5t-54 -101.5 q-8 -53 20.5 -87.5t81.5 -36.5q60 -1 99 32.5t50 90.5l276 1q-11 -158 -131 -251.5t-294 -89.5q-78 1 -153 24t-128 66q-110 88 -103 229z" />
<glyph unicode="&#x512;" horiz-adv-x="1230" d="M1253 1456l-252 -1456h-288l210 1211h-259l-142 -685q-63 -272 -179 -397t-294 -129h-93l29 244l30 1q106 9 173.5 118t101.5 349l16 107l124 637h823zM1317 261l-47 -293q-27 -198 -127 -304t-256 -104q-66 2 -132 20l38 232q54 -16 82 -15q83 0 110 136l54 328h278z " />
<glyph unicode="&#x513;" horiz-adv-x="1003" d="M978 1082l-188 -1082h-276l147 846h-161l-66 -313l-19 -94q-51 -235 -147 -339t-239 -100h-98l33 235l27 2q126 16 172 238l24 146l93 461h698zM1111 261l-47 -293q-27 -198 -127 -304t-256 -104q-66 2 -132 20l38 232q54 -16 82 -15q83 0 110 136l54 328h278z" />
<glyph unicode="&#x1e00;" horiz-adv-x="1196" d="M738 298h-387l-127 -298h-312l694 1456h263l191 -1456h-297zM456 543h262l-41 516zM292 -230q0 75 48 127.5t115 52.5t112 -49.5t45 -118.5q0 -75 -48 -125.5t-114 -50.5q-69 0 -113.5 48.5t-44.5 115.5zM391 -229q-3 -22 7.5 -44.5t36.5 -23.5q25 0 48 23t28 55l1 22 q-4 50 -42 50q-26 0 -50 -25.5t-29 -56.5z" />
<glyph unicode="&#x1e01;" horiz-adv-x="945" d="M510 0q-8 34 -8 84q-92 -105 -210 -105q-125 2 -200.5 92t-69.5 224q9 172 134 269.5t336 97.5h81l13 88l3 45q0 87 -70 87q-97 3 -118 -124l-275 -2q9 154 128 251.5t290 95.5q161 -4 246.5 -101.5t69.5 -257.5l-88 -550l-4 -53q-4 -70 14 -123l-1 -18h-271zM368 200 q73 -2 136 64l49 229h-60q-80 -4 -129 -54t-59 -126l-1 -38q0 -32 16.5 -53t47.5 -22zM98 -220q0 75 48 127.5t115 52.5t112 -49.5t45 -118.5q0 -75 -48 -125.5t-114 -50.5q-69 0 -113.5 48.5t-44.5 115.5zM197 -219q-3 -22 7.5 -44.5t36.5 -23.5q25 0 48 23t28 55l1 22 q-4 50 -42 50q-26 0 -50 -25.5t-29 -56.5z" />
<glyph unicode="&#x1e3e;" horiz-adv-x="1516" d="M631 1456l85 -1047l447 1047h378l-253 -1456h-288l70 403l126 575l-446 -978h-195l-110 1011l-83 -627l-66 -384h-287l252 1456h370zM1007 1846h326l-319 -310h-246z" />
<glyph unicode="&#x1e3f;" horiz-adv-x="1483" d="M440 1083l-18 -102q112 125 255 121q155 -4 202 -146q123 150 274 147q114 -2 174.5 -85.5t59.5 -237.5l-5 -92l-114 -688h-277l115 690l5 56q8 120 -80 120q-71 0 -130 -97l-6 -48l-125 -721h-276l114 688l6 56q8 122 -79 122q-42 0 -71.5 -23.5t-54.5 -55.5l-137 -787 h-276l188 1082zM961 1536h326l-319 -310h-246z" />
<glyph unicode="&#x1e80;" horiz-adv-x="1498" d="M1020 545l276 911h288l-478 -1456h-288l-30 854l-296 -854h-289l-25 1456h282l-11 -908l307 908h242zM1032 1536h-217l-220 310h293z" />
<glyph unicode="&#x1e81;" horiz-adv-x="1267" d="M840 477l199 605h270l-405 -1082h-229l-39 622l-256 -622h-231l-30 1082h260l-13 -601l243 601h197zM870 1226h-217l-220 310h293z" />
<glyph unicode="&#x1e82;" horiz-adv-x="1498" d="M1020 545l276 911h288l-478 -1456h-288l-30 854l-296 -854h-289l-25 1456h282l-11 -908l307 908h242zM995 1846h326l-319 -310h-246z" />
<glyph unicode="&#x1e83;" horiz-adv-x="1267" d="M840 477l199 605h270l-405 -1082h-229l-39 622l-256 -622h-231l-30 1082h260l-13 -601l243 601h197zM833 1536h326l-319 -310h-246z" />
<glyph unicode="&#x1e84;" horiz-adv-x="1498" d="M1020 545l276 911h288l-478 -1456h-288l-30 854l-296 -854h-289l-25 1456h282l-11 -908l307 908h242zM546 1671q0 53 38.5 92t96.5 41q56 0 96 -36.5t40 -88.5q0 -56 -39 -93t-95 -39q-59 0 -98 36.5t-39 87.5zM1021 1671q0 56 39 93t95 39q58 0 97 -37t39 -87 q0 -56 -39 -93t-95 -39q-58 0 -97 35.5t-39 88.5z" />
<glyph unicode="&#x1e85;" horiz-adv-x="1267" d="M840 477l199 605h270l-405 -1082h-229l-39 622l-256 -622h-231l-30 1082h260l-13 -601l243 601h197zM384 1361q0 53 38.5 92t96.5 41q56 0 96 -36.5t40 -88.5q0 -56 -39 -93t-95 -39q-59 0 -98 36.5t-39 87.5zM859 1361q0 56 39 93t95 39q58 0 97 -37t39 -87 q0 -56 -39 -93t-95 -39q-58 0 -97 35.5t-39 88.5z" />
<glyph unicode="&#x1ea0;" horiz-adv-x="1196" d="M738 298h-387l-127 -298h-312l694 1456h263l191 -1456h-297zM456 543h262l-41 516zM295 -233q0 64 47 104.5t112 40.5q69 0 114 -39t45 -96q2 -63 -46 -104t-113 -41q-66 0 -111.5 37t-47.5 98z" />
<glyph unicode="&#x1ea1;" horiz-adv-x="945" d="M510 0q-8 34 -8 84q-92 -105 -210 -105q-125 2 -200.5 92t-69.5 224q9 172 134 269.5t336 97.5h81l13 88l3 45q0 87 -70 87q-97 3 -118 -124l-275 -2q9 154 128 251.5t290 95.5q161 -4 246.5 -101.5t69.5 -257.5l-88 -550l-4 -53q-4 -70 14 -123l-1 -18h-271zM368 200 q73 -2 136 64l49 229h-60q-80 -4 -129 -54t-59 -126l-1 -38q0 -32 16.5 -53t47.5 -22zM101 -223q0 64 47 104.5t112 40.5q69 0 114 -39t45 -96q2 -63 -46 -104t-113 -41q-66 0 -111.5 37t-47.5 98z" />
<glyph unicode="&#x1ea2;" horiz-adv-x="1196" d="M738 298h-387l-127 -298h-312l694 1456h263l191 -1456h-297zM456 543h262l-41 516zM662 1573l2 135l35 5q80 14 87 67q7 50 -51 57l-37 3l18 138q304 -14 298 -188q-4 -120 -130 -151l-9 -66h-213z" />
<glyph unicode="&#x1ea3;" horiz-adv-x="945" d="M510 0q-8 34 -8 84q-92 -105 -210 -105q-125 2 -200.5 92t-69.5 224q9 172 134 269.5t336 97.5h81l13 88l3 45q0 87 -70 87q-97 3 -118 -124l-275 -2q9 154 128 251.5t290 95.5q161 -4 246.5 -101.5t69.5 -257.5l-88 -550l-4 -53q-4 -70 14 -123l-1 -18h-271zM368 200 q73 -2 136 64l49 229h-60q-80 -4 -129 -54t-59 -126l-1 -38q0 -32 16.5 -53t47.5 -22zM477 1264l2 135l35 5q80 14 87 67q7 50 -51 57l-37 3l18 138q304 -14 298 -188q-4 -120 -130 -151l-9 -66h-213z" />
<glyph unicode="&#x1ea4;" horiz-adv-x="1196" d="M738 298h-387l-127 -298h-312l694 1456h263l191 -1456h-297zM456 543h262l-41 516zM711 1763h147l201 -227l-179 -3l-92 126l-135 -124h-219zM1202 1939h231l-245 -272h-170z" />
<glyph unicode="&#x1ea5;" horiz-adv-x="945" d="M510 0q-8 34 -8 84q-92 -105 -210 -105q-125 2 -200.5 92t-69.5 224q9 172 134 269.5t336 97.5h81l13 88l3 45q0 87 -70 87q-97 3 -118 -124l-275 -2q9 154 128 251.5t290 95.5q161 -4 246.5 -101.5t69.5 -257.5l-88 -550l-4 -53q-4 -70 14 -123l-1 -18h-271zM368 200 q73 -2 136 64l49 229h-60q-80 -4 -129 -54t-59 -126l-1 -38q0 -32 16.5 -53t47.5 -22zM526 1454h147l201 -227l-179 -3l-92 126l-135 -124h-219zM1017 1630h231l-245 -272h-170z" />
<glyph unicode="&#x1ea6;" horiz-adv-x="1196" d="M738 298h-387l-127 -298h-312l694 1456h263l191 -1456h-297zM456 543h262l-41 516zM1062 1535l-180 -3l-90 126l-138 -125l-218 1l278 228h146zM529 1666h-138l-149 272h198z" />
<glyph unicode="&#x1ea7;" horiz-adv-x="945" d="M510 0q-8 34 -8 84q-92 -105 -210 -105q-125 2 -200.5 92t-69.5 224q9 172 134 269.5t336 97.5h81l13 88l3 45q0 87 -70 87q-97 3 -118 -124l-275 -2q9 154 128 251.5t290 95.5q161 -4 246.5 -101.5t69.5 -257.5l-88 -550l-4 -53q-4 -70 14 -123l-1 -18h-271zM368 200 q73 -2 136 64l49 229h-60q-80 -4 -129 -54t-59 -126l-1 -38q0 -32 16.5 -53t47.5 -22zM877 1226l-180 -3l-90 126l-138 -125l-218 1l278 228h146zM344 1357h-138l-149 272h198z" />
<glyph unicode="&#x1ea8;" horiz-adv-x="1196" d="M738 298h-387l-127 -298h-312l694 1456h263l191 -1456h-297zM456 543h262l-41 516zM1054 1529h-169l-98 132l-146 -132l-210 1l273 229h156zM994 1655l3 114l27 4q71 12 79 57q7 42 -42 49l-36 3l15 115q230 -12 224 -158q-4 -98 -109 -127l-7 -57h-154z" />
<glyph unicode="&#x1ea9;" horiz-adv-x="945" d="M510 0q-8 34 -8 84q-92 -105 -210 -105q-125 2 -200.5 92t-69.5 224q9 172 134 269.5t336 97.5h81l13 88l3 45q0 87 -70 87q-97 3 -118 -124l-275 -2q9 154 128 251.5t290 95.5q161 -4 246.5 -101.5t69.5 -257.5l-88 -550l-4 -53q-4 -70 14 -123l-1 -18h-271zM368 200 q73 -2 136 64l49 229h-60q-80 -4 -129 -54t-59 -126l-1 -38q0 -32 16.5 -53t47.5 -22zM869 1220h-169l-98 132l-146 -132l-210 1l273 229h156zM809 1346l3 114l27 4q71 12 79 57q7 42 -42 49l-36 3l15 115q230 -12 224 -158q-4 -98 -109 -127l-7 -57h-154z" />
<glyph unicode="&#x1eaa;" horiz-adv-x="1196" d="M738 298h-387l-127 -298h-312l694 1456h263l191 -1456h-297zM456 543h262l-41 516zM1057 1524h-169l-99 125l-144 -125l-211 1l278 224h145zM1039 1963q-19 -157 -116 -160q-32 -1 -85.5 35t-83.5 32q-36 -6 -56 -71l-91 28q20 160 117 160q27 0 75.5 -30t63.5 -34.5 t32 -1.5q37 6 56 76z" />
<glyph unicode="&#x1eab;" horiz-adv-x="945" d="M510 0q-8 34 -8 84q-92 -105 -210 -105q-125 2 -200.5 92t-69.5 224q9 172 134 269.5t336 97.5h81l13 88l3 45q0 87 -70 87q-97 3 -118 -124l-275 -2q9 154 128 251.5t290 95.5q161 -4 246.5 -101.5t69.5 -257.5l-88 -550l-4 -53q-4 -70 14 -123l-1 -18h-271zM368 200 q73 -2 136 64l49 229h-60q-80 -4 -129 -54t-59 -126l-1 -38q0 -32 16.5 -53t47.5 -22zM872 1215h-169l-99 125l-144 -125l-211 1l278 224h145zM854 1654q-19 -157 -116 -160q-32 -1 -85.5 35t-83.5 32q-36 -6 -56 -71l-91 28q20 160 117 160q27 0 75.5 -30t63.5 -34.5 t32 -1.5q37 6 56 76z" />
</font>
</defs>
</svg>
