<?xml version="1.0" standalone="no"?>
<!DOCTYPE svg PUBLIC "-//W3C//DTD SVG 1.1//EN" "http://www.w3.org/Graphics/SVG/1.1/DTD/svg11.dtd" >
<svg xmlns="http://www.w3.org/2000/svg" xmlns:xlink="http://www.w3.org/1999/xlink" version="1.1">
<metadata></metadata>
<defs>
<font id="roboto_condensedlight" horiz-adv-x="1123" >
<font-face units-per-em="2048" ascent="1536" descent="-512" />
<missing-glyph horiz-adv-x="460" />
<glyph unicode="&#xfb01;" horiz-adv-x="969" d="M207 0v982h-150v100h150v124q3 166 84.5 258.5t223.5 92.5q111 0 233 -59l-19 -105q-102 52 -206 52q-199 0 -204 -239v-124h207v-100h-207v-982h-112zM807 0h-112v1082h112v-1082z" />
<glyph unicode="&#xfb02;" horiz-adv-x="984" d="M710 1421q-123 28 -199 28q-178 0 -178 -246v-121h212v-100h-212v-982h-112v982h-149v100h149v138q1 163 75 250t207 87q105 0 318 -61v-1496h-111v1421z" />
<glyph horiz-adv-x="0" />
<glyph horiz-adv-x="0" />
<glyph unicode="&#xd;" horiz-adv-x="460" />
<glyph horiz-adv-x="0" />
<glyph unicode=" "  horiz-adv-x="460" />
<glyph unicode="&#x09;" horiz-adv-x="460" />
<glyph unicode="&#xa0;" horiz-adv-x="460" />
<glyph unicode="!" horiz-adv-x="438" d="M269 406h-103l-6 1050h116zM149 71q0 35 19.5 58.5t54.5 23.5t54.5 -23.5t19.5 -58.5q0 -34 -19.5 -56.5t-54.5 -22.5t-54.5 22.5t-19.5 56.5z" />
<glyph unicode="&#x22;" horiz-adv-x="588" d="M243 1396l-20 -315h-80l3 455h97v-140zM479 1396l-20 -315h-81l4 455h97v-140z" />
<glyph unicode="#" horiz-adv-x="1052" d="M654 410h-256l-65 -410h-90l65 410h-211v95h226l70 437h-232v98h247l67 416h90l-67 -416h257l67 416h91l-67 -416h188v-98h-204l-70 -437h211v-95h-226l-65 -410h-91zM413 505h256l70 437h-256z" />
<glyph unicode="$" horiz-adv-x="996" d="M769 359q0 112 -59 181t-207 132q-194 75 -268.5 172.5t-74.5 249.5q0 163 84 265t226 116v203h94v-204q146 -17 226.5 -131t80.5 -316h-110q0 154 -65.5 247.5t-181.5 93.5q-114 0 -179 -74.5t-65 -197.5q0 -116 59.5 -184t207 -128.5t213.5 -115.5t98.5 -129t32.5 -178 q0 -162 -86.5 -263.5t-236.5 -115.5v-190h-92v189q-168 15 -259 129t-91 309h111q0 -155 73.5 -243.5t205.5 -88.5q119 0 191 76t72 196z" />
<glyph unicode="%" horiz-adv-x="1309" d="M111 1176q0 129 67.5 215t173.5 86q105 0 173.5 -85.5t68.5 -220.5v-72q0 -128 -67.5 -213.5t-172.5 -85.5t-174 84.5t-69 220.5v71zM199 1099q0 -91 42 -151t113 -60q70 0 111 60.5t41 155.5v72q0 90 -41.5 151t-112.5 61q-70 0 -111.5 -61t-41.5 -155v-73zM723 357 q0 129 67.5 214.5t172.5 85.5t174 -84.5t69 -222.5v-71q0 -131 -69 -215.5t-172 -84.5q-104 0 -173 84.5t-69 221.5v72zM810 279q0 -91 42 -151.5t113 -60.5q70 0 111.5 60t41.5 157v73q0 95 -41.5 153t-113.5 58q-70 0 -111.5 -58t-41.5 -158v-73zM386 120l-67 49l597 1138 l68 -49z" />
<glyph unicode="&#x26;" horiz-adv-x="1100" d="M359 792q-80 114 -111 195t-31 157q0 155 78 243.5t208 88.5q117 0 192 -80.5t75 -205.5q0 -145 -132 -276l-141 -129l328 -458q71 144 71 325h102q0 -249 -107 -416l169 -236h-134l-102 142q-66 -76 -152 -119t-180 -43q-174 0 -278 107t-104 285q0 105 52.5 199.5 t196.5 220.5zM492 83q152 0 270 145l-337 472l-10 12l-36 -33q-159 -156 -159 -307q0 -131 74 -210t198 -79zM328 1148q0 -118 112 -283l105 96q53 46 86.5 100.5t33.5 128.5q0 78 -44.5 130t-118.5 52q-78 0 -126 -61.5t-48 -162.5z" />
<glyph unicode="'" horiz-adv-x="348" d="M226 1397l-17 -308h-90q5 298 5 447h102v-139z" />
<glyph unicode="(" horiz-adv-x="596" d="M136 588q0 225 52.5 436t143 374t190.5 235l26 -84q-83 -72 -152 -218.5t-108.5 -339t-39.5 -420.5q0 -207 39 -398.5t109 -341t152 -222.5l-26 -79q-68 49 -138 148t-125.5 236t-89 301.5t-33.5 372.5z" />
<glyph unicode=")" horiz-adv-x="607" d="M460 573q0 -225 -49.5 -431.5t-141 -371.5t-195.5 -240l-25 79q98 86 175 273q125 305 125 709q0 205 -39.5 395.5t-110 343.5t-150.5 224l25 79q109 -79 206 -264q180 -345 180 -796z" />
<glyph unicode="*" horiz-adv-x="869" d="M361 1000l-332 106l32 104l332 -123l-4 369h104l-8 -372l324 127l33 -104l-333 -114l223 -293l-85 -64l-214 304l-204 -302l-85 62z" />
<glyph unicode="+" horiz-adv-x="1012" d="M556 742h366v-115h-366v-481h-113v481h-360v115h360v464h113v-464z" />
<glyph unicode="," horiz-adv-x="392" d="M131 -273l-71 53q91 122 94 254v156h117v-123q0 -213 -140 -340z" />
<glyph unicode="-" horiz-adv-x="529" d="M463 590h-404v103h404v-103z" />
<glyph unicode="." horiz-adv-x="489" d="M145 73q0 36 22.5 60.5t62.5 24.5t63 -24.5t23 -60.5q0 -35 -23 -58t-63 -23t-62.5 23t-22.5 58z" />
<glyph unicode="/" horiz-adv-x="728" d="M143 -125h-100l511 1581h99z" />
<glyph unicode="0" horiz-adv-x="996" d="M876 608q0 -310 -95.5 -469t-281.5 -159q-184 0 -280.5 158.5t-98.5 457.5v256q0 304 95 464t282 160q184 0 280 -154.5t99 -450.5v-263zM764 868q0 250 -66.5 377t-200.5 127q-129 0 -196.5 -121.5t-70.5 -361.5v-295q0 -244 68.5 -377.5t200.5 -133.5 q128 0 195.5 126.5t69.5 371.5v287z" />
<glyph unicode="1" horiz-adv-x="996" d="M609 0h-112v1309l-329 -147v114l422 185h19v-1461z" />
<glyph unicode="2" horiz-adv-x="996" d="M905 0h-772v94l414 559q104 143 145 237t41 184q0 137 -65.5 217.5t-181.5 80.5q-123 0 -196 -93.5t-73 -242.5h-111q0 190 105 315t275 125q166 0 263 -103.5t97 -287.5q0 -175 -158 -409l-64 -92l-356 -481h637v-103z" />
<glyph unicode="3" horiz-adv-x="996" d="M356 794h109q122 1 197.5 77.5t75.5 204.5q0 141 -65 218.5t-184 77.5q-116 0 -187.5 -82.5t-71.5 -215.5h-111q0 114 46.5 205.5t132.5 144t191 52.5q164 0 262 -106.5t98 -297.5q0 -108 -56.5 -196t-151.5 -130q110 -36 170 -126.5t60 -223.5q0 -190 -104 -303 t-275 -113q-109 0 -200 51.5t-140.5 144.5t-49.5 218h111q0 -136 77.5 -223.5t201.5 -87.5q127 0 197.5 79.5t70.5 229.5q0 144 -75.5 220.5t-220.5 77.5h-108v104z" />
<glyph unicode="4" horiz-adv-x="996" d="M757 470h187v-104h-187v-366h-111v366h-572v71l563 1019h120v-986zM207 470h439v818l-40 -81z" />
<glyph unicode="5" horiz-adv-x="996" d="M201 746l60 710h615v-114h-520l-41 -488q98 80 225 80q167 0 264.5 -128.5t97.5 -341.5q0 -228 -96 -356t-273 -128q-161 0 -261 107.5t-113 295.5h106q14 -147 83 -223.5t185 -76.5q127 0 192.5 99t65.5 280q0 161 -73.5 260.5t-198.5 99.5q-72 0 -124 -22.5t-106 -81.5 z" />
<glyph unicode="6" horiz-adv-x="996" d="M729 1466v-107h-17q-212 -1 -333.5 -150t-135.5 -421q51 81 127 124.5t168 43.5q161 0 256.5 -132.5t95.5 -346.5q0 -223 -101 -360t-264 -137q-175 0 -285 150t-110 394v118q0 401 148 610.5t425 213.5h26zM520 851q-94 0 -173.5 -67.5t-105.5 -166.5v-104 q0 -190 80 -309.5t204 -119.5q114 0 185 109t71 279q0 171 -70.5 275t-190.5 104z" />
<glyph unicode="7" horiz-adv-x="996" d="M893 1386l-520 -1386h-116l517 1352h-689v104h808v-70z" />
<glyph unicode="8" horiz-adv-x="996" d="M857 1081q0 -110 -53.5 -199.5t-145.5 -134.5q108 -46 169.5 -142t61.5 -219q0 -184 -106.5 -295t-282.5 -111q-178 0 -284 110.5t-106 295.5q0 125 60.5 220t166.5 141q-92 45 -144.5 133.5t-52.5 200.5q0 181 98 288t260 107q163 0 261 -108t98 -287zM777 386 q0 136 -79 222.5t-200 86.5t-199.5 -85t-78.5 -224t75.5 -221t204.5 -82q126 0 201.5 82t75.5 221zM746 1082q0 125 -70.5 207.5t-177.5 82.5q-111 0 -178.5 -80t-67.5 -210q0 -131 69.5 -207t177.5 -76t177.5 77.5t69.5 205.5z" />
<glyph unicode="9" horiz-adv-x="996" d="M754 664q-52 -88 -131 -137.5t-168 -49.5q-156 0 -253 137t-97 351q0 222 101.5 366.5t269.5 144.5q184 0 286.5 -153t102.5 -435v-108q0 -398 -139 -592.5t-423 -197.5h-30l1 106h32q216 3 328.5 142.5t119.5 425.5zM470 582q94 0 171.5 68.5t113.5 183.5v73 q0 215 -75.5 339.5t-202.5 124.5q-115 0 -189 -114t-74 -287q0 -167 71 -277.5t185 -110.5z" />
<glyph unicode=":" horiz-adv-x="412" d="M131 73q0 36 22.5 60.5t62.5 24.5t63 -24.5t23 -60.5q0 -35 -23 -58t-63 -23t-62.5 23t-22.5 58zM133 995q0 36 22.5 60.5t62.5 24.5t63 -24.5t23 -60.5q0 -35 -23 -58t-63 -23t-62.5 23t-22.5 58z" />
<glyph unicode=";" horiz-adv-x="381" d="M122 995q0 36 22.5 60.5t62.5 24.5t63 -24.5t23 -60.5q0 -35 -23 -58t-63 -23t-62.5 23t-22.5 58zM133 -273l-71 53q91 122 94 254v156h117v-123q0 -213 -140 -340z" />
<glyph unicode="&#x3c;" horiz-adv-x="919" d="M201 655l576 -298v-129l-693 379v99l693 378v-129z" />
<glyph unicode="=" horiz-adv-x="990" d="M846 828h-701v108h701v-108zM846 417h-701v108h701v-108z" />
<glyph unicode="&#x3e;" horiz-adv-x="933" d="M715 659l-589 300v127l711 -378v-99l-711 -379v126z" />
<glyph unicode="?" horiz-adv-x="827" d="M333 405q0 110 24.5 183.5t107 170t107.5 139.5t38.5 91t13.5 112q0 125 -55 195.5t-150 70.5q-96 0 -157 -68.5t-63 -183.5h-110q2 164 94.5 262.5t235.5 98.5q148 0 232 -101.5t84 -272.5q0 -106 -41.5 -198.5t-158.5 -223.5q-92 -95 -92 -275h-110zM321 71 q0 35 19 58.5t54 23.5t54.5 -23.5t19.5 -58.5q0 -34 -19.5 -56.5t-54.5 -22.5t-54 22.5t-19 56.5z" />
<glyph unicode="@" horiz-adv-x="1606" d="M1491 512q-5 -153 -48 -278.5t-115.5 -189.5t-167.5 -64q-81 0 -132.5 49.5t-68.5 139.5q-45 -94 -108.5 -141.5t-136.5 -47.5q-118 0 -176.5 120t-42.5 326q19 251 122 406.5t242 155.5q107 0 183 -65l47 -43l-44 -569q-7 -117 24.5 -180.5t102.5 -63.5q103 0 166 121.5 t69 323.5q17 401 -127 607.5t-437 206.5q-176 0 -316 -105.5t-221 -298.5t-90 -444q-11 -250 54 -442t197 -295t313 -103q76 0 151.5 22t126.5 57l27 -81q-53 -40 -137.5 -64.5t-170.5 -24.5q-211 0 -362 113t-226.5 324.5t-64.5 493.5q9 277 102 493t254 333t367 117 q212 0 361 -107t221 -312t62 -490zM592 285q9 -99 46.5 -152.5t97.5 -53.5q146 0 218 246l39 525q-57 46 -127 46q-90 0 -156.5 -87t-98 -242.5t-19.5 -281.5z" />
<glyph unicode="A" d="M834 407h-546l-124 -407h-119l464 1456h106l464 -1456h-119zM321 514h480l-240 781z" />
<glyph unicode="B" horiz-adv-x="1097" d="M172 0v1456h369q197 0 298.5 -96.5t101.5 -284.5q0 -112 -52 -195t-144 -120q106 -27 171.5 -123.5t65.5 -226.5q0 -190 -104 -300t-295 -110h-411zM286 699v-593h302q130 0 205 80t75 222q0 132 -69.5 210t-193.5 81h-319zM286 804h265q130 0 202 69t72 205 q0 139 -70.5 204.5t-213.5 65.5h-255v-544z" />
<glyph unicode="C" horiz-adv-x="1158" d="M1045 454q-16 -245 -132 -359.5t-321 -114.5q-211 0 -333 159.5t-123 433.5v316q0 275 124.5 431t340.5 156q204 0 316 -117t128 -359h-116q-16 198 -93.5 283t-234.5 85q-165 0 -257 -123t-92 -357v-312q0 -232 89 -361t251 -129q170 0 246 85t91 283h116z" />
<glyph unicode="D" horiz-adv-x="1167" d="M172 0v1456h343q237 0 375 -151.5t142 -417.5v-305q0 -274 -139.5 -428t-391.5 -154h-329zM286 1348v-1242h221q195 0 302 120.5t110 344.5v305q0 224 -104.5 348t-302.5 124h-226z" />
<glyph unicode="E" horiz-adv-x="1018" d="M851 697h-565v-591h650v-106h-764v1456h759v-108h-645v-545h565v-106z" />
<glyph unicode="F" horiz-adv-x="1004" d="M846 678h-560v-678h-114v1456h758v-108h-644v-562h560v-108z" />
<glyph unicode="G" horiz-adv-x="1215" d="M1059 169q-73 -94 -184 -141.5t-243 -47.5q-224 0 -352 150t-133 416v354q0 279 121.5 427.5t346.5 148.5q201 0 315 -111t128 -320h-114q-18 168 -98.5 245.5t-229.5 77.5q-178 0 -266.5 -118.5t-88.5 -347.5v-336q0 -228 97.5 -354t273.5 -126q191 0 312 121v379h-319 v107h434v-524z" />
<glyph unicode="H" horiz-adv-x="1259" d="M1085 0h-115v697h-684v-697h-114v1456h114v-653h684v653h115v-1456z" />
<glyph unicode="I" horiz-adv-x="500" d="M307 0h-114v1456h114v-1456z" />
<glyph unicode="J" horiz-adv-x="987" d="M707 1456h115v-1023q0 -210 -102 -331.5t-271 -121.5q-178 0 -275 110.5t-97 310.5h114q0 -158 68.5 -236.5t189.5 -78.5q116 0 186.5 93t71.5 249v1028z" />
<glyph unicode="K" horiz-adv-x="1124" d="M455 718l-169 -196v-522h-114v1456h114v-776l160 200l451 576h143l-508 -648l547 -808h-139z" />
<glyph unicode="L" horiz-adv-x="950" d="M287 106h600v-106h-715v1456h115v-1350z" />
<glyph unicode="M" horiz-adv-x="1531" d="M323 1456l441 -1281l443 1281h151v-1456h-114v631l10 635l-446 -1266h-88l-444 1260l10 -625v-635h-114v1456h151z" />
<glyph unicode="N" horiz-adv-x="1262" d="M1088 0h-114l-687 1240v-1240h-115v1456h115l688 -1242v1242h113v-1456z" />
<glyph unicode="O" horiz-adv-x="1208" d="M1075 570q0 -282 -123.5 -436t-346.5 -154q-221 0 -346.5 154t-126.5 433v317q0 281 125 436.5t346 155.5q224 0 348 -156t124 -439v-311zM960 886q0 239 -92 359t-265 120q-167 0 -261 -117.5t-96 -351.5v-326q0 -240 95 -360.5t264 -120.5q174 0 264.5 120t90.5 361 v316z" />
<glyph unicode="P" horiz-adv-x="1104" d="M286 592v-592h-114v1456h423q193 0 304 -116t111 -319q0 -207 -107.5 -318t-309.5 -111h-307zM286 699h309q144 0 222.5 83.5t78.5 236.5t-79.5 241t-220.5 88h-310v-649z" />
<glyph unicode="Q" horiz-adv-x="1208" d="M1071 570q0 -195 -58 -326.5t-165 -198.5l219 -220l-78 -79l-250 252q-65 -18 -139 -18q-222 0 -346 154.5t-126 428.5v321q0 281 125 436.5t345 155.5q225 0 349 -156t124 -439v-311zM956 886q0 239 -92 359t-266 120q-166 0 -260 -117.5t-96 -351.5v-326 q0 -240 95 -360.5t263 -120.5q172 0 262.5 116t93.5 350v331z" />
<glyph unicode="R" horiz-adv-x="1126" d="M625 606h-340v-606h-115v1456h399q199 0 308.5 -113.5t109.5 -315.5q0 -141 -68 -247.5t-183 -147.5l303 -619v-13h-122zM285 712h304q129 0 206 88.5t77 226.5q0 153 -80 237t-224 84h-283v-636z" />
<glyph unicode="S" horiz-adv-x="1059" d="M856 358q0 122 -69.5 192t-259.5 134t-279 143q-117 103 -117 272q0 167 115 272t297 105q186 0 304 -122t118 -314h-115q0 147 -82.5 237.5t-224.5 90.5q-138 0 -217.5 -74.5t-79.5 -192.5q0 -110 75 -180t239 -124.5t248 -113t124 -137.5t40 -186q0 -171 -115.5 -275.5 t-305.5 -104.5q-128 0 -233.5 52.5t-165 151t-59.5 232.5h114q0 -154 93 -242t251 -88q138 0 221.5 74t83.5 198z" />
<glyph unicode="T" horiz-adv-x="1067" d="M1005 1348h-414v-1348h-115v1348h-413v108h942v-108z" />
<glyph unicode="U" horiz-adv-x="1168" d="M1018 1456v-1033q-1 -211 -113.5 -327t-319.5 -116q-210 0 -321.5 114.5t-111.5 332.5v1029h114v-1025q0 -345 319 -345q314 0 318 335v1035h115z" />
<glyph unicode="V" horiz-adv-x="1107" d="M550 182l3 -16l4 16l380 1274h126l-455 -1456h-108l-455 1456h125z" />
<glyph unicode="W" horiz-adv-x="1579" d="M405 396l35 -216l44 206l261 1070h102l257 -1070l43 -208l38 218l215 1060h116l-310 -1456h-108l-273 1135l-29 135l-28 -135l-279 -1135h-109l-309 1456h117z" />
<glyph unicode="X" horiz-adv-x="1097" d="M549 842l335 614h136l-401 -718l413 -738h-137l-346 633l-347 -633h-136l415 738l-403 718h136z" />
<glyph unicode="Y" horiz-adv-x="1070" d="M534 664l363 792h131l-438 -908v-548h-114v548l-437 908h134z" />
<glyph unicode="Z" horiz-adv-x="1069" d="M228 106h749v-106h-882v95l720 1254h-700v107h835v-91z" />
<glyph unicode="[" horiz-adv-x="461" d="M439 1560h-174v-1768h174v-104h-285v1976h285v-104z" />
<glyph unicode="\" horiz-adv-x="723" d="M59 1456h108l510 -1581h-107z" />
<glyph unicode="]" horiz-adv-x="461" d="M21 1664h286v-1976h-286v104h175v1768h-175v104z" />
<glyph unicode="^" horiz-adv-x="756" d="M374 1295l-185 -566h-107l252 727h81l250 -727h-106z" />
<glyph unicode="_" horiz-adv-x="789" d="M767 -103h-746v103h746v-103z" />
<glyph unicode="`" horiz-adv-x="585" d="M438 1245h-109l-226 280h144z" />
<glyph unicode="a" horiz-adv-x="964" d="M720 0q-15 52 -20 150q-50 -81 -128.5 -125.5t-170.5 -44.5q-140 0 -218 79t-78 225q0 159 108.5 252t299.5 94h186v151q0 116 -57.5 166.5t-168.5 50.5q-103 0 -169 -60t-66 -155l-111 1q0 133 100 225.5t251 92.5q163 0 247 -82t84 -239v-531q0 -159 29 -238v-12h-118z M415 87q98 0 173.5 51t110.5 136v263h-176q-152 -2 -229 -67.5t-77 -176.5q0 -206 198 -206z" />
<glyph unicode="b" horiz-adv-x="996" d="M887 490q0 -250 -87.5 -380t-260.5 -130q-191 0 -283 165l-5 -145h-103v1536h110v-605q91 171 279 171q175 0 261 -123.5t89 -368.5v-120zM776 591q0 206 -61 305t-200 99q-185 0 -257 -195v-536q34 -85 100 -131.5t159 -46.5q133 0 195.5 96.5t63.5 300.5v108z" />
<glyph unicode="c" horiz-adv-x="929" d="M490 83q116 0 178 65t67 187h107q-8 -166 -106 -260.5t-246 -94.5q-193 0 -291.5 123.5t-100.5 366.5v132q0 248 98.5 374t292.5 126q161 0 254 -101.5t99 -283.5h-107q-5 134 -68 207.5t-178 73.5q-144 0 -211.5 -97t-67.5 -298v-123q0 -208 68 -302.5t212 -94.5z" />
<glyph unicode="d" horiz-adv-x="999" d="M108 591q0 254 89 382.5t264 128.5q184 0 275 -165v599h111v-1536h-104l-5 139q-91 -159 -278 -159q-171 0 -260.5 130t-91.5 369v112zM221 490q0 -208 62.5 -306t198.5 -98q175 0 254 167v561q-75 181 -253 181q-136 0 -198.5 -97t-63.5 -300v-108z" />
<glyph unicode="e" horiz-adv-x="937" d="M505 -20q-191 0 -299 125t-110 356v132q0 238 104 373.5t286 135.5q176 0 268.5 -115t94.5 -352v-104h-643v-61q0 -186 79.5 -287t224.5 -101q160 0 259 117l58 -74q-106 -145 -322 -145zM486 998q-131 0 -201.5 -92.5t-77.5 -270.5h531v29q-8 334 -252 334z" />
<glyph unicode="f" horiz-adv-x="615" d="M221 0v982h-149v100h149v142q2 161 74.5 247t200.5 86q58 0 107 -17l-8 -102q-44 11 -90 11q-81 0 -126.5 -60.5t-45.5 -173.5v-133h212v-100h-212v-982h-112z" />
<glyph unicode="g" horiz-adv-x="996" d="M109 591q0 256 88 383.5t264 127.5q187 0 278 -171l6 151h103v-1113q-1 -196 -93.5 -298t-269.5 -102q-89 0 -179.5 43.5t-137.5 106.5l52 80q111 -127 257 -127q135 0 196.5 72t62.5 219v172q-91 -155 -276 -155q-169 0 -258.5 127t-92.5 367v117zM221 490 q0 -208 63 -306t198 -98q180 0 254 171v553q-75 185 -252 185q-136 0 -199 -97t-64 -300v-108z" />
<glyph unicode="h" horiz-adv-x="985" d="M259 912q48 87 121.5 138.5t168.5 51.5q283 0 290 -377v-725h-110v713q-1 145 -51 214t-157 69q-87 0 -156.5 -65.5t-105.5 -179.5v-751h-111v1536h111v-624z" />
<glyph unicode="i" horiz-adv-x="431" d="M272 0h-112v1082h112v-1082zM144 1394q0 34 19 58t54 24t54.5 -24t19.5 -58t-19.5 -57.5t-54.5 -23.5t-54 23.5t-19 57.5z" />
<glyph unicode="j" horiz-adv-x="436" d="M267 1082v-1202q0 -317 -239 -317q-47 0 -89 19l1 101q39 -13 74 -13q142 0 142 203v1209h111zM139 1394q0 34 18.5 58t53.5 24t54.5 -24t19.5 -58t-19.5 -57.5t-54.5 -23.5t-53.5 23.5t-18.5 57.5z" />
<glyph unicode="k" horiz-adv-x="888" d="M373 541l-113 -126v-415h-112v1536h112v-977l93 118l335 405h138l-380 -457l416 -625h-132z" />
<glyph unicode="l" horiz-adv-x="431" d="M272 0h-112v1536h112v-1536z" />
<glyph unicode="m" horiz-adv-x="1561" d="M250 1082l3 -162q101 182 290 182q209 0 270 -199q51 99 131.5 149t175.5 50q292 0 299 -376v-726h-111v719q-2 140 -52 208.5t-164 68.5q-103 -2 -174 -80t-81 -196v-720h-112v716q0 142 -52.5 211t-163.5 69q-91 0 -157.5 -63t-96.5 -180v-753h-111v1082h106z" />
<glyph unicode="n" horiz-adv-x="986" d="M254 1082l3 -172q48 88 122.5 140t169.5 52q283 0 290 -377v-725h-110v713q-1 145 -51 214t-157 69q-87 0 -156.5 -65.5t-105.5 -179.5v-751h-111v1082h106z" />
<glyph unicode="o" horiz-adv-x="1005" d="M106 596q0 234 106 370t289 136q184 0 289.5 -134t106.5 -369v-115q0 -238 -106.5 -371t-287.5 -133t-287 130t-110 358v128zM218 484q0 -187 75.5 -294t209.5 -107q137 0 209.5 103t73.5 295v115q0 187 -76 294.5t-209 107.5q-129 0 -205 -105t-78 -289v-120z" />
<glyph unicode="p" horiz-adv-x="996" d="M886 490q0 -250 -87 -380t-260 -130q-188 0 -281 150v-546h-110v1498h102l5 -148q96 168 281 168q175 0 262 -124t88 -379v-109zM775 591q0 208 -64.5 306t-201.5 98q-176 0 -251 -179v-570q75 -163 253 -163q134 0 198.5 98t65.5 302v108z" />
<glyph unicode="q" horiz-adv-x="1003" d="M108 591q0 257 89 384t266 127q181 0 274 -160l6 140h104v-1498h-112v542q-95 -146 -273 -146q-173 0 -262.5 127t-91.5 372v112zM221 490q0 -208 63.5 -307.5t199.5 -99.5q171 0 251 159v583q-81 173 -250 173q-136 0 -199.5 -98t-64.5 -302v-108z" />
<glyph unicode="r" horiz-adv-x="619" d="M572 978q-40 7 -70 7q-92 0 -154.5 -63t-88.5 -175v-747h-111v1082h109l2 -162q79 182 248 182q44 0 67 -13z" />
<glyph unicode="s" horiz-adv-x="914" d="M689 266q0 70 -58 122.5t-196.5 115t-193.5 104t-81 90.5t-26 116q0 125 90 206.5t233 81.5q154 0 246 -87t92 -230h-111q0 92 -63 152.5t-164 60.5q-98 0 -155.5 -50t-57.5 -130q0 -65 44 -106t190 -111q151 -66 208 -109t86 -95.5t29 -124.5q0 -134 -93 -213t-245 -79 q-161 0 -260.5 88t-99.5 227h112q5 -101 67.5 -156.5t180.5 -55.5q102 0 164 50t62 133z" />
<glyph unicode="t" horiz-adv-x="594" d="M315 1358v-276h185v-100h-185v-719q0 -89 26.5 -132.5t88.5 -43.5q27 0 80 10l3 -100q-38 -17 -109 -17q-195 0 -200 268v734h-167v100h167v276h111z" />
<glyph unicode="u" horiz-adv-x="986" d="M728 129q-92 -149 -285 -149q-147 0 -222 102t-76 300v700h110v-697q0 -147 52 -223t150 -76q210 0 269 204v792h112v-1082h-108z" />
<glyph unicode="v" horiz-adv-x="869" d="M435 174l266 908h114l-337 -1082h-88l-339 1082h114z" />
<glyph unicode="w" horiz-adv-x="1336" d="M376 246l9 -60l12 65l221 831h93l219 -824l16 -85l13 76l187 833h114l-265 -1082h-93l-235 860l-5 26l-4 -27l-231 -859h-94l-263 1082h113z" />
<glyph unicode="x" horiz-adv-x="880" d="M438 645l237 437h131l-307 -531l319 -551h-130l-249 455l-250 -455h-130l318 551l-306 531h130z" />
<glyph unicode="y" horiz-adv-x="857" d="M436 183l258 899h119l-381 -1255l-21 -60q-77 -204 -236 -204q-38 0 -80 14l-1 102q23 -7 51 -7q72 0 118 43t76 139l46 153l-340 1075h122z" />
<glyph unicode="z" horiz-adv-x="880" d="M225 103h584v-103h-716v90l547 887h-532v105h667v-91z" />
<glyph unicode="{" horiz-adv-x="610" d="M554 -402q-281 99 -287 446v237q0 262 -191 262v106q186 0 191 244v255q6 350 287 449l24 -81q-194 -74 -199 -370v-230q0 -247 -158 -320q158 -77 158 -321v-223q3 -294 201 -373z" />
<glyph unicode="|" horiz-adv-x="452" d="M279 -270h-101v1726h101v-1726z" />
<glyph unicode="}" horiz-adv-x="610" d="M29 -321q201 80 202 378v218q0 248 164 320q-164 72 -164 318v233q-5 295 -200 370l24 81q145 -51 216 -165.5t71 -299.5v-222q0 -261 191 -261v-106q-191 0 -191 -265v-223q-1 -184 -73 -295.5t-214 -161.5z" />
<glyph unicode="~" horiz-adv-x="1216" d="M1075 765q0 -148 -71.5 -245.5t-181.5 -97.5q-100 0 -190 83l-116 118q-59 56 -123 56q-73 0 -113.5 -59.5t-40.5 -170.5l-100 -1q0 148 70 244t184 96q61 0 117.5 -31t133.5 -113q58 -67 96.5 -90t81.5 -23q73 0 115.5 64.5t42.5 169.5h95z" />
<glyph unicode="&#xa1;" horiz-adv-x="427" d="M165 689h103l7 -1048h-116zM285 1021q0 -34 -19.5 -58t-54.5 -24t-54.5 24t-19.5 58t19.5 57.5t54.5 23.5t54.5 -23.5t19.5 -57.5z" />
<glyph unicode="&#xa2;" horiz-adv-x="977" d="M509 83q99 0 168.5 68.5t76.5 183.5h107q-6 -135 -90.5 -233.5t-211.5 -117.5v-229h-111v230q-156 25 -243 169.5t-87 371.5v36q0 223 88.5 367t241.5 168v221h111v-220q131 -18 213.5 -121t88.5 -260h-107q-6 125 -73.5 203t-172.5 78q-133 0 -206 -115.5t-73 -330.5 v-32q0 -205 73 -321t207 -116z" />
<glyph unicode="&#xa3;" horiz-adv-x="1026" d="M366 644l8 -275q2 -173 -56 -263h626v-106h-843v106h79q37 12 59.5 88.5t19.5 174.5l-8 275h-153v107h150l-7 288q0 200 94.5 318.5t252.5 118.5q151 0 242 -103.5t91 -284.5h-114q0 135 -62 208t-166 73q-103 0 -163 -89t-60 -241l7 -288h286v-107h-283z" />
<glyph unicode="&#xa4;" horiz-adv-x="1481" d="M1131 133q-78 -72 -178 -112.5t-213 -40.5q-226 0 -391 152l-155 -158l-85 88l158 160q-123 170 -123 386q0 228 132 396l-167 171l85 89l167 -170q165 140 379 140t379 -142l170 173l86 -90l-170 -174q129 -172 129 -393q0 -214 -121 -382l162 -164l-86 -89zM257 608 q0 -138 64 -256.5t177 -188.5t242 -70q128 0 240.5 69.5t176.5 189t64 256.5q0 136 -64.5 255.5t-176.5 188t-240 68.5q-129 0 -241.5 -69t-177 -187.5t-64.5 -255.5z" />
<glyph unicode="&#xa5;" horiz-adv-x="1070" d="M531 747l344 709h133l-377 -749h301v-91h-345v-202h345v-90h-345v-324h-115v324h-342v90h342v202h-342v91h302l-377 749h132z" />
<glyph unicode="&#xa6;" horiz-adv-x="444" d="M159 -270v772h120v-772h-120zM279 698h-120v758h120v-758z" />
<glyph unicode="&#xa7;" horiz-adv-x="1083" d="M964 431q0 -99 -51.5 -168.5t-142.5 -103.5q76 -47 116.5 -117.5t40.5 -179.5q0 -164 -106.5 -260.5t-290.5 -96.5q-199 0 -312.5 113t-113.5 318l111 2q0 -154 84.5 -241.5t230.5 -87.5q132 0 208.5 69.5t76.5 181.5q0 106 -65 166t-242 119q-157 48 -237.5 100.5 t-121 126.5t-40.5 179q0 100 49 170t137 104q-72 48 -110.5 117t-38.5 177q0 162 109.5 259.5t289.5 97.5q188 0 294 -112.5t106 -318.5h-111q0 149 -80.5 238t-208.5 89q-134 0 -210.5 -67.5t-76.5 -182.5q0 -111 59.5 -169.5t249.5 -123.5q165 -51 243.5 -101.5 t116 -121.5t37.5 -175zM522 727q-68 20 -121 43q-89 -15 -135 -72t-46 -145q0 -80 27 -127t92.5 -85t210.5 -88l106 -38q89 13 143 71t54 142q0 106 -68.5 169t-262.5 130z" />
<glyph unicode="&#xa8;" horiz-adv-x="881" d="M143 1395q0 35 21.5 58.5t60.5 23.5q38 0 60.5 -23.5t22.5 -58.5q0 -34 -22.5 -57t-60.5 -23q-39 0 -60.5 23t-21.5 57zM580 1394q0 35 22 58.5t60 23.5q39 0 61 -23.5t22 -58.5q0 -34 -22 -57t-61 -23q-38 0 -60 23t-22 57z" />
<glyph unicode="&#xa9;" horiz-adv-x="1637" d="M1121 606q0 -152 -82 -233t-232 -81t-241.5 106t-91.5 287v92q0 174 92 280.5t241 106.5t232 -80.5t83 -232.5h-99q0 221 -216 221q-108 0 -171 -81.5t-63 -216.5v-95q0 -132 62.5 -213t171.5 -81q105 0 160 52t55 169h99zM192 729q0 -177 82 -330.5t229 -243t314 -89.5 q163 0 308 86.5t230.5 240.5t85.5 336q0 178 -83 330t-228.5 240.5t-312.5 88.5q-171 0 -317 -90t-227 -241.5t-81 -327.5zM107 729q0 202 93.5 375t259 272.5t357.5 99.5t357 -99.5t258.5 -272.5t93.5 -375q0 -197 -90 -369t-255.5 -276.5t-363.5 -104.5 q-197 0 -362.5 103.5t-256.5 275.5t-91 371z" />
<glyph unicode="&#xaa;" horiz-adv-x="802" d="M560 705l-17 91q-27 -42 -73.5 -73.5t-110.5 -31.5q-101 0 -155 59.5t-54 158.5q0 110 70 170.5t208 60.5h112v61q0 177 -129 177q-72 0 -113.5 -35t-41.5 -107l-99 7q0 104 71.5 168.5t182.5 64.5q105 0 167 -71.5t62 -205.5v-315q0 -92 22 -179h-102zM379 788 q40 0 86.5 27t74.5 72v170h-105q-185 0 -185 -144q0 -125 129 -125z" />
<glyph unicode="&#xab;" horiz-adv-x="828" d="M232 537l229 -389h-93l-248 380v19l248 379h93zM495 537l229 -389h-93l-248 380v19l248 379h93z" />
<glyph unicode="&#xac;" horiz-adv-x="981" d="M810 385h-112v283h-574v109h686v-392z" />
<glyph unicode="&#xad;" horiz-adv-x="529" d="M463 590h-404v103h404v-103z" />
<glyph unicode="&#xae;" horiz-adv-x="1642" d="M102 729q0 202 93.5 375t259 272.5t357.5 99.5t357.5 -99.5t259 -272.5t93.5 -375q0 -199 -91 -371t-256.5 -275.5t-362.5 -103.5t-362.5 103.5t-256.5 275.5t-91 371zM812 66q167 0 312.5 88.5t228.5 242t83 332.5q0 176 -81 327.5t-226.5 241.5t-316.5 90 q-168 0 -312.5 -87.5t-228.5 -239.5t-84 -332t84 -333.5t229.5 -241.5t311.5 -88zM650 666v-345h-98v839h258q147 0 226 -61.5t79 -186.5q0 -132 -140 -197q127 -46 127 -206q0 -129 17 -172v-16h-102q-14 36 -14 182q0 89 -37.5 126t-127.5 37h-188zM650 758h181 q81 0 133.5 41.5t52.5 110.5q0 84 -43.5 120.5t-149.5 38.5h-174v-311z" />
<glyph unicode="&#xaf;" horiz-adv-x="784" d="M681 1357h-570v99h570v-99z" />
<glyph unicode="&#xb0;" horiz-adv-x="774" d="M143 1226q0 103 73 176.5t172 73.5t170.5 -73.5t71.5 -176.5t-70.5 -175t-171.5 -72t-173 72t-72 175zM233 1226q0 -65 44 -110t111 -45q68 0 110 45.5t42 109.5q0 68 -43 113t-109 45q-65 0 -110 -45t-45 -113z" />
<glyph unicode="&#xb1;" horiz-adv-x="953" d="M538 830h324v-104h-324v-437h-102v437h-344v104h344v437h102v-437zM830 0h-702v103h702v-103z" />
<glyph unicode="&#xb2;" horiz-adv-x="664" d="M583 665h-484v76l264 309q91 112 91 187q0 62 -33 100t-96 38q-70 0 -108 -43.5t-38 -116.5h-97q0 109 67.5 179.5t173.5 70.5t167 -61.5t61 -165.5q0 -56 -28.5 -115t-104.5 -147l-197 -222h362v-89z" />
<glyph unicode="&#xb3;" horiz-adv-x="664" d="M244 1107h69q68 1 107 38t39 96q0 63 -36 98.5t-99 35.5q-61 0 -99.5 -36t-38.5 -94h-97q0 94 65.5 157t168.5 63q110 0 171.5 -60.5t61.5 -161.5q0 -57 -31.5 -104t-90.5 -71q135 -42 135 -188q0 -103 -67.5 -164.5t-177.5 -61.5q-109 0 -177.5 63.5t-68.5 166.5h98 q0 -62 42 -102t109 -40q70 0 108 38t38 104q0 141 -165 141h-64v82z" />
<glyph unicode="&#xb4;" horiz-adv-x="576" d="M315 1525h145l-231 -280h-105z" />
<glyph unicode="&#xb5;" horiz-adv-x="1001" d="M265 1082v-655q3 -168 53.5 -256t160.5 -88q102 0 165.5 52t90.5 164v783h112v-1082h-101l-7 145q-80 -165 -253 -165q-149 0 -221 121v-517h-110v1498h110z" />
<glyph unicode="&#xb6;" horiz-adv-x="862" d="M586 0v520h-92q-125 1 -217 59t-141 164t-49 245q0 209 108.5 337t296.5 131h206v-1456h-112z" />
<glyph unicode="&#xb7;" horiz-adv-x="467" d="M154 717q0 36 20 60.5t56 24.5t56.5 -24.5t20.5 -60.5q0 -35 -20.5 -58.5t-56.5 -23.5t-56 23.5t-20 58.5z" />
<glyph unicode="&#xb8;" horiz-adv-x="460" d="M233 0l-10 -64q136 -22 136 -171q0 -91 -66 -145.5t-182 -54.5l-6 79q71 0 117.5 31t46.5 88q0 51 -29.5 75.5t-116.5 33.5l25 128h85z" />
<glyph unicode="&#xb9;" horiz-adv-x="664" d="M415 669h-98v660l-192 -69v92l277 107h13v-790z" />
<glyph unicode="&#xba;" horiz-adv-x="816" d="M131 1132q0 154 76 249t199 95q125 0 200 -95.5t75 -252.5v-95q0 -154 -75.5 -248.5t-198.5 -94.5t-199.5 93.5t-76.5 254.5v94zM231 1033q0 -115 46.5 -180.5t129.5 -65.5q79 0 126 64t48 179v102q0 112 -47 179t-128 67t-128 -67t-47 -184v-94z" />
<glyph unicode="&#xbb;" horiz-adv-x="824" d="M209 944l248 -384v-19l-248 -380h-95l229 389l-229 394h95zM482 944l248 -384v-19l-248 -380h-95l229 389l-229 394h95z" />
<glyph unicode="&#xbc;" horiz-adv-x="1289" d="M402 664h-98v660l-192 -69v92l277 107h13v-790zM372 128l-66 49l597 1138l67 -49zM1096 276h104v-90h-104v-186h-96v186h-332l-3 68l330 535h101v-513zM767 276h233v376l-24 -45z" />
<glyph unicode="&#xbd;" horiz-adv-x="1347" d="M335 128l-66 49l597 1138l67 -49zM391 664h-98v660l-192 -69v92l277 107h13v-790zM1233 0h-484v76l264 309q91 112 91 187q0 62 -33 100t-96 38q-70 0 -108 -43.5t-38 -116.5h-97q0 109 67.5 179.5t173.5 70.5t167 -61.5t61 -165.5q0 -56 -28.5 -115t-104.5 -147 l-197 -222h362v-89z" />
<glyph unicode="&#xbe;" horiz-adv-x="1376" d="M490 128l-66 49l597 1138l67 -49zM1188 276h104v-90h-104v-186h-96v186h-332l-3 68l330 535h101v-513zM859 276h233v376l-24 -45zM284 1107h69q68 1 107 38t39 96q0 63 -36 98.5t-99 35.5q-61 0 -99.5 -36t-38.5 -94h-97q0 94 65.5 157t168.5 63q110 0 171.5 -60.5 t61.5 -161.5q0 -57 -31.5 -104t-90.5 -71q135 -42 135 -188q0 -103 -67.5 -164.5t-177.5 -61.5q-109 0 -177.5 63.5t-68.5 166.5h98q0 -62 42 -102t109 -40q70 0 108 38t38 104q0 141 -165 141h-64v82z" />
<glyph unicode="&#xbf;" horiz-adv-x="834" d="M489 687q-2 -126 -25.5 -186t-100 -150.5t-105 -139t-43 -101t-14.5 -118.5q0 -128 55 -197t159 -69q96 0 155.5 70t59.5 184h111q-2 -169 -91.5 -266t-234.5 -97q-152 0 -238 100t-86 273q0 111 45.5 213.5t162.5 233.5q43 45 60.5 96.5t17.5 153.5h112zM501 1021 q0 -35 -19 -58.5t-54 -23.5t-54.5 23.5t-19.5 58.5q0 34 19.5 57t54.5 23t54 -23t19 -57z" />
<glyph unicode="&#xc0;" d="M834 407h-546l-124 -407h-119l464 1456h106l464 -1456h-119zM321 514h480l-240 781zM638 1560h-109l-226 280h144z" />
<glyph unicode="&#xc1;" d="M834 407h-546l-124 -407h-119l464 1456h106l464 -1456h-119zM321 514h480l-240 781zM684 1840h145l-231 -280h-105z" />
<glyph unicode="&#xc2;" d="M834 407h-546l-124 -407h-119l464 1456h106l464 -1456h-119zM321 514h480l-240 781zM802 1583v-10h-100l-138 182l-138 -182h-98v12l201 256h69z" />
<glyph unicode="&#xc3;" d="M834 407h-546l-124 -407h-119l464 1456h106l464 -1456h-119zM321 514h480l-240 781zM852 1810q0 -95 -48 -155t-118 -60q-44 0 -72.5 17t-52 38t-48 38t-60.5 17q-38 0 -64 -31.5t-26 -86.5l-81 3q0 95 47.5 154.5t118.5 59.5q31 0 55 -10.5t69.5 -46.5t65 -44t43.5 -8 q38 0 64.5 33t26.5 88z" />
<glyph unicode="&#xc4;" d="M834 407h-546l-124 -407h-119l464 1456h106l464 -1456h-119zM321 514h480l-240 781zM271 1710q0 35 21.5 58.5t60.5 23.5q38 0 60.5 -23.5t22.5 -58.5q0 -34 -22.5 -57t-60.5 -23q-39 0 -60.5 23t-21.5 57zM708 1709q0 35 22 58.5t60 23.5q39 0 61 -23.5t22 -58.5 q0 -34 -22 -57t-61 -23q-38 0 -60 23t-22 57z" />
<glyph unicode="&#xc5;" d="M834 407h-546l-124 -407h-119l464 1456h106l464 -1456h-119zM321 514h480l-240 781zM372 1716q0 80 56 136t137 56t137 -56t56 -136q0 -79 -55 -133t-138 -54t-138 54t-55 133zM449 1716q0 -49 33 -82t83 -33q48 0 82.5 32.5t34.5 82.5q0 53 -34 86t-83 33 q-51 0 -83.5 -34t-32.5 -85z" />
<glyph unicode="&#xc6;" horiz-adv-x="1614" d="M1560 0h-697l-14 388h-493l-191 -388h-136l740 1456h740v-104h-583l19 -542h495v-104h-491l21 -603h590v-103zM412 503h433l-29 821z" />
<glyph unicode="&#xc7;" horiz-adv-x="1158" d="M1045 454q-16 -245 -132 -359.5t-321 -114.5q-211 0 -333 159.5t-123 433.5v316q0 275 124.5 431t340.5 156q204 0 316 -117t128 -359h-116q-16 198 -93.5 283t-234.5 85q-165 0 -257 -123t-92 -357v-312q0 -232 89 -361t251 -129q170 0 246 85t91 283h116zM636 -9 l-10 -64q136 -22 136 -171q0 -91 -66 -145.5t-182 -54.5l-6 79q71 0 117.5 31t46.5 88q0 51 -29.5 75.5t-116.5 33.5l25 128h85z" />
<glyph unicode="&#xc8;" horiz-adv-x="1018" d="M851 697h-565v-591h650v-106h-764v1456h759v-108h-645v-545h565v-106zM614 1566h-109l-226 280h144z" />
<glyph unicode="&#xc9;" horiz-adv-x="1018" d="M851 697h-565v-591h650v-106h-764v1456h759v-108h-645v-545h565v-106zM660 1846h145l-231 -280h-105z" />
<glyph unicode="&#xca;" horiz-adv-x="1018" d="M851 697h-565v-591h650v-106h-764v1456h759v-108h-645v-545h565v-106zM778 1589v-10h-100l-138 182l-138 -182h-98v12l201 256h69z" />
<glyph unicode="&#xcb;" horiz-adv-x="1018" d="M851 697h-565v-591h650v-106h-764v1456h759v-108h-645v-545h565v-106zM247 1716q0 35 21.5 58.5t60.5 23.5q38 0 60.5 -23.5t22.5 -58.5q0 -34 -22.5 -57t-60.5 -23q-39 0 -60.5 23t-21.5 57zM684 1715q0 35 22 58.5t60 23.5q39 0 61 -23.5t22 -58.5q0 -34 -22 -57 t-61 -23q-38 0 -60 23t-22 57z" />
<glyph unicode="&#xcc;" horiz-adv-x="500" d="M307 0h-114v1456h114v-1456zM325 1566h-109l-226 280h144z" />
<glyph unicode="&#xcd;" horiz-adv-x="500" d="M307 0h-114v1456h114v-1456zM370 1846h145l-231 -280h-105z" />
<glyph unicode="&#xce;" horiz-adv-x="500" d="M307 0h-114v1456h114v-1456zM489 1589v-10h-100l-138 182l-138 -182h-98v12l201 256h69z" />
<glyph unicode="&#xcf;" horiz-adv-x="500" d="M307 0h-114v1456h114v-1456zM-42 1716q0 35 21.5 58.5t60.5 23.5q38 0 60.5 -23.5t22.5 -58.5q0 -34 -22.5 -57t-60.5 -23q-39 0 -60.5 23t-21.5 57zM395 1715q0 35 22 58.5t60 23.5q39 0 61 -23.5t22 -58.5q0 -34 -22 -57t-61 -23q-38 0 -60 23t-22 57z" />
<glyph unicode="&#xd0;" horiz-adv-x="1197" d="M202 0v689h-158v104h158v663h343q237 0 375 -151.5t142 -417.5v-305q0 -274 -139.5 -428t-391.5 -154h-329zM562 689h-246v-583h219q197 0 304 120.5t110 344.5v305q0 224 -104.5 348t-302.5 124h-226v-555h246v-104z" />
<glyph unicode="&#xd1;" horiz-adv-x="1262" d="M1088 0h-114l-687 1240v-1240h-115v1456h115l688 -1242v1242h113v-1456zM918 1810q0 -95 -48 -155t-118 -60q-44 0 -72.5 17t-52 38t-48 38t-60.5 17q-38 0 -64 -31.5t-26 -86.5l-81 3q0 95 47.5 154.5t118.5 59.5q31 0 55 -10.5t69.5 -46.5t65 -44t43.5 -8q38 0 64.5 33 t26.5 88z" />
<glyph unicode="&#xd2;" horiz-adv-x="1208" d="M1075 570q0 -282 -123.5 -436t-346.5 -154q-221 0 -346.5 154t-126.5 433v317q0 281 125 436.5t346 155.5q224 0 348 -156t124 -439v-311zM960 886q0 239 -92 359t-265 120q-167 0 -261 -117.5t-96 -351.5v-326q0 -240 95 -360.5t264 -120.5q174 0 264.5 120t90.5 361 v316zM677 1571h-109l-226 280h144z" />
<glyph unicode="&#xd3;" horiz-adv-x="1208" d="M1075 570q0 -282 -123.5 -436t-346.5 -154q-221 0 -346.5 154t-126.5 433v317q0 281 125 436.5t346 155.5q224 0 348 -156t124 -439v-311zM960 886q0 239 -92 359t-265 120q-167 0 -261 -117.5t-96 -351.5v-326q0 -240 95 -360.5t264 -120.5q174 0 264.5 120t90.5 361 v316zM723 1851h145l-231 -280h-105z" />
<glyph unicode="&#xd4;" horiz-adv-x="1208" d="M1075 570q0 -282 -123.5 -436t-346.5 -154q-221 0 -346.5 154t-126.5 433v317q0 281 125 436.5t346 155.5q224 0 348 -156t124 -439v-311zM960 886q0 239 -92 359t-265 120q-167 0 -261 -117.5t-96 -351.5v-326q0 -240 95 -360.5t264 -120.5q174 0 264.5 120t90.5 361 v316zM841 1594v-10h-100l-138 182l-138 -182h-98v12l201 256h69z" />
<glyph unicode="&#xd5;" horiz-adv-x="1208" d="M1075 570q0 -282 -123.5 -436t-346.5 -154q-221 0 -346.5 154t-126.5 433v317q0 281 125 436.5t346 155.5q224 0 348 -156t124 -439v-311zM960 886q0 239 -92 359t-265 120q-167 0 -261 -117.5t-96 -351.5v-326q0 -240 95 -360.5t264 -120.5q174 0 264.5 120t90.5 361 v316zM891 1821q0 -95 -48 -155t-118 -60q-44 0 -72.5 17t-52 38t-48 38t-60.5 17q-38 0 -64 -31.5t-26 -86.5l-81 3q0 95 47.5 154.5t118.5 59.5q31 0 55 -10.5t69.5 -46.5t65 -44t43.5 -8q38 0 64.5 33t26.5 88z" />
<glyph unicode="&#xd6;" horiz-adv-x="1208" d="M1075 570q0 -282 -123.5 -436t-346.5 -154q-221 0 -346.5 154t-126.5 433v317q0 281 125 436.5t346 155.5q224 0 348 -156t124 -439v-311zM960 886q0 239 -92 359t-265 120q-167 0 -261 -117.5t-96 -351.5v-326q0 -240 95 -360.5t264 -120.5q174 0 264.5 120t90.5 361 v316zM310 1721q0 35 21.5 58.5t60.5 23.5q38 0 60.5 -23.5t22.5 -58.5q0 -34 -22.5 -57t-60.5 -23q-39 0 -60.5 23t-21.5 57zM747 1720q0 35 22 58.5t60 23.5q39 0 61 -23.5t22 -58.5q0 -34 -22 -57t-61 -23q-38 0 -60 23t-22 57z" />
<glyph unicode="&#xd7;" horiz-adv-x="944" d="M97 185l299 363l-288 350l73 82l285 -347l286 347l72 -82l-288 -350l299 -363l-73 -81l-296 359l-296 -359z" />
<glyph unicode="&#xd8;" horiz-adv-x="1208" d="M1083 650q0 -200 -58.5 -352.5t-167.5 -235t-252 -82.5q-153 0 -267 94l-83 -158h-93l116 219q-154 186 -154 522v147q0 199 59 352t168.5 236.5t251.5 83.5q185 0 312 -137l88 166h93l-126 -238q110 -178 113 -450v-167zM238 650q0 -259 97 -407l524 990 q-97 132 -256 132q-169 0 -267 -151t-98 -414v-150zM969 806q0 200 -62 343l-516 -975q89 -85 214 -85q171 0 267.5 150t96.5 416v151z" />
<glyph unicode="&#xd9;" horiz-adv-x="1168" d="M1018 1456v-1033q-1 -211 -113.5 -327t-319.5 -116q-210 0 -321.5 114.5t-111.5 332.5v1029h114v-1025q0 -345 319 -345q314 0 318 335v1035h115zM664 1560h-109l-226 280h144z" />
<glyph unicode="&#xda;" horiz-adv-x="1168" d="M1018 1456v-1033q-1 -211 -113.5 -327t-319.5 -116q-210 0 -321.5 114.5t-111.5 332.5v1029h114v-1025q0 -345 319 -345q314 0 318 335v1035h115zM710 1840h145l-231 -280h-105z" />
<glyph unicode="&#xdb;" horiz-adv-x="1168" d="M1018 1456v-1033q-1 -211 -113.5 -327t-319.5 -116q-210 0 -321.5 114.5t-111.5 332.5v1029h114v-1025q0 -345 319 -345q314 0 318 335v1035h115zM828 1583v-10h-100l-138 182l-138 -182h-98v12l201 256h69z" />
<glyph unicode="&#xdc;" horiz-adv-x="1168" d="M1018 1456v-1033q-1 -211 -113.5 -327t-319.5 -116q-210 0 -321.5 114.5t-111.5 332.5v1029h114v-1025q0 -345 319 -345q314 0 318 335v1035h115zM297 1710q0 35 21.5 58.5t60.5 23.5q38 0 60.5 -23.5t22.5 -58.5q0 -34 -22.5 -57t-60.5 -23q-39 0 -60.5 23t-21.5 57z M734 1709q0 35 22 58.5t60 23.5q39 0 61 -23.5t22 -58.5q0 -34 -22 -57t-61 -23q-38 0 -60 23t-22 57z" />
<glyph unicode="&#xdd;" horiz-adv-x="1070" d="M534 664l363 792h131l-438 -908v-548h-114v548l-437 908h134zM655 1834h145l-231 -280h-105z" />
<glyph unicode="&#xde;" horiz-adv-x="1059" d="M282 1456v-303h267q181 -1 288 -113.5t107 -301.5q0 -188 -106.5 -301.5t-293.5 -113.5h-262v-323h-111v1456h111zM282 1049v-622h265q132 0 209 86t77 223q0 140 -76 226t-207 87h-268z" />
<glyph unicode="&#xdf;" horiz-adv-x="1051" d="M256 0h-111v1127q0 199 81.5 308t226.5 109q131 0 212.5 -83.5t81.5 -224.5q0 -60 -11.5 -108t-42 -113t-40.5 -104t-10 -87q0 -56 35 -108.5t114.5 -123t116.5 -139t37 -146.5q0 -147 -88.5 -237t-228.5 -90q-71 0 -148 24.5t-108 55.5l30 103q32 -30 94.5 -55.5 t118.5 -25.5q99 0 159 63t60 161q0 60 -35 114.5t-113.5 124t-116.5 136.5t-38 145q0 67 17 116t37 91.5t37 88t17 107.5q0 91 -50.5 151.5t-127.5 60.5q-203 0 -206 -306v-1135z" />
<glyph unicode="&#xe0;" horiz-adv-x="964" d="M720 0q-15 52 -20 150q-50 -81 -128.5 -125.5t-170.5 -44.5q-140 0 -218 79t-78 225q0 159 108.5 252t299.5 94h186v151q0 116 -57.5 166.5t-168.5 50.5q-103 0 -169 -60t-66 -155l-111 1q0 133 100 225.5t251 92.5q163 0 247 -82t84 -239v-531q0 -159 29 -238v-12h-118z M415 87q98 0 173.5 51t110.5 136v263h-176q-152 -2 -229 -67.5t-77 -176.5q0 -206 198 -206zM581 1245h-109l-226 280h144z" />
<glyph unicode="&#xe1;" horiz-adv-x="964" d="M720 0q-15 52 -20 150q-50 -81 -128.5 -125.5t-170.5 -44.5q-140 0 -218 79t-78 225q0 159 108.5 252t299.5 94h186v151q0 116 -57.5 166.5t-168.5 50.5q-103 0 -169 -60t-66 -155l-111 1q0 133 100 225.5t251 92.5q163 0 247 -82t84 -239v-531q0 -159 29 -238v-12h-118z M415 87q98 0 173.5 51t110.5 136v263h-176q-152 -2 -229 -67.5t-77 -176.5q0 -206 198 -206zM627 1525h145l-231 -280h-105z" />
<glyph unicode="&#xe2;" horiz-adv-x="964" d="M720 0q-15 52 -20 150q-50 -81 -128.5 -125.5t-170.5 -44.5q-140 0 -218 79t-78 225q0 159 108.5 252t299.5 94h186v151q0 116 -57.5 166.5t-168.5 50.5q-103 0 -169 -60t-66 -155l-111 1q0 133 100 225.5t251 92.5q163 0 247 -82t84 -239v-531q0 -159 29 -238v-12h-118z M415 87q98 0 173.5 51t110.5 136v263h-176q-152 -2 -229 -67.5t-77 -176.5q0 -206 198 -206zM745 1268v-10h-100l-138 182l-138 -182h-98v12l201 256h69z" />
<glyph unicode="&#xe3;" horiz-adv-x="964" d="M720 0q-15 52 -20 150q-50 -81 -128.5 -125.5t-170.5 -44.5q-140 0 -218 79t-78 225q0 159 108.5 252t299.5 94h186v151q0 116 -57.5 166.5t-168.5 50.5q-103 0 -169 -60t-66 -155l-111 1q0 133 100 225.5t251 92.5q163 0 247 -82t84 -239v-531q0 -159 29 -238v-12h-118z M415 87q98 0 173.5 51t110.5 136v263h-176q-152 -2 -229 -67.5t-77 -176.5q0 -206 198 -206zM795 1495q0 -95 -48 -155t-118 -60q-44 0 -72.5 17t-52 38t-48 38t-60.5 17q-38 0 -64 -31.5t-26 -86.5l-81 3q0 95 47.5 154.5t118.5 59.5q31 0 55 -10.5t69.5 -46.5t65 -44 t43.5 -8q38 0 64.5 33t26.5 88z" />
<glyph unicode="&#xe4;" horiz-adv-x="964" d="M720 0q-15 52 -20 150q-50 -81 -128.5 -125.5t-170.5 -44.5q-140 0 -218 79t-78 225q0 159 108.5 252t299.5 94h186v151q0 116 -57.5 166.5t-168.5 50.5q-103 0 -169 -60t-66 -155l-111 1q0 133 100 225.5t251 92.5q163 0 247 -82t84 -239v-531q0 -159 29 -238v-12h-118z M415 87q98 0 173.5 51t110.5 136v263h-176q-152 -2 -229 -67.5t-77 -176.5q0 -206 198 -206zM214 1395q0 35 21.5 58.5t60.5 23.5q38 0 60.5 -23.5t22.5 -58.5q0 -34 -22.5 -57t-60.5 -23q-39 0 -60.5 23t-21.5 57zM651 1394q0 35 22 58.5t60 23.5q39 0 61 -23.5t22 -58.5 q0 -34 -22 -57t-61 -23q-38 0 -60 23t-22 57z" />
<glyph unicode="&#xe5;" horiz-adv-x="964" d="M720 0q-15 52 -20 150q-50 -81 -128.5 -125.5t-170.5 -44.5q-140 0 -218 79t-78 225q0 159 108.5 252t299.5 94h186v151q0 116 -57.5 166.5t-168.5 50.5q-103 0 -169 -60t-66 -155l-111 1q0 133 100 225.5t251 92.5q163 0 247 -82t84 -239v-531q0 -159 29 -238v-12h-118z M415 87q98 0 173.5 51t110.5 136v263h-176q-152 -2 -229 -67.5t-77 -176.5q0 -206 198 -206zM315 1401q0 80 56 136t137 56t137 -56t56 -136q0 -79 -55 -133t-138 -54t-138 54t-55 133zM392 1401q0 -49 33 -82t83 -33q48 0 82.5 32.5t34.5 82.5q0 53 -34 86t-83 33 q-51 0 -83.5 -34t-32.5 -85z" />
<glyph unicode="&#xe6;" horiz-adv-x="1494" d="M1082 -20q-116 0 -200 53.5t-135 148.5q-51 -96 -146.5 -149t-212.5 -53q-140 0 -219 83t-79 231q0 160 96 249t276 89h209v88q0 131 -51.5 204.5t-154.5 73.5q-109 0 -175 -65.5t-66 -167.5l-110 13q0 143 98 233.5t253 90.5q103 0 177.5 -51t109.5 -153q51 96 129 150 t174 54q166 0 262 -121.5t96 -346.5v-98h-631v-26q0 -200 79 -313.5t221 -113.5q153 0 271 118l42 -90q-54 -64 -136 -97.5t-177 -33.5zM406 82q74 0 150.5 44.5t114.5 105.5v302h-213q-116 -1 -186 -68.5t-70 -175.5q0 -93 51 -150.5t153 -57.5zM1055 998 q-110 0 -182.5 -98.5t-87.5 -263.5h518v31q0 155 -66 243t-182 88z" />
<glyph unicode="&#xe7;" horiz-adv-x="929" d="M490 83q116 0 178 65t67 187h107q-8 -166 -106 -260.5t-246 -94.5q-193 0 -291.5 123.5t-100.5 366.5v132q0 248 98.5 374t292.5 126q161 0 254 -101.5t99 -283.5h-107q-5 134 -68 207.5t-178 73.5q-144 0 -211.5 -97t-67.5 -298v-123q0 -208 68 -302.5t212 -94.5z M517 -9l-10 -64q136 -22 136 -171q0 -91 -66 -145.5t-182 -54.5l-6 79q71 0 117.5 31t46.5 88q0 51 -29.5 75.5t-116.5 33.5l25 128h85z" />
<glyph unicode="&#xe8;" horiz-adv-x="937" d="M505 -20q-191 0 -299 125t-110 356v132q0 238 104 373.5t286 135.5q176 0 268.5 -115t94.5 -352v-104h-643v-61q0 -186 79.5 -287t224.5 -101q160 0 259 117l58 -74q-106 -145 -322 -145zM486 998q-131 0 -201.5 -92.5t-77.5 -270.5h531v29q-8 334 -252 334zM569 1245 h-109l-226 280h144z" />
<glyph unicode="&#xe9;" horiz-adv-x="937" d="M505 -20q-191 0 -299 125t-110 356v132q0 238 104 373.5t286 135.5q176 0 268.5 -115t94.5 -352v-104h-643v-61q0 -186 79.5 -287t224.5 -101q160 0 259 117l58 -74q-106 -145 -322 -145zM486 998q-131 0 -201.5 -92.5t-77.5 -270.5h531v29q-8 334 -252 334zM615 1525 h145l-231 -280h-105z" />
<glyph unicode="&#xea;" horiz-adv-x="937" d="M505 -20q-191 0 -299 125t-110 356v132q0 238 104 373.5t286 135.5q176 0 268.5 -115t94.5 -352v-104h-643v-61q0 -186 79.5 -287t224.5 -101q160 0 259 117l58 -74q-106 -145 -322 -145zM486 998q-131 0 -201.5 -92.5t-77.5 -270.5h531v29q-8 334 -252 334zM733 1268 v-10h-100l-138 182l-138 -182h-98v12l201 256h69z" />
<glyph unicode="&#xeb;" horiz-adv-x="937" d="M505 -20q-191 0 -299 125t-110 356v132q0 238 104 373.5t286 135.5q176 0 268.5 -115t94.5 -352v-104h-643v-61q0 -186 79.5 -287t224.5 -101q160 0 259 117l58 -74q-106 -145 -322 -145zM486 998q-131 0 -201.5 -92.5t-77.5 -270.5h531v29q-8 334 -252 334zM202 1395 q0 35 21.5 58.5t60.5 23.5q38 0 60.5 -23.5t22.5 -58.5q0 -34 -22.5 -57t-60.5 -23q-39 0 -60.5 23t-21.5 57zM639 1394q0 35 22 58.5t60 23.5q39 0 61 -23.5t22 -58.5q0 -34 -22 -57t-61 -23q-38 0 -60 23t-22 57z" />
<glyph unicode="&#xec;" horiz-adv-x="431" d="M270 0h-111v1082h111v-1082zM292 1233h-109l-226 280h144z" />
<glyph unicode="&#xed;" horiz-adv-x="431" d="M270 0h-111v1082h111v-1082zM337 1513h145l-231 -280h-105z" />
<glyph unicode="&#xee;" horiz-adv-x="431" d="M270 0h-111v1082h111v-1082zM456 1256v-10h-100l-138 182l-138 -182h-98v12l201 256h69z" />
<glyph unicode="&#xef;" horiz-adv-x="431" d="M270 0h-111v1082h111v-1082zM-75 1383q0 35 21.5 58.5t60.5 23.5q38 0 60.5 -23.5t22.5 -58.5q0 -34 -22.5 -57t-60.5 -23q-39 0 -60.5 23t-21.5 57zM362 1382q0 35 22 58.5t60 23.5q39 0 61 -23.5t22 -58.5q0 -34 -22 -57t-61 -23q-38 0 -60 23t-22 57z" />
<glyph unicode="&#xf0;" horiz-adv-x="1042" d="M699 1303q202 -251 209 -651v-117q0 -159 -47.5 -286.5t-133.5 -198t-193 -70.5q-111 0 -200.5 62.5t-141 175.5t-51.5 248q0 227 101 363t269 136q81 0 151.5 -37t119.5 -100q-38 248 -173 409l-188 -138l-46 74l173 128q-119 108 -286 171l36 106q202 -71 343 -209 l163 120l46 -75zM797 626l-2 60q-36 84 -106 128.5t-156 44.5q-132 0 -206 -104.5t-74 -288.5q0 -163 81 -272t204 -109q116 0 187.5 125t71.5 331v85z" />
<glyph unicode="&#xf1;" horiz-adv-x="986" d="M254 1082l3 -172q48 88 122.5 140t169.5 52q283 0 290 -377v-725h-110v713q-1 145 -51 214t-157 69q-87 0 -156.5 -65.5t-105.5 -179.5v-751h-111v1082h106zM791 1494q0 -95 -48 -155t-118 -60q-44 0 -72.5 17t-52 38t-48 38t-60.5 17q-38 0 -64 -31.5t-26 -86.5l-81 3 q0 95 47.5 154.5t118.5 59.5q31 0 55 -10.5t69.5 -46.5t65 -44t43.5 -8q38 0 64.5 33t26.5 88z" />
<glyph unicode="&#xf2;" horiz-adv-x="1005" d="M106 596q0 234 106 370t289 136q184 0 289.5 -134t106.5 -369v-115q0 -238 -106.5 -371t-287.5 -133t-287 130t-110 358v128zM218 484q0 -187 75.5 -294t209.5 -107q137 0 209.5 103t73.5 295v115q0 187 -76 294.5t-209 107.5q-129 0 -205 -105t-78 -289v-120zM574 1245 h-109l-226 280h144z" />
<glyph unicode="&#xf3;" horiz-adv-x="1005" d="M106 596q0 234 106 370t289 136q184 0 289.5 -134t106.5 -369v-115q0 -238 -106.5 -371t-287.5 -133t-287 130t-110 358v128zM218 484q0 -187 75.5 -294t209.5 -107q137 0 209.5 103t73.5 295v115q0 187 -76 294.5t-209 107.5q-129 0 -205 -105t-78 -289v-120zM620 1525 h145l-231 -280h-105z" />
<glyph unicode="&#xf4;" horiz-adv-x="1005" d="M106 596q0 234 106 370t289 136q184 0 289.5 -134t106.5 -369v-115q0 -238 -106.5 -371t-287.5 -133t-287 130t-110 358v128zM218 484q0 -187 75.5 -294t209.5 -107q137 0 209.5 103t73.5 295v115q0 187 -76 294.5t-209 107.5q-129 0 -205 -105t-78 -289v-120zM738 1268 v-10h-100l-138 182l-138 -182h-98v12l201 256h69z" />
<glyph unicode="&#xf5;" horiz-adv-x="1005" d="M106 596q0 234 106 370t289 136q184 0 289.5 -134t106.5 -369v-115q0 -238 -106.5 -371t-287.5 -133t-287 130t-110 358v128zM218 484q0 -187 75.5 -294t209.5 -107q137 0 209.5 103t73.5 295v115q0 187 -76 294.5t-209 107.5q-129 0 -205 -105t-78 -289v-120zM788 1494 q0 -95 -48 -155t-118 -60q-44 0 -72.5 17t-52 38t-48 38t-60.5 17q-38 0 -64 -31.5t-26 -86.5l-81 3q0 95 47.5 154.5t118.5 59.5q31 0 55 -10.5t69.5 -46.5t65 -44t43.5 -8q38 0 64.5 33t26.5 88z" />
<glyph unicode="&#xf6;" horiz-adv-x="1005" d="M106 596q0 234 106 370t289 136q184 0 289.5 -134t106.5 -369v-115q0 -238 -106.5 -371t-287.5 -133t-287 130t-110 358v128zM218 484q0 -187 75.5 -294t209.5 -107q137 0 209.5 103t73.5 295v115q0 187 -76 294.5t-209 107.5q-129 0 -205 -105t-78 -289v-120zM207 1395 q0 35 21.5 58.5t60.5 23.5q38 0 60.5 -23.5t22.5 -58.5q0 -34 -22.5 -57t-60.5 -23q-39 0 -60.5 23t-21.5 57zM644 1394q0 35 22 58.5t60 23.5q39 0 61 -23.5t22 -58.5q0 -34 -22 -57t-61 -23q-38 0 -60 23t-22 57z" />
<glyph unicode="&#xf7;" horiz-adv-x="1019" d="M919 642h-839v119h839v-119zM430 1088q0 36 20 60.5t56 24.5t56.5 -24.5t20.5 -60.5q0 -35 -20.5 -58.5t-56.5 -23.5t-56 23.5t-20 58.5zM430 291q0 35 20 59.5t56 24.5t56.5 -24.5t20.5 -59.5t-20.5 -59t-56.5 -24t-56 24t-20 59z" />
<glyph unicode="&#xf8;" horiz-adv-x="1001" d="M95 556q0 239 112.5 392.5t293.5 153.5q98 0 178 -47l65 158h84l-84 -205q79 -72 122.5 -189t43.5 -263v-32q0 -239 -112 -391.5t-295 -152.5q-89 0 -167 39l-65 -158h-84l83 203q-175 148 -175 475v17zM205 524q0 -107 27.5 -199.5t81.5 -154.5l324 785q-62 43 -137 43 q-132 0 -214 -125.5t-82 -326.5v-22zM798 556q0 216 -100 342l-321 -781q56 -34 126 -34q133 0 214 123.5t81 325.5v24z" />
<glyph unicode="&#xf9;" horiz-adv-x="986" d="M728 129q-92 -149 -285 -149q-147 0 -222 102t-76 300v700h110v-697q0 -147 52 -223t150 -76q210 0 269 204v792h112v-1082h-108zM574 1245h-109l-226 280h144z" />
<glyph unicode="&#xfa;" horiz-adv-x="986" d="M728 129q-92 -149 -285 -149q-147 0 -222 102t-76 300v700h110v-697q0 -147 52 -223t150 -76q210 0 269 204v792h112v-1082h-108zM620 1525h145l-231 -280h-105z" />
<glyph unicode="&#xfb;" horiz-adv-x="986" d="M728 129q-92 -149 -285 -149q-147 0 -222 102t-76 300v700h110v-697q0 -147 52 -223t150 -76q210 0 269 204v792h112v-1082h-108zM738 1268v-10h-100l-138 182l-138 -182h-98v12l201 256h69z" />
<glyph unicode="&#xfc;" horiz-adv-x="986" d="M728 129q-92 -149 -285 -149q-147 0 -222 102t-76 300v700h110v-697q0 -147 52 -223t150 -76q210 0 269 204v792h112v-1082h-108zM207 1395q0 35 21.5 58.5t60.5 23.5q38 0 60.5 -23.5t22.5 -58.5q0 -34 -22.5 -57t-60.5 -23q-39 0 -60.5 23t-21.5 57zM644 1394 q0 35 22 58.5t60 23.5q39 0 61 -23.5t22 -58.5q0 -34 -22 -57t-61 -23q-38 0 -60 23t-22 57z" />
<glyph unicode="&#xfd;" horiz-adv-x="857" d="M436 183l258 899h119l-381 -1255l-21 -60q-77 -204 -236 -204q-38 0 -80 14l-1 102q23 -7 51 -7q72 0 118 43t76 139l46 153l-340 1075h122zM570 1525h145l-231 -280h-105z" />
<glyph unicode="&#xfe;" horiz-adv-x="1011" d="M891 530q0 -249 -94 -399.5t-254 -150.5q-183 0 -280 146v-542h-111v1952h111v-593q98 159 278 159q164 0 257 -148t93 -408v-16zM780 551q0 206 -70.5 325t-195.5 119q-176 0 -251 -199v-531q75 -182 253 -182q125 0 194.5 120.5t69.5 347.5z" />
<glyph unicode="&#xff;" horiz-adv-x="857" d="M436 183l258 899h119l-381 -1255l-21 -60q-77 -204 -236 -204q-38 0 -80 14l-1 102q23 -7 51 -7q72 0 118 43t76 139l46 153l-340 1075h122zM157 1395q0 35 21.5 58.5t60.5 23.5q38 0 60.5 -23.5t22.5 -58.5q0 -34 -22.5 -57t-60.5 -23q-39 0 -60.5 23t-21.5 57z M594 1394q0 35 22 58.5t60 23.5q39 0 61 -23.5t22 -58.5q0 -34 -22 -57t-61 -23q-38 0 -60 23t-22 57z" />
<glyph unicode="&#x100;" d="M834 407h-546l-124 -407h-119l464 1456h106l464 -1456h-119zM321 514h480l-240 781zM848 1681h-570v99h570v-99z" />
<glyph unicode="&#x101;" horiz-adv-x="964" d="M720 0q-15 52 -20 150q-50 -81 -128.5 -125.5t-170.5 -44.5q-140 0 -218 79t-78 225q0 159 108.5 252t299.5 94h186v151q0 116 -57.5 166.5t-168.5 50.5q-103 0 -169 -60t-66 -155l-111 1q0 133 100 225.5t251 92.5q163 0 247 -82t84 -239v-531q0 -159 29 -238v-12h-118z M415 87q98 0 173.5 51t110.5 136v263h-176q-152 -2 -229 -67.5t-77 -176.5q0 -206 198 -206zM791 1366h-570v99h570v-99z" />
<glyph unicode="&#x102;" d="M834 407h-546l-124 -407h-119l464 1456h106l464 -1456h-119zM321 514h480l-240 781zM853 1808q0 -114 -78 -186t-211 -72q-131 0 -210 71.5t-79 186.5h102q0 -80 47.5 -125t139.5 -45q87 0 137 45t50 125h102z" />
<glyph unicode="&#x103;" horiz-adv-x="964" d="M720 0q-15 52 -20 150q-50 -81 -128.5 -125.5t-170.5 -44.5q-140 0 -218 79t-78 225q0 159 108.5 252t299.5 94h186v151q0 116 -57.5 166.5t-168.5 50.5q-103 0 -169 -60t-66 -155l-111 1q0 133 100 225.5t251 92.5q163 0 247 -82t84 -239v-531q0 -159 29 -238v-12h-118z M415 87q98 0 173.5 51t110.5 136v263h-176q-152 -2 -229 -67.5t-77 -176.5q0 -206 198 -206zM796 1493q0 -114 -78 -186t-211 -72q-131 0 -210 71.5t-79 186.5h102q0 -80 47.5 -125t139.5 -45q87 0 137 45t50 125h102z" />
<glyph unicode="&#x104;" d="M615 1456l464 -1456h-19l-56 -54q-93 -93 -93 -179q0 -84 70 -84q43 0 88 32l12 -85q-56 -44 -123 -44q-64 0 -105 42.5t-41 127.5q0 65 38 129.5t109 118.5l-125 403h-546l-124 -407h-119l464 1456h106zM321 514h480l-240 781z" />
<glyph unicode="&#x105;" horiz-adv-x="964" d="M719 2q-14 50 -19 148q-50 -81 -128.5 -125.5t-170.5 -44.5q-140 0 -218 79t-78 225q0 159 108.5 252t299.5 94h186v151q0 116 -57.5 166.5t-168.5 50.5q-103 0 -169 -60t-66 -155l-111 1q0 133 100 225.5t251 92.5q163 0 247 -82t84 -239v-531q0 -159 29 -238v-12h-16 l-56 -54q-93 -93 -93 -179q0 -84 70 -84q43 0 88 32l12 -85q-56 -44 -123 -44q-64 0 -105 42.5t-41 127.5q0 65 38 128.5t107 117.5zM415 87q98 0 173.5 51t110.5 136v263h-176q-152 -2 -229 -67.5t-77 -176.5q0 -206 198 -206z" />
<glyph unicode="&#x106;" horiz-adv-x="1158" d="M1045 454q-16 -245 -132 -359.5t-321 -114.5q-211 0 -333 159.5t-123 433.5v316q0 275 124.5 431t340.5 156q204 0 316 -117t128 -359h-116q-16 198 -93.5 283t-234.5 85q-165 0 -257 -123t-92 -357v-312q0 -232 89 -361t251 -129q170 0 246 85t91 283h116zM710 1867h145 l-231 -280h-105z" />
<glyph unicode="&#x107;" horiz-adv-x="929" d="M490 83q116 0 178 65t67 187h107q-8 -166 -106 -260.5t-246 -94.5q-193 0 -291.5 123.5t-100.5 366.5v132q0 248 98.5 374t292.5 126q161 0 254 -101.5t99 -283.5h-107q-5 134 -68 207.5t-178 73.5q-144 0 -211.5 -97t-67.5 -298v-123q0 -208 68 -302.5t212 -94.5z M591 1525h145l-231 -280h-105z" />
<glyph unicode="&#x108;" horiz-adv-x="1158" d="M1045 454q-16 -245 -132 -359.5t-321 -114.5q-211 0 -333 159.5t-123 433.5v316q0 275 124.5 431t340.5 156q204 0 316 -117t128 -359h-116q-16 198 -93.5 283t-234.5 85q-165 0 -257 -123t-92 -357v-312q0 -232 89 -361t251 -129q170 0 246 85t91 283h116zM828 1610v-10 h-100l-138 182l-138 -182h-98v12l201 256h69z" />
<glyph unicode="&#x109;" horiz-adv-x="929" d="M490 83q116 0 178 65t67 187h107q-8 -166 -106 -260.5t-246 -94.5q-193 0 -291.5 123.5t-100.5 366.5v132q0 248 98.5 374t292.5 126q161 0 254 -101.5t99 -283.5h-107q-5 134 -68 207.5t-178 73.5q-144 0 -211.5 -97t-67.5 -298v-123q0 -208 68 -302.5t212 -94.5z M709 1268v-10h-100l-138 182l-138 -182h-98v12l201 256h69z" />
<glyph unicode="&#x10a;" horiz-adv-x="1158" d="M1045 454q-16 -245 -132 -359.5t-321 -114.5q-211 0 -333 159.5t-123 433.5v316q0 275 124.5 431t340.5 156q204 0 316 -117t128 -359h-116q-16 198 -93.5 283t-234.5 85q-165 0 -257 -123t-92 -357v-312q0 -232 89 -361t251 -129q170 0 246 85t91 283h116zM512 1723 q0 35 22 58.5t60 23.5q39 0 61 -23.5t22 -58.5q0 -34 -22 -57t-61 -23q-38 0 -60 23t-22 57z" />
<glyph unicode="&#x10b;" horiz-adv-x="929" d="M490 83q116 0 178 65t67 187h107q-8 -166 -106 -260.5t-246 -94.5q-193 0 -291.5 123.5t-100.5 366.5v132q0 248 98.5 374t292.5 126q161 0 254 -101.5t99 -283.5h-107q-5 134 -68 207.5t-178 73.5q-144 0 -211.5 -97t-67.5 -298v-123q0 -208 68 -302.5t212 -94.5z M393 1381q0 35 22 58.5t60 23.5q39 0 61 -23.5t22 -58.5q0 -34 -22 -57t-61 -23q-38 0 -60 23t-22 57z" />
<glyph unicode="&#x10c;" horiz-adv-x="1158" d="M1045 454q-16 -245 -132 -359.5t-321 -114.5q-211 0 -333 159.5t-123 433.5v316q0 275 124.5 431t340.5 156q204 0 316 -117t128 -359h-116q-16 198 -93.5 283t-234.5 85q-165 0 -257 -123t-92 -357v-312q0 -232 89 -361t251 -129q170 0 246 85t91 283h116zM589 1673 l141 193h98v-12l-201 -262h-77l-200 263v11h98z" />
<glyph unicode="&#x10d;" horiz-adv-x="929" d="M490 83q116 0 178 65t67 187h107q-8 -166 -106 -260.5t-246 -94.5q-193 0 -291.5 123.5t-100.5 366.5v132q0 248 98.5 374t292.5 126q161 0 254 -101.5t99 -283.5h-107q-5 134 -68 207.5t-178 73.5q-144 0 -211.5 -97t-67.5 -298v-123q0 -208 68 -302.5t212 -94.5z M470 1330l141 193h98v-12l-201 -262h-77l-200 263v11h98z" />
<glyph unicode="&#x10e;" horiz-adv-x="1167" d="M172 0v1456h343q237 0 375 -151.5t142 -417.5v-305q0 -274 -139.5 -428t-391.5 -154h-329zM286 1348v-1242h221q195 0 302 120.5t110 344.5v305q0 224 -104.5 348t-302.5 124h-226zM524 1652l141 193h98v-12l-201 -262h-77l-200 263v11h98z" />
<glyph unicode="&#x10f;" horiz-adv-x="1149" d="M108 591q0 254 89 382.5t264 128.5q184 0 275 -165v599h111v-1536h-104l-5 139q-91 -159 -278 -159q-171 0 -260.5 130t-91.5 369v112zM221 490q0 -208 62.5 -306t198.5 -98q175 0 254 167v561q-75 181 -253 181q-136 0 -198.5 -97t-63.5 -300v-108zM987 1177l-65 52 q59 102 61 214v93h106v-62q0 -193 -102 -297z" />
<glyph unicode="&#x110;" horiz-adv-x="1197" d="M202 0v689h-158v104h158v663h343q237 0 375 -151.5t142 -417.5v-305q0 -274 -139.5 -428t-391.5 -154h-329zM562 689h-246v-583h219q197 0 304 120.5t110 344.5v305q0 224 -104.5 348t-302.5 124h-226v-555h246v-104z" />
<glyph unicode="&#x111;" horiz-adv-x="1029" d="M996 1257h-149v-1257h-104l-5 139q-91 -159 -278 -159q-171 0 -260.5 130t-91.5 369v112q0 254 89 382.5t264 128.5q184 0 275 -165v320h-258v104h258v175h111v-175h149v-104zM221 490q0 -208 62.5 -306t198.5 -98q175 0 254 167v561q-75 181 -253 181q-136 0 -198.5 -97 t-63.5 -300v-108z" />
<glyph unicode="&#x112;" horiz-adv-x="1018" d="M851 697h-565v-591h650v-106h-764v1456h759v-108h-645v-545h565v-106zM824 1687h-570v99h570v-99z" />
<glyph unicode="&#x113;" horiz-adv-x="937" d="M505 -20q-191 0 -299 125t-110 356v132q0 238 104 373.5t286 135.5q176 0 268.5 -115t94.5 -352v-104h-643v-61q0 -186 79.5 -287t224.5 -101q160 0 259 117l58 -74q-106 -145 -322 -145zM486 998q-131 0 -201.5 -92.5t-77.5 -270.5h531v29q-8 334 -252 334zM779 1365 h-570v99h570v-99z" />
<glyph unicode="&#x114;" horiz-adv-x="1018" d="M851 697h-565v-591h650v-106h-764v1456h759v-108h-645v-545h565v-106zM829 1814q0 -114 -78 -186t-211 -72q-131 0 -210 71.5t-79 186.5h102q0 -80 47.5 -125t139.5 -45q87 0 137 45t50 125h102z" />
<glyph unicode="&#x115;" horiz-adv-x="937" d="M505 -20q-191 0 -299 125t-110 356v132q0 238 104 373.5t286 135.5q176 0 268.5 -115t94.5 -352v-104h-643v-61q0 -186 79.5 -287t224.5 -101q160 0 259 117l58 -74q-106 -145 -322 -145zM486 998q-131 0 -201.5 -92.5t-77.5 -270.5h531v29q-8 334 -252 334zM784 1492 q0 -114 -78 -186t-211 -72q-131 0 -210 71.5t-79 186.5h102q0 -80 47.5 -125t139.5 -45q87 0 137 45t50 125h102z" />
<glyph unicode="&#x116;" horiz-adv-x="1018" d="M851 697h-565v-591h650v-106h-764v1456h759v-108h-645v-545h565v-106zM462 1702q0 35 22 58.5t60 23.5q39 0 61 -23.5t22 -58.5q0 -34 -22 -57t-61 -23q-38 0 -60 23t-22 57z" />
<glyph unicode="&#x117;" horiz-adv-x="937" d="M505 -20q-191 0 -299 125t-110 356v132q0 238 104 373.5t286 135.5q176 0 268.5 -115t94.5 -352v-104h-643v-61q0 -186 79.5 -287t224.5 -101q160 0 259 117l58 -74q-106 -145 -322 -145zM486 998q-131 0 -201.5 -92.5t-77.5 -270.5h531v29q-8 334 -252 334zM417 1381 q0 35 22 58.5t60 23.5q39 0 61 -23.5t22 -58.5q0 -34 -22 -57t-61 -23q-38 0 -60 23t-22 57z" />
<glyph unicode="&#x118;" horiz-adv-x="1018" d="M851 697h-565v-591h650v-106h-56l-56 -54q-93 -93 -93 -179q0 -84 70 -84q43 0 88 32l12 -85q-56 -44 -123 -44q-64 0 -105 42.5t-41 127.5q0 133 142 244h-602v1456h759v-108h-645v-545h565v-106z" />
<glyph unicode="&#x119;" horiz-adv-x="937" d="M505 -20q-191 0 -299 125t-110 356v132q0 238 104 373.5t286 135.5q176 0 268.5 -115t94.5 -352v-104h-643v-61q0 -186 79.5 -287t224.5 -101q160 0 259 117l58 -74q-59 -80 -153 -116q-114 -109 -114 -201q0 -84 70 -84q43 0 88 32l12 -85q-56 -44 -123 -44 q-64 0 -105 42.5t-41 127.5q0 95 78 184zM486 998q-131 0 -201.5 -92.5t-77.5 -270.5h531v29q-8 334 -252 334z" />
<glyph unicode="&#x11a;" horiz-adv-x="1018" d="M851 697h-565v-591h650v-106h-764v1456h759v-108h-645v-545h565v-106zM539 1652l141 193h98v-12l-201 -262h-77l-200 263v11h98z" />
<glyph unicode="&#x11b;" horiz-adv-x="937" d="M505 -20q-191 0 -299 125t-110 356v132q0 238 104 373.5t286 135.5q176 0 268.5 -115t94.5 -352v-104h-643v-61q0 -186 79.5 -287t224.5 -101q160 0 259 117l58 -74q-106 -145 -322 -145zM486 998q-131 0 -201.5 -92.5t-77.5 -270.5h531v29q-8 334 -252 334zM494 1330 l141 193h98v-12l-201 -262h-77l-200 263v11h98z" />
<glyph unicode="&#x11c;" horiz-adv-x="1215" d="M1059 169q-73 -94 -184 -141.5t-243 -47.5q-224 0 -352 150t-133 416v354q0 279 121.5 427.5t346.5 148.5q201 0 315 -111t128 -320h-114q-18 168 -98.5 245.5t-229.5 77.5q-178 0 -266.5 -118.5t-88.5 -347.5v-336q0 -228 97.5 -354t273.5 -126q191 0 312 121v379h-319 v107h434v-524zM833 1610v-10h-100l-138 182l-138 -182h-98v12l201 256h69z" />
<glyph unicode="&#x11d;" horiz-adv-x="996" d="M109 591q0 256 88 383.5t264 127.5q187 0 278 -171l6 151h103v-1113q-1 -196 -93.5 -298t-269.5 -102q-89 0 -179.5 43.5t-137.5 106.5l52 80q111 -127 257 -127q135 0 196.5 72t62.5 219v172q-91 -155 -276 -155q-169 0 -258.5 127t-92.5 367v117zM221 490 q0 -208 63 -306t198 -98q180 0 254 171v553q-75 185 -252 185q-136 0 -199 -97t-64 -300v-108zM728 1268v-10h-100l-138 182l-138 -182h-98v12l201 256h69z" />
<glyph unicode="&#x11e;" horiz-adv-x="1215" d="M1059 169q-73 -94 -184 -141.5t-243 -47.5q-224 0 -352 150t-133 416v354q0 279 121.5 427.5t346.5 148.5q201 0 315 -111t128 -320h-114q-18 168 -98.5 245.5t-229.5 77.5q-178 0 -266.5 -118.5t-88.5 -347.5v-336q0 -228 97.5 -354t273.5 -126q191 0 312 121v379h-319 v107h434v-524zM884 1835q0 -114 -78 -186t-211 -72q-131 0 -210 71.5t-79 186.5h102q0 -80 47.5 -125t139.5 -45q87 0 137 45t50 125h102z" />
<glyph unicode="&#x11f;" horiz-adv-x="996" d="M109 591q0 256 88 383.5t264 127.5q187 0 278 -171l6 151h103v-1113q-1 -196 -93.5 -298t-269.5 -102q-89 0 -179.5 43.5t-137.5 106.5l52 80q111 -127 257 -127q135 0 196.5 72t62.5 219v172q-91 -155 -276 -155q-169 0 -258.5 127t-92.5 367v117zM221 490 q0 -208 63 -306t198 -98q180 0 254 171v553q-75 185 -252 185q-136 0 -199 -97t-64 -300v-108zM779 1492q0 -114 -78 -186t-211 -72q-131 0 -210 71.5t-79 186.5h102q0 -80 47.5 -125t139.5 -45q87 0 137 45t50 125h102z" />
<glyph unicode="&#x120;" horiz-adv-x="1215" d="M1059 169q-73 -94 -184 -141.5t-243 -47.5q-224 0 -352 150t-133 416v354q0 279 121.5 427.5t346.5 148.5q201 0 315 -111t128 -320h-114q-18 168 -98.5 245.5t-229.5 77.5q-178 0 -266.5 -118.5t-88.5 -347.5v-336q0 -228 97.5 -354t273.5 -126q191 0 312 121v379h-319 v107h434v-524zM517 1723q0 35 22 58.5t60 23.5q39 0 61 -23.5t22 -58.5q0 -34 -22 -57t-61 -23q-38 0 -60 23t-22 57z" />
<glyph unicode="&#x121;" horiz-adv-x="996" d="M109 591q0 256 88 383.5t264 127.5q187 0 278 -171l6 151h103v-1113q-1 -196 -93.5 -298t-269.5 -102q-89 0 -179.5 43.5t-137.5 106.5l52 80q111 -127 257 -127q135 0 196.5 72t62.5 219v172q-91 -155 -276 -155q-169 0 -258.5 127t-92.5 367v117zM221 490 q0 -208 63 -306t198 -98q180 0 254 171v553q-75 185 -252 185q-136 0 -199 -97t-64 -300v-108zM412 1381q0 35 22 58.5t60 23.5q39 0 61 -23.5t22 -58.5q0 -34 -22 -57t-61 -23q-38 0 -60 23t-22 57z" />
<glyph unicode="&#x122;" horiz-adv-x="1215" d="M1059 169q-73 -94 -184 -141.5t-243 -47.5q-224 0 -352 150t-133 416v354q0 279 121.5 427.5t346.5 148.5q201 0 315 -111t128 -320h-114q-18 168 -98.5 245.5t-229.5 77.5q-178 0 -266.5 -118.5t-88.5 -347.5v-336q0 -228 97.5 -354t273.5 -126q191 0 312 121v379h-319 v107h434v-524zM555 -469l-65 52q59 102 61 214v93h106v-62q0 -193 -102 -297z" />
<glyph unicode="&#x123;" horiz-adv-x="996" d="M109 591q0 256 88 383.5t264 127.5q187 0 278 -171l6 151h103v-1113q-1 -196 -93.5 -298t-269.5 -102q-89 0 -179.5 43.5t-137.5 106.5l52 80q111 -127 257 -127q135 0 196.5 72t62.5 219v172q-91 -155 -276 -155q-169 0 -258.5 127t-92.5 367v117zM221 490 q0 -208 63 -306t198 -98q180 0 254 171v553q-75 185 -252 185q-136 0 -199 -97t-64 -300v-108zM521 1638l69 -50q-47 -97 -49 -184v-140h-110v115q0 147 90 259z" />
<glyph unicode="&#x124;" horiz-adv-x="1259" d="M1085 0h-115v697h-684v-697h-114v1456h114v-653h684v653h115v-1456zM857 1589v-10h-100l-138 182l-138 -182h-98v12l201 256h69z" />
<glyph unicode="&#x125;" horiz-adv-x="985" d="M259 912q48 87 121.5 138.5t168.5 51.5q283 0 290 -377v-725h-110v713q-1 145 -51 214t-157 69q-87 0 -156.5 -65.5t-105.5 -179.5v-751h-111v1536h111v-624zM668 1588v-10h-100l-138 182l-138 -182h-98v12l201 256h69z" />
<glyph unicode="&#x126;" horiz-adv-x="1229" d="M1067 1124h121v-98h-121v-1026h-114v697h-683v-697h-114v1026h-115v98h115v332h114v-332h683v332h114v-332zM270 803h683v223h-683v-223z" />
<glyph unicode="&#x127;" horiz-adv-x="1015" d="M533 1257h-244v-345q48 87 121.5 138.5t168.5 51.5q283 0 290 -377v-725h-110v713q-1 145 -51 214t-157 69q-87 0 -156.5 -65.5t-105.5 -179.5v-751h-111v1257h-163v104h163v175h111v-175h244v-104z" />
<glyph unicode="&#x128;" horiz-adv-x="500" d="M307 0h-114v1456h114v-1456zM539 1816q0 -95 -48 -155t-118 -60q-44 0 -72.5 17t-52 38t-48 38t-60.5 17q-38 0 -64 -31.5t-26 -86.5l-81 3q0 95 47.5 154.5t118.5 59.5q31 0 55 -10.5t69.5 -46.5t65 -44t43.5 -8q38 0 64.5 33t26.5 88z" />
<glyph unicode="&#x129;" horiz-adv-x="431" d="M270 0h-111v1082h111v-1082zM506 1483q0 -95 -48 -155t-118 -60q-44 0 -72.5 17t-52 38t-48 38t-60.5 17q-38 0 -64 -31.5t-26 -86.5l-81 3q0 95 47.5 154.5t118.5 59.5q31 0 55 -10.5t69.5 -46.5t65 -44t43.5 -8q38 0 64.5 33t26.5 88z" />
<glyph unicode="&#x12a;" horiz-adv-x="500" d="M307 0h-114v1456h114v-1456zM535 1687h-570v99h570v-99z" />
<glyph unicode="&#x12b;" horiz-adv-x="431" d="M270 0h-111v1082h111v-1082zM502 1354h-570v99h570v-99z" />
<glyph unicode="&#x12c;" horiz-adv-x="500" d="M307 0h-114v1456h114v-1456zM540 1814q0 -114 -78 -186t-211 -72q-131 0 -210 71.5t-79 186.5h102q0 -80 47.5 -125t139.5 -45q87 0 137 45t50 125h102z" />
<glyph unicode="&#x12d;" horiz-adv-x="431" d="M270 0h-111v1082h111v-1082zM507 1481q0 -114 -78 -186t-211 -72q-131 0 -210 71.5t-79 186.5h102q0 -80 47.5 -125t139.5 -45q87 0 137 45t50 125h102z" />
<glyph unicode="&#x12e;" horiz-adv-x="500" d="M307 0h-114v1456h114v-1456zM299 4l-56 -54q-93 -93 -93 -179q0 -84 70 -84q43 0 88 32l12 -85q-56 -44 -123 -44q-64 0 -105 42.5t-41 127.5q0 75 51 149.5t145 132.5z" />
<glyph unicode="&#x12f;" horiz-adv-x="431" d="M272 0h-112v1082h112v-1082zM144 1394q0 34 19 58t54 24t54.5 -24t19.5 -58t-19.5 -57.5t-54.5 -23.5t-54 23.5t-19 57.5zM265 0l-56 -54q-93 -93 -93 -179q0 -84 70 -84q43 0 88 32l12 -85q-56 -44 -123 -44q-64 0 -105 42.5t-41 127.5q0 75 51 149.5t145 132.5z" />
<glyph unicode="&#x130;" horiz-adv-x="500" d="M307 0h-114v1456h114v-1456zM172 1702q0 35 22 58.5t60 23.5q39 0 61 -23.5t22 -58.5q0 -34 -22 -57t-61 -23q-38 0 -60 23t-22 57z" />
<glyph unicode="&#x131;" horiz-adv-x="431" d="M270 0h-111v1082h111v-1082z" />
<glyph unicode="&#x132;" horiz-adv-x="1487" d="M307 0h-114v1456h114v-1456zM1207 1456h115v-1023q0 -210 -102 -331.5t-271 -121.5q-178 0 -275 110.5t-97 310.5h114q0 -158 68.5 -236.5t189.5 -78.5q116 0 186.5 93t71.5 249v1028z" />
<glyph unicode="&#x133;" horiz-adv-x="867" d="M272 0h-112v1082h112v-1082zM144 1394q0 34 19 58t54 24t54.5 -24t19.5 -58t-19.5 -57.5t-54.5 -23.5t-54 23.5t-19 57.5zM698 1082v-1202q0 -317 -239 -317q-47 0 -89 19l1 101q39 -13 74 -13q142 0 142 203v1209h111zM570 1394q0 34 18.5 58t53.5 24t54.5 -24t19.5 -58 t-19.5 -57.5t-54.5 -23.5t-53.5 23.5t-18.5 57.5z" />
<glyph unicode="&#x134;" horiz-adv-x="987" d="M707 1456h115v-1023q0 -210 -102 -331.5t-271 -121.5q-178 0 -275 110.5t-97 310.5h114q0 -158 68.5 -236.5t189.5 -78.5q116 0 186.5 93t71.5 249v1028zM990 1567v-10h-100l-138 182l-138 -182h-98v12l201 256h69z" />
<glyph unicode="&#x135;" horiz-adv-x="440" d="M280 1082v-1171q0 -170 -68 -259t-190 -89q-45 0 -93 19l11 101q37 -16 82 -16q71 0 109 64t38 180v1171h111zM463 1227v-10h-100l-138 182l-138 -182h-98v12l201 256h69z" />
<glyph unicode="&#x136;" horiz-adv-x="1124" d="M455 718l-169 -196v-522h-114v1456h114v-776l160 200l451 576h143l-508 -648l547 -808h-139zM512 -366l-65 52q59 102 61 214v93h106v-62q0 -193 -102 -297z" />
<glyph unicode="&#x137;" horiz-adv-x="888" d="M373 541l-113 -126v-415h-112v1536h112v-977l93 118l335 405h138l-380 -457l416 -625h-132zM411 -374l-65 52q59 102 61 214v93h106v-62q0 -193 -102 -297z" />
<glyph unicode="&#x138;" horiz-adv-x="978" d="M377 494h-110v-494h-112v1082h112v-479h105l365 479h135l-401 -526l441 -556h-141z" />
<glyph unicode="&#x139;" horiz-adv-x="950" d="M287 106h600v-106h-715v1456h115v-1350zM350 1806h145l-231 -280h-105z" />
<glyph unicode="&#x13a;" horiz-adv-x="431" d="M272 0h-112v1536h112v-1536zM337 1919h145l-231 -280h-105z" />
<glyph unicode="&#x13b;" horiz-adv-x="950" d="M287 106h600v-106h-715v1456h115v-1350zM493 -455l-65 52q59 102 61 214v93h106v-62q0 -193 -102 -297z" />
<glyph unicode="&#x13c;" horiz-adv-x="431" d="M272 0h-112v1536h112v-1536zM169 -455l-65 52q59 102 61 214v93h106v-62q0 -193 -102 -297z" />
<glyph unicode="&#x13d;" horiz-adv-x="950" d="M287 106h600v-106h-715v1456h115v-1350zM549 1096l-65 52q59 102 61 214v93h106v-62q0 -193 -102 -297z" />
<glyph unicode="&#x13e;" horiz-adv-x="581" d="M272 0h-112v1536h112v-1536zM434 1177l-65 52q59 102 61 214v93h106v-62q0 -193 -102 -297z" />
<glyph unicode="&#x13f;" horiz-adv-x="950" d="M287 106h600v-106h-715v1456h115v-1350zM519 776q0 35 22 58.5t60 23.5q39 0 61 -23.5t22 -58.5q0 -34 -22 -57t-61 -23q-38 0 -60 23t-22 57z" />
<glyph unicode="&#x140;" horiz-adv-x="651" d="M272 0h-112v1536h112v-1536zM383 787q0 35 22 58.5t60 23.5q39 0 61 -23.5t22 -58.5q0 -34 -22 -57t-61 -23q-38 0 -60 23t-22 57z" />
<glyph unicode="&#x141;" horiz-adv-x="952" d="M284 820l251 95v-92l-251 -95v-622h599v-106h-714v684l-129 -48v92l129 48v680h115v-636z" />
<glyph unicode="&#x142;" horiz-adv-x="488" d="M299 862l147 68v-92l-147 -68v-770h-111v718l-146 -67v92l146 67v726h111v-674z" />
<glyph unicode="&#x143;" horiz-adv-x="1262" d="M1088 0h-114l-687 1240v-1240h-115v1456h115l688 -1242v1242h113v-1456zM750 1840h145l-231 -280h-105z" />
<glyph unicode="&#x144;" horiz-adv-x="986" d="M254 1082l3 -172q48 88 122.5 140t169.5 52q283 0 290 -377v-725h-110v713q-1 145 -51 214t-157 69q-87 0 -156.5 -65.5t-105.5 -179.5v-751h-111v1082h106zM623 1525h145l-231 -280h-105z" />
<glyph unicode="&#x145;" horiz-adv-x="1262" d="M1088 0h-114l-687 1240v-1240h-115v1456h115l688 -1242v1242h113v-1456zM577 -455l-65 52q59 102 61 214v93h106v-62q0 -193 -102 -297z" />
<glyph unicode="&#x146;" horiz-adv-x="986" d="M254 1082l3 -172q48 88 122.5 140t169.5 52q283 0 290 -377v-725h-110v713q-1 145 -51 214t-157 69q-87 0 -156.5 -65.5t-105.5 -179.5v-751h-111v1082h106zM449 -455l-65 52q59 102 61 214v93h106v-62q0 -193 -102 -297z" />
<glyph unicode="&#x147;" horiz-adv-x="1262" d="M1088 0h-114l-687 1240v-1240h-115v1456h115l688 -1242v1242h113v-1456zM629 1646l141 193h98v-12l-201 -262h-77l-200 263v11h98z" />
<glyph unicode="&#x148;" horiz-adv-x="986" d="M254 1082l3 -172q48 88 122.5 140t169.5 52q283 0 290 -377v-725h-110v713q-1 145 -51 214t-157 69q-87 0 -156.5 -65.5t-105.5 -179.5v-751h-111v1082h106zM502 1330l141 193h98v-12l-201 -262h-77l-200 263v11h98z" />
<glyph unicode="&#x149;" horiz-adv-x="986" d="M254 1082l3 -172q48 88 122.5 140t169.5 52q283 0 290 -377v-725h-110v713q-1 145 -51 214t-157 69q-87 0 -156.5 -65.5t-105.5 -179.5v-751h-111v1082h106zM42 1178l-65 52q59 102 61 214v93h106v-62q0 -193 -102 -297z" />
<glyph unicode="&#x14a;" horiz-adv-x="1242" d="M1077 1456v-1542q0 -171 -69 -261t-191 -90q-49 0 -95 19l10 104q35 -15 84 -15q70 0 108 63.5t38 179.5v86l-679 1235v-1235h-114v1456h114l679 -1233v1233h115z" />
<glyph unicode="&#x14b;" horiz-adv-x="1001" d="M249 1082l9 -178q94 198 287 198q152 0 227 -109.5t76 -325.5v-756q0 -170 -68.5 -259t-189.5 -89q-52 0 -103 19l12 106q37 -16 91 -16q70 0 108.5 61.5t38.5 177.5v748q0 174 -52.5 255t-166.5 81q-187 0 -257 -210v-785h-111v1082h99z" />
<glyph unicode="&#x14c;" horiz-adv-x="1208" d="M1075 570q0 -282 -123.5 -436t-346.5 -154q-221 0 -346.5 154t-126.5 433v317q0 281 125 436.5t346 155.5q224 0 348 -156t124 -439v-311zM960 886q0 239 -92 359t-265 120q-167 0 -261 -117.5t-96 -351.5v-326q0 -240 95 -360.5t264 -120.5q174 0 264.5 120t90.5 361 v316zM887 1692h-570v99h570v-99z" />
<glyph unicode="&#x14d;" horiz-adv-x="1005" d="M106 596q0 234 106 370t289 136q184 0 289.5 -134t106.5 -369v-115q0 -238 -106.5 -371t-287.5 -133t-287 130t-110 358v128zM218 484q0 -187 75.5 -294t209.5 -107q137 0 209.5 103t73.5 295v115q0 187 -76 294.5t-209 107.5q-129 0 -205 -105t-78 -289v-120zM784 1365 h-570v99h570v-99z" />
<glyph unicode="&#x14e;" horiz-adv-x="1208" d="M1075 570q0 -282 -123.5 -436t-346.5 -154q-221 0 -346.5 154t-126.5 433v317q0 281 125 436.5t346 155.5q224 0 348 -156t124 -439v-311zM960 886q0 239 -92 359t-265 120q-167 0 -261 -117.5t-96 -351.5v-326q0 -240 95 -360.5t264 -120.5q174 0 264.5 120t90.5 361 v316zM892 1819q0 -114 -78 -186t-211 -72q-131 0 -210 71.5t-79 186.5h102q0 -80 47.5 -125t139.5 -45q87 0 137 45t50 125h102z" />
<glyph unicode="&#x14f;" horiz-adv-x="1005" d="M106 596q0 234 106 370t289 136q184 0 289.5 -134t106.5 -369v-115q0 -238 -106.5 -371t-287.5 -133t-287 130t-110 358v128zM218 484q0 -187 75.5 -294t209.5 -107q137 0 209.5 103t73.5 295v115q0 187 -76 294.5t-209 107.5q-129 0 -205 -105t-78 -289v-120zM789 1492 q0 -114 -78 -186t-211 -72q-131 0 -210 71.5t-79 186.5h102q0 -80 47.5 -125t139.5 -45q87 0 137 45t50 125h102z" />
<glyph unicode="&#x150;" horiz-adv-x="1208" d="M1075 570q0 -282 -123.5 -436t-346.5 -154q-221 0 -346.5 154t-126.5 433v317q0 281 125 436.5t346 155.5q224 0 348 -156t124 -439v-311zM960 886q0 239 -92 359t-265 120q-167 0 -261 -117.5t-96 -351.5v-326q0 -240 95 -360.5t264 -120.5q174 0 264.5 120t90.5 361 v316zM847 1861h131l-233 -303h-109zM582 1861h125l-192 -303h-98z" />
<glyph unicode="&#x151;" horiz-adv-x="1005" d="M106 596q0 234 106 370t289 136q184 0 289.5 -134t106.5 -369v-115q0 -238 -106.5 -371t-287.5 -133t-287 130t-110 358v128zM218 484q0 -187 75.5 -294t209.5 -107q137 0 209.5 103t73.5 295v115q0 187 -76 294.5t-209 107.5q-129 0 -205 -105t-78 -289v-120zM744 1535 h131l-233 -303h-109zM479 1535h125l-192 -303h-98z" />
<glyph unicode="&#x152;" horiz-adv-x="1653" d="M1533 0h-710q-157 -21 -258 -21q-130 0 -233.5 73t-161.5 207.5t-60 304.5v316q0 172 56.5 308.5t160.5 212t236 75.5q110 0 260 -20h705v-108h-645v-545h564v-106h-564v-591h650v-106zM565 82q108 0 204 14v1262q-84 14 -206 14q-158 0 -250 -131t-92 -363v-302 q0 -227 94 -360.5t250 -133.5z" />
<glyph unicode="&#x153;" horiz-adv-x="1624" d="M99 556q0 244 111.5 395t291.5 151q115 0 208 -67.5t143 -192.5q48 115 136.5 187.5t195.5 72.5q167 0 262.5 -121.5t98.5 -330.5v-114h-634v-26q0 -188 81 -307.5t207 -119.5q175 0 270 119l48 -85q-109 -137 -318 -137q-114 0 -205.5 68t-142.5 188q-49 -118 -138 -187 t-211 -69q-182 0 -293 150.5t-111 401.5v24zM211 524q0 -194 79 -317.5t213 -123.5q132 0 211 123.5t79 325.5v24q0 194 -80 318t-211 124t-211 -124t-80 -327v-23zM1185 998q-103 0 -177.5 -98.5t-91.5 -259.5h519v29q0 144 -68 236.5t-182 92.5z" />
<glyph unicode="&#x154;" horiz-adv-x="1126" d="M625 606h-340v-606h-115v1456h399q199 0 308.5 -113.5t109.5 -315.5q0 -141 -68 -247.5t-183 -147.5l303 -619v-13h-122zM285 712h304q129 0 206 88.5t77 226.5q0 153 -80 237t-224 84h-283v-636zM650 1840h145l-231 -280h-105z" />
<glyph unicode="&#x155;" horiz-adv-x="619" d="M572 978q-40 7 -70 7q-92 0 -154.5 -63t-88.5 -175v-747h-111v1082h109l2 -162q79 182 248 182q44 0 67 -13zM484 1525h145l-231 -280h-105z" />
<glyph unicode="&#x156;" horiz-adv-x="1126" d="M625 606h-340v-606h-115v1456h399q199 0 308.5 -113.5t109.5 -315.5q0 -141 -68 -247.5t-183 -147.5l303 -619v-13h-122zM285 712h304q129 0 206 88.5t77 226.5q0 153 -80 237t-224 84h-283v-636zM482 -455l-65 52q59 102 61 214v93h106v-62q0 -193 -102 -297z" />
<glyph unicode="&#x157;" horiz-adv-x="619" d="M572 978q-40 7 -70 7q-92 0 -154.5 -63t-88.5 -175v-747h-111v1082h109l2 -162q79 182 248 182q44 0 67 -13zM162 -451l-65 52q59 102 61 214v93h106v-62q0 -193 -102 -297z" />
<glyph unicode="&#x158;" horiz-adv-x="1126" d="M625 606h-340v-606h-115v1456h399q199 0 308.5 -113.5t109.5 -315.5q0 -141 -68 -247.5t-183 -147.5l303 -619v-13h-122zM285 712h304q129 0 206 88.5t77 226.5q0 153 -80 237t-224 84h-283v-636zM529 1646l141 193h98v-12l-201 -262h-77l-200 263v11h98z" />
<glyph unicode="&#x159;" horiz-adv-x="619" d="M572 978q-40 7 -70 7q-92 0 -154.5 -63t-88.5 -175v-747h-111v1082h109l2 -162q79 182 248 182q44 0 67 -13zM364 1330l141 193h98v-12l-201 -262h-77l-200 263v11h98z" />
<glyph unicode="&#x15a;" horiz-adv-x="1059" d="M856 358q0 122 -69.5 192t-259.5 134t-279 143q-117 103 -117 272q0 167 115 272t297 105q186 0 304 -122t118 -314h-115q0 147 -82.5 237.5t-224.5 90.5q-138 0 -217.5 -74.5t-79.5 -192.5q0 -110 75 -180t239 -124.5t248 -113t124 -137.5t40 -186q0 -171 -115.5 -275.5 t-305.5 -104.5q-128 0 -233.5 52.5t-165 151t-59.5 232.5h114q0 -154 93 -242t251 -88q138 0 221.5 74t83.5 198zM666 1851h145l-231 -280h-105z" />
<glyph unicode="&#x15b;" horiz-adv-x="914" d="M689 266q0 70 -58 122.5t-196.5 115t-193.5 104t-81 90.5t-26 116q0 125 90 206.5t233 81.5q154 0 246 -87t92 -230h-111q0 92 -63 152.5t-164 60.5q-98 0 -155.5 -50t-57.5 -130q0 -65 44 -106t190 -111q151 -66 208 -109t86 -95.5t29 -124.5q0 -134 -93 -213t-245 -79 q-161 0 -260.5 88t-99.5 227h112q5 -101 67.5 -156.5t180.5 -55.5q102 0 164 50t62 133zM595 1525h145l-231 -280h-105z" />
<glyph unicode="&#x15c;" horiz-adv-x="1059" d="M856 358q0 122 -69.5 192t-259.5 134t-279 143q-117 103 -117 272q0 167 115 272t297 105q186 0 304 -122t118 -314h-115q0 147 -82.5 237.5t-224.5 90.5q-138 0 -217.5 -74.5t-79.5 -192.5q0 -110 75 -180t239 -124.5t248 -113t124 -137.5t40 -186q0 -171 -115.5 -275.5 t-305.5 -104.5q-128 0 -233.5 52.5t-165 151t-59.5 232.5h114q0 -154 93 -242t251 -88q138 0 221.5 74t83.5 198zM784 1594v-10h-100l-138 182l-138 -182h-98v12l201 256h69z" />
<glyph unicode="&#x15d;" horiz-adv-x="914" d="M689 266q0 70 -58 122.5t-196.5 115t-193.5 104t-81 90.5t-26 116q0 125 90 206.5t233 81.5q154 0 246 -87t92 -230h-111q0 92 -63 152.5t-164 60.5q-98 0 -155.5 -50t-57.5 -130q0 -65 44 -106t190 -111q151 -66 208 -109t86 -95.5t29 -124.5q0 -134 -93 -213t-245 -79 q-161 0 -260.5 88t-99.5 227h112q5 -101 67.5 -156.5t180.5 -55.5q102 0 164 50t62 133zM713 1268v-10h-100l-138 182l-138 -182h-98v12l201 256h69z" />
<glyph unicode="&#x15e;" horiz-adv-x="1059" d="M856 358q0 122 -69.5 192t-259.5 134t-279 143q-117 103 -117 272q0 167 115 272t297 105q186 0 304 -122t118 -314h-115q0 147 -82.5 237.5t-224.5 90.5q-138 0 -217.5 -74.5t-79.5 -192.5q0 -110 75 -180t239 -124.5t248 -113t124 -137.5t40 -186q0 -171 -115.5 -275.5 t-305.5 -104.5q-128 0 -233.5 52.5t-165 151t-59.5 232.5h114q0 -154 93 -242t251 -88q138 0 221.5 74t83.5 198zM595 -4l-10 -64q136 -22 136 -171q0 -91 -66 -145.5t-182 -54.5l-6 79q71 0 117.5 31t46.5 88q0 51 -29.5 75.5t-116.5 33.5l25 128h85z" />
<glyph unicode="&#x15f;" horiz-adv-x="914" d="M689 266q0 70 -58 122.5t-196.5 115t-193.5 104t-81 90.5t-26 116q0 125 90 206.5t233 81.5q154 0 246 -87t92 -230h-111q0 92 -63 152.5t-164 60.5q-98 0 -155.5 -50t-57.5 -130q0 -65 44 -106t190 -111q151 -66 208 -109t86 -95.5t29 -124.5q0 -134 -93 -213t-245 -79 q-161 0 -260.5 88t-99.5 227h112q5 -101 67.5 -156.5t180.5 -55.5q102 0 164 50t62 133zM521 -6l-10 -64q136 -22 136 -171q0 -91 -66 -145.5t-182 -54.5l-6 79q71 0 117.5 31t46.5 88q0 51 -29.5 75.5t-116.5 33.5l25 128h85z" />
<glyph unicode="&#x160;" horiz-adv-x="1059" d="M856 358q0 122 -69.5 192t-259.5 134t-279 143q-117 103 -117 272q0 167 115 272t297 105q186 0 304 -122t118 -314h-115q0 147 -82.5 237.5t-224.5 90.5q-138 0 -217.5 -74.5t-79.5 -192.5q0 -110 75 -180t239 -124.5t248 -113t124 -137.5t40 -186q0 -171 -115.5 -275.5 t-305.5 -104.5q-128 0 -233.5 52.5t-165 151t-59.5 232.5h114q0 -154 93 -242t251 -88q138 0 221.5 74t83.5 198zM545 1657l141 193h98v-12l-201 -262h-77l-200 263v11h98z" />
<glyph unicode="&#x161;" horiz-adv-x="914" d="M689 266q0 70 -58 122.5t-196.5 115t-193.5 104t-81 90.5t-26 116q0 125 90 206.5t233 81.5q154 0 246 -87t92 -230h-111q0 92 -63 152.5t-164 60.5q-98 0 -155.5 -50t-57.5 -130q0 -65 44 -106t190 -111q151 -66 208 -109t86 -95.5t29 -124.5q0 -134 -93 -213t-245 -79 q-161 0 -260.5 88t-99.5 227h112q5 -101 67.5 -156.5t180.5 -55.5q102 0 164 50t62 133zM474 1330l141 193h98v-12l-201 -262h-77l-200 263v11h98z" />
<glyph unicode="&#x162;" horiz-adv-x="1067" d="M1005 1348h-414v-1348h-115v1348h-413v108h942v-108zM580 0l-10 -64q136 -22 136 -171q0 -91 -66 -145.5t-182 -54.5l-6 79q71 0 117.5 31t46.5 88q0 51 -29.5 75.5t-116.5 33.5l25 128h85z" />
<glyph unicode="&#x163;" horiz-adv-x="594" d="M315 1358v-276h185v-100h-185v-719q0 -89 26.5 -132.5t88.5 -43.5q27 0 80 10l3 -100q-38 -17 -109 -17q-195 0 -200 268v734h-167v100h167v276h111zM432 0l-10 -64q136 -22 136 -171q0 -91 -66 -145.5t-182 -54.5l-6 79q71 0 117.5 31t46.5 88q0 51 -29.5 75.5 t-116.5 33.5l25 128h85z" />
<glyph unicode="&#x164;" horiz-adv-x="1067" d="M1005 1348h-414v-1348h-115v1348h-413v108h942v-108zM532 1642l141 193h98v-12l-201 -262h-77l-200 263v11h98z" />
<glyph unicode="&#x165;" horiz-adv-x="634" d="M315 1358v-276h185v-100h-185v-719q0 -89 26.5 -132.5t88.5 -43.5q27 0 80 10l3 -100q-38 -17 -109 -17q-195 0 -200 268v734h-167v100h167v276h111zM487 1249l-65 52q59 102 61 214v93h106v-62q0 -193 -102 -297z" />
<glyph unicode="&#x166;" horiz-adv-x="1067" d="M791 834h-200v-834h-115v834h-203v104h203v410h-413v108h942v-108h-414v-410h200v-104z" />
<glyph unicode="&#x167;" horiz-adv-x="594" d="M315 1358v-276h185v-100h-185v-261h231v-104h-231v-354q0 -89 26.5 -132.5t88.5 -43.5q27 0 80 10l3 -100q-38 -17 -109 -17q-195 0 -200 268v369h-176v104h176v261h-167v100h167v276h111z" />
<glyph unicode="&#x168;" horiz-adv-x="1168" d="M1018 1456v-1033q-1 -211 -113.5 -327t-319.5 -116q-210 0 -321.5 114.5t-111.5 332.5v1029h114v-1025q0 -345 319 -345q314 0 318 335v1035h115zM878 1810q0 -95 -48 -155t-118 -60q-44 0 -72.5 17t-52 38t-48 38t-60.5 17q-38 0 -64 -31.5t-26 -86.5l-81 3 q0 95 47.5 154.5t118.5 59.5q31 0 55 -10.5t69.5 -46.5t65 -44t43.5 -8q38 0 64.5 33t26.5 88z" />
<glyph unicode="&#x169;" horiz-adv-x="986" d="M728 129q-92 -149 -285 -149q-147 0 -222 102t-76 300v700h110v-697q0 -147 52 -223t150 -76q210 0 269 204v792h112v-1082h-108zM788 1495q0 -95 -48 -155t-118 -60q-44 0 -72.5 17t-52 38t-48 38t-60.5 17q-38 0 -64 -31.5t-26 -86.5l-81 3q0 95 47.5 154.5t118.5 59.5 q31 0 55 -10.5t69.5 -46.5t65 -44t43.5 -8q38 0 64.5 33t26.5 88z" />
<glyph unicode="&#x16a;" horiz-adv-x="1168" d="M1018 1456v-1033q-1 -211 -113.5 -327t-319.5 -116q-210 0 -321.5 114.5t-111.5 332.5v1029h114v-1025q0 -345 319 -345q314 0 318 335v1035h115zM874 1681h-570v99h570v-99z" />
<glyph unicode="&#x16b;" horiz-adv-x="986" d="M728 129q-92 -149 -285 -149q-147 0 -222 102t-76 300v700h110v-697q0 -147 52 -223t150 -76q210 0 269 204v792h112v-1082h-108zM784 1366h-570v99h570v-99z" />
<glyph unicode="&#x16c;" horiz-adv-x="1168" d="M1018 1456v-1033q-1 -211 -113.5 -327t-319.5 -116q-210 0 -321.5 114.5t-111.5 332.5v1029h114v-1025q0 -345 319 -345q314 0 318 335v1035h115zM879 1808q0 -114 -78 -186t-211 -72q-131 0 -210 71.5t-79 186.5h102q0 -80 47.5 -125t139.5 -45q87 0 137 45t50 125h102z " />
<glyph unicode="&#x16d;" horiz-adv-x="986" d="M728 129q-92 -149 -285 -149q-147 0 -222 102t-76 300v700h110v-697q0 -147 52 -223t150 -76q210 0 269 204v792h112v-1082h-108zM789 1493q0 -114 -78 -186t-211 -72q-131 0 -210 71.5t-79 186.5h102q0 -80 47.5 -125t139.5 -45q87 0 137 45t50 125h102z" />
<glyph unicode="&#x16e;" horiz-adv-x="1168" d="M1018 1456v-1033q-1 -211 -113.5 -327t-319.5 -116q-210 0 -321.5 114.5t-111.5 332.5v1029h114v-1025q0 -345 319 -345q314 0 318 335v1035h115zM398 1716q0 80 56 136t137 56t137 -56t56 -136q0 -79 -55 -133t-138 -54t-138 54t-55 133zM475 1716q0 -49 33 -82t83 -33 q48 0 82.5 32.5t34.5 82.5q0 53 -34 86t-83 33q-51 0 -83.5 -34t-32.5 -85z" />
<glyph unicode="&#x16f;" horiz-adv-x="986" d="M728 129q-92 -149 -285 -149q-147 0 -222 102t-76 300v700h110v-697q0 -147 52 -223t150 -76q210 0 269 204v792h112v-1082h-108zM308 1401q0 80 56 136t137 56t137 -56t56 -136q0 -79 -55 -133t-138 -54t-138 54t-55 133zM385 1401q0 -49 33 -82t83 -33q48 0 82.5 32.5 t34.5 82.5q0 53 -34 86t-83 33q-51 0 -83.5 -34t-32.5 -85z" />
<glyph unicode="&#x170;" horiz-adv-x="1168" d="M1018 1456v-1033q-1 -211 -113.5 -327t-319.5 -116q-210 0 -321.5 114.5t-111.5 332.5v1029h114v-1025q0 -345 319 -345q314 0 318 335v1035h115zM834 1850h131l-233 -303h-109zM569 1850h125l-192 -303h-98z" />
<glyph unicode="&#x171;" horiz-adv-x="986" d="M728 129q-92 -149 -285 -149q-147 0 -222 102t-76 300v700h110v-697q0 -147 52 -223t150 -76q210 0 269 204v792h112v-1082h-108zM744 1535h131l-233 -303h-109zM479 1535h125l-192 -303h-98z" />
<glyph unicode="&#x172;" horiz-adv-x="1168" d="M1018 1456v-1022q0 -324 -235 -419q-124 -114 -124 -210q0 -84 70 -84q43 0 88 32l12 -85q-56 -44 -123 -44q-64 0 -105 42.5t-41 127.5q0 97 82 189l-57 -3q-210 0 -321.5 114.5t-111.5 332.5v1029h114v-1025q0 -345 319 -345q314 0 318 335v1035h115z" />
<glyph unicode="&#x173;" horiz-adv-x="986" d="M832 0l-56 -54q-93 -93 -93 -179q0 -84 70 -84q43 0 88 32l12 -85q-56 -44 -123 -44q-64 0 -105 42.5t-41 127.5q0 134 146 247l-2 126q-92 -149 -285 -149q-147 0 -222 102t-76 300v700h110v-697q0 -147 52 -223t150 -76q210 0 269 204v792h112v-1082h-6z" />
<glyph unicode="&#x174;" horiz-adv-x="1579" d="M405 396l35 -216l44 206l261 1070h102l257 -1070l43 -208l38 218l215 1060h116l-310 -1456h-108l-273 1135l-29 135l-28 -135l-279 -1135h-109l-309 1456h117zM1035 1583v-10h-100l-138 182l-138 -182h-98v12l201 256h69z" />
<glyph unicode="&#x175;" horiz-adv-x="1336" d="M376 246l9 -60l12 65l221 831h93l219 -824l16 -85l13 76l187 833h114l-265 -1082h-93l-235 860l-5 26l-4 -27l-231 -859h-94l-263 1082h113zM900 1268v-10h-100l-138 182l-138 -182h-98v12l201 256h69z" />
<glyph unicode="&#x176;" horiz-adv-x="1070" d="M534 664l363 792h131l-438 -908v-548h-114v548l-437 908h134zM773 1577v-10h-100l-138 182l-138 -182h-98v12l201 256h69z" />
<glyph unicode="&#x177;" horiz-adv-x="857" d="M436 183l258 899h119l-381 -1255l-21 -60q-77 -204 -236 -204q-38 0 -80 14l-1 102q23 -7 51 -7q72 0 118 43t76 139l46 153l-340 1075h122zM688 1268v-10h-100l-138 182l-138 -182h-98v12l201 256h69z" />
<glyph unicode="&#x178;" horiz-adv-x="1070" d="M534 664l363 792h131l-438 -908v-548h-114v548l-437 908h134zM242 1704q0 35 21.5 58.5t60.5 23.5q38 0 60.5 -23.5t22.5 -58.5q0 -34 -22.5 -57t-60.5 -23q-39 0 -60.5 23t-21.5 57zM679 1703q0 35 22 58.5t60 23.5q39 0 61 -23.5t22 -58.5q0 -34 -22 -57t-61 -23 q-38 0 -60 23t-22 57z" />
<glyph unicode="&#x179;" horiz-adv-x="1069" d="M228 106h749v-106h-882v95l720 1254h-700v107h835v-91zM655 1840h145l-231 -280h-105z" />
<glyph unicode="&#x17a;" horiz-adv-x="880" d="M225 103h584v-103h-716v90l547 887h-532v105h667v-91zM570 1525h145l-231 -280h-105z" />
<glyph unicode="&#x17b;" horiz-adv-x="1069" d="M228 106h749v-106h-882v95l720 1254h-700v107h835v-91zM457 1696q0 35 22 58.5t60 23.5q39 0 61 -23.5t22 -58.5q0 -34 -22 -57t-61 -23q-38 0 -60 23t-22 57z" />
<glyph unicode="&#x17c;" horiz-adv-x="880" d="M225 103h584v-103h-716v90l547 887h-532v105h667v-91zM372 1381q0 35 22 58.5t60 23.5q39 0 61 -23.5t22 -58.5q0 -34 -22 -57t-61 -23q-38 0 -60 23t-22 57z" />
<glyph unicode="&#x17d;" horiz-adv-x="1069" d="M228 106h749v-106h-882v95l720 1254h-700v107h835v-91zM534 1646l141 193h98v-12l-201 -262h-77l-200 263v11h98z" />
<glyph unicode="&#x17e;" horiz-adv-x="880" d="M225 103h584v-103h-716v90l547 887h-532v105h667v-91zM449 1331l141 193h98v-12l-201 -262h-77l-200 263v11h98z" />
<glyph unicode="&#x17f;" horiz-adv-x="437" d="M159 0v1215q0 166 70 254t195 88q55 0 116 -19l-15 -98q-39 13 -86 13q-81 0 -125 -62.5t-44 -175.5v-1215h-111z" />
<glyph unicode="&#x18f;" horiz-adv-x="1241" d="M624 -20q-236 0 -370.5 169.5t-134.5 471.5v118h886v64q0 264 -109.5 414t-307.5 150q-200 0 -338 -118l-34 94q133 133 372 133q248 0 390 -183t142 -498v-124q0 -196 -64 -354.5t-178.5 -247.5t-253.5 -89zM624 87q165 0 268 151.5t112 397.5h-770v-52 q0 -232 103 -364.5t287 -132.5z" />
<glyph unicode="&#x192;" horiz-adv-x="607" d="M525 982h-198v-1071q0 -170 -68.5 -259t-190.5 -89q-47 0 -93 19l12 101q32 -16 81 -16q71 0 109.5 64t38.5 180v1071h-150v100h150v142q2 162 71.5 247.5t192.5 85.5q55 0 116 -19l-14 -101q-43 13 -90 13q-165 0 -165 -245v-123h198v-100z" />
<glyph unicode="&#x1a0;" horiz-adv-x="1236" d="M1085 650q0 -200 -58.5 -352.5t-167.5 -235t-252 -82.5q-141 0 -251 83t-169.5 234t-60.5 345v162q0 198 59.5 351.5t169 237t250.5 83.5q226 0 357 -195q88 7 129 74t41 211h103q0 -331 -223 -375q70 -159 73 -371v-170zM972 806q0 263 -98.5 411t-268.5 148 q-169 0 -267 -151t-98 -414v-150q0 -260 99.5 -410.5t267.5 -150.5q172 0 268.5 150t96.5 416v151z" />
<glyph unicode="&#x1a1;" horiz-adv-x="1006" d="M95 556q0 239 112.5 392.5t293.5 153.5q177 0 289 -144q72 7 103.5 58t31.5 182h94q0 -145 -43.5 -222t-135.5 -98q68 -133 70 -314v-40q0 -239 -112 -391.5t-295 -152.5q-175 0 -286 139.5t-121 365.5zM205 524q0 -191 81 -316t217 -125q133 0 214 123.5t81 325.5v24 q0 191 -82 316.5t-215 125.5q-132 0 -214 -125.5t-82 -326.5v-22z" />
<glyph unicode="&#x1af;" horiz-adv-x="1216" d="M1018 1456v-211q100 9 143 77t43 222h97q0 -194 -67.5 -289t-215.5 -105v-695q-4 -218 -122 -346.5t-311 -128.5q-194 0 -311.5 125.5t-121.5 348.5v1002h114v-994q2 -178 88 -277t231 -99q147 0 232.5 101.5t85.5 282.5v986h115z" />
<glyph unicode="&#x1b0;" horiz-adv-x="1059" d="M1071 1179q0 -168 -56.5 -239t-176.5 -76v-864h-108l-2 129q-92 -149 -285 -149q-147 0 -222 102t-76 300v700h110v-697q0 -147 52 -223t150 -76q210 0 269 204v792h112v-134q80 5 111.5 48.5t31.5 182.5h90z" />
<glyph unicode="&#x1f0;" horiz-adv-x="440" d="M280 1082v-1171q0 -170 -68 -259t-190 -89q-45 0 -93 19l11 101q37 -16 82 -16q71 0 109 64t38 180v1171h111zM224 1290l141 193h98v-12l-201 -262h-77l-200 263v11h98z" />
<glyph unicode="&#x1fa;" d="M834 407h-546l-124 -407h-119l464 1456h106l464 -1456h-119zM321 514h480l-240 781zM667 1930h122l-173 -187h-79zM433 1537q0 67 40 111t93 44q52 0 91 -43.5t39 -111.5q0 -66 -38.5 -108.5t-91.5 -42.5t-93 42.5t-40 108.5zM493 1537q0 -37 21.5 -61.5t51.5 -24.5 q29 0 50 24.5t21 61.5q0 39 -21 64.5t-50 25.5q-30 0 -51.5 -25.5t-21.5 -64.5z" />
<glyph unicode="&#x1fb;" horiz-adv-x="964" d="M720 0q-15 52 -20 150q-50 -81 -128.5 -125.5t-170.5 -44.5q-140 0 -218 79t-78 225q0 159 108.5 252t299.5 94h186v151q0 116 -57.5 166.5t-168.5 50.5q-103 0 -169 -60t-66 -155l-111 1q0 133 100 225.5t251 92.5q163 0 247 -82t84 -239v-531q0 -159 29 -238v-12h-118z M415 87q98 0 173.5 51t110.5 136v263h-176q-152 -2 -229 -67.5t-77 -176.5q0 -206 198 -206zM610 1616h122l-173 -187h-79zM376 1223q0 67 40 111t93 44q52 0 91 -43.5t39 -111.5q0 -66 -38.5 -108.5t-91.5 -42.5t-93 42.5t-40 108.5zM436 1223q0 -37 21.5 -61.5t51.5 -24.5 q29 0 50 24.5t21 61.5q0 39 -21 64.5t-50 25.5q-30 0 -51.5 -25.5t-21.5 -64.5z" />
<glyph unicode="&#x1fc;" horiz-adv-x="1614" d="M1560 0h-697l-14 388h-493l-191 -388h-136l740 1456h740v-104h-583l19 -542h495v-104h-491l21 -603h590v-103zM412 503h433l-29 821zM939 1846h145l-231 -280h-105z" />
<glyph unicode="&#x1fd;" horiz-adv-x="1494" d="M1082 -20q-116 0 -200 53.5t-135 148.5q-51 -96 -146.5 -149t-212.5 -53q-140 0 -219 83t-79 231q0 160 96 249t276 89h209v88q0 131 -51.5 204.5t-154.5 73.5q-109 0 -175 -65.5t-66 -167.5l-110 13q0 143 98 233.5t253 90.5q103 0 177.5 -51t109.5 -153q51 96 129 150 t174 54q166 0 262 -121.5t96 -346.5v-98h-631v-26q0 -200 79 -313.5t221 -113.5q153 0 271 118l42 -90q-54 -64 -136 -97.5t-177 -33.5zM406 82q74 0 150.5 44.5t114.5 105.5v302h-213q-116 -1 -186 -68.5t-70 -175.5q0 -93 51 -150.5t153 -57.5zM1055 998 q-110 0 -182.5 -98.5t-87.5 -263.5h518v31q0 155 -66 243t-182 88zM862 1525h145l-231 -280h-105z" />
<glyph unicode="&#x1fe;" horiz-adv-x="1208" d="M1083 650q0 -200 -58.5 -352.5t-167.5 -235t-252 -82.5q-153 0 -267 94l-83 -158h-93l116 219q-154 186 -154 522v147q0 199 59 352t168.5 236.5t251.5 83.5q185 0 312 -137l88 166h93l-126 -238q110 -178 113 -450v-167zM238 650q0 -259 97 -407l524 990 q-97 132 -256 132q-169 0 -267 -151t-98 -414v-150zM969 806q0 200 -62 343l-516 -975q89 -85 214 -85q171 0 267.5 150t96.5 416v151zM739 1908h145l-231 -280h-105z" />
<glyph unicode="&#x1ff;" horiz-adv-x="1001" d="M95 556q0 239 112.5 392.5t293.5 153.5q98 0 178 -47l65 158h84l-84 -205q79 -72 122.5 -189t43.5 -263v-32q0 -239 -112 -391.5t-295 -152.5q-89 0 -167 39l-65 -158h-84l83 203q-175 148 -175 475v17zM205 524q0 -107 27.5 -199.5t81.5 -154.5l324 785q-62 43 -137 43 q-132 0 -214 -125.5t-82 -326.5v-22zM798 556q0 216 -100 342l-321 -781q56 -34 126 -34q133 0 214 123.5t81 325.5v24zM581 1524h145l-231 -280h-105z" />
<glyph unicode="&#x218;" horiz-adv-x="1059" d="M856 358q0 122 -69.5 192t-259.5 134t-279 143q-117 103 -117 272q0 167 115 272t297 105q186 0 304 -122t118 -314h-115q0 147 -82.5 237.5t-224.5 90.5q-138 0 -217.5 -74.5t-79.5 -192.5q0 -110 75 -180t239 -124.5t248 -113t124 -137.5t40 -186q0 -171 -115.5 -275.5 t-305.5 -104.5q-128 0 -233.5 52.5t-165 151t-59.5 232.5h114q0 -154 93 -242t251 -88q138 0 221.5 74t83.5 198zM500 -470l-65 52q59 102 61 214v93h106v-62q0 -193 -102 -297z" />
<glyph unicode="&#x219;" horiz-adv-x="914" d="M689 266q0 70 -58 122.5t-196.5 115t-193.5 104t-81 90.5t-26 116q0 125 90 206.5t233 81.5q154 0 246 -87t92 -230h-111q0 92 -63 152.5t-164 60.5q-98 0 -155.5 -50t-57.5 -130q0 -65 44 -106t190 -111q151 -66 208 -109t86 -95.5t29 -124.5q0 -134 -93 -213t-245 -79 q-161 0 -260.5 88t-99.5 227h112q5 -101 67.5 -156.5t180.5 -55.5q102 0 164 50t62 133zM426 -472l-65 52q59 102 61 214v93h106v-62q0 -193 -102 -297z" />
<glyph unicode="&#x21a;" horiz-adv-x="1067" d="M1005 1348h-414v-1348h-115v1348h-413v108h942v-108zM485 -465l-65 52q59 102 61 214v93h106v-62q0 -193 -102 -297z" />
<glyph unicode="&#x21b;" horiz-adv-x="594" d="M315 1358v-276h185v-100h-185v-719q0 -89 26.5 -132.5t88.5 -43.5q27 0 80 10l3 -100q-38 -17 -109 -17q-195 0 -200 268v734h-167v100h167v276h111zM337 -465l-65 52q59 102 61 214v93h106v-62q0 -193 -102 -297z" />
<glyph unicode="&#x237;" horiz-adv-x="440" d="M280 1082v-1171q0 -170 -68 -259t-190 -89q-45 0 -93 19l11 101q37 -16 82 -16q71 0 109 64t38 180v1171h111z" />
<glyph unicode="&#x259;" horiz-adv-x="930" d="M444 1102q114 0 206 -68.5t143 -190.5t51 -272v-54q0 -150 -51.5 -274t-139.5 -193.5t-193 -69.5q-167 0 -264.5 123t-97.5 343v99h635v26q0 186 -80.5 307t-208.5 121q-172 0 -270 -120l-46 85q109 138 316 138zM460 83q104 0 178 98.5t91 259.5h-520v-29 q0 -146 69 -237.5t182 -91.5z" />
<glyph unicode="&#x2bc;" horiz-adv-x="353" d="M135 1097l-65 53q75 122 78 251v135h110v-100q0 -212 -123 -339z" />
<glyph unicode="&#x2c6;" horiz-adv-x="793" d="M630 1268v-10h-100l-138 182l-138 -182h-98v12l201 256h69z" />
<glyph unicode="&#x2c7;" horiz-adv-x="754" d="M375 1328l141 193h98v-12l-201 -262h-77l-200 263v11h98z" />
<glyph unicode="&#x2c9;" horiz-adv-x="785" d="M681 1357h-570v99h570v-99z" />
<glyph unicode="&#x2d8;" horiz-adv-x="865" d="M716 1490q0 -114 -78 -186t-211 -72q-131 0 -210 71.5t-79 186.5h102q0 -80 47.5 -125t139.5 -45q87 0 137 45t50 125h102z" />
<glyph unicode="&#x2d9;" horiz-adv-x="459" d="M148 1381q0 35 22 58.5t60 23.5q39 0 61 -23.5t22 -58.5q0 -34 -22 -57t-61 -23q-38 0 -60 23t-22 57z" />
<glyph unicode="&#x2da;" horiz-adv-x="635" d="M117 1395q0 80 56 136t137 56t137 -56t56 -136q0 -79 -55 -133t-138 -54t-138 54t-55 133zM194 1395q0 -49 33 -82t83 -33q48 0 82.5 32.5t34.5 82.5q0 53 -34 86t-83 33q-51 0 -83.5 -34t-32.5 -85z" />
<glyph unicode="&#x2db;" horiz-adv-x="477" d="M317 0l-56 -54q-93 -93 -93 -179q0 -84 70 -84q43 0 88 32l12 -85q-56 -44 -123 -44q-64 0 -105 42.5t-41 127.5q0 75 51 149.5t145 132.5z" />
<glyph unicode="&#x2dc;" horiz-adv-x="800" d="M682 1486q0 -95 -48 -155t-118 -60q-44 0 -72.5 17t-52 38t-48 38t-60.5 17q-38 0 -64 -31.5t-26 -86.5l-81 3q0 95 47.5 154.5t118.5 59.5q31 0 55 -10.5t69.5 -46.5t65 -44t43.5 -8q38 0 64.5 33t26.5 88z" />
<glyph unicode="&#x2dd;" horiz-adv-x="688" d="M547 1535h131l-233 -303h-109zM282 1535h125l-192 -303h-98z" />
<glyph unicode="&#x2f3;" horiz-adv-x="559" d="M147 -231q0 59 38.5 101.5t93.5 42.5q53 0 91.5 -41t38.5 -103t-38.5 -101t-91.5 -39q-55 0 -93.5 40t-38.5 100zM210 -231q0 -30 20 -50.5t49 -20.5t48.5 20t19.5 51q0 32 -19.5 53.5t-48.5 21.5t-49 -21.5t-20 -53.5z" />
<glyph unicode="&#x300;" horiz-adv-x="0" d="M-367 1245h-99l-195 280h134z" />
<glyph unicode="&#x301;" horiz-adv-x="0" d="M-342 1525h134l-201 -280h-94z" />
<glyph unicode="&#x303;" horiz-adv-x="0" d="M-132 1486q0 -95 -48 -155t-118 -60q-44 0 -72.5 17t-52 38t-48 38t-60.5 17q-38 0 -64 -31.5t-26 -86.5l-81 3q0 95 47.5 154.5t118.5 59.5q31 0 55 -10.5t69.5 -46.5t65 -44t43.5 -8q38 0 64.5 33t26.5 88z" />
<glyph unicode="&#x309;" horiz-adv-x="0" d="M-509 1234v126q71 7 103.5 26.5t32.5 67.5q0 45 -44.5 69.5t-118.5 24.5l6 78q117 0 182.5 -46.5t65.5 -127.5q0 -135 -144 -156l-1 -62h-82z" />
<glyph unicode="&#x30f;" horiz-adv-x="0" d="M-438 1252h-110l-254 266h140zM-231 1252h-98l-210 266h129z" />
<glyph unicode="&#x323;" horiz-adv-x="0" d="M-672 -232q0 35 22 58.5t60 23.5q39 0 61 -23.5t22 -58.5q0 -34 -22 -57t-61 -23q-38 0 -60 23t-22 57z" />
<glyph unicode="&#x384;" horiz-adv-x="519" d="M273 1588h118l-109 -305h-83z" />
<glyph unicode="&#x385;" horiz-adv-x="873" d="M418 1664h122l-65 -252h-88zM142 1395q0 35 19 58.5t54 23.5t54.5 -23.5t19.5 -58.5q0 -34 -19.5 -57t-54.5 -23t-54 23t-19 57zM577 1394q0 35 19 58.5t54 23.5t54.5 -23.5t19.5 -58.5q0 -34 -19.5 -57t-54.5 -23t-54 23t-19 57z" />
<glyph unicode="&#x386;" d="M834 407h-546l-124 -407h-119l464 1456h106l464 -1456h-119zM321 514h480l-240 781zM232 1588h118l-109 -305h-83z" />
<glyph unicode="&#x387;" horiz-adv-x="467" d="M154 717q0 36 20 60.5t56 24.5t56.5 -24.5t20.5 -60.5q0 -35 -20.5 -58.5t-56.5 -23.5t-56 23.5t-20 58.5z" />
<glyph unicode="&#x388;" horiz-adv-x="1118" d="M951 697h-565v-591h650v-106h-764v1456h759v-108h-645v-545h565v-106zM-6 1589h118l-109 -305h-83z" />
<glyph unicode="&#x389;" horiz-adv-x="1359" d="M1185 0h-115v697h-684v-697h-114v1456h114v-653h684v653h115v-1456zM5 1590h118l-109 -305h-83z" />
<glyph unicode="&#x38a;" horiz-adv-x="600" d="M407 0h-114v1456h114v-1456zM17 1587h118l-109 -305h-83z" />
<glyph unicode="&#x38c;" horiz-adv-x="1228" d="M1095 570q0 -282 -123.5 -436t-346.5 -154q-221 0 -346.5 154t-126.5 433v317q0 281 125 436.5t346 155.5q224 0 348 -156t124 -439v-311zM980 886q0 239 -92 359t-265 120q-167 0 -261 -117.5t-96 -351.5v-326q0 -240 95 -360.5t264 -120.5q174 0 264.5 120t90.5 361 v316zM73 1588h118l-109 -305h-83z" />
<glyph unicode="&#x38e;" horiz-adv-x="1170" d="M634 664l363 792h131l-438 -908v-548h-114v548l-437 908h134zM-99 1588h118l-109 -305h-83z" />
<glyph unicode="&#x38f;" horiz-adv-x="1190" d="M667 121q129 53 199.5 210t70.5 396v119q0 241 -93.5 382t-246.5 141q-154 0 -246 -142.5t-92 -384.5v-113q0 -240 71.5 -397.5t203.5 -210.5v-121h-394v106h240q-113 100 -175 264.5t-62 358.5v115q0 185 57 330t160.5 223.5t236.5 78.5t237 -79t161 -223t57 -330v-115 q0 -195 -62 -359.5t-174 -263.5h241v-106h-390v121zM82 1588h118l-109 -305h-83z" />
<glyph unicode="&#x390;" horiz-adv-x="564" d="M286 1082v-810q0 -88 26.5 -131.5t88.5 -43.5q27 0 80 10l3 -102q-45 -15 -110 -15q-193 0 -199 263v829h111zM217 1643h122l-65 -252h-88zM-59 1374q0 35 19 58.5t54 23.5t54.5 -23.5t19.5 -58.5q0 -34 -19.5 -57t-54.5 -23t-54 23t-19 57zM376 1373q0 35 19 58.5 t54 23.5t54.5 -23.5t19.5 -58.5q0 -34 -19.5 -57t-54.5 -23t-54 23t-19 57z" />
<glyph unicode="&#x391;" d="M834 407h-546l-124 -407h-119l464 1456h106l464 -1456h-119zM321 514h480l-240 781z" />
<glyph unicode="&#x392;" horiz-adv-x="1097" d="M172 0v1456h369q197 0 298.5 -96.5t101.5 -284.5q0 -112 -52 -195t-144 -120q106 -27 171.5 -123.5t65.5 -226.5q0 -190 -104 -300t-295 -110h-411zM286 699v-593h302q130 0 205 80t75 222q0 132 -69.5 210t-193.5 81h-319zM286 804h265q130 0 202 69t72 205 q0 139 -70.5 204.5t-213.5 65.5h-255v-544z" />
<glyph unicode="&#x393;" horiz-adv-x="990" d="M914 1348h-626v-1348h-114v1456h740v-108z" />
<glyph unicode="&#x394;" horiz-adv-x="1241" d="M679 1456l499 -1456h-1123l517 1456h107zM211 106h812l-399 1188z" />
<glyph unicode="&#x2206;" horiz-adv-x="1241" d="M679 1456l499 -1456h-1123l517 1456h107zM211 106h812l-399 1188z" />
<glyph unicode="&#x395;" horiz-adv-x="1018" d="M851 697h-565v-591h650v-106h-764v1456h759v-108h-645v-545h565v-106z" />
<glyph unicode="&#x396;" horiz-adv-x="1069" d="M228 106h749v-106h-882v95l720 1254h-700v107h835v-91z" />
<glyph unicode="&#x397;" horiz-adv-x="1259" d="M1085 0h-115v697h-684v-697h-114v1456h114v-653h684v653h115v-1456z" />
<glyph unicode="&#x398;" horiz-adv-x="1200" d="M830 675h-460v103h460v-103zM1075 650q0 -200 -58.5 -352.5t-167.5 -235t-252 -82.5q-140 0 -249.5 82t-169.5 233.5t-61 346.5v162q0 199 59 352t168.5 236.5t250.5 83.5q217 0 348.5 -182t131.5 -499v-145zM962 806q0 263 -98.5 411t-268.5 148q-165 0 -263.5 -146.5 t-100.5 -403.5v-165q0 -258 98.5 -409.5t267.5 -151.5q172 0 268.5 150t96.5 416v151z" />
<glyph unicode="&#x399;" horiz-adv-x="500" d="M307 0h-114v1456h114v-1456z" />
<glyph unicode="&#x39a;" horiz-adv-x="1124" d="M455 718l-169 -196v-522h-114v1456h114v-776l160 200l451 576h143l-508 -648l547 -808h-139z" />
<glyph unicode="&#x39b;" horiz-adv-x="1157" d="M575 1262l-377 -1262h-124l447 1456h108l448 -1456h-124z" />
<glyph unicode="&#x39c;" horiz-adv-x="1531" d="M323 1456l441 -1281l443 1281h151v-1456h-114v631l10 635l-446 -1266h-88l-444 1260l10 -625v-635h-114v1456h151z" />
<glyph unicode="&#x39d;" horiz-adv-x="1262" d="M1088 0h-114l-687 1240v-1240h-115v1456h115l688 -1242v1242h113v-1456z" />
<glyph unicode="&#x39e;" horiz-adv-x="1006" d="M118 106h776v-106h-776v106zM198 787h609v-107h-609v107zM127 1456h746v-107h-746v107z" />
<glyph unicode="&#x39f;" horiz-adv-x="1208" d="M1075 570q0 -282 -123.5 -436t-346.5 -154q-221 0 -346.5 154t-126.5 433v317q0 281 125 436.5t346 155.5q224 0 348 -156t124 -439v-311zM960 886q0 239 -92 359t-265 120q-167 0 -261 -117.5t-96 -351.5v-326q0 -240 95 -360.5t264 -120.5q174 0 264.5 120t90.5 361 v316z" />
<glyph unicode="&#x3a0;" horiz-adv-x="1259" d="M1081 0h-114v1348h-676v-1348h-114v1456h904v-1456z" />
<glyph unicode="&#x3a1;" horiz-adv-x="1104" d="M286 592v-592h-114v1456h423q193 0 304 -116t111 -319q0 -207 -107.5 -318t-309.5 -111h-307zM286 699h309q144 0 222.5 83.5t78.5 236.5t-79.5 241t-220.5 88h-310v-649z" />
<glyph unicode="&#x3a3;" horiz-adv-x="1006" d="M620 742l-408 -635h710v-107h-848v94l426 663l-426 604v95h804v-107h-659l401 -572v-35z" />
<glyph unicode="&#x3a4;" horiz-adv-x="1067" d="M1005 1348h-414v-1348h-115v1348h-413v108h942v-108z" />
<glyph unicode="&#x3a5;" horiz-adv-x="1070" d="M534 664l363 792h131l-438 -908v-548h-114v548l-437 908h134z" />
<glyph unicode="&#x3a6;" horiz-adv-x="1270" d="M694 1268q139 0 250.5 -68.5t174 -192t62.5 -276.5q0 -152 -61.5 -275.5t-174 -193.5t-251.5 -70v-192h-115v192q-140 0 -251 68.5t-173.5 192t-62.5 276.5q0 151 62 276t174 194t251 69v188h115v-188zM579 299v862h-1q-169 0 -270.5 -117.5t-101.5 -314.5t101 -313.5 t272 -116.5zM694 1161v-862h2q167 0 269 116.5t102 315.5q0 197 -102 313.5t-271 116.5z" />
<glyph unicode="&#x3a7;" horiz-adv-x="1097" d="M549 842l335 614h136l-401 -718l413 -738h-137l-346 633l-347 -633h-136l415 738l-403 718h136z" />
<glyph unicode="&#x3a8;" horiz-adv-x="1234" d="M666 496q151 17 240 135t89 310v515h114v-521q0 -157 -55 -278t-156 -190.5t-232 -78.5v-388h-115v388q-197 17 -314.5 162.5t-118.5 384.5v521h114v-529q3 -181 89 -296.5t230 -133.5v959h115v-960z" />
<glyph unicode="&#x3a9;" horiz-adv-x="1170" d="M647 121q129 53 199.5 210t70.5 396v119q0 241 -93.5 382t-246.5 141q-154 0 -246 -142.5t-92 -384.5v-113q0 -240 71.5 -397.5t203.5 -210.5v-121h-394v106h240q-113 100 -175 264.5t-62 358.5v115q0 185 57 330t160.5 223.5t236.5 78.5t237 -79t161 -223t57 -330v-115 q0 -195 -62 -359.5t-174 -263.5h241v-106h-390v121z" />
<glyph unicode="&#x2126;" horiz-adv-x="1170" d="M647 121q129 53 199.5 210t70.5 396v119q0 241 -93.5 382t-246.5 141q-154 0 -246 -142.5t-92 -384.5v-113q0 -240 71.5 -397.5t203.5 -210.5v-121h-394v106h240q-113 100 -175 264.5t-62 358.5v115q0 185 57 330t160.5 223.5t236.5 78.5t237 -79t161 -223t57 -330v-115 q0 -195 -62 -359.5t-174 -263.5h241v-106h-390v121z" />
<glyph unicode="&#x3aa;" horiz-adv-x="500" d="M307 0h-114v1456h114v-1456zM-42 1716q0 35 21.5 58.5t60.5 23.5q38 0 60.5 -23.5t22.5 -58.5q0 -34 -22.5 -57t-60.5 -23q-39 0 -60.5 23t-21.5 57zM395 1715q0 35 22 58.5t60 23.5q39 0 61 -23.5t22 -58.5q0 -34 -22 -57t-61 -23q-38 0 -60 23t-22 57z" />
<glyph unicode="&#x3ab;" horiz-adv-x="1070" d="M534 664l363 792h131l-438 -908v-548h-114v548l-437 908h134zM242 1704q0 35 21.5 58.5t60.5 23.5q38 0 60.5 -23.5t22.5 -58.5q0 -34 -22.5 -57t-60.5 -23q-39 0 -60.5 23t-21.5 57zM679 1703q0 35 22 58.5t60 23.5q39 0 61 -23.5t22 -58.5q0 -34 -22 -57t-61 -23 q-38 0 -60 23t-22 57z" />
<glyph unicode="&#x3ac;" horiz-adv-x="1009" d="M846 1082v-814q1 -179 81 -179q16 0 40 8l15 -94q-35 -24 -86 -24q-64 0 -103 43t-52 144q-93 -187 -281 -187q-161 0 -255 143t-94 409q0 261 93.5 416t256.5 155q184 0 278 -194l12 174h95zM223 510q0 -204 67.5 -316t191.5 -112q175 0 253 230v436q-82 250 -252 250 q-124 0 -192 -124t-68 -364zM565 1546h118l-109 -305h-83z" />
<glyph unicode="&#x3ad;" horiz-adv-x="973" d="M108 297q0 197 188 258q-82 35 -127 98t-45 141q0 144 95 225.5t263 81.5q156 0 259.5 -88t103.5 -224h-110q0 92 -74 150.5t-179 58.5q-114 0 -180 -54.5t-66 -148.5q0 -192 249 -192h151v-102h-158q-126 0 -191.5 -49t-65.5 -157q0 -94 69 -153t192 -59q115 0 191 64 t76 163h111q0 -149 -106 -239.5t-272 -90.5q-170 0 -272 87t-102 230zM503 1545h118l-109 -305h-83z" />
<glyph unicode="&#x3ae;" horiz-adv-x="1001" d="M253 1082l6 -163q96 183 286 183q154 0 227 -98.5t76 -301.5v-1117h-111v1108q-1 157 -53 231t-166 74q-94 0 -160 -60t-96 -179v-759h-112v1082h103zM526 1546h118l-109 -305h-83z" />
<glyph unicode="&#x3af;" horiz-adv-x="564" d="M286 1082v-810q0 -88 26.5 -131.5t88.5 -43.5q27 0 80 10l3 -102q-45 -15 -110 -15q-193 0 -199 263v829h111zM255 1525h118l-109 -305h-83z" />
<glyph unicode="&#x3b0;" horiz-adv-x="963" d="M259 1082v-665q0 -334 197 -334q124 0 200 130.5t76 327.5q-4 266 -99 541h119q90 -245 90 -539q0 -257 -102 -410t-280 -153q-154 0 -233 108.5t-79 319.5v674h111zM448 1643h122l-65 -252h-88zM172 1374q0 35 19 58.5t54 23.5t54.5 -23.5t19.5 -58.5q0 -34 -19.5 -57 t-54.5 -23t-54 23t-19 57zM607 1373q0 35 19 58.5t54 23.5t54.5 -23.5t19.5 -58.5q0 -34 -19.5 -57t-54.5 -23t-54 23t-19 57z" />
<glyph unicode="&#x3b1;" horiz-adv-x="1009" d="M846 1082v-814q1 -179 81 -179q16 0 40 8l15 -94q-35 -24 -86 -24q-64 0 -103 43t-52 144q-93 -187 -281 -187q-161 0 -255 143t-94 409q0 261 93.5 416t256.5 155q184 0 278 -194l12 174h95zM223 510q0 -204 67.5 -316t191.5 -112q175 0 253 230v436q-82 250 -252 250 q-124 0 -192 -124t-68 -364z" />
<glyph unicode="&#x3b2;" horiz-adv-x="1059" d="M521 1476q155 0 250.5 -106.5t95.5 -277.5q0 -100 -43.5 -182t-124.5 -128q113 -39 175.5 -139t62.5 -238q0 -197 -103.5 -311t-274.5 -114q-84 0 -158 32t-124 89v-499h-111v1455q0 180 104 299.5t251 119.5zM757 1097q0 118 -64.5 196.5t-171.5 78.5q-104 0 -174 -89 t-70 -224v-826q38 -68 110 -109t163 -41q131 0 203.5 85.5t72.5 232.5q0 144 -71.5 231t-191.5 88h-123v105h72q245 0 245 272z" />
<glyph unicode="&#x3b3;" horiz-adv-x="886" d="M719 1082h114l-332 -1048v-449h-111v452l-333 1045h115l261 -843l14 -70l15 71z" />
<glyph unicode="&#x3b4;" horiz-adv-x="1001" d="M204 1288q0 121 83.5 198t224.5 77q133 0 241 -66l-7 -105q-115 65 -235 65q-88 0 -142 -45t-54 -121q0 -74 53 -126t169 -91t198 -115.5t125 -184.5t43 -241v-29q0 -236 -112 -380t-290 -144q-180 0 -292 144.5t-112 385.5v26q0 182 85.5 315.5t207.5 159.5l-1 8 q-97 46 -141 117t-44 152zM209 504q0 -189 80.5 -305t211.5 -116t210.5 116.5t79.5 313.5v23q0 150 -80.5 270.5t-200.5 145.5q-134 0 -217.5 -117.5t-83.5 -308.5v-22z" />
<glyph unicode="&#x3b5;" horiz-adv-x="973" d="M108 297q0 197 188 258q-82 35 -127 98t-45 141q0 144 95 225.5t263 81.5q156 0 259.5 -88t103.5 -224h-110q0 92 -74 150.5t-179 58.5q-114 0 -180 -54.5t-66 -148.5q0 -192 249 -192h151v-102h-158q-126 0 -191.5 -49t-65.5 -157q0 -94 69 -153t192 -59q115 0 191 64 t76 163h111q0 -149 -106 -239.5t-272 -90.5q-170 0 -272 87t-102 230z" />
<glyph unicode="&#x3b6;" horiz-adv-x="894" d="M803 1456v-80l-327 -504q-108 -160 -150.5 -275t-42.5 -233q0 -96 44.5 -151.5t163 -94t154.5 -52.5q74 -28 103 -69t29 -108q0 -70 -42 -151t-100 -125l-62 58q97 92 97 204q0 45 -33 71.5t-143.5 60t-166 64.5t-89.5 71.5t-50 94t-16 124.5q0 251 219 572l285 419h-589 v104h716z" />
<glyph unicode="&#x3b7;" horiz-adv-x="1001" d="M253 1082l6 -163q96 183 286 183q154 0 227 -98.5t76 -301.5v-1117h-111v1108q-1 157 -53 231t-166 74q-94 0 -160 -60t-96 -179v-759h-112v1082h103z" />
<glyph unicode="&#x3b8;" horiz-adv-x="1024" d="M890 617q0 -308 -99 -472.5t-279 -164.5q-178 0 -277 163t-102 457v243q0 304 99 468.5t279 164.5q182 0 280 -164t99 -463v-232zM245 775h533v84q0 245 -69.5 379t-197.5 134q-129 0 -197.5 -135t-68.5 -381v-81zM778 671h-533v-68q0 -245 70 -382.5t197 -137.5 q128 0 197 136.5t69 386.5v65z" />
<glyph unicode="&#x3b9;" horiz-adv-x="564" d="M286 1082v-810q0 -88 26.5 -131.5t88.5 -43.5q27 0 80 10l3 -102q-45 -15 -110 -15q-193 0 -199 263v829h111z" />
<glyph unicode="&#x3ba;" horiz-adv-x="978" d="M377 494h-110v-494h-112v1082h112v-479h105l365 479h135l-401 -526l441 -556h-141z" />
<glyph unicode="&#x3bb;" horiz-adv-x="988" d="M233 1518q130 0 189 -154l21 -62l341 -1067q21 -69 43.5 -103.5t61.5 -34.5q22 0 36 4l6 -101q-20 -11 -59 -11q-70 0 -114.5 46t-81.5 163l-215 677l-278 -875h-124l347 1047l-70 211q-27 92 -55.5 124t-70.5 32l-40 -4l-3 97q22 11 66 11z" />
<glyph unicode="&#x3bc;" horiz-adv-x="1001" d="M265 1082v-655q3 -168 53.5 -256t160.5 -88q102 0 165.5 52t90.5 164v783h112v-1082h-101l-7 145q-80 -165 -253 -165q-149 0 -221 121v-517h-110v1498h110z" />
<glyph unicode="&#x3bd;" horiz-adv-x="869" d="M435 174l266 908h114l-337 -1082h-88l-339 1082h114z" />
<glyph unicode="&#x3be;" horiz-adv-x="884" d="M774 1331q-104 41 -206 41q-133 0 -206 -62.5t-73 -167.5q0 -238 305 -238h106v-105h-109q-177 0 -270 -91.5t-93 -263.5q0 -136 72.5 -222.5t223 -130.5t188.5 -65q85 -47 85 -151q0 -67 -41.5 -140t-97.5 -117l-65 60l30 32q68 74 68 155q0 40 -30.5 64t-133.5 55 t-164 59q-127 58 -186.5 156.5t-59.5 248.5q0 151 72 255t204 148q-102 38 -159 114.5t-57 172.5q0 157 103 247.5t288 90.5q123 0 222 -44z" />
<glyph unicode="&#x3bf;" horiz-adv-x="1005" d="M106 596q0 234 106 370t289 136q184 0 289.5 -134t106.5 -369v-115q0 -238 -106.5 -371t-287.5 -133t-287 130t-110 358v128zM218 484q0 -187 75.5 -294t209.5 -107q137 0 209.5 103t73.5 295v115q0 187 -76 294.5t-209 107.5q-129 0 -205 -105t-78 -289v-120z" />
<glyph unicode="&#x3c0;" horiz-adv-x="1064" d="M972 977h-150v-704q0 -92 26.5 -134t88.5 -42q26 0 79 10l4 -102q-45 -15 -110 -15q-103 0 -151 70t-49 206v711h-387v-977h-111v977h-151v105h911v-105z" />
<glyph unicode="&#x3c1;" horiz-adv-x="1001" d="M517 1102q174 0 272 -152.5t98 -439.5q0 -242 -91.5 -386t-254.5 -144q-184 0 -279 143v-539h-112v1034q3 221 104 352.5t263 131.5zM262 262q36 -88 101 -133.5t151 -45.5q124 0 193 111.5t69 336.5q0 218 -68 342.5t-191 124.5q-115 0 -184 -111t-70 -298z" />
<glyph unicode="&#x3c2;" horiz-adv-x="961" d="M501 1102q154 0 248.5 -104.5t94.5 -283.5h-105q0 132 -64.5 208t-173.5 76q-128 0 -202.5 -120t-74.5 -326v-32q0 -329 329 -427q129 -38 169 -85t40 -129q0 -58 -42 -137.5t-93 -117.5l-60 59q88 88 88 184q0 52 -27.5 78t-109.5 47q-407 104 -407 530v40 q0 239 107.5 389.5t282.5 150.5z" />
<glyph unicode="&#x3c3;" horiz-adv-x="999" d="M973 977h-260q190 -140 190 -453v-19q0 -228 -112.5 -376.5t-289.5 -148.5q-182 0 -293 150.5t-111 401.5v24q0 234 111.5 380t294.5 146h470v-105zM208 524q0 -195 80 -318t213 -123q131 0 211 123t80 325v25q0 187 -81 304t-212 117q-130 0 -210.5 -117.5t-80.5 -312.5 v-23z" />
<glyph unicode="&#x3c4;" horiz-adv-x="923" d="M836 978h-333v-704q0 -94 27.5 -141t88.5 -47q37 0 81 17l25 -91q-51 -32 -130 -32q-106 0 -154 71.5t-50 215.5v711h-306v104h751v-104z" />
<glyph unicode="&#x3c5;" horiz-adv-x="963" d="M259 1082v-665q0 -334 197 -334q124 0 200 130.5t76 327.5q-4 266 -99 541h119q90 -245 90 -539q0 -257 -102 -410t-280 -153q-154 0 -233 108.5t-79 319.5v674h111z" />
<glyph unicode="&#x3c6;" horiz-adv-x="1226" d="M552 -18q-211 16 -326 163.5t-115 409.5q0 171 56.5 308t161.5 219l59 -89q-74 -65 -119 -180.5t-47 -258.5q0 -205 86.5 -328t243.5 -141v787q0 96 51 153t134 57q105 0 193 -70.5t137.5 -193.5t49.5 -273q0 -243 -121 -394.5t-333 -169.5v-459h-111v460zM663 85 q158 17 250.5 142.5t92.5 316.5q-2 185 -77.5 309t-191.5 124q-33 0 -53.5 -28t-20.5 -72v-792z" />
<glyph unicode="&#x3c7;" horiz-adv-x="880" d="M438 645l237 437h131l-307 -531l319 -551h-130l-249 455l-250 -455h-130l318 551l-306 531h130z" />
<glyph unicode="&#x3c8;" horiz-adv-x="1221" d="M658 1082v-996q164 17 254 145.5t90 345.5q-3 242 -115 505h120l32 -81q74 -199 74 -423q0 -275 -118 -428.5t-337 -167.5v-426h-110v427q-210 19 -319 170.5t-112 424.5v504h112v-498q1 -224 82.5 -351t236.5 -147v996h110z" />
<glyph unicode="&#x3c9;" horiz-adv-x="1458" d="M367 1082q-120 -282 -124 -551q0 -208 58 -328t159 -120q102 0 156.5 99.5t55.5 285.5v302h112v-302q1 -186 55.5 -285.5t157.5 -99.5q100 0 158.5 118.5t58.5 329.5q-3 267 -125 551h121q64 -152 89 -281.5t25 -268.5q0 -260 -85.5 -406t-236.5 -146q-207 0 -274 249 q-67 -249 -274 -249q-152 0 -236.5 147t-84.5 405q0 148 26 278.5t88 271.5h120z" />
<glyph unicode="&#x3ca;" horiz-adv-x="564" d="M286 1082v-810q0 -88 26.5 -131.5t88.5 -43.5q27 0 80 10l3 -102q-45 -15 -110 -15q-193 0 -199 263v829h111zM-58 1374q0 35 21.5 58.5t60.5 23.5q38 0 60.5 -23.5t22.5 -58.5q0 -34 -22.5 -57t-60.5 -23q-39 0 -60.5 23t-21.5 57zM379 1373q0 35 22 58.5t60 23.5 q39 0 61 -23.5t22 -58.5q0 -34 -22 -57t-61 -23q-38 0 -60 23t-22 57z" />
<glyph unicode="&#x3cb;" horiz-adv-x="963" d="M259 1082v-665q0 -334 197 -334q124 0 200 130.5t76 327.5q-4 266 -99 541h119q90 -245 90 -539q0 -257 -102 -410t-280 -153q-154 0 -233 108.5t-79 319.5v674h111zM173 1374q0 35 21.5 58.5t60.5 23.5q38 0 60.5 -23.5t22.5 -58.5q0 -34 -22.5 -57t-60.5 -23 q-39 0 -60.5 23t-21.5 57zM610 1373q0 35 22 58.5t60 23.5q39 0 61 -23.5t22 -58.5q0 -34 -22 -57t-61 -23q-38 0 -60 23t-22 57z" />
<glyph unicode="&#x3cc;" horiz-adv-x="1005" d="M106 596q0 234 106 370t289 136q184 0 289.5 -134t106.5 -369v-115q0 -238 -106.5 -371t-287.5 -133t-287 130t-110 358v128zM218 484q0 -187 75.5 -294t209.5 -107q137 0 209.5 103t73.5 295v115q0 187 -76 294.5t-209 107.5q-129 0 -205 -105t-78 -289v-120zM520 1546 h118l-109 -305h-83z" />
<glyph unicode="&#x3cd;" horiz-adv-x="963" d="M259 1082v-665q0 -334 197 -334q124 0 200 130.5t76 327.5q-4 266 -99 541h119q90 -245 90 -539q0 -257 -102 -410t-280 -153q-154 0 -233 108.5t-79 319.5v674h111zM486 1525h118l-109 -305h-83z" />
<glyph unicode="&#x3ce;" horiz-adv-x="1458" d="M367 1082q-120 -282 -124 -551q0 -208 58 -328t159 -120q102 0 156.5 99.5t55.5 285.5v302h112v-302q1 -186 55.5 -285.5t157.5 -99.5q100 0 158.5 118.5t58.5 329.5q-3 267 -125 551h121q64 -152 89 -281.5t25 -268.5q0 -260 -85.5 -406t-236.5 -146q-207 0 -274 249 q-67 -249 -274 -249q-152 0 -236.5 147t-84.5 405q0 148 26 278.5t88 271.5h120zM759 1523h118l-109 -305h-83z" />
<glyph unicode="&#x3d1;" horiz-adv-x="1029" d="M979 673q-63 -28 -135 -34v-224q-3 -212 -94 -323.5t-259 -111.5q-166 0 -263 119.5t-98 325.5v332l111 2v-341q2 -166 69.5 -249t180.5 -83q121 0 180.5 81t61.5 248v226q-194 23 -307.5 156.5t-113.5 343.5v13q0 151 72.5 242t185.5 91q131 0 202.5 -105t71.5 -293 v-344q65 7 127 29zM424 1133q0 -157 80.5 -259.5t228.5 -124.5v360q-5 271 -163 271q-68 0 -107 -59t-39 -188z" />
<glyph unicode="&#x3d2;" horiz-adv-x="961" d="M890 1467q53 0 97 -27l-26 -97q-17 14 -54 14q-43 0 -71.5 -33.5t-54.5 -106.5l-239 -622v-595h-115v600l-244 630q-27 68 -54 97.5t-67 29.5q-39 0 -56 -14l-24 96q43 28 96 28q72 0 119.5 -46.5t87.5 -151.5l186 -495l13 -57l16 61l188 498q41 103 86 147t116 44z" />
<glyph unicode="&#x3d6;" horiz-adv-x="1392" d="M1340 977h-138q73 -205 73 -445q0 -254 -80 -403t-224 -149q-206 0 -273 248q-67 -248 -273 -248q-142 0 -223 146.5t-81 405.5q0 240 73 445h-124v105h1270v-105zM1164 531q-4 216 -84 446h-765q-81 -232 -83 -446q0 -208 52.5 -328t145.5 -120q104 0 157.5 100.5 t54.5 284.5v278h112v-278q1 -184 54.5 -284.5t158.5 -100.5q91 0 144 119t53 329z" />
<glyph unicode="&#x400;" horiz-adv-x="1018" d="M851 697h-565v-591h650v-106h-764v1456h759v-108h-645v-545h565v-106zM614 1566h-109l-226 280h144z" />
<glyph unicode="&#x401;" horiz-adv-x="1018" d="M851 697h-565v-591h650v-106h-764v1456h759v-108h-645v-545h565v-106zM247 1716q0 35 21.5 58.5t60.5 23.5q38 0 60.5 -23.5t22.5 -58.5q0 -34 -22.5 -57t-60.5 -23q-39 0 -60.5 23t-21.5 57zM684 1715q0 35 22 58.5t60 23.5q39 0 61 -23.5t22 -58.5q0 -34 -22 -57 t-61 -23q-38 0 -60 23t-22 57z" />
<glyph unicode="&#x402;" horiz-adv-x="1322" d="M1007 1348h-468v-528q64 30 140 48t130 18q204 0 313.5 -119.5t109.5 -342.5q0 -195 -109.5 -315t-296.5 -120l-1 101q136 0 214 88.5t78 244.5q0 169 -79 260t-230 91q-130 0 -269 -64v-710h-116v1348h-360v108h944v-108z" />
<glyph unicode="&#x403;" horiz-adv-x="990" d="M914 1348h-626v-1348h-114v1456h740v-108zM659 1846h145l-231 -280h-105z" />
<glyph unicode="&#x404;" horiz-adv-x="1180" d="M1047 454q-21 -228 -137.5 -351t-315.5 -123q-209 0 -336.5 180t-127.5 485v172q0 196 58 346t165.5 231.5t249.5 81.5q193 0 308 -123t136 -353h-115q-38 368 -329 368q-165 0 -261.5 -147.5t-96.5 -406.5v-24h504v-107h-504v-46q0 -254 94 -402.5t255 -148.5 q152 0 234 86.5t103 281.5h116z" />
<glyph unicode="&#x405;" horiz-adv-x="1059" d="M856 358q0 122 -69.5 192t-259.5 134t-279 143q-117 103 -117 272q0 167 115 272t297 105q186 0 304 -122t118 -314h-115q0 147 -82.5 237.5t-224.5 90.5q-138 0 -217.5 -74.5t-79.5 -192.5q0 -110 75 -180t239 -124.5t248 -113t124 -137.5t40 -186q0 -171 -115.5 -275.5 t-305.5 -104.5q-128 0 -233.5 52.5t-165 151t-59.5 232.5h114q0 -154 93 -242t251 -88q138 0 221.5 74t83.5 198z" />
<glyph unicode="&#x406;" horiz-adv-x="500" d="M307 0h-114v1456h114v-1456z" />
<glyph unicode="&#x407;" horiz-adv-x="500" d="M307 0h-114v1456h114v-1456zM-42 1716q0 35 21.5 58.5t60.5 23.5q38 0 60.5 -23.5t22.5 -58.5q0 -34 -22.5 -57t-60.5 -23q-39 0 -60.5 23t-21.5 57zM395 1715q0 35 22 58.5t60 23.5q39 0 61 -23.5t22 -58.5q0 -34 -22 -57t-61 -23q-38 0 -60 23t-22 57z" />
<glyph unicode="&#x408;" horiz-adv-x="987" d="M707 1456h115v-1023q0 -210 -102 -331.5t-271 -121.5q-178 0 -275 110.5t-97 310.5h114q0 -158 68.5 -236.5t189.5 -78.5q116 0 186.5 93t71.5 249v1028z" />
<glyph unicode="&#x409;" horiz-adv-x="1860" d="M1043 1456v-606h297q191 0 301 -113.5t110 -311.5q0 -196 -109.5 -310.5t-300.5 -114.5h-413v1348h-462l-30 -651q-16 -288 -52 -428.5t-101 -203.5t-176 -65h-45v106l33 2q82 3 126 59t67.5 180t37.5 405l31 704h686zM1043 743v-637h300q135 0 214.5 86.5t79.5 234.5 q0 142 -78 228t-209 88h-307z" />
<glyph unicode="&#x40a;" horiz-adv-x="1897" d="M289 787h675v669h115v-628h298q193 0 301.5 -110.5t108.5 -301.5t-109.5 -303.5t-299.5 -112.5h-414v680h-675v-680h-114v1456h114v-669zM1079 722v-612h301q137 0 215 83t78 225q0 137 -76 219t-207 85h-311z" />
<glyph unicode="&#x40b;" horiz-adv-x="1426" d="M1009 1348h-464v-535q157 50 306 50q208 0 307 -106t104 -321v-436h-116v424q-2 172 -71.5 252t-223.5 80q-145 0 -306 -50v-706h-115v1348h-363v108h942v-108z" />
<glyph unicode="&#x40c;" horiz-adv-x="1124" d="M455 718l-169 -196v-522h-114v1456h114v-776l160 200l451 576h143l-508 -648l547 -808h-139zM647 1794h145l-231 -280h-105z" />
<glyph unicode="&#x40d;" horiz-adv-x="1262" d="M970 1456h114v-1456h-114v1240l-679 -1240h-115v1456h115v-1239zM710 1566h-109l-226 280h144z" />
<glyph unicode="&#x40e;" horiz-adv-x="1120" d="M581 535l337 921h134l-461 -1207l-39 -87q-86 -183 -259 -183q-58 0 -80 11l9 102q18 -7 72 -7q99 0 157 122l25 56l48 122l-454 1071h130zM852 1814q0 -114 -78 -186t-211 -72q-131 0 -210 71.5t-79 186.5h102q0 -80 47.5 -125t139.5 -45q87 0 137 45t50 125h102z" />
<glyph unicode="&#x40f;" horiz-adv-x="1256" d="M174 1456h115v-1350h675v1350h115v-1456h-390v-354h-116v354h-399v1456z" />
<glyph unicode="&#x410;" d="M834 407h-546l-124 -407h-119l464 1456h106l464 -1456h-119zM321 514h480l-240 781z" />
<glyph unicode="&#x411;" horiz-adv-x="1120" d="M906 1348h-625v-522h297q195 0 303.5 -108.5t108.5 -302.5q0 -193 -109 -304t-301 -111h-414v1456h740v-108zM281 718v-612h301q139 0 216 83.5t77 227.5q0 138 -76.5 219t-212.5 82h-305z" />
<glyph unicode="&#x412;" horiz-adv-x="1097" d="M172 0v1456h369q197 0 298.5 -96.5t101.5 -284.5q0 -112 -52 -195t-144 -120q106 -27 171.5 -123.5t65.5 -226.5q0 -190 -104 -300t-295 -110h-411zM286 699v-593h302q130 0 205 80t75 222q0 132 -69.5 210t-193.5 81h-319zM286 804h265q130 0 202 69t72 205 q0 139 -70.5 204.5t-213.5 65.5h-255v-544z" />
<glyph unicode="&#x413;" horiz-adv-x="990" d="M914 1348h-626v-1348h-114v1456h740v-108z" />
<glyph unicode="&#x414;" horiz-adv-x="1294" d="M1084 106h136l-1 -459h-115v353h-913v-353h-115v459h85q86 105 144.5 327.5t69.5 497.5l22 525h687v-1350zM287 106h683v1242h-463l-17 -418q-12 -265 -65.5 -481.5t-137.5 -342.5z" />
<glyph unicode="&#x415;" horiz-adv-x="1018" d="M851 697h-565v-591h650v-106h-764v1456h759v-108h-645v-545h565v-106z" />
<glyph unicode="&#x416;" horiz-adv-x="1563" d="M979 691h-137v-691h-115v691h-140l-403 -691h-144l447 754l-417 702h138l373 -657h146v657h115v-657h142l373 657h137l-416 -701l447 -755h-143z" />
<glyph unicode="&#x417;" horiz-adv-x="1063" d="M832 1076q0 138 -81.5 215.5t-228.5 77.5q-126 0 -211 -82t-85 -213h-114q0 116 53.5 208t148.5 143t208 51q200 0 312.5 -106t112.5 -298q0 -108 -57 -194.5t-162 -131.5q118 -38 177.5 -127t59.5 -223q0 -189 -120 -302.5t-323 -113.5q-119 0 -219 52.5t-154.5 147.5 t-54.5 224h114q0 -139 89 -229t225 -90q153 0 241 82.5t88 224.5q0 156 -83.5 226t-241.5 70h-145v108h140q311 0 311 280z" />
<glyph unicode="&#x418;" horiz-adv-x="1262" d="M970 1456h114v-1456h-114v1240l-679 -1240h-115v1456h115v-1239z" />
<glyph unicode="&#x419;" horiz-adv-x="1262" d="M970 1456h114v-1456h-114v1240l-679 -1240h-115v1456h115v-1239zM925 1814q0 -114 -78 -186t-211 -72q-131 0 -210 71.5t-79 186.5h102q0 -80 47.5 -125t139.5 -45q87 0 137 45t50 125h102z" />
<glyph unicode="&#x41a;" horiz-adv-x="1140" d="M454 682h-163v-682h-114v1456h114v-667h156l464 667h144l-499 -715l536 -741h-142z" />
<glyph unicode="&#x41b;" horiz-adv-x="1250" d="M1074 1456v-1456h-115v1348h-501l-30 -651q-16 -288 -52 -428.5t-101 -203.5t-176 -65h-44v106l32 2q82 3 126 59t67.5 179.5t37.5 383.5l31 726h725z" />
<glyph unicode="&#x41c;" horiz-adv-x="1531" d="M323 1456l441 -1281l443 1281h151v-1456h-114v631l10 635l-446 -1266h-88l-444 1260l10 -625v-635h-114v1456h151z" />
<glyph unicode="&#x41d;" horiz-adv-x="1259" d="M1085 0h-115v697h-684v-697h-114v1456h114v-653h684v653h115v-1456z" />
<glyph unicode="&#x41e;" horiz-adv-x="1208" d="M1075 570q0 -282 -123.5 -436t-346.5 -154q-221 0 -346.5 154t-126.5 433v317q0 281 125 436.5t346 155.5q224 0 348 -156t124 -439v-311zM960 886q0 239 -92 359t-265 120q-167 0 -261 -117.5t-96 -351.5v-326q0 -240 95 -360.5t264 -120.5q174 0 264.5 120t90.5 361 v316z" />
<glyph unicode="&#x41f;" horiz-adv-x="1259" d="M1081 0h-114v1348h-676v-1348h-114v1456h904v-1456z" />
<glyph unicode="&#x420;" horiz-adv-x="1104" d="M286 592v-592h-114v1456h423q193 0 304 -116t111 -319q0 -207 -107.5 -318t-309.5 -111h-307zM286 699h309q144 0 222.5 83.5t78.5 236.5t-79.5 241t-220.5 88h-310v-649z" />
<glyph unicode="&#x421;" horiz-adv-x="1158" d="M1045 454q-16 -245 -132 -359.5t-321 -114.5q-211 0 -333 159.5t-123 433.5v316q0 275 124.5 431t340.5 156q204 0 316 -117t128 -359h-116q-16 198 -93.5 283t-234.5 85q-165 0 -257 -123t-92 -357v-312q0 -232 89 -361t251 -129q170 0 246 85t91 283h116z" />
<glyph unicode="&#x422;" horiz-adv-x="1067" d="M1005 1348h-414v-1348h-115v1348h-413v108h942v-108z" />
<glyph unicode="&#x423;" horiz-adv-x="1120" d="M581 535l337 921h134l-461 -1207l-39 -87q-86 -183 -259 -183q-58 0 -80 11l9 102q18 -7 72 -7q99 0 157 122l25 56l48 122l-454 1071h130z" />
<glyph unicode="&#x424;" horiz-adv-x="1327" d="M721 1308h23q142 0 257.5 -74.5t180 -207t64.5 -295.5q0 -162 -63.5 -294.5t-177.5 -207.5t-253 -77h-31v-212h-111v212h-24q-142 0 -257 73.5t-179.5 206t-64.5 297.5q0 163 63 295t177 207t253 77h32v208h111v-208zM587 1204q-178 0 -284.5 -130t-106.5 -345 q0 -217 106.5 -345t286.5 -128h21v948h-23zM721 1204v-948h24q177 0 283.5 130t106.5 345q0 212 -105 342t-284 131h-25z" />
<glyph unicode="&#x425;" horiz-adv-x="1097" d="M549 842l335 614h136l-401 -718l413 -738h-137l-346 633l-347 -633h-136l415 738l-403 718h136z" />
<glyph unicode="&#x426;" horiz-adv-x="1273" d="M170 1456h115v-1350h675v1350h114v-1348h122l-9 -459h-105v351h-912v1456z" />
<glyph unicode="&#x427;" horiz-adv-x="1191" d="M1016 1456v-1456h-115v659q-168 -56 -330 -56q-208 0 -307 106t-103 323v424h115v-417q2 -171 72 -250t223 -79q164 0 330 56v690h115z" />
<glyph unicode="&#x428;" horiz-adv-x="1637" d="M287 1456v-1350h476v1350h114v-1350h474v1350h115v-1456h-1294v1456h115z" />
<glyph unicode="&#x429;" horiz-adv-x="1670" d="M287 1456v-1350h476v1350h114v-1350h474v1350h115v-1353h117l-9 -454h-100v351h-1302v1456h115z" />
<glyph unicode="&#x42a;" horiz-adv-x="1366" d="M15 1456h513v-630h298q193 0 301.5 -108.5t108.5 -302.5q0 -193 -109 -304t-301 -111h-413v1352h-398v104zM528 718v-612h301q138 0 215 83.5t77 227.5q0 138 -76.5 219t-210.5 82h-306z" />
<glyph unicode="&#x42b;" horiz-adv-x="1486" d="M289 826h297q195 0 303.5 -108.5t108.5 -302.5q0 -193 -109 -304t-301 -111h-413v1456h114v-630zM289 718v-612h301q139 0 216 83.5t77 227.5q0 138 -76.5 219t-212.5 82h-305zM1304 0h-114v1456h114v-1456z" />
<glyph unicode="&#x42c;" horiz-adv-x="1098" d="M281 826h297q195 0 303.5 -108.5t108.5 -302.5q0 -193 -109 -304t-301 -111h-413v1456h114v-630zM281 718v-612h301q139 0 216 83.5t77 227.5q0 138 -76.5 219t-212.5 82h-305z" />
<glyph unicode="&#x42d;" horiz-adv-x="1180" d="M254 454q21 -192 102 -280t235 -88q162 0 256 150t94 408v34h-506v107h506v34q0 251 -96.5 400t-261.5 149q-291 0 -329 -368h-115q21 230 136 353t308 123q141 0 248.5 -81.5t165.5 -231.5t58 -346v-180q0 -195 -58 -345.5t-163.5 -231t-242.5 -80.5 q-199 0 -315.5 123.5t-136.5 350.5h115z" />
<glyph unicode="&#x42e;" horiz-adv-x="1601" d="M1473 570q0 -282 -123.5 -436t-346.5 -154q-221 0 -346.5 154t-126.5 433v117h-224v-684h-114v1456h114v-669h224v113q4 274 128 425t343 151q224 0 348 -156t124 -439v-311zM1358 886q0 239 -92 359t-265 120q-167 0 -261 -117.5t-96 -351.5v-326q0 -240 95 -360.5 t264 -120.5q174 0 264.5 120t90.5 361v316z" />
<glyph unicode="&#x42f;" horiz-adv-x="1100" d="M823 0v592h-337l-266 -592h-123l288 628q-118 48 -180.5 147.5t-62.5 241.5q0 206 110 322.5t311 116.5h375v-1456h-115zM257 1018q0 -143 73.5 -231t207.5 -88h285v649h-263q-147 0 -225 -86t-78 -244z" />
<glyph unicode="&#x430;" horiz-adv-x="964" d="M720 0q-15 52 -20 150q-50 -81 -128.5 -125.5t-170.5 -44.5q-140 0 -218 79t-78 225q0 159 108.5 252t299.5 94h186v151q0 116 -57.5 166.5t-168.5 50.5q-103 0 -169 -60t-66 -155l-111 1q0 133 100 225.5t251 92.5q163 0 247 -82t84 -239v-531q0 -159 29 -238v-12h-118z M415 87q98 0 173.5 51t110.5 136v263h-176q-152 -2 -229 -67.5t-77 -176.5q0 -206 198 -206z" />
<glyph unicode="&#x431;" horiz-adv-x="987" d="M521 1011q173 0 279.5 -134.5t106.5 -358.5v-24q0 -229 -110.5 -371.5t-292.5 -142.5q-180 0 -291.5 142t-111.5 379v98q0 329 106 533t304 243q124 25 175.5 66t51.5 112h94q0 -154 -106 -222q-58 -38 -194.5 -64.5t-219 -140t-106.5 -296.5q54 81 133.5 131t181.5 50z M503 907q-130 0 -210 -107t-80 -282v-24q0 -183 80 -297t211 -114q130 0 211 113t81 306v24q0 169 -80.5 275t-212.5 106z" />
<glyph unicode="&#x432;" horiz-adv-x="1006" d="M160 0v1082h338q173 0 267 -73t94 -216q0 -81 -42 -144.5t-122 -92.5q92 -20 145.5 -91.5t53.5 -164.5q0 -143 -88 -220.5t-245 -79.5h-401zM270 497v-395h285q111 0 170 51.5t59 148.5q0 90 -59 142.5t-170 52.5h-285zM270 599h235q243 0 243 190q0 184 -235 189h-243 v-379z" />
<glyph unicode="&#x433;" horiz-adv-x="764" d="M718 977h-451v-977h-112v1082h563v-105z" />
<glyph unicode="&#x434;" horiz-adv-x="1036" d="M130 103l44 68q102 163 119 471l17 440h546v-979h99v-421h-111v318h-673v-318h-108l1 421h66zM253 103h492v865h-328l-14 -334q-23 -348 -150 -531z" />
<glyph unicode="&#x435;" horiz-adv-x="937" d="M505 -20q-191 0 -299 125t-110 356v132q0 238 104 373.5t286 135.5q176 0 268.5 -115t94.5 -352v-104h-643v-61q0 -186 79.5 -287t224.5 -101q160 0 259 117l58 -74q-106 -145 -322 -145zM486 998q-131 0 -201.5 -92.5t-77.5 -270.5h531v29q-8 334 -252 334z" />
<glyph unicode="&#x436;" horiz-adv-x="1359" d="M848 498h-118v-498h-111v498h-118l-321 -498h-140l368 557l-328 525h134l286 -474h119v474h111v-474h119l287 474h136l-330 -526l369 -556h-142z" />
<glyph unicode="&#x437;" horiz-adv-x="911" d="M675 795q0 97 -58.5 150t-162.5 53q-96 0 -162 -60.5t-66 -148.5h-110q0 136 98 224t240 88q157 0 244.5 -80.5t87.5 -226.5q0 -78 -40 -141t-116 -98q173 -60 173 -258q0 -145 -95 -230.5t-254 -85.5q-153 0 -253 91t-100 238h111q0 -96 69.5 -161.5t172.5 -65.5 q113 0 175 57.5t62 154.5q0 108 -57.5 156t-174.5 48h-142v106h153q205 4 205 190z" />
<glyph unicode="&#x438;" horiz-adv-x="1012" d="M744 1082h111v-1082h-111v885l-477 -885h-111v1082h111v-886z" />
<glyph unicode="&#x439;" horiz-adv-x="1012" d="M744 1082h111v-1082h-111v885l-477 -885h-111v1082h111v-886zM792 1472q0 -114 -78 -186t-211 -72q-131 0 -210 71.5t-79 186.5h102q0 -80 47.5 -125t139.5 -45q87 0 137 45t50 125h102z" />
<glyph unicode="&#x43a;" horiz-adv-x="938" d="M401 494h-133v-494h-112v1082h112v-479h131l328 479h138l-373 -523l412 -559h-145z" />
<glyph unicode="&#x43b;" horiz-adv-x="1013" d="M856 1082v-1082h-111v977h-360l-16 -401q-13 -318 -71.5 -444.5t-189.5 -131.5h-51v109l32 1q86 4 122 100.5t48 340.5l19 531h578z" />
<glyph unicode="&#x43c;" horiz-adv-x="1301" d="M655 165l352 917h137v-1082h-111v869l-339 -869h-78l-346 891v-891h-110v1082h145z" />
<glyph unicode="&#x43d;" horiz-adv-x="1012" d="M855 0h-111v495h-476v-495h-112v1082h112v-484h476v484h111v-1082z" />
<glyph unicode="&#x43e;" horiz-adv-x="1005" d="M106 596q0 234 106 370t289 136q184 0 289.5 -134t106.5 -369v-115q0 -238 -106.5 -371t-287.5 -133t-287 130t-110 358v128zM218 484q0 -187 75.5 -294t209.5 -107q137 0 209.5 103t73.5 295v115q0 187 -76 294.5t-209 107.5q-129 0 -205 -105t-78 -289v-120z" />
<glyph unicode="&#x43f;" horiz-adv-x="1012" d="M855 0h-111v977h-476v-977h-112v1082h699v-1082z" />
<glyph unicode="&#x440;" horiz-adv-x="996" d="M886 490q0 -250 -87 -380t-260 -130q-188 0 -281 150v-546h-110v1498h102l5 -148q96 168 281 168q175 0 262 -124t88 -379v-109zM775 591q0 208 -64.5 306t-201.5 98q-176 0 -251 -179v-570q75 -163 253 -163q134 0 198.5 98t65.5 302v108z" />
<glyph unicode="&#x441;" horiz-adv-x="929" d="M490 83q116 0 178 65t67 187h107q-8 -166 -106 -260.5t-246 -94.5q-193 0 -291.5 123.5t-100.5 366.5v132q0 248 98.5 374t292.5 126q161 0 254 -101.5t99 -283.5h-107q-5 134 -68 207.5t-178 73.5q-144 0 -211.5 -97t-67.5 -298v-123q0 -208 68 -302.5t212 -94.5z" />
<glyph unicode="&#x442;" horiz-adv-x="859" d="M805 978h-326v-978h-111v978h-314v104h751v-104z" />
<glyph unicode="&#x443;" horiz-adv-x="857" d="M436 183l258 899h119l-381 -1255l-21 -60q-77 -204 -236 -204q-38 0 -80 14l-1 102q23 -7 51 -7q72 0 118 43t76 139l46 153l-340 1075h122z" />
<glyph unicode="&#x444;" horiz-adv-x="1287" d="M111 531q0 265 87.5 418t240.5 153q86 0 145 -41v475h111v-479q62 45 151 45q154 0 241.5 -152.5t87.5 -439.5q0 -247 -87.5 -389t-239.5 -142q-92 0 -153 42v-437h-111v435q-64 -40 -146 -40q-150 0 -238.5 140.5t-88.5 411.5zM1065 531q0 215 -64.5 341t-180.5 126 q-79 0 -125 -39v-842q52 -35 127 -35q116 0 179.5 112.5t63.5 336.5zM223 510q0 -206 61.5 -317t176.5 -111q73 0 123 36v844q-48 36 -121 36q-115 0 -177.5 -122.5t-62.5 -365.5z" />
<glyph unicode="&#x445;" horiz-adv-x="880" d="M438 645l237 437h131l-307 -531l319 -551h-130l-249 455l-250 -455h-130l318 551l-306 531h130z" />
<glyph unicode="&#x446;" horiz-adv-x="1027" d="M156 1082h112v-979h476v979h111v-979h95l-9 -424h-101v321h-684v1082z" />
<glyph unicode="&#x447;" horiz-adv-x="959" d="M803 0h-112v450q-118 -50 -232 -50q-182 0 -264.5 97.5t-83.5 304.5v280h111v-288q2 -156 56.5 -223t180.5 -67q114 4 232 50v528h112v-1082z" />
<glyph unicode="&#x448;" horiz-adv-x="1410" d="M268 1082v-979h390v979h111v-979h388v979h111v-1082h-1112v1082h112z" />
<glyph unicode="&#x449;" horiz-adv-x="1428" d="M262 1082v-979h391v979h111v-979h387v979h111v-979h113l-9 -424h-101v321h-1115v1082h112z" />
<glyph unicode="&#x44a;" horiz-adv-x="1121" d="M49 1082h396v-392h253q154 0 245 -92t91 -251q0 -158 -90.5 -252.5t-245.5 -94.5h-363v978h-286v104zM445 586v-483h255q106 0 164 65t58 176q0 106 -56.5 172.5t-156.5 69.5h-264z" />
<glyph unicode="&#x44b;" horiz-adv-x="1340" d="M270 690h253q154 0 245 -92t91 -251q0 -158 -90.5 -252.5t-245.5 -94.5h-363v1082h110v-392zM270 586v-483h255q105 0 164 65t59 176q0 110 -60 176t-162 66h-256zM1170 0h-111v1082h111v-1082z" />
<glyph unicode="&#x44c;" horiz-adv-x="963" d="M270 690h253q154 0 245 -92t91 -251q0 -158 -90.5 -252.5t-245.5 -94.5h-363v1082h110v-392zM270 586v-483h255q105 0 164 65t59 176q0 110 -60 176t-162 66h-256z" />
<glyph unicode="&#x44d;" horiz-adv-x="961" d="M455 998q-101 0 -168.5 -71.5t-67.5 -183.5h-108q0 97 45.5 179t127 131t171.5 49q174 0 281.5 -149t107.5 -399v-34q0 -240 -106.5 -390t-282.5 -150q-151 0 -247.5 107.5t-96.5 278.5h108q0 -128 67 -205.5t169 -77.5q124 0 198.5 113.5t79.5 298.5h-398v104h397 q-7 181 -81 290t-196 109z" />
<glyph unicode="&#x44e;" horiz-adv-x="1440" d="M270 590h251q5 148 58 266t143.5 182t204.5 64q184 0 296.5 -153.5t112.5 -399.5v-25q0 -239 -112 -391.5t-295 -152.5q-175 0 -287 141.5t-120 365.5h-252v-487h-110v1082h110v-492zM631 524q0 -191 81 -316t217 -125q133 0 214 123.5t81 325.5v24q0 191 -82 316.5 t-215 125.5q-132 0 -214 -125.5t-82 -326.5v-22z" />
<glyph unicode="&#x44f;" horiz-adv-x="976" d="M817 1082v-1082h-111v435h-270l-223 -435h-122l230 451q-95 32 -145 113.5t-50 193.5q0 147 89 235.5t243 88.5h359zM237 756q0 -96 50.5 -156t139.5 -61h279v439h-251q-102 0 -160 -61t-58 -161z" />
<glyph unicode="&#x450;" horiz-adv-x="937" d="M505 -20q-191 0 -299 125t-110 356v132q0 238 104 373.5t286 135.5q176 0 268.5 -115t94.5 -352v-104h-643v-61q0 -186 79.5 -287t224.5 -101q160 0 259 117l58 -74q-106 -145 -322 -145zM486 998q-131 0 -201.5 -92.5t-77.5 -270.5h531v29q-8 334 -252 334zM569 1245 h-109l-226 280h144z" />
<glyph unicode="&#x451;" horiz-adv-x="937" d="M505 -20q-191 0 -299 125t-110 356v132q0 238 104 373.5t286 135.5q176 0 268.5 -115t94.5 -352v-104h-643v-61q0 -186 79.5 -287t224.5 -101q160 0 259 117l58 -74q-106 -145 -322 -145zM486 998q-131 0 -201.5 -92.5t-77.5 -270.5h531v29q-8 334 -252 334zM202 1395 q0 35 21.5 58.5t60.5 23.5q38 0 60.5 -23.5t22.5 -58.5q0 -34 -22.5 -57t-60.5 -23q-39 0 -60.5 23t-21.5 57zM639 1394q0 35 22 58.5t60 23.5q39 0 61 -23.5t22 -58.5q0 -34 -22 -57t-61 -23q-38 0 -60 23t-22 57z" />
<glyph unicode="&#x452;" horiz-adv-x="985" d="M515 1234h-256v-322q48 87 121.5 138.5t168.5 51.5q283 0 290 -377v-814q0 -170 -68 -259t-190 -89q-53 0 -102 19l12 101q37 -16 90 -16q70 0 109 64t39 180v794q0 150 -50 220.5t-158 70.5q-87 0 -156.5 -65.5t-105.5 -179.5v-751h-111v1234h-149v104h149v198h111v-198 h256v-104z" />
<glyph unicode="&#x453;" horiz-adv-x="764" d="M718 977h-451v-977h-112v1082h563v-105zM498 1504h145l-231 -280h-105z" />
<glyph unicode="&#x454;" horiz-adv-x="961" d="M500 83q100 0 169.5 68.5t76.5 183.5h106q-4 -98 -52 -180.5t-128 -128.5t-172 -46q-182 0 -286.5 147t-104.5 400v35q0 246 106 393t285 147q151 0 248.5 -106.5t103.5 -278.5h-106q-6 126 -74.5 203.5t-171.5 77.5q-127 0 -200 -106t-80 -299h400v-104h-400 q7 -199 80.5 -302.5t199.5 -103.5z" />
<glyph unicode="&#x455;" horiz-adv-x="914" d="M689 266q0 70 -58 122.5t-196.5 115t-193.5 104t-81 90.5t-26 116q0 125 90 206.5t233 81.5q154 0 246 -87t92 -230h-111q0 92 -63 152.5t-164 60.5q-98 0 -155.5 -50t-57.5 -130q0 -65 44 -106t190 -111q151 -66 208 -109t86 -95.5t29 -124.5q0 -134 -93 -213t-245 -79 q-161 0 -260.5 88t-99.5 227h112q5 -101 67.5 -156.5t180.5 -55.5q102 0 164 50t62 133z" />
<glyph unicode="&#x456;" horiz-adv-x="431" d="M272 0h-112v1082h112v-1082zM144 1394q0 34 19 58t54 24t54.5 -24t19.5 -58t-19.5 -57.5t-54.5 -23.5t-54 23.5t-19 57.5z" />
<glyph unicode="&#x457;" horiz-adv-x="431" d="M270 0h-111v1082h111v-1082zM-75 1383q0 35 21.5 58.5t60.5 23.5q38 0 60.5 -23.5t22.5 -58.5q0 -34 -22.5 -57t-60.5 -23q-39 0 -60.5 23t-21.5 57zM362 1382q0 35 22 58.5t60 23.5q39 0 61 -23.5t22 -58.5q0 -34 -22 -57t-61 -23q-38 0 -60 23t-22 57z" />
<glyph unicode="&#x458;" horiz-adv-x="436" d="M267 1082v-1202q0 -317 -239 -317q-47 0 -89 19l1 101q39 -13 74 -13q142 0 142 203v1209h111zM139 1394q0 34 18.5 58t53.5 24t54.5 -24t19.5 -58t-19.5 -57.5t-54.5 -23.5t-53.5 23.5t-18.5 57.5z" />
<glyph unicode="&#x459;" horiz-adv-x="1508" d="M838 1082v-432h252q157 0 247 -88t90 -235q0 -142 -85.5 -232t-232.5 -95h-382v977h-349l-18 -452q-15 -287 -73.5 -404t-185.5 -121h-50v109l33 1q86 4 122 100.5t48 340.5l19 531h565zM838 546v-444h255q105 0 164 63t59 164q0 94 -56 154t-156 63h-266z" />
<glyph unicode="&#x45a;" horiz-adv-x="1522" d="M268 653h476v429h111v-432h257q101 0 177 -41t115 -113.5t39 -168.5q0 -148 -89.5 -237t-241.5 -90h-368v549h-476v-549h-112v1082h112v-429zM855 546v-444h255q102 0 162 61.5t60 165.5q0 99 -59.5 158t-161.5 59h-256z" />
<glyph unicode="&#x45b;" horiz-adv-x="1002" d="M527 1246h-268v-334q48 87 121.5 138.5t168.5 51.5q283 0 290 -377v-725h-110v713q-1 145 -51 214t-157 69q-87 0 -156.5 -65.5t-105.5 -179.5v-751h-111v1246h-139v104h139v186h111v-186h268v-104z" />
<glyph unicode="&#x45c;" horiz-adv-x="938" d="M401 494h-133v-494h-112v1082h112v-479h131l328 479h138l-373 -523l412 -559h-145zM593 1503h145l-231 -280h-105z" />
<glyph unicode="&#x45d;" horiz-adv-x="1012" d="M744 1082h111v-1082h-111v885l-477 -885h-111v1082h111v-886zM577 1224h-109l-226 280h144z" />
<glyph unicode="&#x45e;" horiz-adv-x="857" d="M436 183l258 899h119l-381 -1255l-21 -60q-77 -204 -236 -204q-38 0 -80 14l-1 102q23 -7 51 -7q72 0 118 43t76 139l46 153l-340 1075h122zM739 1493q0 -114 -78 -186t-211 -72q-131 0 -210 71.5t-79 186.5h102q0 -80 47.5 -125t139.5 -45q87 0 137 45t50 125h102z" />
<glyph unicode="&#x45f;" horiz-adv-x="1012" d="M268 1082v-979h476v979h111v-1082h-291v-353h-111v353h-297v1082h112z" />
<glyph unicode="&#x460;" horiz-adv-x="1564" d="M1404 1456v-1051q-2 -199 -91.5 -312t-246.5 -113q-97 0 -171 50.5t-113 153.5q-41 -103 -117 -153.5t-173 -50.5q-155 0 -243.5 115t-88.5 318v1043h116v-1047q1 -148 58.5 -235.5t157.5 -87.5q105 0 167 85.5t64 232.5v1052h119v-1047q1 -150 61.5 -236.5t162.5 -86.5 q101 0 162.5 87t61.5 239v1044h114z" />
<glyph unicode="&#x461;" horiz-adv-x="1439" d="M1277 1082v-710q-2 -184 -85 -288.5t-225 -104.5q-86 0 -152.5 45t-103.5 137q-38 -92 -106 -137t-156 -45q-137 0 -218.5 103t-83.5 289v711h111v-706q1 -139 52.5 -216.5t138.5 -77.5q96 0 151.5 80t56.5 215v705h111v-710q2 -135 55 -212.5t144 -77.5t144.5 78.5 t54.5 215.5v706h111z" />
<glyph unicode="&#x462;" horiz-adv-x="1098" d="M529 1127h-248v-301h297q195 0 303.5 -108.5t108.5 -302.5q0 -193 -109 -304t-301 -111h-413v1127h-156v104h156v225h114v-225h248v-104zM281 718v-612h301q139 0 216 83.5t77 227.5q0 138 -76.5 219t-212.5 82h-305z" />
<glyph unicode="&#x463;" horiz-adv-x="962" d="M543 1082h-273v-373h253q155 0 245 -96t90 -257t-90 -258.5t-246 -97.5h-363v1082h-164v103h164v363h111v-363h273v-103zM270 605v-502h254q104 0 163.5 67t59.5 183q0 114 -59.5 182.5t-159.5 69.5h-258z" />
<glyph unicode="&#x464;" horiz-adv-x="1578" d="M306 813h209q0 202 58 351.5t165.5 231t248.5 81.5q193 0 309.5 -124t134.5 -352h-114q-22 190 -103 279t-227 89q-164 0 -260.5 -147.5t-96.5 -408.5h447v-104h-447v-71q0 -254 94 -402.5t255 -148.5q157 0 237.5 90t100.5 278h114q-18 -225 -135 -349.5t-317 -124.5 q-211 0 -337.5 181t-126.5 483v64h-209v-709h-114v1456h114v-643z" />
<glyph unicode="&#x465;" horiz-adv-x="1320" d="M269 602h200q9 231 113.5 365.5t274.5 134.5q154 0 250.5 -108t102.5 -277h-106q-6 126 -74.5 203.5t-172.5 77.5q-126 0 -198.5 -105t-79.5 -291h391v-104h-392q2 -195 76 -305t204 -110q100 0 170 68.5t76 183.5h106q-6 -153 -108 -254t-244 -101q-178 0 -282 142 t-108 376h-199v-498h-112v1082h112v-480z" />
<glyph unicode="&#x466;" horiz-adv-x="1073" d="M790 472h-188v-472h-112v472h-178l-142 -472h-118l447 1456h108l443 -1456h-119zM345 582h412l-205 688z" />
<glyph unicode="&#x467;" horiz-adv-x="949" d="M658 345h-134v-345h-111v345h-140l-119 -345h-115l378 1082h97l379 -1082h-114zM309 449h312l-125 358l-31 121l-31 -121z" />
<glyph unicode="&#x468;" horiz-adv-x="1551" d="M322 582h352l269 874h108l443 -1456h-118l-141 472h-189v-472h-112v472h-178l-142 -472h-118l145 473h-319v-473h-115v1456h115v-874zM789 582h413l-205 690z" />
<glyph unicode="&#x469;" horiz-adv-x="1336" d="M298 449h273l222 633h97l379 -1082h-115l-121 345h-133v-345h-112v345h-139l-120 -345h-114l120 344h-237v-344h-111v1082h111v-633zM685 449h311l-125 358l-30 120l-31 -120z" />
<glyph unicode="&#x46a;" horiz-adv-x="1454" d="M150 0v389q2 196 94.5 293.5t284.5 97.5h80l-361 676h964l-362 -676h78q190 -1 281.5 -97.5t94.5 -289.5v-393h-115v393q-2 147 -61.5 213t-198.5 67h-136l-8 -16v-657h-114v664l-5 9h-136q-144 0 -204 -67.5t-62 -215.5v-390h-114zM728 780h4l292 568h-589z" />
<glyph unicode="&#x46b;" horiz-adv-x="1265" d="M755 594q180 0 268 -98.5t89 -296.5v-199h-111v201q-1 152 -56 219t-179 70h-69l-8 -15v-475h-110v482l-4 8h-62q-133 0 -190.5 -66t-59.5 -218v-206h-112v207q3 195 91 291t275 96l-272 488h781zM632 594h7l205 383h-417z" />
<glyph unicode="&#x46c;" horiz-adv-x="1914" d="M306 781h730v-1h33l-361 676h964l-362 -676h78q190 -1 281.5 -97.5t94.5 -289.5v-393h-115v387q-1 149 -60.5 217t-199.5 69h-136l-8 -16v-657h-114v664l-5 9h-136q-144 0 -204 -67.5t-62 -215.5v-390h-115v381q0 200 90 296h-393v-677h-115v1456h115v-675zM1188 780h4 l292 568h-589z" />
<glyph unicode="&#x46d;" horiz-adv-x="1651" d="M537 0v204q2 190 84 286h-351v-490h-111v1082h111v-488h633l-272 488h781l-271 -488q178 0 266.5 -96t91.5 -291v-207h-112v201q-1 152 -56 219t-179 70h-68l-9 -17v-473h-110v482l-4 8h-75q-127 -4 -180.5 -70t-55.5 -214v-206h-113zM1018 594h7l205 383h-417z" />
<glyph unicode="&#x46e;" horiz-adv-x="926" d="M702 1076q0 127 -74 201t-210 75h-271v104h261q189 0 297 -103t108 -281q0 -109 -58 -195t-164 -130q241 -77 241 -351q0 -183 -116 -294t-311 -111h-58q-129 -4 -129 -127q0 -56 38.5 -106t102.5 -79l-41 -89q-85 35 -145.5 113.5t-60.5 164.5q0 108 63 166.5t187 58.5 h46q144 0 228 81t84 218q0 157 -83.5 228.5t-240.5 71.5h-113v105h118q147 1 224 72t77 207zM493 1719l142 193h97v-12l-201 -262h-76l-200 263v11h98z" />
<glyph unicode="&#x46f;" horiz-adv-x="872" d="M627 796q0 83 -63 131t-174 50h-255v105h241q169 0 266 -78.5t97 -211.5q0 -78 -45.5 -141.5t-130.5 -98.5q194 -61 194 -248q0 -142 -105 -227.5t-278 -85.5h-42q-130 -4 -130 -127q0 -55 37.5 -105t104.5 -80l-43 -89q-87 37 -146 114.5t-59 163.5q0 108 63 166.5 t202.5 58.5t212 56t72.5 151q0 102 -70.5 148.5t-206.5 47.5h-119v105h124q253 4 253 195zM398 1389l142 193h97v-12l-201 -262h-77l-199 263v11h97z" />
<glyph unicode="&#x470;" horiz-adv-x="1234" d="M666 496q151 17 240 135t89 310v515h114v-521q0 -157 -55 -278t-156 -190.5t-232 -78.5v-388h-115v388q-197 17 -314.5 162.5t-118.5 384.5v521h114v-529q3 -181 89 -296.5t230 -133.5v959h115v-960z" />
<glyph unicode="&#x471;" horiz-adv-x="1221" d="M658 1082v-996q164 17 254 145.5t90 345.5q-3 242 -115 505h120l32 -81q74 -199 74 -423q0 -275 -118 -428.5t-337 -167.5v-426h-110v427q-210 19 -319 170.5t-112 424.5v504h112v-498q1 -224 82.5 -351t236.5 -147v996h110z" />
<glyph unicode="&#x472;" horiz-adv-x="1200" d="M1075 650q0 -200 -58.5 -352.5t-167.5 -235t-252 -82.5q-140 0 -249.5 82t-169.5 233.5t-61 346.5v162q0 199 59 352t168.5 236.5t250.5 83.5q217 0 348.5 -182t131.5 -499v-145zM231 775h731v31q0 263 -98.5 411t-268.5 148q-165 0 -263.5 -146.5t-100.5 -403.5v-40z M962 671h-731v-21q0 -258 98.5 -409.5t267.5 -151.5q172 0 268.5 150t96.5 416v16z" />
<glyph unicode="&#x473;" horiz-adv-x="1014" d="M95 556q0 239 112.5 392.5t293.5 153.5q184 0 296.5 -153.5t112.5 -399.5v-25q0 -239 -112 -391.5t-295 -152.5q-175 0 -286 139.5t-121 365.5zM503 83q128 0 207.5 114t86.5 294h-591q7 -182 87.5 -295t209.5 -113zM206 595h591q-9 182 -90.5 292.5t-205.5 110.5 t-205 -111t-90 -292z" />
<glyph unicode="&#x474;" horiz-adv-x="1104" d="M509 154l276 1051q36 141 93.5 205.5t151.5 64.5h27l-1 -110q-67 0 -100.5 -38t-58.5 -121l-335 -1206h-106l-414 1456h125l315 -1192z" />
<glyph unicode="&#x475;" horiz-adv-x="890" d="M391 273l30 -129l191 751q59 206 189 206q50 0 82 -22l-15 -97q-20 12 -46 12q-67 0 -99 -104l-259 -890h-88l-319 1082h115z" />
<glyph unicode="&#x476;" horiz-adv-x="1104" d="M509 154l276 1051q36 141 93.5 205.5t151.5 64.5h27l-1 -110q-67 0 -100.5 -38t-58.5 -121l-335 -1206h-106l-414 1456h125l315 -1192zM473 1503h-110l-254 266h140zM680 1503h-98l-210 266h129z" />
<glyph unicode="&#x477;" horiz-adv-x="890" d="M391 273l30 -129l191 751q59 206 189 206q50 0 82 -22l-15 -97q-20 12 -46 12q-67 0 -99 -104l-259 -890h-88l-319 1082h115zM389 1208h-110l-254 266h140zM596 1208h-98l-210 266h129z" />
<glyph unicode="&#x478;" horiz-adv-x="2065" d="M1075 570q0 -282 -123.5 -436t-346.5 -154q-221 0 -346.5 154t-126.5 433v317q0 281 125 436.5t346 155.5q224 0 348 -156t124 -439v-311zM960 886q0 239 -92 359t-265 120q-167 0 -261 -117.5t-96 -351.5v-326q0 -240 95 -360.5t264 -120.5q174 0 264.5 120t90.5 361 v316zM1644 183l258 899h119l-381 -1255l-21 -60q-77 -204 -236 -204q-38 0 -80 14l-1 102q23 -7 51 -7q72 0 118 43t76 139l46 153l-340 1075h122z" />
<glyph unicode="&#x479;" horiz-adv-x="1862" d="M106 596q0 234 106 370t289 136q184 0 289.5 -134t106.5 -369v-115q0 -238 -106.5 -371t-287.5 -133t-287 130t-110 358v128zM218 484q0 -187 75.5 -294t209.5 -107q137 0 209.5 103t73.5 295v115q0 187 -76 294.5t-209 107.5q-129 0 -205 -105t-78 -289v-120zM1441 183 l258 899h119l-381 -1255l-21 -60q-77 -204 -236 -204q-38 0 -80 14l-1 102q23 -7 51 -7q72 0 118 43t76 139l46 153l-340 1075h122z" />
<glyph unicode="&#x47a;" horiz-adv-x="1200" d="M1075 650q0 -283 -113.5 -462.5t-305.5 -203.5v-126h-112v126q-193 22 -310 201.5t-117 471.5v147q0 286 116.5 466.5t310.5 202.5v120h112v-121q192 -26 305.5 -205.5t113.5 -468.5v-148zM962 806q0 233 -80 380t-226 173v-114h-112v116q-145 -24 -227.5 -167.5 t-85.5 -372.5v-171q0 -236 83 -384.5t230 -172.5v116h112v-115q144 26 223.5 168.5t82.5 372.5v171z" />
<glyph unicode="&#x47b;" horiz-adv-x="1001" d="M95 556q0 224 97.5 371.5t253.5 170.5v113h110v-113q160 -24 257 -173t97 -375v-26q0 -220 -97 -369t-257 -171v-116h-110v117q-160 24 -255.5 172t-95.5 371v28zM556 88q108 24 174.5 142t67.5 291v35q0 170 -66 290t-176 146v-119h-110v119q-109 -26 -175 -146 t-66 -296v-26q0 -171 65.5 -290t175.5 -145v116h110v-117z" />
<glyph unicode="&#x47c;" horiz-adv-x="1556" d="M1071 1454q153 0 241 -119.5t89 -327.5v-577q0 -212 -88.5 -331.5t-241.5 -119.5q-98 0 -173.5 50t-116.5 152q-41 -102 -116.5 -152t-172.5 -50q-153 0 -242.5 119t-89.5 334v571q0 211 89 331t243 120v-107q-100 0 -158 -93.5t-58 -250.5v-573q0 -158 58 -251.5 t158 -93.5q106 0 168 87.5t63 235.5v473h116v-476q2 -157 72 -244q62 -76 160 -76q96 0 154.5 88.5t60.5 246.5v583q0 161 -58.5 252.5t-156.5 91.5v107zM1164 1683v-86h-28q-115 0 -221.5 77.5t-162.5 77.5q-120 0 -120 -162h-83v33q1 104 55.5 162.5t143.5 58.5 q41 0 80.5 -18t100.5 -61.5t109.5 -62.5t125.5 -19zM707 1379q58 64 60 134v106h96v-102q0 -50 -32 -103.5t-78 -81.5z" />
<glyph unicode="&#x47d;" horiz-adv-x="1403" d="M964 1094q139 0 220 -109.5t82 -306.5v-279q0 -198 -81 -309t-221 -111q-88 0 -157 45t-107 137q-38 -92 -106 -137t-156 -45q-139 0 -220 109.5t-82 305.5v280q0 198 81 309t221 111v-104q-89 0 -140.5 -85t-51.5 -232v-274q0 -147 52 -232t140 -85q92 0 148.5 76.5 t58.5 213.5v252h111v-252q2 -132 57 -211q56 -79 151 -79q85 0 137 81.5t54 225.5v285q0 146 -51.5 231t-139.5 85v104zM1093 1356v-86h-27q-114 0 -223 78q-67 48 -99 63t-63 15q-56 0 -88 -40t-32 -123h-82v34q1 101 54 160.5t145 59.5q39 0 77 -16.5t101 -61.5t111.5 -64 t125.5 -19zM630 1041q57 62 59 134v106h97v-102q0 -50 -32 -103.5t-78 -81.5z" />
<glyph unicode="&#x47e;" horiz-adv-x="1564" d="M1404 1456v-1051q-2 -199 -91.5 -312t-246.5 -113q-97 0 -171 50.5t-113 153.5q-41 -103 -117 -153.5t-173 -50.5q-155 0 -243.5 115t-88.5 318v1043h116v-1047q1 -148 58.5 -235.5t157.5 -87.5q105 0 167 85.5t64 232.5v1052h119v-1047q1 -150 61.5 -236.5t162.5 -86.5 q101 0 162.5 87t61.5 239v1044h114zM464 1696v82h643l1 -82h-278v-114h-103v114h-263z" />
<glyph unicode="&#x47f;" horiz-adv-x="1439" d="M1277 1082v-710q-2 -184 -85 -288.5t-225 -104.5q-86 0 -152.5 45t-103.5 137q-38 -92 -106 -137t-156 -45q-137 0 -218.5 103t-83.5 289v711h111v-706q1 -139 52.5 -216.5t138.5 -77.5q96 0 151.5 80t56.5 215v705h111v-710q2 -135 55 -212.5t144 -77.5t144.5 78.5 t54.5 215.5v706h111zM392 1374l2 82h643l3 -82h-280v-131h-103v131h-265z" />
<glyph unicode="&#x480;" horiz-adv-x="1134" d="M657 -366h-114v347q-186 20 -301 202.5t-115 475.5v157q0 191 59 343t165 235t241 83q199 0 314 -127t121 -350h-115q-8 176 -88.5 272.5t-231.5 96.5q-153 0 -249.5 -147.5t-100.5 -386.5v-185q0 -251 94 -408t253 -157h68v-451z" />
<glyph unicode="&#x481;" horiz-adv-x="943" d="M568 -366h-111v348q-156 19 -251 166t-95 378v36q0 239 107.5 389.5t282.5 150.5q149 0 246 -107t97 -281h-106q0 125 -66 204.5t-171 79.5q-127 0 -202.5 -119.5t-75.5 -325.5v-33q0 -198 75 -317.5t201 -120.5h69v-448z" />
<glyph unicode="&#x482;" horiz-adv-x="1094" d="M508 433l243 -172l-48 -97l-244 170l-156 -334h-118l189 398l-243 171l47 96l246 -171l182 392l-243 171l48 98l245 -171l168 358h116l-201 -421l246 -171l-51 -96l-242 170z" />
<glyph unicode="&#x483;" horiz-adv-x="0" d="M-610 1338v-123h-103v204h433v108l102 -1v-188h-432z" />
<glyph unicode="&#x484;" horiz-adv-x="0" d="M-320 1557q90 0 145 -59t55 -166v-29h-84q0 162 -119 162q-56 0 -157 -73.5t-200 -80.5l-56 -1v86h38q88 3 193.5 78.5t162.5 81.5z" />
<glyph unicode="&#x485;" horiz-adv-x="0" d="M-530 1500v132h123v-139l51 -121l-51 -47z" />
<glyph unicode="&#x486;" horiz-adv-x="0" d="M-434 1325l-51 47l51 121l-1 139h124v-132z" />
<glyph unicode="&#x488;" horiz-adv-x="0" d="M-755 1267q0 84 57.5 136t152.5 52t153 -52t58 -136h-112q0 46 -25.5 73.5t-73.5 27.5q-46 0 -71.5 -26.5t-25.5 -74.5h-113zM-164 990q0 84 58 136t151 52q95 0 153.5 -51.5t58.5 -136.5h-113q0 49 -26.5 75t-72.5 26q-44 0 -69.5 -26.5t-25.5 -74.5h-114zM22 487 q0 85 58.5 136.5t151.5 51.5q95 0 153 -52t58 -136h-112q0 49 -26.5 75t-72.5 26t-71.5 -27.5t-25.5 -73.5h-113zM-174 -32q0 84 58 136t151 52q95 0 153 -52t58 -136h-112q0 49 -26.5 75t-72.5 26q-45 0 -70.5 -27.5t-25.5 -73.5h-113zM-750 -316q0 84 57.5 136t152.5 52 t153 -52t58 -136h-112q0 46 -25.5 73.5t-73.5 27.5q-46 0 -71.5 -27.5t-25.5 -73.5h-113zM-1328 990q0 84 58 136t153 52t153 -52t58 -136h-112q0 46 -25.5 73.5t-73.5 27.5q-46 0 -71.5 -26.5t-25.5 -74.5h-114zM-1504 487q0 85 58.5 136.5t151.5 51.5q95 0 153 -52 t58 -136h-112q0 49 -26.5 75t-72.5 26t-71.5 -27.5t-25.5 -73.5h-113zM-1338 -32q0 85 58.5 136.5t151.5 51.5q95 0 153.5 -51.5t58.5 -136.5h-113q0 49 -26.5 75t-72.5 26q-45 0 -70.5 -26.5t-25.5 -74.5h-114z" />
<glyph unicode="&#x489;" horiz-adv-x="0" d="M-469 -60l11 -14l-122 -339h-96l70 353h137zM-664 1126l-12 14l122 338h96l-70 -352h-136zM13 631l13 12l333 -124v-98l-346 71v139zM-1150 433l-13 -12l-333 124v98l346 -71v-139zM-226 1002l2 16l320 153l68 -68l-293 -200zM-910 21l-2 -17l-320 -153l-69 69l294 200z M-1050 860l-17 2l-148 326l65 69l198 -299zM-88 161l17 -2l148 -325l-66 -71l-196 299z" />
<glyph unicode="&#x48a;" horiz-adv-x="1262" d="M970 1456h114v-1456h-114v1240l-679 -1240h-115v1456h115v-1239zM925 1814q0 -114 -78 -186t-211 -72q-131 0 -210 71.5t-79 186.5h102q0 -80 47.5 -125t139.5 -45q87 0 137 45t50 125h102zM1059 -319l-71 53q91 122 94 254v156h117v-123q0 -213 -140 -340z" />
<glyph unicode="&#x48b;" horiz-adv-x="1012" d="M744 1082h111v-1082h-111v885l-477 -885h-111v1082h111v-886zM792 1472q0 -114 -78 -186t-211 -72q-131 0 -210 71.5t-79 186.5h102q0 -80 47.5 -125t139.5 -45q87 0 137 45t50 125h102zM831 -319l-71 53q91 122 94 254v156h117v-123q0 -213 -140 -340z" />
<glyph unicode="&#x48c;" horiz-adv-x="1098" d="M529 1127h-248v-301h297q195 0 303.5 -108.5t108.5 -302.5q0 -193 -109 -304t-301 -111h-413v1127h-156v104h156v225h114v-225h248v-104zM281 718v-612h301q139 0 216 83.5t77 227.5q0 138 -76.5 219t-212.5 82h-305z" />
<glyph unicode="&#x48d;" horiz-adv-x="962" d="M543 1352h-273v-643h253q155 0 245 -96t90 -257t-90 -258.5t-246 -97.5h-363v1352h-164v104h164v180h111v-180h273v-104zM270 605v-502h254q104 0 163.5 67t59.5 183q0 114 -59.5 182.5t-159.5 69.5h-258z" />
<glyph unicode="&#x48e;" horiz-adv-x="1129" d="M284 592v-592h-115v1456h423q195 0 305.5 -117.5t110.5 -317.5q0 -207 -109 -319l109 -144l-68 -69l-118 155q-95 -52 -230 -52h-308zM827 797q66 83 66 222q0 153 -79.5 241t-220.5 88h-309v-649h308q93 0 161 36l-100 133l70 69z" />
<glyph unicode="&#x48f;" horiz-adv-x="1012" d="M886 530q0 -265 -105 -417l95 -136l-70 -68l-92 131q-75 -60 -175 -60q-184 0 -281 146v-542h-110v1498h102l5 -143q99 163 281 163q161 0 254.5 -143.5t95.5 -398.5v-30zM775 551q0 206 -70.5 325t-195.5 119q-176 0 -251 -199v-530q73 -183 253 -183q81 0 138 51 l-93 134l71 68l84 -122q64 120 64 337z" />
<glyph unicode="&#x490;" horiz-adv-x="982" d="M908 1351h-2v-3h-626v-1348h-114v1456h631v353h111v-458z" />
<glyph unicode="&#x491;" horiz-adv-x="795" d="M717 977h-455v-977h-112v1082h456v343h111v-448z" />
<glyph unicode="&#x492;" horiz-adv-x="990" d="M568 707h-280v-707h-114v707h-124v104h124v645h740v-108h-626v-537h280v-104z" />
<glyph unicode="&#x493;" horiz-adv-x="764" d="M538 502h-271v-502h-112v502h-135v104h135v476h563v-105h-451v-371h271v-104z" />
<glyph unicode="&#x494;" horiz-adv-x="1043" d="M914 1348h-626v-520h168q240 0 366.5 -148t126.5 -423q0 -241 -105 -390.5t-281 -149.5l-1 100q130 0 203 119t73 321q0 223 -95.5 342.5t-280.5 120.5h-174v-720h-114v1456h740v-108z" />
<glyph unicode="&#x495;" horiz-adv-x="898" d="M714 977h-452v-351h110q210 0 324.5 -122.5t114.5 -338.5q0 -101 -43 -199t-114 -157t-160 -78l-29 95q110 29 171 114.5t64 224.5q2 165 -84 258.5t-242 93.5h-112v-517h-112v1082h564v-105z" />
<glyph unicode="&#x496;" horiz-adv-x="1563" d="M979 691h-137v-691h-115v691h-140l-403 -691h-144l447 754l-417 702h138l373 -657h146v657h115v-657h142l373 657h137l-416 -701l447 -755h-143zM1568 -355h-111v480h111v-480z" />
<glyph unicode="&#x497;" horiz-adv-x="1359" d="M848 498h-118v-498h-111v498h-118l-321 -498h-140l368 557l-328 525h134l286 -474h119v474h111v-474h119l287 474h136l-330 -526l369 -556h-142zM1338 -355h-111v480h111v-480z" />
<glyph unicode="&#x498;" horiz-adv-x="1063" d="M832 1076q0 138 -81.5 215.5t-228.5 77.5q-126 0 -211 -82t-85 -213h-114q0 116 53.5 208t148.5 143t208 51q200 0 312.5 -106t112.5 -298q0 -108 -57 -194.5t-162 -131.5q118 -38 177.5 -127t59.5 -223q0 -189 -120 -302.5t-323 -113.5q-119 0 -219 52.5t-154.5 147.5 t-54.5 224h114q0 -139 89 -229t225 -90q153 0 241 82.5t88 224.5q0 156 -83.5 226t-241.5 70h-145v108h140q311 0 311 280zM592 -430h-111v480h111v-480z" />
<glyph unicode="&#x499;" horiz-adv-x="911" d="M675 795q0 97 -58.5 150t-162.5 53q-96 0 -162 -60.5t-66 -148.5h-110q0 136 98 224t240 88q157 0 244.5 -80.5t87.5 -226.5q0 -78 -40 -141t-116 -98q173 -60 173 -258q0 -145 -95 -230.5t-254 -85.5q-153 0 -253 91t-100 238h111q0 -96 69.5 -161.5t172.5 -65.5 q113 0 175 57.5t62 154.5q0 108 -57.5 156t-174.5 48h-142v106h153q205 4 205 190zM505 -429h-111v480h111v-480z" />
<glyph unicode="&#x49a;" horiz-adv-x="1140" d="M454 682h-163v-682h-114v1456h114v-667h156l464 667h144l-499 -715l536 -741h-142zM1113 -372h-111v480h111v-480z" />
<glyph unicode="&#x49b;" horiz-adv-x="938" d="M401 494h-133v-494h-112v1082h112v-479h131l328 479h138l-373 -523l412 -559h-145zM936 -355h-111v480h111v-480z" />
<glyph unicode="&#x49c;" horiz-adv-x="1100" d="M1016 1456l-361 -701l410 -755h-145l-355 687h-74v-283h-94v283h-114v-687h-115v1456h115v-661h114v281h94v-281h78l311 661h136z" />
<glyph unicode="&#x49d;" horiz-adv-x="976" d="M903 1082l-291 -520l331 -562h-145l-271 494h-58v-236h-94v236h-108v-494h-112v1082h112v-479h108v240h94v-240h58l238 479h138z" />
<glyph unicode="&#x49e;" horiz-adv-x="1160" d="M474 682h-163v-682h-114v1091h-187v104h187v261h114v-261h217v-104h-217v-302h156l464 667h144l-499 -715l536 -741h-142z" />
<glyph unicode="&#x49f;" horiz-adv-x="911" d="M398 526h-115v-526h-112v1240h-169v104h169v192h112v-192h237v-104h-237v-609h106l325 451h133l-360 -494l399 -588h-133z" />
<glyph unicode="&#x4a0;" horiz-adv-x="1433" d="M771 682h-163v-682h-114v1352h-408v104h522v-667h156l464 667h144l-499 -715l535 -741h-141z" />
<glyph unicode="&#x4a1;" horiz-adv-x="1184" d="M648 494h-134v-494h-112v977h-337v105h449v-479h131l328 479h139l-373 -523l412 -559h-145z" />
<glyph unicode="&#x4a2;" horiz-adv-x="1259" d="M1085 0h-115v697h-684v-697h-114v1456h114v-653h684v653h115v-1456zM1183 -355h-111v480h111v-480z" />
<glyph unicode="&#x4a3;" horiz-adv-x="1012" d="M855 0h-111v495h-476v-495h-112v1082h112v-484h476v484h111v-1082zM953 -355h-111v480h111v-480z" />
<glyph unicode="&#x4a4;" horiz-adv-x="1763" d="M285 803h683v653h708v-104h-593v-1352h-115v697h-683v-697h-115v1456h115v-653z" />
<glyph unicode="&#x4a5;" horiz-adv-x="1281" d="M262 598h476v484h462v-105h-351v-977h-111v495h-476v-495h-112v1082h112v-484z" />
<glyph unicode="&#x4a6;" horiz-adv-x="1795" d="M1072 835h130q240 0 366.5 -148t126.5 -423q0 -241 -105 -390.5t-281 -149.5l-1 100q130 0 203 119t73 321q0 223 -95.5 342.5t-280.5 120.5h-136v-727h-114v1348h-676v-1348h-114v1456h904v-621z" />
<glyph unicode="&#x4a7;" horiz-adv-x="1511" d="M850 626h134q212 0 329.5 -122t117.5 -339q0 -102 -42.5 -199t-113.5 -156.5t-160 -78.5l-29 95q111 30 172 118t61 221q2 167 -86 259.5t-248 92.5h-135v-517h-111v977h-477v-977h-112v1082h700v-456z" />
<glyph unicode="&#x4a8;" horiz-adv-x="1318" d="M1225 -25q-177 0 -319 70q-120 -66 -266 -66q-152 0 -270 88.5t-183 249t-65 361.5v204q0 168 49 305t136.5 213.5t197.5 76.5l2 -111q-119 0 -194.5 -137t-75.5 -353v-200q0 -257 111.5 -422.5t291.5 -165.5q85 0 154 27q-121 94 -187 238.5t-66 324.5v254 q0 235 93 385.5t242 150.5t243.5 -150t94.5 -395v-256q0 -176 -54.5 -316.5t-153.5 -232.5q99 -35 219 -35v-108zM656 676q0 -165 61 -296t180 -209q98 76 150.5 205t52.5 291v266q0 193 -61.5 309t-162.5 116q-99 0 -159.5 -118.5t-60.5 -313.5v-250z" />
<glyph unicode="&#x4a9;" horiz-adv-x="1064" d="M992 -12q-143 0 -255 55q-95 -64 -213 -64q-176 0 -291 160t-115 421v67q0 207 80.5 341t208.5 134v-107q-76 0 -127 -104.5t-51 -265.5v-74q0 -207 81.5 -336t213.5 -129q60 0 112 23q-192 161 -192 462v94q0 198 71.5 317.5t184.5 119.5t185.5 -127.5t72.5 -337.5v-96 q0 -128 -35.5 -235.5t-99.5 -183.5q74 -28 169 -28v-106zM555 558q0 -128 44.5 -226t126.5 -158q121 127 121 379v94q0 153 -41 250.5t-106 97.5t-104.5 -87t-40.5 -236v-114z" />
<glyph unicode="&#x4aa;" horiz-adv-x="1158" d="M1045 454q-16 -245 -132 -359.5t-321 -114.5q-211 0 -333 159.5t-123 433.5v316q0 275 124.5 431t340.5 156q204 0 316 -117t128 -359h-116q-16 198 -93.5 283t-234.5 85q-165 0 -257 -123t-92 -357v-312q0 -232 89 -361t251 -129q170 0 246 85t91 283h116zM646 -430 h-111v480h111v-480z" />
<glyph unicode="&#x4ab;" horiz-adv-x="929" d="M490 83q116 0 178 65t67 187h107q-8 -166 -106 -260.5t-246 -94.5q-193 0 -291.5 123.5t-100.5 366.5v132q0 248 98.5 374t292.5 126q161 0 254 -101.5t99 -283.5h-107q-5 134 -68 207.5t-178 73.5q-144 0 -211.5 -97t-67.5 -298v-123q0 -208 68 -302.5t212 -94.5z M527 -430h-111v480h111v-480z" />
<glyph unicode="&#x4ac;" horiz-adv-x="1067" d="M1005 1348h-414v-1348h-115v1348h-413v108h942v-108zM687 -355h-111v480h111v-480z" />
<glyph unicode="&#x4ad;" horiz-adv-x="859" d="M805 978h-326v-978h-111v978h-314v104h751v-104zM579 -355h-111v480h111v-480z" />
<glyph unicode="&#x4ae;" horiz-adv-x="1070" d="M534 664l363 792h131l-438 -908v-548h-114v548l-437 908h134z" />
<glyph unicode="&#x4af;" horiz-adv-x="886" d="M719 1082h114l-332 -1048v-449h-111v452l-333 1045h115l261 -843l14 -70l15 71z" />
<glyph unicode="&#x4b0;" horiz-adv-x="1070" d="M793 539h-203v-539h-114v539h-201v104h155l-391 813h134l361 -792l363 792h131l-392 -813h157v-104z" />
<glyph unicode="&#x4b1;" horiz-adv-x="886" d="M706 -3h-205v-412h-111v412h-202v104h182l-313 981h115l261 -843l14 -70l15 71l257 842h114l-311 -981h184v-104z" />
<glyph unicode="&#x4b2;" horiz-adv-x="1097" d="M549 842l335 614h136l-401 -718l413 -738h-137l-346 633l-347 -633h-136l415 738l-403 718h136zM1055 -355h-111v480h111v-480z" />
<glyph unicode="&#x4b3;" horiz-adv-x="880" d="M438 645l237 437h131l-307 -531l319 -551h-130l-249 455l-250 -455h-130l318 551l-306 531h130zM856 -355h-111v480h111v-480z" />
<glyph unicode="&#x4b4;" horiz-adv-x="1543" d="M383 1351h-331v104h331v1h115v-1h351v-104h-351v-1245h675v1350h115v-1348h121l-9 -459h-104v351h-913v1351z" />
<glyph unicode="&#x4b5;" horiz-adv-x="1169" d="M293 978h-249v104h595v-104h-236v-875h477v979h111v-979h95l-9 -424h-101v321h-683v978z" />
<glyph unicode="&#x4b6;" horiz-adv-x="1191" d="M1016 1456v-1456h-115v659q-168 -56 -330 -56q-208 0 -307 106t-103 323v424h115v-417q2 -171 72 -250t223 -79q164 0 330 56v690h115zM1112 -355h-111v480h111v-480z" />
<glyph unicode="&#x4b7;" horiz-adv-x="959" d="M803 0h-112v450q-118 -50 -232 -50q-182 0 -264.5 97.5t-83.5 304.5v280h111v-288q2 -156 56.5 -223t180.5 -67q114 4 232 50v528h112v-1082zM901 -355h-111v480h111v-480z" />
<glyph unicode="&#x4b8;" horiz-adv-x="1186" d="M276 1456v-416q2 -168 69 -248t218 -82v340h93v-337q120 11 245 53v690h115v-1456h-115v659q-131 -43 -245 -53v-248h-93v245q-204 2 -301 108t-101 321v424h115z" />
<glyph unicode="&#x4b9;" horiz-adv-x="986" d="M835 0h-111v450q-83 -35 -164 -46v-169h-94v165q-165 6 -243 101.5t-80 293.5v287h112v-284q1 -147 49.5 -217.5t161.5 -76.5v293h94v-287q77 10 164 44v528h111v-1082z" />
<glyph unicode="&#x4ba;" horiz-adv-x="1186" d="M115 0v1456h115v-660q164 57 330 57q208 0 307 -106t103 -323v-424h-115v405q0 177 -69.5 259t-225.5 82q-160 0 -330 -56v-690h-115z" />
<glyph unicode="&#x4bb;" horiz-adv-x="985" d="M259 912q48 87 121.5 138.5t168.5 51.5q283 0 290 -377v-725h-110v713q-1 145 -51 214t-157 69q-87 0 -156.5 -65.5t-105.5 -179.5v-751h-111v1536h111v-624z" />
<glyph unicode="&#x4bc;" horiz-adv-x="1345" d="M821 -21q-234 0 -369.5 162t-135.5 449v142q-128 17 -195 106.5t-67 238.5h96q0 -214 166 -245v31q0 171 59 312.5t163.5 220.5t230.5 79q212 0 333 -170.5t121 -473.5v-102h-792v-148q0 -232 101.5 -363.5t288.5 -131.5q191 0 321 116l34 -94q-123 -129 -355 -129z M431 827h678v42q0 232 -90 364.5t-250 132.5q-151 0 -244.5 -140t-93.5 -374v-25z" />
<glyph unicode="&#x4bd;" horiz-adv-x="1056" d="M609 -20q-178 0 -293.5 148.5t-115.5 388.5v34q-95 23 -144 101t-49 202h93q0 -163 105 -204q23 200 131 326t254 126q167 0 264.5 -132.5t97.5 -371.5v-67h-642v-21q0 -184 86.5 -305.5t217.5 -121.5q81 0 142 35t109 112l69 -58q-108 -192 -325 -192zM590 998 q-109 0 -184.5 -98t-91.5 -265h528v14q-5 157 -73 253t-179 96z" />
<glyph unicode="&#x4be;" horiz-adv-x="1345" d="M821 -21q-234 0 -369.5 162t-135.5 449v142q-128 17 -195 106.5t-67 238.5h96q0 -214 166 -245v31q0 171 59 312.5t163.5 220.5t230.5 79q212 0 333 -170.5t121 -473.5v-102h-792v-148q0 -232 101.5 -363.5t288.5 -131.5q191 0 321 116l34 -94q-123 -129 -355 -129z M431 827h678v42q0 232 -90 364.5t-250 132.5q-151 0 -244.5 -140t-93.5 -374v-25zM861 -444h-111v480h111v-480z" />
<glyph unicode="&#x4bf;" horiz-adv-x="1056" d="M609 -20q-178 0 -293.5 148.5t-115.5 388.5v34q-95 23 -144 101t-49 202h93q0 -163 105 -204q23 200 131 326t254 126q167 0 264.5 -132.5t97.5 -371.5v-67h-642v-21q0 -184 86.5 -305.5t217.5 -121.5q81 0 142 35t109 112l69 -58q-108 -192 -325 -192zM590 998 q-109 0 -184.5 -98t-91.5 -265h528v14q-5 157 -73 253t-179 96zM664 -421h-111v480h111v-480z" />
<glyph unicode="&#x4c0;" horiz-adv-x="500" d="M307 0h-114v1456h114v-1456z" />
<glyph unicode="&#x4c1;" horiz-adv-x="1563" d="M979 691h-137v-691h-115v691h-140l-403 -691h-144l447 754l-417 702h138l373 -657h146v657h115v-657h142l373 657h137l-416 -701l447 -755h-143zM1069 1814q0 -114 -78 -186t-211 -72q-131 0 -210 71.5t-79 186.5h102q0 -80 47.5 -125t139.5 -45q87 0 137 45t50 125h102z " />
<glyph unicode="&#x4c2;" horiz-adv-x="1359" d="M848 498h-118v-498h-111v498h-118l-321 -498h-140l368 557l-328 525h134l286 -474h119v474h111v-474h119l287 474h136l-330 -526l369 -556h-142zM962 1472q0 -114 -78 -186t-211 -72q-131 0 -210 71.5t-79 186.5h102q0 -80 47.5 -125t139.5 -45q87 0 137 45t50 125h102z " />
<glyph unicode="&#x4c3;" horiz-adv-x="1100" d="M283 0h-115v1456h115v-653h140l454 653h136l-461 -656q231 -4 354 -151.5t123 -418.5q0 -241 -106 -391.5t-284 -150.5l-1 103q129 0 202 117.5t73 320.5q0 223 -94.5 341.5t-277.5 119.5h-258v-690z" />
<glyph unicode="&#x4c4;" horiz-adv-x="953" d="M499 598q175 -20 270.5 -133.5t95.5 -308.5q0 -98 -42 -193t-112 -153.5t-162 -78.5l-30 95q111 29 172 113.5t64 216.5q2 163 -85 251t-249 88l-1 -1h-153v-494h-112v1082h112v-479h105l354 479h138z" />
<glyph unicode="&#x4c5;" horiz-adv-x="1250" d="M1074 1456v-1456h-115v1348h-501l-30 -651q-16 -288 -52 -428.5t-101 -203.5t-176 -65h-44v106l32 2q82 3 126 59t67.5 179.5t37.5 383.5l31 726h725zM1049 -319l-71 53q91 122 94 254v156h117v-123q0 -213 -140 -340z" />
<glyph unicode="&#x4c6;" horiz-adv-x="1013" d="M856 1082v-1082h-111v977h-360l-16 -401q-13 -318 -71.5 -444.5t-189.5 -131.5h-51v109l32 1q86 4 122 100.5t48 340.5l19 531h578zM832 -319l-71 53q91 122 94 254v156h117v-123q0 -213 -140 -340z" />
<glyph unicode="&#x4c7;" horiz-adv-x="1255" d="M289 1456v-682h674v682h115v-1542q0 -171 -68.5 -261t-191.5 -90q-47 0 -96 19l12 104q35 -15 83 -15q70 0 108 63.5t38 179.5v753h-674v-667h-114v1456h114z" />
<glyph unicode="&#x4c8;" horiz-adv-x="1001" d="M262 1082v-484h476v484h111v-1171q0 -170 -68.5 -259t-189.5 -89q-48 0 -94 19l12 101q14 -7 42 -11.5t40 -4.5q70 0 108.5 64t38.5 180v584h-476v-495h-112v1082h112z" />
<glyph unicode="&#x4c9;" horiz-adv-x="1259" d="M1085 0h-115v697h-684v-697h-114v1456h114v-653h684v653h115v-1456zM1060 -319l-71 53q91 122 94 254v156h117v-123q0 -213 -140 -340z" />
<glyph unicode="&#x4ca;" horiz-adv-x="1012" d="M855 0h-111v495h-476v-495h-112v1082h112v-484h476v484h111v-1082zM830 -319l-71 53q91 122 94 254v156h117v-123q0 -213 -140 -340z" />
<glyph unicode="&#x4cb;" horiz-adv-x="1191" d="M1016 1456v-1456h-115v659q-168 -56 -330 -56q-208 0 -307 106t-103 323v424h115v-417q2 -171 72 -250t223 -79q164 0 330 56v690h115zM913 -355h-111v480h111v-480z" />
<glyph unicode="&#x4cc;" horiz-adv-x="959" d="M803 0h-112v450q-118 -50 -232 -50q-182 0 -264.5 97.5t-83.5 304.5v280h111v-288q2 -156 56.5 -223t180.5 -67q114 4 232 50v528h112v-1082zM701 -355h-111v480h111v-480z" />
<glyph unicode="&#x4cd;" horiz-adv-x="1531" d="M323 1456l441 -1281l443 1281h151v-1456h-114v631l10 635l-446 -1266h-88l-444 1260l10 -625v-635h-114v1456h151zM1327 -319l-71 53q91 122 94 254v156h117v-123q0 -213 -140 -340z" />
<glyph unicode="&#x4ce;" horiz-adv-x="1301" d="M655 165l352 917h137v-1082h-111v869l-339 -869h-78l-346 891v-891h-110v1082h145zM1120 -319l-71 53q91 122 94 254v156h117v-123q0 -213 -140 -340z" />
<glyph unicode="&#x4cf;" horiz-adv-x="500" d="M307 0h-114v1456h114v-1456z" />
<glyph unicode="&#x4d0;" d="M834 407h-546l-124 -407h-119l464 1456h106l464 -1456h-119zM321 514h480l-240 781zM853 1808q0 -114 -78 -186t-211 -72q-131 0 -210 71.5t-79 186.5h102q0 -80 47.5 -125t139.5 -45q87 0 137 45t50 125h102z" />
<glyph unicode="&#x4d1;" horiz-adv-x="964" d="M720 0q-15 52 -20 150q-50 -81 -128.5 -125.5t-170.5 -44.5q-140 0 -218 79t-78 225q0 159 108.5 252t299.5 94h186v151q0 116 -57.5 166.5t-168.5 50.5q-103 0 -169 -60t-66 -155l-111 1q0 133 100 225.5t251 92.5q163 0 247 -82t84 -239v-531q0 -159 29 -238v-12h-118z M415 87q98 0 173.5 51t110.5 136v263h-176q-152 -2 -229 -67.5t-77 -176.5q0 -206 198 -206zM796 1493q0 -114 -78 -186t-211 -72q-131 0 -210 71.5t-79 186.5h102q0 -80 47.5 -125t139.5 -45q87 0 137 45t50 125h102z" />
<glyph unicode="&#x4d2;" d="M834 407h-546l-124 -407h-119l464 1456h106l464 -1456h-119zM321 514h480l-240 781zM271 1710q0 35 21.5 58.5t60.5 23.5q38 0 60.5 -23.5t22.5 -58.5q0 -34 -22.5 -57t-60.5 -23q-39 0 -60.5 23t-21.5 57zM708 1709q0 35 22 58.5t60 23.5q39 0 61 -23.5t22 -58.5 q0 -34 -22 -57t-61 -23q-38 0 -60 23t-22 57z" />
<glyph unicode="&#x4d3;" horiz-adv-x="964" d="M720 0q-15 52 -20 150q-50 -81 -128.5 -125.5t-170.5 -44.5q-140 0 -218 79t-78 225q0 159 108.5 252t299.5 94h186v151q0 116 -57.5 166.5t-168.5 50.5q-103 0 -169 -60t-66 -155l-111 1q0 133 100 225.5t251 92.5q163 0 247 -82t84 -239v-531q0 -159 29 -238v-12h-118z M415 87q98 0 173.5 51t110.5 136v263h-176q-152 -2 -229 -67.5t-77 -176.5q0 -206 198 -206zM214 1395q0 35 21.5 58.5t60.5 23.5q38 0 60.5 -23.5t22.5 -58.5q0 -34 -22.5 -57t-60.5 -23q-39 0 -60.5 23t-21.5 57zM651 1394q0 35 22 58.5t60 23.5q39 0 61 -23.5t22 -58.5 q0 -34 -22 -57t-61 -23q-38 0 -60 23t-22 57z" />
<glyph unicode="&#x4d4;" horiz-adv-x="1614" d="M1560 0h-697l-14 388h-493l-191 -388h-136l740 1456h740v-104h-583l19 -542h495v-104h-491l21 -603h590v-103zM412 503h433l-29 821z" />
<glyph unicode="&#x4d5;" horiz-adv-x="1494" d="M1082 -20q-116 0 -200 53.5t-135 148.5q-51 -96 -146.5 -149t-212.5 -53q-140 0 -219 83t-79 231q0 160 96 249t276 89h209v88q0 131 -51.5 204.5t-154.5 73.5q-109 0 -175 -65.5t-66 -167.5l-110 13q0 143 98 233.5t253 90.5q103 0 177.5 -51t109.5 -153q51 96 129 150 t174 54q166 0 262 -121.5t96 -346.5v-98h-631v-26q0 -200 79 -313.5t221 -113.5q153 0 271 118l42 -90q-54 -64 -136 -97.5t-177 -33.5zM406 82q74 0 150.5 44.5t114.5 105.5v302h-213q-116 -1 -186 -68.5t-70 -175.5q0 -93 51 -150.5t153 -57.5zM1055 998 q-110 0 -182.5 -98.5t-87.5 -263.5h518v31q0 155 -66 243t-182 88z" />
<glyph unicode="&#x4d6;" horiz-adv-x="1018" d="M851 697h-565v-591h650v-106h-764v1456h759v-108h-645v-545h565v-106zM829 1814q0 -114 -78 -186t-211 -72q-131 0 -210 71.5t-79 186.5h102q0 -80 47.5 -125t139.5 -45q87 0 137 45t50 125h102z" />
<glyph unicode="&#x4d7;" horiz-adv-x="937" d="M505 -20q-191 0 -299 125t-110 356v132q0 238 104 373.5t286 135.5q176 0 268.5 -115t94.5 -352v-104h-643v-61q0 -186 79.5 -287t224.5 -101q160 0 259 117l58 -74q-106 -145 -322 -145zM486 998q-131 0 -201.5 -92.5t-77.5 -270.5h531v29q-8 334 -252 334zM784 1492 q0 -114 -78 -186t-211 -72q-131 0 -210 71.5t-79 186.5h102q0 -80 47.5 -125t139.5 -45q87 0 137 45t50 125h102z" />
<glyph unicode="&#x4d8;" horiz-adv-x="1241" d="M588 1476q248 0 390 -183t142 -498v-124q0 -196 -64 -354.5t-178.5 -247.5t-253.5 -89q-236 0 -370.5 169.5t-134.5 471.5v118h886v64q0 264 -109.5 414t-307.5 150q-200 0 -338 -118l-34 94q133 133 372 133zM624 87q165 0 268 151.5t112 397.5h-770v-52 q0 -232 103 -364.5t287 -132.5z" />
<glyph unicode="&#x4d9;" horiz-adv-x="930" d="M444 1102q114 0 206 -68.5t143 -190.5t51 -272v-54q0 -150 -51.5 -274t-139.5 -193.5t-193 -69.5q-167 0 -264.5 123t-97.5 343v99h635v26q0 186 -80.5 307t-208.5 121q-172 0 -270 -120l-46 85q109 138 316 138zM460 83q104 0 178 98.5t91 259.5h-520v-29 q0 -146 69 -237.5t182 -91.5z" />
<glyph unicode="&#x4da;" horiz-adv-x="1241" d="M588 1476q248 0 390 -183t142 -498v-124q0 -196 -64 -354.5t-178.5 -247.5t-253.5 -89q-236 0 -370.5 169.5t-134.5 471.5v118h886v64q0 264 -109.5 414t-307.5 150q-200 0 -338 -118l-34 94q133 133 372 133zM624 87q165 0 268 151.5t112 397.5h-770v-52 q0 -232 103 -364.5t287 -132.5zM279 1670q0 35 21.5 58.5t60.5 23.5q38 0 60.5 -23.5t22.5 -58.5q0 -34 -22.5 -57t-60.5 -23q-39 0 -60.5 23t-21.5 57zM716 1669q0 35 22 58.5t60 23.5q39 0 61 -23.5t22 -58.5q0 -34 -22 -57t-61 -23q-38 0 -60 23t-22 57z" />
<glyph unicode="&#x4db;" horiz-adv-x="930" d="M444 1102q114 0 206 -68.5t143 -190.5t51 -272v-54q0 -150 -51.5 -274t-139.5 -193.5t-193 -69.5q-167 0 -264.5 123t-97.5 343v99h635v26q0 186 -80.5 307t-208.5 121q-172 0 -270 -120l-46 85q109 138 316 138zM460 83q104 0 178 98.5t91 259.5h-520v-29 q0 -146 69 -237.5t182 -91.5zM198 1395q0 35 21.5 58.5t60.5 23.5q38 0 60.5 -23.5t22.5 -58.5q0 -34 -22.5 -57t-60.5 -23q-39 0 -60.5 23t-21.5 57zM635 1394q0 35 22 58.5t60 23.5q39 0 61 -23.5t22 -58.5q0 -34 -22 -57t-61 -23q-38 0 -60 23t-22 57z" />
<glyph unicode="&#x4dc;" horiz-adv-x="1563" d="M979 691h-137v-691h-115v691h-140l-403 -691h-144l447 754l-417 702h138l373 -657h146v657h115v-657h142l373 657h137l-416 -701l447 -755h-143zM487 1716q0 35 21.5 58.5t60.5 23.5q38 0 60.5 -23.5t22.5 -58.5q0 -34 -22.5 -57t-60.5 -23q-39 0 -60.5 23t-21.5 57z M924 1715q0 35 22 58.5t60 23.5q39 0 61 -23.5t22 -58.5q0 -34 -22 -57t-61 -23q-38 0 -60 23t-22 57z" />
<glyph unicode="&#x4dd;" horiz-adv-x="1359" d="M848 498h-118v-498h-111v498h-118l-321 -498h-140l368 557l-328 525h134l286 -474h119v474h111v-474h119l287 474h136l-330 -526l369 -556h-142zM380 1374q0 35 21.5 58.5t60.5 23.5q38 0 60.5 -23.5t22.5 -58.5q0 -34 -22.5 -57t-60.5 -23q-39 0 -60.5 23t-21.5 57z M817 1373q0 35 22 58.5t60 23.5q39 0 61 -23.5t22 -58.5q0 -34 -22 -57t-61 -23q-38 0 -60 23t-22 57z" />
<glyph unicode="&#x4de;" horiz-adv-x="1063" d="M832 1076q0 138 -81.5 215.5t-228.5 77.5q-126 0 -211 -82t-85 -213h-114q0 116 53.5 208t148.5 143t208 51q200 0 312.5 -106t112.5 -298q0 -108 -57 -194.5t-162 -131.5q118 -38 177.5 -127t59.5 -223q0 -189 -120 -302.5t-323 -113.5q-119 0 -219 52.5t-154.5 147.5 t-54.5 224h114q0 -139 89 -229t225 -90q153 0 241 82.5t88 224.5q0 156 -83.5 226t-241.5 70h-145v108h140q311 0 311 280zM243 1737q0 35 21.5 58.5t60.5 23.5q38 0 60.5 -23.5t22.5 -58.5q0 -34 -22.5 -57t-60.5 -23q-39 0 -60.5 23t-21.5 57zM680 1736q0 35 22 58.5 t60 23.5q39 0 61 -23.5t22 -58.5q0 -34 -22 -57t-61 -23q-38 0 -60 23t-22 57z" />
<glyph unicode="&#x4df;" horiz-adv-x="911" d="M675 795q0 97 -58.5 150t-162.5 53q-96 0 -162 -60.5t-66 -148.5h-110q0 136 98 224t240 88q157 0 244.5 -80.5t87.5 -226.5q0 -78 -40 -141t-116 -98q173 -60 173 -258q0 -145 -95 -230.5t-254 -85.5q-153 0 -253 91t-100 238h111q0 -96 69.5 -161.5t172.5 -65.5 q113 0 175 57.5t62 154.5q0 108 -57.5 156t-174.5 48h-142v106h153q205 4 205 190zM156 1394q0 35 21.5 58.5t60.5 23.5q38 0 60.5 -23.5t22.5 -58.5q0 -34 -22.5 -57t-60.5 -23q-39 0 -60.5 23t-21.5 57zM593 1393q0 35 22 58.5t60 23.5q39 0 61 -23.5t22 -58.5 q0 -34 -22 -57t-61 -23q-38 0 -60 23t-22 57z" />
<glyph unicode="&#x4e0;" horiz-adv-x="1032" d="M742 1348h-600v108h733l2 -97l-372 -521q192 -3 291.5 -117t99.5 -325q0 -192 -108.5 -304.5t-285.5 -112.5q-108 0 -198 51.5t-140.5 147.5t-50.5 226h116q0 -140 76.5 -229.5t196.5 -89.5q129 0 204.5 81.5t75.5 225.5q0 176 -71.5 261t-218.5 86h-108v104z" />
<glyph unicode="&#x4e1;" horiz-adv-x="1032" d="M734 977h-592v105h730l2 -94l-367 -527q184 -8 285.5 -122t101.5 -318q0 -189 -108 -302.5t-285 -113.5q-109 0 -199 53t-139.5 147.5t-49.5 223.5h113q0 -138 77 -229t198 -91q132 0 207.5 83t75.5 225q0 342 -297 347h-104v104z" />
<glyph unicode="&#x4e2;" horiz-adv-x="1262" d="M970 1456h114v-1456h-114v1240l-679 -1240h-115v1456h115v-1239zM920 1687h-570v99h570v-99z" />
<glyph unicode="&#x4e3;" horiz-adv-x="1012" d="M744 1082h111v-1082h-111v885l-477 -885h-111v1082h111v-886zM787 1345h-570v99h570v-99z" />
<glyph unicode="&#x4e4;" horiz-adv-x="1262" d="M970 1456h114v-1456h-114v1240l-679 -1240h-115v1456h115v-1239zM343 1716q0 35 21.5 58.5t60.5 23.5q38 0 60.5 -23.5t22.5 -58.5q0 -34 -22.5 -57t-60.5 -23q-39 0 -60.5 23t-21.5 57zM780 1715q0 35 22 58.5t60 23.5q39 0 61 -23.5t22 -58.5q0 -34 -22 -57t-61 -23 q-38 0 -60 23t-22 57z" />
<glyph unicode="&#x4e5;" horiz-adv-x="1012" d="M744 1082h111v-1082h-111v885l-477 -885h-111v1082h111v-886zM210 1374q0 35 21.5 58.5t60.5 23.5q38 0 60.5 -23.5t22.5 -58.5q0 -34 -22.5 -57t-60.5 -23q-39 0 -60.5 23t-21.5 57zM647 1373q0 35 22 58.5t60 23.5q39 0 61 -23.5t22 -58.5q0 -34 -22 -57t-61 -23 q-38 0 -60 23t-22 57z" />
<glyph unicode="&#x4e6;" horiz-adv-x="1208" d="M1075 570q0 -282 -123.5 -436t-346.5 -154q-221 0 -346.5 154t-126.5 433v317q0 281 125 436.5t346 155.5q224 0 348 -156t124 -439v-311zM960 886q0 239 -92 359t-265 120q-167 0 -261 -117.5t-96 -351.5v-326q0 -240 95 -360.5t264 -120.5q174 0 264.5 120t90.5 361 v316zM310 1721q0 35 21.5 58.5t60.5 23.5q38 0 60.5 -23.5t22.5 -58.5q0 -34 -22.5 -57t-60.5 -23q-39 0 -60.5 23t-21.5 57zM747 1720q0 35 22 58.5t60 23.5q39 0 61 -23.5t22 -58.5q0 -34 -22 -57t-61 -23q-38 0 -60 23t-22 57z" />
<glyph unicode="&#x4e7;" horiz-adv-x="1005" d="M106 596q0 234 106 370t289 136q184 0 289.5 -134t106.5 -369v-115q0 -238 -106.5 -371t-287.5 -133t-287 130t-110 358v128zM218 484q0 -187 75.5 -294t209.5 -107q137 0 209.5 103t73.5 295v115q0 187 -76 294.5t-209 107.5q-129 0 -205 -105t-78 -289v-120zM207 1395 q0 35 21.5 58.5t60.5 23.5q38 0 60.5 -23.5t22.5 -58.5q0 -34 -22.5 -57t-60.5 -23q-39 0 -60.5 23t-21.5 57zM644 1394q0 35 22 58.5t60 23.5q39 0 61 -23.5t22 -58.5q0 -34 -22 -57t-61 -23q-38 0 -60 23t-22 57z" />
<glyph unicode="&#x4e8;" horiz-adv-x="1200" d="M1075 650q0 -200 -58.5 -352.5t-167.5 -235t-252 -82.5q-140 0 -249.5 82t-169.5 233.5t-61 346.5v162q0 199 59 352t168.5 236.5t250.5 83.5q217 0 348.5 -182t131.5 -499v-145zM231 775h731v31q0 263 -98.5 411t-268.5 148q-165 0 -263.5 -146.5t-100.5 -403.5v-40z M962 671h-731v-21q0 -258 98.5 -409.5t267.5 -151.5q172 0 268.5 150t96.5 416v16z" />
<glyph unicode="&#x4e9;" horiz-adv-x="1014" d="M95 556q0 239 112.5 392.5t293.5 153.5q184 0 296.5 -153.5t112.5 -399.5v-25q0 -239 -112 -391.5t-295 -152.5q-175 0 -286 139.5t-121 365.5zM503 83q128 0 207.5 114t86.5 294h-591q7 -182 87.5 -295t209.5 -113zM206 595h591q-9 182 -90.5 292.5t-205.5 110.5 t-205 -111t-90 -292z" />
<glyph unicode="&#x4ea;" horiz-adv-x="1200" d="M1075 650q0 -200 -58.5 -352.5t-167.5 -235t-252 -82.5q-140 0 -249.5 82t-169.5 233.5t-61 346.5v162q0 199 59 352t168.5 236.5t250.5 83.5q217 0 348.5 -182t131.5 -499v-145zM231 775h731v31q0 263 -98.5 411t-268.5 148q-165 0 -263.5 -146.5t-100.5 -403.5v-40z M962 671h-731v-21q0 -258 98.5 -409.5t267.5 -151.5q172 0 268.5 150t96.5 416v16zM327 1711q0 35 21.5 58.5t60.5 23.5q38 0 60.5 -23.5t22.5 -58.5q0 -34 -22.5 -57t-60.5 -23q-39 0 -60.5 23t-21.5 57zM764 1710q0 35 22 58.5t60 23.5q39 0 61 -23.5t22 -58.5 q0 -34 -22 -57t-61 -23q-38 0 -60 23t-22 57z" />
<glyph unicode="&#x4eb;" horiz-adv-x="1014" d="M95 556q0 239 112.5 392.5t293.5 153.5q184 0 296.5 -153.5t112.5 -399.5v-25q0 -239 -112 -391.5t-295 -152.5q-175 0 -286 139.5t-121 365.5zM503 83q128 0 207.5 114t86.5 294h-591q7 -182 87.5 -295t209.5 -113zM206 595h591q-9 182 -90.5 292.5t-205.5 110.5 t-205 -111t-90 -292zM197 1408q0 35 21.5 58.5t60.5 23.5q38 0 60.5 -23.5t22.5 -58.5q0 -34 -22.5 -57t-60.5 -23q-39 0 -60.5 23t-21.5 57zM634 1407q0 35 22 58.5t60 23.5q39 0 61 -23.5t22 -58.5q0 -34 -22 -57t-61 -23q-38 0 -60 23t-22 57z" />
<glyph unicode="&#x4ec;" horiz-adv-x="1180" d="M254 454q21 -192 102 -280t235 -88q162 0 256 150t94 408v34h-506v107h506v34q0 251 -96.5 400t-261.5 149q-291 0 -329 -368h-115q21 230 136 353t308 123q141 0 248.5 -81.5t165.5 -231.5t58 -346v-180q0 -195 -58 -345.5t-163.5 -231t-242.5 -80.5 q-199 0 -315.5 123.5t-136.5 350.5h115zM308 1738q0 35 21.5 58.5t60.5 23.5q38 0 60.5 -23.5t22.5 -58.5q0 -34 -22.5 -57t-60.5 -23q-39 0 -60.5 23t-21.5 57zM745 1737q0 35 22 58.5t60 23.5q39 0 61 -23.5t22 -58.5q0 -34 -22 -57t-61 -23q-38 0 -60 23t-22 57z" />
<glyph unicode="&#x4ed;" horiz-adv-x="961" d="M455 998q-101 0 -168.5 -71.5t-67.5 -183.5h-108q0 97 45.5 179t127 131t171.5 49q174 0 281.5 -149t107.5 -399v-34q0 -240 -106.5 -390t-282.5 -150q-151 0 -247.5 107.5t-96.5 278.5h108q0 -128 67 -205.5t169 -77.5q124 0 198.5 113.5t79.5 298.5h-398v104h397 q-7 181 -81 290t-196 109zM186 1395q0 35 21.5 58.5t60.5 23.5q38 0 60.5 -23.5t22.5 -58.5q0 -34 -22.5 -57t-60.5 -23q-39 0 -60.5 23t-21.5 57zM623 1394q0 35 22 58.5t60 23.5q39 0 61 -23.5t22 -58.5q0 -34 -22 -57t-61 -23q-38 0 -60 23t-22 57z" />
<glyph unicode="&#x4ee;" horiz-adv-x="1120" d="M581 535l337 921h134l-461 -1207l-39 -87q-86 -183 -259 -183q-58 0 -80 11l9 102q18 -7 72 -7q99 0 157 122l25 56l48 122l-454 1071h130zM847 1687h-570v99h570v-99z" />
<glyph unicode="&#x4ef;" horiz-adv-x="857" d="M436 183l258 899h119l-381 -1255l-21 -60q-77 -204 -236 -204q-38 0 -80 14l-1 102q23 -7 51 -7q72 0 118 43t76 139l46 153l-340 1075h122zM734 1366h-570v99h570v-99z" />
<glyph unicode="&#x4f0;" horiz-adv-x="1120" d="M581 535l337 921h134l-461 -1207l-39 -87q-86 -183 -259 -183q-58 0 -80 11l9 102q18 -7 72 -7q99 0 157 122l25 56l48 122l-454 1071h130zM270 1716q0 35 21.5 58.5t60.5 23.5q38 0 60.5 -23.5t22.5 -58.5q0 -34 -22.5 -57t-60.5 -23q-39 0 -60.5 23t-21.5 57zM707 1715 q0 35 22 58.5t60 23.5q39 0 61 -23.5t22 -58.5q0 -34 -22 -57t-61 -23q-38 0 -60 23t-22 57z" />
<glyph unicode="&#x4f1;" horiz-adv-x="857" d="M436 183l258 899h119l-381 -1255l-21 -60q-77 -204 -236 -204q-38 0 -80 14l-1 102q23 -7 51 -7q72 0 118 43t76 139l46 153l-340 1075h122zM157 1395q0 35 21.5 58.5t60.5 23.5q38 0 60.5 -23.5t22.5 -58.5q0 -34 -22.5 -57t-60.5 -23q-39 0 -60.5 23t-21.5 57z M594 1394q0 35 22 58.5t60 23.5q39 0 61 -23.5t22 -58.5q0 -34 -22 -57t-61 -23q-38 0 -60 23t-22 57z" />
<glyph unicode="&#x4f2;" horiz-adv-x="1120" d="M581 535l337 921h134l-461 -1207l-39 -87q-86 -183 -259 -183q-58 0 -80 11l9 102q18 -7 72 -7q99 0 157 122l25 56l48 122l-454 1071h130zM807 1856h131l-233 -303h-109zM542 1856h125l-192 -303h-98z" />
<glyph unicode="&#x4f3;" horiz-adv-x="857" d="M436 183l258 899h119l-381 -1255l-21 -60q-77 -204 -236 -204q-38 0 -80 14l-1 102q23 -7 51 -7q72 0 118 43t76 139l46 153l-340 1075h122zM694 1535h131l-233 -303h-109zM429 1535h125l-192 -303h-98z" />
<glyph unicode="&#x4f4;" horiz-adv-x="1191" d="M1016 1456v-1456h-115v659q-168 -56 -330 -56q-208 0 -307 106t-103 323v424h115v-417q2 -171 72 -250t223 -79q164 0 330 56v690h115zM305 1716q0 35 21.5 58.5t60.5 23.5q38 0 60.5 -23.5t22.5 -58.5q0 -34 -22.5 -57t-60.5 -23q-39 0 -60.5 23t-21.5 57zM742 1715 q0 35 22 58.5t60 23.5q39 0 61 -23.5t22 -58.5q0 -34 -22 -57t-61 -23q-38 0 -60 23t-22 57z" />
<glyph unicode="&#x4f5;" horiz-adv-x="959" d="M803 0h-112v450q-118 -50 -232 -50q-182 0 -264.5 97.5t-83.5 304.5v280h111v-288q2 -156 56.5 -223t180.5 -67q114 4 232 50v528h112v-1082zM157 1374q0 35 21.5 58.5t60.5 23.5q38 0 60.5 -23.5t22.5 -58.5q0 -34 -22.5 -57t-60.5 -23q-39 0 -60.5 23t-21.5 57z M594 1373q0 35 22 58.5t60 23.5q39 0 61 -23.5t22 -58.5q0 -34 -22 -57t-61 -23q-38 0 -60 23t-22 57z" />
<glyph unicode="&#x4f6;" horiz-adv-x="990" d="M914 1348h-626v-1348h-114v1456h740v-108zM386 -355h-111v480h111v-480z" />
<glyph unicode="&#x4f7;" horiz-adv-x="764" d="M718 977h-451v-977h-112v1082h563v-105zM365 -355h-111v480h111v-480z" />
<glyph unicode="&#x4f8;" horiz-adv-x="1486" d="M289 826h297q195 0 303.5 -108.5t108.5 -302.5q0 -193 -109 -304t-301 -111h-413v1456h114v-630zM289 718v-612h301q139 0 216 83.5t77 227.5q0 138 -76.5 219t-212.5 82h-305zM1304 0h-114v1456h114v-1456zM470 1716q0 35 21.5 58.5t60.5 23.5q38 0 60.5 -23.5 t22.5 -58.5q0 -34 -22.5 -57t-60.5 -23q-39 0 -60.5 23t-21.5 57zM907 1715q0 35 22 58.5t60 23.5q39 0 61 -23.5t22 -58.5q0 -34 -22 -57t-61 -23q-38 0 -60 23t-22 57z" />
<glyph unicode="&#x4f9;" horiz-adv-x="1340" d="M270 690h253q154 0 245 -92t91 -251q0 -158 -90.5 -252.5t-245.5 -94.5h-363v1082h110v-392zM270 586v-483h255q105 0 164 65t59 176q0 110 -60 176t-162 66h-256zM1170 0h-111v1082h111v-1082zM394 1374q0 35 21.5 58.5t60.5 23.5q38 0 60.5 -23.5t22.5 -58.5 q0 -34 -22.5 -57t-60.5 -23q-39 0 -60.5 23t-21.5 57zM831 1373q0 35 22 58.5t60 23.5q39 0 61 -23.5t22 -58.5q0 -34 -22 -57t-61 -23q-38 0 -60 23t-22 57z" />
<glyph unicode="&#x4fa;" horiz-adv-x="1025" d="M948 1348h-626v-1348h-114v1456h740v-108zM565 753h-518v104h518v-104zM417 135v-224q0 -170 -68 -259t-190 -89q-47 0 -93 19l11 106q37 -16 82 -16q147 0 147 251v212h111z" />
<glyph unicode="&#x4fb;" horiz-adv-x="747" d="M758 977h-451v-977h-112v1082h563v-105zM568 562h-518v104h518v-104zM407 135v-224q0 -170 -68 -259t-190 -89q-47 0 -93 19l11 106q37 -16 82 -16q147 0 147 251v212h111z" />
<glyph unicode="&#x4fc;" horiz-adv-x="1097" d="M549 842l335 614h136l-401 -718l413 -738h-137l-346 633l-347 -633h-136l415 738l-403 718h136zM1067 135v-224q0 -170 -68 -259t-190 -89q-47 0 -93 19l11 106q37 -16 82 -16q147 0 147 251v212h111z" />
<glyph unicode="&#x4fd;" horiz-adv-x="880" d="M438 645l237 437h131l-307 -531l319 -551h-130l-249 455l-250 -455h-130l318 551l-306 531h130zM868 135v-224q0 -170 -68 -259t-190 -89q-47 0 -93 19l11 106q37 -16 82 -16q147 0 147 251v212h111z" />
<glyph unicode="&#x4fe;" horiz-adv-x="1097" d="M808 696h-166l390 -696h-137l-346 633l-347 -633h-136l391 696h-167v104h156l-368 656h136l335 -614l335 614h136l-367 -656h155v-104z" />
<glyph unicode="&#x4ff;" horiz-adv-x="880" d="M702 504h-176l292 -504h-130l-249 455l-250 -455h-130l291 504h-166v104h160l-273 474h130l237 -437l237 437h131l-274 -474h170v-104z" />
<glyph unicode="&#x500;" horiz-adv-x="1041" d="M792 846v610h116v-1456h-416q-188 0 -297.5 114.5t-109.5 310.5q0 194 109 307.5t300 113.5h298zM792 106v633h-300q-136 0 -214.5 -85t-78.5 -227q0 -144 76 -231t207 -90h310z" />
<glyph unicode="&#x501;" horiz-adv-x="999" d="M108 591q0 254 89 382.5t264 128.5q184 0 275 -165v599h111v-1536h-104l-5 139q-91 -159 -278 -159q-171 0 -260.5 130t-91.5 369v112zM221 490q0 -208 62.5 -306t198.5 -98q175 0 254 167v561q-75 181 -253 181q-136 0 -198.5 -97t-63.5 -300v-108z" />
<glyph unicode="&#x502;" horiz-adv-x="1397" d="M493 0q-188 0 -297.5 114.5t-109.5 310.5q0 194 109 307.5t300 113.5h299v610h116v-1352l97 1q103 2 156 82.5t56 217.5q2 174 -51 346h110q58 -212 55 -346q-4 -188 -93 -296.5t-239 -108.5h-508zM794 106v633h-301q-135 0 -213.5 -85t-78.5 -227q0 -144 76 -231 t206 -90h311z" />
<glyph unicode="&#x503;" horiz-adv-x="1518" d="M111 531q0 261 93.5 416t256.5 155q172 0 268 -160v618h111v-1221q0 -126 44.5 -191.5t118.5 -65.5q122 2 192 119t72 328q4 176 -53 402l108 1q23 -98 40.5 -199t15.5 -204q-4 -259 -105 -404.5t-270 -145.5q-193 -4 -250 195q-92 -195 -293 -195q-161 0 -255 143 t-94 409zM729 809q-75 186 -246 186q-124 0 -192 -123t-68 -362q0 -204 67.5 -314.5t191.5 -110.5q179 0 252 188l-5 72v464z" />
<glyph unicode="&#x504;" horiz-adv-x="1399" d="M233 673v107h143q150 1 219.5 75t69.5 220q0 273 -305 273h-297v108h306q200 -1 305.5 -98t105.5 -285q0 -125 -57 -217t-166 -134q185 -67 186 -335v-81q0 -101 42 -161t110 -60q113 2 181.5 126.5t70.5 317.5q3 173 -54 403h113q25 -112 41.5 -209t15.5 -194 q-4 -248 -107 -399t-262 -151q-254 -8 -265 325v84q-2 132 -63 208.5t-171 76.5h-162z" />
<glyph unicode="&#x505;" horiz-adv-x="1148" d="M623 213q-1 -61 22 -97.5t88 -36.5q101 2 159 88t62 252q4 158 -58 319h113q39 -143 48 -202t8 -117q-4 -208 -95 -325t-237 -117q-110 -4 -163.5 53.5t-57.5 183.5v76q0 186 -207 186h-173l-2 102h174q100 1 157 52t57 138q0 98 -62.5 155t-168.5 58h-223l-5 101h228 q161 -1 252.5 -82.5t91.5 -227.5q0 -169 -161 -240q152 -49 153 -234v-85z" />
<glyph unicode="&#x506;" horiz-adv-x="958" d="M185 657v104h145q147 2 224.5 76t77.5 217q0 140 -71.5 218.5t-224.5 78.5h-236v104h240q196 -1 299 -102.5t103 -299.5q0 -120 -56 -209t-157 -132q212 -63 212 -340l1 -180l4 -36h106v-141q0 -90 -32.5 -175t-90.5 -147l-66 53q76 121 80 254h-57q-56 66 -56 248v123 q-1 132 -71 209t-197 77h-177z" />
<glyph unicode="&#x507;" horiz-adv-x="903" d="M186 466l-1 104h186q117 0 174.5 48t57.5 152q0 203 -219 208h-269l2 104h254q166 0 255 -79.5t89 -230.5q0 -182 -162 -249q158 -49 160 -247v-114h95v-140q0 -89 -32 -175t-91 -147l-65 53q76 124 79 247h-65q-30 35 -31 164v96q0 206 -211 206h-206z" />
<glyph unicode="&#x508;" horiz-adv-x="1704" d="M944 1348h-466l-27 -609q-17 -314 -52 -459t-101 -212t-180 -68h-42v106l31 2q82 3 126 58t67.5 179.5t37.5 384.5l32 726h689v-1111q0 -128 43 -194.5t118 -65.5q123 2 191 119.5t70 324.5q2 179 -54 402l112 1q23 -103 40.5 -202.5t15.5 -200.5q-4 -258 -105.5 -404 t-269.5 -146q-137 0 -206.5 93.5t-69.5 271.5v1004z" />
<glyph unicode="&#x509;" horiz-adv-x="1425" d="M723 977h-331l-18 -452q-15 -289 -74.5 -406t-188.5 -119h-46v109l32 1q84 4 121 97t49 344l19 531h547v-737q0 -129 41.5 -196.5t113.5 -66.5q107 2 167 103t62 279q4 173 -54 381l108 1q23 -94 41 -189.5t17 -192.5q-4 -227 -96.5 -356t-244.5 -129q-129 0 -196.5 91 t-68.5 269v638z" />
<glyph unicode="&#x50a;" horiz-adv-x="1723" d="M1030 1456v-1117q0 -125 43.5 -189.5t117.5 -64.5q122 2 190.5 119.5t70.5 324.5q3 172 -54 402l112 1q23 -98 41.5 -199t16.5 -204q-4 -255 -105.5 -402.5t-271.5 -147.5l-36 1q-229 19 -240 365v321h-624v-666h-116v1456h116v-683h624v683h115z" />
<glyph unicode="&#x50b;" horiz-adv-x="1462" d="M732 489h-476v-489h-111v1082h111v-490h476v490h110v-743q0 -126 42 -191.5t113 -65.5q107 2 167 103t62 279q3 165 -54 381l108 1l26 -112q34 -156 32 -270q-4 -227 -96.5 -356t-244.5 -129q-123 -4 -191 85.5t-74 280.5v144z" />
<glyph unicode="&#x50c;" horiz-adv-x="1103" d="M603 -21q-135 0 -243.5 79.5t-168 219t-60.5 313.5v268q0 176 59.5 317t168.5 221t244 80q177 0 286 -77l-37 -99q-111 68 -249 68q-159 0 -258 -142t-99 -375v-255q0 -225 99 -368.5t258 -143.5q132 2 207.5 89.5t79.5 250.5q2 156 -42 361h112q31 -172 38 -235t6 -126 q-4 -206 -114 -326t-287 -120z" />
<glyph unicode="&#x50d;" horiz-adv-x="921" d="M516 82q198 3 203 219q0 122 -20 236h108q23 -151 22 -236q-4 -154 -86.5 -238t-226.5 -84q-178 0 -289 153t-111 399v31q0 151 48 276t134.5 194.5t199.5 69.5q156 0 230 -63l-31 -97q-79 56 -199 56q-125 0 -198 -123t-73 -326v-29q0 -190 79 -314t210 -124z" />
<glyph unicode="&#x50e;" horiz-adv-x="1257" d="M473 1348h-425v108h968v-108h-428v-1003q-1 -128 43 -194t119 -66q120 2 188.5 117.5t72.5 326.5q2 183 -55 402l112 1q23 -98 41 -199t15 -204q-4 -262 -106.5 -406t-267.5 -144q-132 -4 -201.5 88.5t-75.5 277.5v1003z" />
<glyph unicode="&#x50f;" horiz-adv-x="1139" d="M397 979h-320v103h761v-103h-329v-634q-1 -129 43 -196t120 -67q107 2 167 95.5t62 258.5q2 158 -54 354h108l24 -95q36 -150 34 -259q-4 -212 -96 -334.5t-245 -122.5q-260 -8 -275 366v634z" />
<glyph unicode="&#x510;" horiz-adv-x="1180" d="M257 392q0 -142 96.5 -224t265.5 -82q151 0 246.5 90t95.5 228h115q0 -130 -59 -225.5t-165 -147t-233 -51.5q-219 0 -348 113.5t-129 302.5q0 274 254 350q-114 45 -175 131.5t-61 194.5q0 193 122 299t337 106q123 0 225 -51.5t158.5 -143.5t56.5 -208h-114 q0 129 -92.5 212t-233.5 83q-163 0 -253 -77.5t-90 -215.5q0 -137 85.5 -208.5t251.5 -71.5h156v-108h-165q-170 -2 -258.5 -72t-88.5 -224z" />
<glyph unicode="&#x511;" horiz-adv-x="973" d="M108 297q0 197 188 258q-82 35 -127 98t-45 141q0 144 95 225.5t263 81.5q156 0 259.5 -88t103.5 -224h-110q0 92 -74 150.5t-179 58.5q-114 0 -180 -54.5t-66 -148.5q0 -192 249 -192h151v-102h-158q-126 0 -191.5 -49t-65.5 -157q0 -94 69 -153t192 -59q115 0 191 64 t76 163h111q0 -149 -106 -239.5t-272 -90.5q-170 0 -272 87t-102 230z" />
<glyph unicode="&#x512;" horiz-adv-x="1250" d="M1074 1456v-1456h-115v1348h-501l-30 -651q-16 -288 -52 -428.5t-101 -203.5t-176 -65h-44v106l32 2q82 3 126 59t67.5 179.5t37.5 383.5l31 726h725zM1184 135v-224q0 -170 -68 -259t-190 -89q-47 0 -93 19l11 106q37 -16 82 -16q147 0 147 251v212h111z" />
<glyph unicode="&#x513;" horiz-adv-x="1013" d="M856 1082v-1082h-111v977h-360l-16 -401q-13 -318 -71.5 -444.5t-189.5 -131.5h-51v109l32 1q86 4 122 100.5t48 340.5l19 531h578zM967 135v-224q0 -170 -68 -259t-190 -89q-47 0 -93 19l11 106q37 -16 82 -16q147 0 147 251v212h111z" />
<glyph unicode="&#x1e00;" d="M834 407h-546l-124 -407h-119l464 1456h106l464 -1456h-119zM321 514h480l-240 781zM445 -228q0 59 38.5 101.5t93.5 42.5q53 0 91.5 -41t38.5 -103t-38.5 -101t-91.5 -39q-55 0 -93.5 40t-38.5 100zM508 -228q0 -30 20 -50.5t49 -20.5t48.5 20t19.5 51q0 32 -19.5 53.5 t-48.5 21.5t-49 -21.5t-20 -53.5z" />
<glyph unicode="&#x1e01;" horiz-adv-x="964" d="M720 0q-15 52 -20 150q-50 -81 -128.5 -125.5t-170.5 -44.5q-140 0 -218 79t-78 225q0 159 108.5 252t299.5 94h186v151q0 116 -57.5 166.5t-168.5 50.5q-103 0 -169 -60t-66 -155l-111 1q0 133 100 225.5t251 92.5q163 0 247 -82t84 -239v-531q0 -159 29 -238v-12h-118z M415 87q98 0 173.5 51t110.5 136v263h-176q-152 -2 -229 -67.5t-77 -176.5q0 -206 198 -206zM309 -228q0 59 38.5 101.5t93.5 42.5q53 0 91.5 -41t38.5 -103t-38.5 -101t-91.5 -39q-55 0 -93.5 40t-38.5 100zM372 -228q0 -30 20 -50.5t49 -20.5t48.5 20t19.5 51 q0 32 -19.5 53.5t-48.5 21.5t-49 -21.5t-20 -53.5z" />
<glyph unicode="&#x1e3e;" horiz-adv-x="1531" d="M323 1456l441 -1281l443 1281h151v-1456h-114v631l10 635l-446 -1266h-88l-444 1260l10 -625v-635h-114v1456h151zM888 1840h145l-231 -280h-105z" />
<glyph unicode="&#x1e3f;" horiz-adv-x="1561" d="M250 1082l3 -162q101 182 290 182q209 0 270 -199q51 99 131.5 149t175.5 50q292 0 299 -376v-726h-111v719q-2 140 -52 208.5t-164 68.5q-103 -2 -174 -80t-81 -196v-720h-112v716q0 142 -52.5 211t-163.5 69q-91 0 -157.5 -63t-96.5 -180v-753h-111v1082h106zM906 1525 h145l-231 -280h-105z" />
<glyph unicode="&#x1e80;" horiz-adv-x="1579" d="M405 396l35 -216l44 206l261 1070h102l257 -1070l43 -208l38 218l215 1060h116l-310 -1456h-108l-273 1135l-29 135l-28 -135l-279 -1135h-109l-309 1456h117zM871 1560h-109l-226 280h144z" />
<glyph unicode="&#x1e81;" horiz-adv-x="1336" d="M376 246l9 -60l12 65l221 831h93l219 -824l16 -85l13 76l187 833h114l-265 -1082h-93l-235 860l-5 26l-4 -27l-231 -859h-94l-263 1082h113zM736 1245h-109l-226 280h144z" />
<glyph unicode="&#x1e82;" horiz-adv-x="1579" d="M405 396l35 -216l44 206l261 1070h102l257 -1070l43 -208l38 218l215 1060h116l-310 -1456h-108l-273 1135l-29 135l-28 -135l-279 -1135h-109l-309 1456h117zM917 1840h145l-231 -280h-105z" />
<glyph unicode="&#x1e83;" horiz-adv-x="1336" d="M376 246l9 -60l12 65l221 831h93l219 -824l16 -85l13 76l187 833h114l-265 -1082h-93l-235 860l-5 26l-4 -27l-231 -859h-94l-263 1082h113zM782 1525h145l-231 -280h-105z" />
<glyph unicode="&#x1e84;" horiz-adv-x="1579" d="M405 396l35 -216l44 206l261 1070h102l257 -1070l43 -208l38 218l215 1060h116l-310 -1456h-108l-273 1135l-29 135l-28 -135l-279 -1135h-109l-309 1456h117zM504 1710q0 35 21.5 58.5t60.5 23.5q38 0 60.5 -23.5t22.5 -58.5q0 -34 -22.5 -57t-60.5 -23q-39 0 -60.5 23 t-21.5 57zM941 1709q0 35 22 58.5t60 23.5q39 0 61 -23.5t22 -58.5q0 -34 -22 -57t-61 -23q-38 0 -60 23t-22 57z" />
<glyph unicode="&#x1e85;" horiz-adv-x="1336" d="M376 246l9 -60l12 65l221 831h93l219 -824l16 -85l13 76l187 833h114l-265 -1082h-93l-235 860l-5 26l-4 -27l-231 -859h-94l-263 1082h113zM369 1395q0 35 21.5 58.5t60.5 23.5q38 0 60.5 -23.5t22.5 -58.5q0 -34 -22.5 -57t-60.5 -23q-39 0 -60.5 23t-21.5 57z M806 1394q0 35 22 58.5t60 23.5q39 0 61 -23.5t22 -58.5q0 -34 -22 -57t-61 -23q-38 0 -60 23t-22 57z" />
<glyph unicode="&#x1ea0;" d="M834 407h-546l-124 -407h-119l464 1456h106l464 -1456h-119zM321 514h480l-240 781zM491 -232q0 35 22 58.5t60 23.5q39 0 61 -23.5t22 -58.5q0 -34 -22 -57t-61 -23q-38 0 -60 23t-22 57z" />
<glyph unicode="&#x1ea1;" horiz-adv-x="964" d="M720 0q-15 52 -20 150q-50 -81 -128.5 -125.5t-170.5 -44.5q-140 0 -218 79t-78 225q0 159 108.5 252t299.5 94h186v151q0 116 -57.5 166.5t-168.5 50.5q-103 0 -169 -60t-66 -155l-111 1q0 133 100 225.5t251 92.5q163 0 247 -82t84 -239v-531q0 -159 29 -238v-12h-118z M415 87q98 0 173.5 51t110.5 136v263h-176q-152 -2 -229 -67.5t-77 -176.5q0 -206 198 -206zM355 -232q0 35 22 58.5t60 23.5q39 0 61 -23.5t22 -58.5q0 -34 -22 -57t-61 -23q-38 0 -60 23t-22 57z" />
<glyph unicode="&#x1ea2;" d="M834 407h-546l-124 -407h-119l464 1456h106l464 -1456h-119zM321 514h480l-240 781zM525 1577v126q71 7 103.5 26.5t32.5 67.5q0 45 -44.5 69.5t-118.5 24.5l6 78q117 0 182.5 -46.5t65.5 -127.5q0 -135 -144 -156l-1 -62h-82z" />
<glyph unicode="&#x1ea3;" horiz-adv-x="964" d="M720 0q-15 52 -20 150q-50 -81 -128.5 -125.5t-170.5 -44.5q-140 0 -218 79t-78 225q0 159 108.5 252t299.5 94h186v151q0 116 -57.5 166.5t-168.5 50.5q-103 0 -169 -60t-66 -155l-111 1q0 133 100 225.5t251 92.5q163 0 247 -82t84 -239v-531q0 -159 29 -238v-12h-118z M415 87q98 0 173.5 51t110.5 136v263h-176q-152 -2 -229 -67.5t-77 -176.5q0 -206 198 -206zM468 1262v126q71 7 103.5 26.5t32.5 67.5q0 45 -44.5 69.5t-118.5 24.5l6 78q117 0 182.5 -46.5t65.5 -127.5q0 -135 -144 -156l-1 -62h-82z" />
<glyph unicode="&#x1ea4;" d="M834 407h-546l-124 -407h-119l464 1456h106l464 -1456h-119zM321 514h480l-240 781zM511 1791h104l229 -243h-127l-154 172l-154 -172h-128zM913 1947h125l-156 -232h-92z" />
<glyph unicode="&#x1ea5;" horiz-adv-x="964" d="M720 0q-15 52 -20 150q-50 -81 -128.5 -125.5t-170.5 -44.5q-140 0 -218 79t-78 225q0 159 108.5 252t299.5 94h186v151q0 116 -57.5 166.5t-168.5 50.5q-103 0 -169 -60t-66 -155l-111 1q0 133 100 225.5t251 92.5q163 0 247 -82t84 -239v-531q0 -159 29 -238v-12h-118z M415 87q98 0 173.5 51t110.5 136v263h-176q-152 -2 -229 -67.5t-77 -176.5q0 -206 198 -206zM454 1477h104l229 -243h-127l-154 172l-154 -172h-128zM856 1633h125l-156 -232h-92z" />
<glyph unicode="&#x1ea6;" d="M834 407h-546l-124 -407h-119l464 1456h106l464 -1456h-119zM321 514h480l-240 781zM843 1545h-128l-154 172l-155 -172h-126l229 243h103zM334 1713h-91l-155 232h123z" />
<glyph unicode="&#x1ea7;" horiz-adv-x="964" d="M720 0q-15 52 -20 150q-50 -81 -128.5 -125.5t-170.5 -44.5q-140 0 -218 79t-78 225q0 159 108.5 252t299.5 94h186v151q0 116 -57.5 166.5t-168.5 50.5q-103 0 -169 -60t-66 -155l-111 1q0 133 100 225.5t251 92.5q163 0 247 -82t84 -239v-531q0 -159 29 -238v-12h-118z M415 87q98 0 173.5 51t110.5 136v263h-176q-152 -2 -229 -67.5t-77 -176.5q0 -206 198 -206zM786 1230h-128l-154 172l-155 -172h-126l229 243h103zM277 1398h-91l-155 232h123z" />
<glyph unicode="&#x1ea8;" d="M834 407h-546l-124 -407h-119l464 1456h106l464 -1456h-119zM321 514h480l-240 781zM846 1563h-114l-168 186l-168 -186h-113l220 243h121zM802 1690l-1 113q62 5 88 19t26 52q0 77 -135 77l5 74q100 0 156.5 -40t56.5 -109q0 -58 -32.5 -92.5t-90.5 -41.5v-52h-73z" />
<glyph unicode="&#x1ea9;" horiz-adv-x="964" d="M720 0q-15 52 -20 150q-50 -81 -128.5 -125.5t-170.5 -44.5q-140 0 -218 79t-78 225q0 159 108.5 252t299.5 94h186v151q0 116 -57.5 166.5t-168.5 50.5q-103 0 -169 -60t-66 -155l-111 1q0 133 100 225.5t251 92.5q163 0 247 -82t84 -239v-531q0 -159 29 -238v-12h-118z M415 87q98 0 173.5 51t110.5 136v263h-176q-152 -2 -229 -67.5t-77 -176.5q0 -206 198 -206zM789 1249h-114l-168 186l-168 -186h-113l220 243h121zM745 1376l-1 113q62 5 88 19t26 52q0 77 -135 77l5 74q100 0 156.5 -40t56.5 -109q0 -58 -32.5 -92.5t-90.5 -41.5v-52h-73z " />
<glyph unicode="&#x1eaa;" d="M834 407h-546l-124 -407h-119l464 1456h106l464 -1456h-119zM321 514h480l-240 781zM844 1538h-114l-168 171l-168 -171h-113l238 233h86zM780 1981q0 -63 -36.5 -105.5t-87.5 -42.5q-29 0 -49.5 11.5t-50.5 38t-44 32.5t-31 6q-28 0 -47.5 -29t-19.5 -65l-56 14 q0 63 37 110.5t86 47.5q38 0 84 -38t60 -43.5t31 -5.5q28 0 48 23.5t20 61.5z" />
<glyph unicode="&#x1eab;" horiz-adv-x="964" d="M720 0q-15 52 -20 150q-50 -81 -128.5 -125.5t-170.5 -44.5q-140 0 -218 79t-78 225q0 159 108.5 252t299.5 94h186v151q0 116 -57.5 166.5t-168.5 50.5q-103 0 -169 -60t-66 -155l-111 1q0 133 100 225.5t251 92.5q163 0 247 -82t84 -239v-531q0 -159 29 -238v-12h-118z M415 87q98 0 173.5 51t110.5 136v263h-176q-152 -2 -229 -67.5t-77 -176.5q0 -206 198 -206zM787 1224h-114l-168 171l-168 -171h-113l238 233h86zM723 1667q0 -63 -36.5 -105.5t-87.5 -42.5q-29 0 -49.5 11.5t-50.5 38t-44 32.5t-31 6q-28 0 -47.5 -29t-19.5 -65l-56 14 q0 63 37 110.5t86 47.5q38 0 84 -38t60 -43.5t31 -5.5q28 0 48 23.5t20 61.5z" />
<glyph unicode="&#x1eac;" d="M834 407h-546l-124 -407h-119l464 1456h106l464 -1456h-119zM321 514h480l-240 781zM802 1583v-10h-100l-138 182l-138 -182h-98v12l201 256h69zM491 -232q0 35 22 58.5t60 23.5q39 0 61 -23.5t22 -58.5q0 -34 -22 -57t-61 -23q-38 0 -60 23t-22 57z" />
<glyph unicode="&#x1ead;" horiz-adv-x="964" d="M720 0q-15 52 -20 150q-50 -81 -128.5 -125.5t-170.5 -44.5q-140 0 -218 79t-78 225q0 159 108.5 252t299.5 94h186v151q0 116 -57.5 166.5t-168.5 50.5q-103 0 -169 -60t-66 -155l-111 1q0 133 100 225.5t251 92.5q163 0 247 -82t84 -239v-531q0 -159 29 -238v-12h-118z M415 87q98 0 173.5 51t110.5 136v263h-176q-152 -2 -229 -67.5t-77 -176.5q0 -206 198 -206zM745 1268v-10h-100l-138 182l-138 -182h-98v12l201 256h69zM355 -232q0 35 22 58.5t60 23.5q39 0 61 -23.5t22 -58.5q0 -34 -22 -57t-61 -23q-38 0 -60 23t-22 57z" />
<glyph unicode="&#x1eae;" d="M834 407h-546l-124 -407h-119l464 1456h106l464 -1456h-119zM321 514h480l-240 781zM805 1776q0 -95 -68 -152t-179 -57q-110 0 -179 56.5t-69 152.5h95q0 -68 40.5 -103.5t112.5 -35.5t112 37.5t40 101.5h95zM620 1976h99l-142 -206h-70z" />
<glyph unicode="&#x1eaf;" horiz-adv-x="964" d="M720 0q-15 52 -20 150q-50 -81 -128.5 -125.5t-170.5 -44.5q-140 0 -218 79t-78 225q0 159 108.5 252t299.5 94h186v151q0 116 -57.5 166.5t-168.5 50.5q-103 0 -169 -60t-66 -155l-111 1q0 133 100 225.5t251 92.5q163 0 247 -82t84 -239v-531q0 -159 29 -238v-12h-118z M415 87q98 0 173.5 51t110.5 136v263h-176q-152 -2 -229 -67.5t-77 -176.5q0 -206 198 -206zM748 1461q0 -95 -68 -152t-179 -57q-110 0 -179 56.5t-69 152.5h95q0 -68 40.5 -103.5t112.5 -35.5t112 37.5t40 101.5h95zM563 1661h99l-142 -206h-70z" />
<glyph unicode="&#x1eb0;" d="M834 407h-546l-124 -407h-119l464 1456h106l464 -1456h-119zM321 514h480l-240 781zM805 1776q0 -95 -68 -152t-179 -57q-110 0 -179 56.5t-69 152.5h95q0 -68 40.5 -103.5t112.5 -35.5t112 37.5t40 101.5h95zM401 1976h99l112 -206h-69z" />
<glyph unicode="&#x1eb1;" horiz-adv-x="964" d="M720 0q-15 52 -20 150q-50 -81 -128.5 -125.5t-170.5 -44.5q-140 0 -218 79t-78 225q0 159 108.5 252t299.5 94h186v151q0 116 -57.5 166.5t-168.5 50.5q-103 0 -169 -60t-66 -155l-111 1q0 133 100 225.5t251 92.5q163 0 247 -82t84 -239v-531q0 -159 29 -238v-12h-118z M415 87q98 0 173.5 51t110.5 136v263h-176q-152 -2 -229 -67.5t-77 -176.5q0 -206 198 -206zM748 1461q0 -95 -68 -152t-179 -57q-110 0 -179 56.5t-69 152.5h95q0 -68 40.5 -103.5t112.5 -35.5t112 37.5t40 101.5h95zM344 1661h99l112 -206h-69z" />
<glyph unicode="&#x1eb2;" d="M834 407h-546l-124 -407h-119l464 1456h106l464 -1456h-119zM321 514h480l-240 781zM792 1779q0 -92 -65 -149t-174 -57q-110 0 -175 57t-65 149h91q0 -65 39 -100.5t110 -35.5q68 0 107.5 35.5t39.5 100.5h92zM518 1779l-1 107q70 5 101 21.5t31 56.5q0 37 -42.5 57 t-114.5 20l6 63q112 0 175.5 -37.5t63.5 -103.5q0 -54 -36 -88t-103 -41v-55h-80z" />
<glyph unicode="&#x1eb3;" horiz-adv-x="964" d="M720 0q-15 52 -20 150q-50 -81 -128.5 -125.5t-170.5 -44.5q-140 0 -218 79t-78 225q0 159 108.5 252t299.5 94h186v151q0 116 -57.5 166.5t-168.5 50.5q-103 0 -169 -60t-66 -155l-111 1q0 133 100 225.5t251 92.5q163 0 247 -82t84 -239v-531q0 -159 29 -238v-12h-118z M415 87q98 0 173.5 51t110.5 136v263h-176q-152 -2 -229 -67.5t-77 -176.5q0 -206 198 -206zM735 1464q0 -92 -65 -149t-174 -57q-110 0 -175 57t-65 149h91q0 -65 39 -100.5t110 -35.5q68 0 107.5 35.5t39.5 100.5h92zM461 1464l-1 107q70 5 101 21.5t31 56.5 q0 37 -42.5 57t-114.5 20l6 63q112 0 175.5 -37.5t63.5 -103.5q0 -54 -36 -88t-103 -41v-55h-80z" />
<glyph unicode="&#x1eb4;" d="M834 407h-546l-124 -407h-119l464 1456h106l464 -1456h-119zM321 514h480l-240 781zM794 1776q0 -94 -63.5 -153.5t-172.5 -59.5t-173 59.5t-64 153.5h94q0 -67 37.5 -104t105.5 -37t105 37t37 104h94zM790 2024q0 -67 -39 -114.5t-97 -47.5q-28 0 -47.5 8.5t-52 34.5 t-48 32.5t-34.5 6.5q-32 0 -54.5 -25t-22.5 -67l-58 15q0 69 39 114.5t96 45.5q40 0 89.5 -37t63 -41.5t29.5 -4.5q32 0 55 27.5t23 69.5z" />
<glyph unicode="&#x1eb5;" horiz-adv-x="964" d="M720 0q-15 52 -20 150q-50 -81 -128.5 -125.5t-170.5 -44.5q-140 0 -218 79t-78 225q0 159 108.5 252t299.5 94h186v151q0 116 -57.5 166.5t-168.5 50.5q-103 0 -169 -60t-66 -155l-111 1q0 133 100 225.5t251 92.5q163 0 247 -82t84 -239v-531q0 -159 29 -238v-12h-118z M415 87q98 0 173.5 51t110.5 136v263h-176q-152 -2 -229 -67.5t-77 -176.5q0 -206 198 -206zM737 1461q0 -94 -63.5 -153.5t-172.5 -59.5t-173 59.5t-64 153.5h94q0 -67 37.5 -104t105.5 -37t105 37t37 104h94zM733 1709q0 -67 -39 -114.5t-97 -47.5q-28 0 -47.5 8.5 t-52 34.5t-48 32.5t-34.5 6.5q-32 0 -54.5 -25t-22.5 -67l-58 15q0 69 39 114.5t96 45.5q40 0 89.5 -37t63 -41.5t29.5 -4.5q32 0 55 27.5t23 69.5z" />
<glyph unicode="&#x1eb6;" d="M834 407h-546l-124 -407h-119l464 1456h106l464 -1456h-119zM321 514h480l-240 781zM853 1808q0 -114 -78 -186t-211 -72q-131 0 -210 71.5t-79 186.5h102q0 -80 47.5 -125t139.5 -45q87 0 137 45t50 125h102zM491 -232q0 35 22 58.5t60 23.5q39 0 61 -23.5t22 -58.5 q0 -34 -22 -57t-61 -23q-38 0 -60 23t-22 57z" />
<glyph unicode="&#x1eb7;" horiz-adv-x="964" d="M720 0q-15 52 -20 150q-50 -81 -128.5 -125.5t-170.5 -44.5q-140 0 -218 79t-78 225q0 159 108.5 252t299.5 94h186v151q0 116 -57.5 166.5t-168.5 50.5q-103 0 -169 -60t-66 -155l-111 1q0 133 100 225.5t251 92.5q163 0 247 -82t84 -239v-531q0 -159 29 -238v-12h-118z M415 87q98 0 173.5 51t110.5 136v263h-176q-152 -2 -229 -67.5t-77 -176.5q0 -206 198 -206zM796 1493q0 -114 -78 -186t-211 -72q-131 0 -210 71.5t-79 186.5h102q0 -80 47.5 -125t139.5 -45q87 0 137 45t50 125h102zM355 -232q0 35 22 58.5t60 23.5q39 0 61 -23.5 t22 -58.5q0 -34 -22 -57t-61 -23q-38 0 -60 23t-22 57z" />
<glyph unicode="&#x1eb8;" horiz-adv-x="1018" d="M851 697h-565v-591h650v-106h-764v1456h759v-108h-645v-545h565v-106zM452 -222q0 35 22 58.5t60 23.5q39 0 61 -23.5t22 -58.5q0 -34 -22 -57t-61 -23q-38 0 -60 23t-22 57z" />
<glyph unicode="&#x1eb9;" horiz-adv-x="937" d="M505 -20q-191 0 -299 125t-110 356v132q0 238 104 373.5t286 135.5q176 0 268.5 -115t94.5 -352v-104h-643v-61q0 -186 79.5 -287t224.5 -101q160 0 259 117l58 -74q-106 -145 -322 -145zM486 998q-131 0 -201.5 -92.5t-77.5 -270.5h531v29q-8 334 -252 334zM408 -230 q0 35 22 58.5t60 23.5q39 0 61 -23.5t22 -58.5q0 -34 -22 -57t-61 -23q-38 0 -60 23t-22 57z" />
<glyph unicode="&#x1eba;" horiz-adv-x="1018" d="M851 697h-565v-591h650v-106h-764v1456h759v-108h-645v-545h565v-106zM501 1583v126q71 7 103.5 26.5t32.5 67.5q0 45 -44.5 69.5t-118.5 24.5l6 78q117 0 182.5 -46.5t65.5 -127.5q0 -135 -144 -156l-1 -62h-82z" />
<glyph unicode="&#x1ebb;" horiz-adv-x="937" d="M505 -20q-191 0 -299 125t-110 356v132q0 238 104 373.5t286 135.5q176 0 268.5 -115t94.5 -352v-104h-643v-61q0 -186 79.5 -287t224.5 -101q160 0 259 117l58 -74q-106 -145 -322 -145zM486 998q-131 0 -201.5 -92.5t-77.5 -270.5h531v29q-8 334 -252 334zM456 1261 v126q71 7 103.5 26.5t32.5 67.5q0 45 -44.5 69.5t-118.5 24.5l6 78q117 0 182.5 -46.5t65.5 -127.5q0 -135 -144 -156l-1 -62h-82z" />
<glyph unicode="&#x1ebc;" horiz-adv-x="1018" d="M851 697h-565v-591h650v-106h-764v1456h759v-108h-645v-545h565v-106zM828 1816q0 -95 -48 -155t-118 -60q-44 0 -72.5 17t-52 38t-48 38t-60.5 17q-38 0 -64 -31.5t-26 -86.5l-81 3q0 95 47.5 154.5t118.5 59.5q31 0 55 -10.5t69.5 -46.5t65 -44t43.5 -8q38 0 64.5 33 t26.5 88z" />
<glyph unicode="&#x1ebd;" horiz-adv-x="937" d="M505 -20q-191 0 -299 125t-110 356v132q0 238 104 373.5t286 135.5q176 0 268.5 -115t94.5 -352v-104h-643v-61q0 -186 79.5 -287t224.5 -101q160 0 259 117l58 -74q-106 -145 -322 -145zM486 998q-131 0 -201.5 -92.5t-77.5 -270.5h531v29q-8 334 -252 334zM783 1494 q0 -95 -48 -155t-118 -60q-44 0 -72.5 17t-52 38t-48 38t-60.5 17q-38 0 -64 -31.5t-26 -86.5l-81 3q0 95 47.5 154.5t118.5 59.5q31 0 55 -10.5t69.5 -46.5t65 -44t43.5 -8q38 0 64.5 33t26.5 88z" />
<glyph unicode="&#x1ebe;" horiz-adv-x="1018" d="M851 697h-565v-591h650v-106h-764v1456h759v-108h-645v-545h565v-106zM487 1797h104l229 -243h-127l-154 172l-154 -172h-128zM889 1953h125l-156 -232h-92z" />
</font>
</defs>
</svg>
