<?xml version="1.0" standalone="no"?>
<!DOCTYPE svg PUBLIC "-//W3C//DTD SVG 1.1//EN" "http://www.w3.org/Graphics/SVG/1.1/DTD/svg11.dtd" >
<svg xmlns="http://www.w3.org/2000/svg" xmlns:xlink="http://www.w3.org/1999/xlink" version="1.1">
<metadata></metadata>
<defs>
<font id="roboto_condensedlight_italic" horiz-adv-x="1099" >
<font-face units-per-em="2048" ascent="1536" descent="-512" />
<missing-glyph horiz-adv-x="456" />
<glyph unicode="&#xfb01;" horiz-adv-x="950" d="M95 0l171 982h-146l18 100h145l16 112q25 176 118.5 272.5t235.5 92.5q101 -3 228 -62l-31 -104q-96 54 -197 56q-208 0 -246 -273l-13 -94h202l-18 -100h-201l-170 -982h-112zM680 0h-111l188 1082h111z" />
<glyph unicode="&#xfb02;" horiz-adv-x="964" d="M829 1423q-130 31 -189 31q-179 0 -215 -252l-17 -120h206l-18 -100h-205l-171 -982h-111l170 982h-144l17 100h145l19 132q24 172 109 260.5t216 85.5q78 -2 156 -23l153 -41l-256 -1496h-111z" />
<glyph horiz-adv-x="0" />
<glyph horiz-adv-x="0" />
<glyph unicode="&#xd;" horiz-adv-x="456" />
<glyph horiz-adv-x="0" />
<glyph unicode=" "  horiz-adv-x="456" />
<glyph unicode="&#x09;" horiz-adv-x="456" />
<glyph unicode="&#xa0;" horiz-adv-x="456" />
<glyph unicode="!" horiz-adv-x="435" d="M229 406h-103l177 1050h115zM52 71q2 31 23 56.5t54 26.5q35 1 53 -25t16 -58q-2 -31 -23.5 -55t-53.5 -25q-34 -1 -52.5 23.5t-16.5 56.5z" />
<glyph unicode="&#x22;" horiz-adv-x="580" d="M361 1390l-68 -309h-81l75 455h97zM590 1392l-68 -311h-82l76 455h97z" />
<glyph unicode="#" horiz-adv-x="1030" d="M599 410h-243l-135 -410h-92l135 410h-204l17 95h217l144 437h-224l17 98h238l138 416h93l-138 -416h244l138 416h93l-137 -416h181l-17 -98h-197l-144 -437h204l-17 -95h-217l-135 -410h-94zM387 505h243l144 437h-243z" />
<glyph unicode="$" horiz-adv-x="976" d="M717 366q10 99 -36.5 173t-162.5 131.5t-174.5 116.5t-83.5 132t-18 168q12 161 109 266.5t247 122.5l36 202h94l-36 -206q103 -19 163 -99.5t68 -203.5q5 -73 -2 -142h-109q5 52 1 111q-7 104 -56 165.5t-134 64.5q-110 2 -184 -75t-88 -205q-10 -102 34.5 -172.5 t166.5 -131t181 -122.5q109 -113 95 -293q-12 -161 -110 -264.5t-259 -123.5l-33 -189h-92l34 190q-144 20 -216.5 136t-55.5 301h110q-13 -156 45 -243.5t172 -89.5q117 -2 199 78t95 202z" />
<glyph unicode="%" horiz-adv-x="1280" d="M479 1478q99 -3 154.5 -87t47.5 -215l-7 -67q-15 -141 -89 -227t-180 -83q-99 2 -156 87.5t-47 212.5l5 56q13 146 88 235.5t184 87.5zM292 1097q-6 -99 26 -153t93 -56q67 -2 113.5 54.5t60.5 155.5l7 79q9 89 -22.5 149.5t-96.5 62.5q-69 2 -116 -58t-58 -155zM929 658 q102 -3 157.5 -89.5t45.5 -211.5l-7 -78q-15 -135 -90 -219.5t-179 -81.5q-101 2 -156.5 89.5t-45.5 211.5l6 64q13 140 86.5 228.5t182.5 86.5zM742 277q-8 -90 23 -150t96 -62q70 -2 118 59.5t58 162.5t7 140q-5 64 -36.5 102.5t-83.5 39.5q-70 2 -117 -57t-58 -154z M304 121l-65 54l774 1132l63 -51z" />
<glyph unicode="&#x26;" horiz-adv-x="1077" d="M386 794q-98 196 -85 343q14 153 99 247.5t216 92.5q112 -4 174.5 -85t54.5 -194q-13 -166 -198 -315l-128 -103l243 -453q92 144 121 325h99q-32 -248 -166 -419l124 -233h-124l-74 140q-163 -163 -342 -160q-155 2 -245.5 110.5t-75.5 273.5q10 111 80.5 213.5 t213.5 207.5zM405 84q121 -3 243 107l42 40l-251 469l-7 12l-26 -22q-194 -165 -215 -326q-15 -119 44 -198.5t170 -81.5zM409 1070q10 -91 63 -204l122 100q135 113 144 233q7 74 -29.5 123.5t-101.5 51.5q-64 0 -111.5 -42.5t-71 -117t-15.5 -144.5z" />
<glyph unicode="'" horiz-adv-x="348" d="M344 1391l-63 -302h-91q54 308 76 447h101z" />
<glyph unicode="(" horiz-adv-x="588" d="M132 585q58 375 195.5 647.5t339.5 401.5l17 -85q-146 -118 -249 -321t-159.5 -472.5t-62.5 -505.5l-1 -71q3 -396 169 -569l-34 -79q-109 99 -170.5 270.5t-67.5 411.5q-6 180 21 356z" />
<glyph unicode=")" horiz-adv-x="599" d="M-88 -471l-18 81q281 232 400 762q63 282 69 542q10 449 -168 641l33 77q111 -102 171.5 -276t67.5 -407q6 -279 -64 -580t-196 -515t-295 -325z" />
<glyph unicode="*" horiz-adv-x="853" d="M417 1003l-303 106l47 100l303 -124l61 371h104l-72 -368l333 125l14 -109l-344 -114l167 -295l-89 -60l-155 303l-249 -299l-78 67z" />
<glyph unicode="+" horiz-adv-x="992" d="M565 742h356l-21 -115h-354l-84 -481h-113l84 481h-349l20 115h349l81 464h112z" />
<glyph unicode="," horiz-adv-x="390" d="M-8 -275l-75 58q107 123 133 248l28 159h116l-23 -145q-29 -188 -179 -320z" />
<glyph unicode="-" horiz-adv-x="523" d="M449 590h-395l18 103h395z" />
<glyph unicode="." horiz-adv-x="484" d="M51 73q2 35 27.5 60t60.5 26q37 1 59.5 -24.5t20.5 -61.5q-3 -35 -28.5 -58t-60.5 -24q-38 0 -60.5 25t-18.5 57z" />
<glyph unicode="/" horiz-adv-x="716" d="M17 -125h-105l771 1581h103z" />
<glyph unicode="0" horiz-adv-x="976" d="M393 -20q-262 7 -283 368q-7 127 15 274l43 281q51 297 165 437.5t290 136.5q127 -3 200.5 -93.5t84.5 -270.5q6 -107 -13 -261l-40 -257q-54 -333 -170.5 -477t-291.5 -138zM787 869q16 122 16 196q0 298 -188 308q-124 6 -208 -101.5t-125 -341.5l-47 -303 q-21 -137 -21 -230q0 -309 187 -315q124 -6 208 104t125 346z" />
<glyph unicode="1" horiz-adv-x="976" d="M488 0h-111l226 1305l-345 -147l22 121l436 182h22z" />
<glyph unicode="2" horiz-adv-x="976" d="M786 0h-752l16 100l467 535l88 104q157 188 176 342q15 128 -36.5 208.5t-155.5 83.5q-120 3 -201.5 -87t-107.5 -249l-108 -1q23 193 139 319t284 122q101 -2 173 -52t105 -136.5t23 -196.5q-20 -192 -216 -425l-492 -564h614z" />
<glyph unicode="3" horiz-adv-x="976" d="M378 794l98 -2q131 2 217 83.5t98 208.5q12 132 -40 209.5t-157 80.5q-114 2 -191.5 -78.5t-101.5 -220.5l-107 -1q22 178 134 292.5t273 110.5q154 -4 235.5 -116.5t65.5 -280.5q-9 -110 -76.5 -198.5t-177.5 -139.5q93 -41 135 -129.5t33 -208.5q-10 -121 -66.5 -220 t-149 -153.5t-204.5 -50.5q-105 2 -182.5 56.5t-114.5 148.5t-28 209h109q-7 -84 17 -155.5t77 -112.5t129 -43q126 -4 207.5 83t95.5 234q13 132 -48.5 208.5t-186.5 80.5l-110 1z" />
<glyph unicode="4" horiz-adv-x="976" d="M713 470h182l-18 -104h-181l-64 -366h-111l64 366h-552l10 71l719 1019h123zM183 470h420l140 805l-40 -61z" />
<glyph unicode="5" horiz-adv-x="976" d="M220 748l167 708h601l-18 -114h-503l-122 -488q102 81 223 79q133 -2 208 -98.5t83 -259.5q6 -156 -43.5 -299t-148 -222t-230.5 -75q-151 4 -234 116.5t-78 288.5l104 -1q0 -145 56 -221.5t158 -79.5q126 -5 206 100t97 288q14 156 -40.5 252t-163.5 99 q-72 2 -127.5 -25.5t-106.5 -75.5z" />
<glyph unicode="6" horiz-adv-x="976" d="M842 1467l-12 -107h-20q-201 -2 -336.5 -140.5t-213.5 -430.5q129 171 306 167q126 -2 201.5 -99.5t81.5 -269.5q6 -158 -50 -306.5t-153 -227t-219 -74.5q-96 3 -166.5 55t-108.5 150t-42 216q-3 84 26 268q60 383 230.5 587.5t437.5 211.5h38zM542 852 q-100 2 -190 -70.5t-114 -163.5q-17 -138 -17 -190q-2 -92 22 -174.5t73 -126t118 -44.5q135 -5 220.5 137.5t85.5 335.5q0 136 -51 214t-147 82z" />
<glyph unicode="7" horiz-adv-x="976" d="M990 1387l-718 -1387h-120l713 1352h-667l17 104h784z" />
<glyph unicode="8" horiz-adv-x="976" d="M924 1090q-23 -233 -251 -347q86 -51 127.5 -142.5t32.5 -205.5q-17 -186 -137 -303t-296 -113q-160 4 -249 115t-74 284q11 124 83.5 220.5t199.5 152.5q-54 36 -87 93q-56 96 -45 228q15 178 125.5 293.5t274.5 111.5q148 -4 230 -113.5t66 -273.5zM723 395 q12 127 -48.5 212t-170.5 89q-124 4 -214 -88.5t-103 -230.5q-14 -129 46.5 -211t173.5 -84q129 -4 216 87t100 226zM813 1091q12 117 -42 198t-151 84q-111 4 -190 -82.5t-91 -217.5q-12 -120 42 -196.5t150 -78.5q112 -4 191.5 82.5t90.5 210.5z" />
<glyph unicode="9" horiz-adv-x="976" d="M752 663q-142 -193 -313 -186q-83 1 -146 48.5t-97 137t-36 193.5q-6 156 51.5 309.5t154 233.5t223.5 78q152 -4 231.5 -123t76.5 -337q-1 -94 -28 -264q-59 -379 -222.5 -568.5t-429.5 -195.5h-42l13 106h34q199 4 328 134.5t202 433.5zM462 581q94 -4 192 75.5 t123 180.5l12 159q7 172 -45.5 272t-160.5 104q-139 5 -226.5 -144t-87.5 -340q0 -143 51.5 -224t141.5 -83z" />
<glyph unicode=":" horiz-adv-x="410" d="M37 73q2 35 27.5 60t60.5 26q37 1 59.5 -24.5t20.5 -61.5q-3 -35 -28.5 -58t-60.5 -24q-38 0 -60.5 25t-18.5 57zM198 995q2 35 27.5 60t60.5 26q37 1 59.5 -24.5t20.5 -61.5q-3 -35 -28.5 -58t-60.5 -24q-38 0 -60.5 25t-18.5 57z" />
<glyph unicode=";" horiz-adv-x="380" d="M187 995q2 35 27.5 60t60.5 26q37 1 59.5 -24.5t20.5 -61.5q-3 -35 -28.5 -58t-60.5 -24q-38 0 -60.5 25t-18.5 57zM-6 -275l-75 58q107 123 133 248l28 159h116l-23 -145q-29 -188 -179 -320z" />
<glyph unicode="&#x3c;" horiz-adv-x="901" d="M205 652l508 -299l-22 -122l-609 380l17 98l742 379l-25 -136z" />
<glyph unicode="=" horiz-adv-x="970" d="M862 828h-683l19 108h683zM790 417h-683l20 108h683z" />
<glyph unicode="&#x3e;" horiz-adv-x="915" d="M704 662l-521 301l22 120l627 -379l-18 -98l-758 -380l24 133z" />
<glyph unicode="?" horiz-adv-x="812" d="M298 404q13 107 53.5 190t133.5 176t132 153q82 125 71 276q-7 78 -46.5 122.5t-108.5 47.5q-95 2 -160 -65.5t-90 -187.5l-107 -1q25 168 124.5 267t241.5 95q135 -4 204 -107t53 -260q-16 -177 -177 -347l-106 -105q-89 -94 -118 -253zM219 71q2 31 22 56.5t54 26.5 q31 0 51 -23.5t18 -59.5q-3 -31 -24 -55t-53 -25q-35 -1 -52.5 23.5t-15.5 56.5z" />
<glyph unicode="@" horiz-adv-x="1568" d="M1038 -21q-74 2 -121 52t-49 137q-121 -193 -262 -190q-170 3 -170 269q0 177 67 365t166 284.5t220 92.5q70 -2 120 -31.5t96 -78.5l-131 -569q-9 -55 -9 -95q-5 -147 91 -150q118 -5 197 131.5t112 396.5q21 164 11 286q-17 219 -126.5 331.5t-299.5 115.5 q-201 4 -367 -124t-279.5 -374.5t-132.5 -527.5q-14 -185 26.5 -340.5t140 -237.5t249.5 -83q141 -2 286 77l19 -82q-130 -89 -309 -87q-170 1 -289.5 90t-173 259t-43.5 376q15 307 140 583.5t316 423t423 142.5q173 -3 291.5 -89t171 -249.5t42.5 -363.5 q-13 -223 -69 -393.5t-146.5 -260.5t-207.5 -86zM535 220q7 -138 100 -143q75 -5 144 66.5t104 181.5l124 527q-49 43 -113 46q-106 4 -186.5 -89.5t-130 -276.5t-42.5 -312z" />
<glyph unicode="A" d="M777 407h-527l-192 -407h-122l703 1456h106l197 -1456h-114zM300 514h463l-96 776z" />
<glyph unicode="B" horiz-adv-x="1074" d="M62 0l252 1456l351 -1q170 -4 258.5 -101.5t72.5 -270.5q-11 -117 -75 -199.5t-170 -127.5q88 -33 133 -124.5t35 -213.5q-16 -192 -136.5 -305t-303.5 -113h-417zM296 699l-103 -593l286 -1q135 0 223 85t105 227q13 123 -39.5 199t-164.5 82zM314 804l252 -2 q129 0 215 75t100 210q13 121 -41.5 188.5t-177.5 71.5l-253 1z" />
<glyph unicode="C" horiz-adv-x="1133" d="M985 454q-46 -237 -175 -358t-331 -116q-155 4 -247.5 109t-108.5 296l-2 57q-1 68 8 134l50 312q43 277 185.5 435.5t357.5 153.5q186 -5 279.5 -130t81.5 -347h-115q8 189 -56.5 277.5t-196.5 91.5q-164 5 -274.5 -120t-147.5 -364l-51 -331l-6 -82q-6 -105 20 -196 t85 -139t146 -51q149 -7 243 76.5t146 290.5z" />
<glyph unicode="D" horiz-adv-x="1142" d="M62 0l252 1456l326 -1q219 -5 329 -165.5t78 -416.5l-43 -279q-43 -279 -200 -435t-394 -159h-348zM409 1348l-216 -1242l207 -1q199 0 327 128t164 361l44 283q12 86 4 169q-14 141 -92 219t-210 82z" />
<glyph unicode="E" horiz-adv-x="997" d="M844 697h-548l-103 -591h631l-19 -106h-743l252 1456h739l-19 -108h-625l-95 -545h549z" />
<glyph unicode="F" horiz-adv-x="984" d="M836 678h-543l-118 -678h-114l253 1456h738l-19 -108h-624l-98 -562h544z" />
<glyph unicode="G" horiz-adv-x="1189" d="M960 169q-74 -91 -191.5 -141t-251.5 -48q-178 2 -279 121.5t-107 324.5q-2 70 7 140l58 364q46 261 185 406t355 140q179 -4 276.5 -118t90.5 -314l-112 1q2 161 -65.5 240.5t-195.5 82.5q-164 5 -273 -108.5t-148 -332.5l-57 -362q-7 -52 -8 -107q-3 -172 69.5 -270.5 t208.5 -100.5q180 -4 323 120l67 379h-310l20 107h423z" />
<glyph unicode="H" horiz-adv-x="1231" d="M950 0h-115l122 697h-661l-121 -697h-114l253 1456h114l-114 -653h661l113 653h115z" />
<glyph unicode="I" horiz-adv-x="495" d="M195 0h-113l253 1456h113z" />
<glyph unicode="J" horiz-adv-x="967" d="M844 1456h115l-175 -1023q-29 -209 -145.5 -334.5t-284.5 -120.5q-161 5 -241 119t-61 304h114q-6 -56 -1 -111q9 -96 59.5 -149t138.5 -56q118 -3 200.5 91t106.5 256z" />
<glyph unicode="K" horiz-adv-x="1100" d="M466 716l-202 -199l-89 -517h-114l253 1456h114l-134 -766l189 198l530 568h150l-611 -654l388 -802h-129z" />
<glyph unicode="L" horiz-adv-x="932" d="M194 106h583l-19 -106h-696l252 1456h115z" />
<glyph unicode="M" horiz-adv-x="1495" d="M460 1456l206 -1275l650 1275h152l-253 -1456h-114l110 634l117 615l-645 -1249h-87l-212 1257l-99 -625l-110 -632h-114l253 1456h146z" />
<glyph unicode="N" horiz-adv-x="1234" d="M953 0h-110l-451 1242l-216 -1242h-115l253 1456h111l452 -1244l216 1244h113z" />
<glyph unicode="O" horiz-adv-x="1182" d="M492 -20q-175 4 -274 122.5t-102 328.5q-1 70 8 139l48 303q47 297 192.5 452.5t360.5 150.5q117 -3 201 -57.5t127.5 -159t45.5 -236.5q1 -70 -8 -139l-51 -319q-32 -194 -109 -327t-188 -197t-251 -61zM977 888q7 52 9 108q3 176 -65 271t-204 99q-172 5 -283 -122 t-148 -364l-50 -325l-6 -93q-6 -173 63.5 -271.5t205.5 -102.5q165 -5 274.5 111.5t149.5 344.5z" />
<glyph unicode="P" horiz-adv-x="1081" d="M278 592l-103 -592h-114l253 1456l404 -1q175 -6 263.5 -121.5t71.5 -305.5q-18 -202 -143 -319.5t-326 -117.5zM296 699l293 -2q144 0 239 89t112 241q16 141 -44 228t-182 92l-305 1z" />
<glyph unicode="Q" horiz-adv-x="1182" d="M728 41l174 -222l-85 -74l-198 252q-68 -16 -135 -16q-173 2 -270.5 122.5t-100.5 329.5q-1 69 8 137l47 302q46 295 190.5 452t361.5 152q117 -3 201.5 -57.5t128 -158.5t45.5 -236q1 -71 -8 -140l-56 -350l-20 -90q-72 -279 -283 -403zM973 888q7 53 9 108 q3 182 -66 274t-204 96q-172 5 -282.5 -122t-147.5 -364l-51 -334l-5 -84q-3 -180 67 -275t202 -99q166 -5 275.5 112.5t150.5 351.5z" />
<glyph unicode="R" horiz-adv-x="1102" d="M609 606h-330l-105 -606h-115l253 1456l380 -1q175 -6 267 -120t73 -300q-14 -146 -97 -252.5t-214 -153.5l188 -616l-1 -13h-122zM297 712l289 -2q136 2 225.5 93.5t106.5 232.5q15 136 -44.5 220.5t-184.5 90.5l-281 1z" />
<glyph unicode="S" horiz-adv-x="1037" d="M796 366q13 106 -41 180t-212.5 137.5t-235.5 147.5q-97 105 -84 260q13 168 141 278.5t310 106.5q172 -4 268.5 -127.5t79.5 -308.5h-114q14 145 -50 234.5t-192 93.5q-133 2 -224.5 -76t-104.5 -199q-11 -99 46.5 -171t202 -128t220.5 -129q120 -115 105 -297 q-15 -174 -145.5 -283.5t-316.5 -105.5t-292 126.5t-88 310.5h112q-14 -147 59 -237t215 -94q133 -2 229 74t112 207z" />
<glyph unicode="T" horiz-adv-x="1045" d="M1106 1348h-401l-234 -1348h-115l234 1348h-401l20 108h916z" />
<glyph unicode="U" horiz-adv-x="1143" d="M1142 1456l-175 -1026q-30 -216 -161 -336.5t-329 -114.5q-124 2 -209.5 58.5t-122 158t-21.5 233.5l175 1027h113l-174 -1028q-18 -160 46 -249t201 -93q151 -6 247.5 85t120.5 257l174 1028h115z" />
<glyph unicode="V" horiz-adv-x="1084" d="M466 182v-17l6 17l568 1274h129l-670 -1456h-107l-213 1456h116z" />
<glyph unicode="W" horiz-adv-x="1542" d="M362 393l-1 -204l74 201l419 1066h102l82 -1075l8 -196l70 214l374 1057h118l-529 -1456h-108l-87 1139l-6 124l-47 -128l-447 -1135h-109l-72 1456h113z" />
<glyph unicode="X" horiz-adv-x="1074" d="M567 844l420 612h141l-506 -724l284 -732h-129l-236 631l-434 -631h-141l522 744l-276 712h127z" />
<glyph unicode="Y" horiz-adv-x="1048" d="M526 667l489 789h136l-587 -915l-94 -541h-114l97 555l-265 901h127z" />
<glyph unicode="Z" horiz-adv-x="1047" d="M141 106h723l-19 -106h-858l18 101l911 1248h-676l19 107h813l-17 -97z" />
<glyph unicode="[" horiz-adv-x="457" d="M577 1560h-168l-277 -1768h170l-17 -104h-279l308 1976h280z" />
<glyph unicode="\" horiz-adv-x="711" d="M207 1456h103l220 -1581h-102z" />
<glyph unicode="]" horiz-adv-x="457" d="M186 1664h280l-309 -1976h-281l17 104h170l276 1768h-170z" />
<glyph unicode="^" horiz-adv-x="743" d="M486 1291l-277 -562h-111l371 727h81l117 -727h-101z" />
<glyph unicode="_" horiz-adv-x="775" d="M624 -103h-727l19 103h726z" />
<glyph unicode="`" horiz-adv-x="577" d="M523 1245h-100l-175 280h133z" />
<glyph unicode="a" horiz-adv-x="945" d="M604 0q-4 38 0 75l9 75q-133 -175 -311 -171q-128 2 -194 84.5t-56 212.5q11 164 136 259.5t315 95.5l184 -1l22 152q11 100 -32.5 157.5t-147.5 59.5q-98 2 -168.5 -57t-91.5 -158l-109 1q20 140 126.5 230t253.5 88q144 -2 218 -88t60 -236l-91 -552q-9 -56 -9 -108 l2 -107l-2 -12h-114zM322 85q93 -2 172.5 48.5t131.5 139.5l45 264l-154 1q-151 0 -245 -67.5t-106 -185.5q-9 -93 31.5 -145.5t124.5 -54.5z" />
<glyph unicode="b" horiz-adv-x="976" d="M429 -20q-87 2 -153 43.5t-101 122.5l-34 -146h-103l267 1536h110l-113 -605q115 175 292 171q144 -4 211.5 -108.5t60.5 -290.5q-4 -88 -23 -219q-36 -253 -140.5 -381t-273.5 -123zM748 594q11 108 8 173q-8 119 -56 173.5t-135 56.5q-175 4 -280 -196l-90 -538 q51 -171 220 -177q258 -9 316 375z" />
<glyph unicode="c" horiz-adv-x="911" d="M390 82q217 -7 278 252h104q-28 -162 -132.5 -260.5t-255.5 -94.5q-149 2 -230.5 101t-82.5 281q-2 91 25 261q38 241 155 363t297 117q145 -5 221.5 -106.5t67.5 -278.5h-107q8 135 -41 206t-149 76q-271 9 -332 -376l-21 -160l-5 -72l-1 -32q-3 -269 209 -277z" />
<glyph unicode="d" horiz-adv-x="979" d="M523 1101q179 -6 247 -165l108 600h111l-267 -1536h-103l26 138q-114 -163 -289 -159q-136 2 -206.5 106t-65.5 296q1 80 22 223q37 254 141.5 378t275.5 119zM203 488q-11 -107 -8 -172q10 -228 189 -231q162 -4 273 167l94 563q-50 174 -213 181q-270 9 -322 -406z" />
<glyph unicode="e" horiz-adv-x="919" d="M410 -20q-175 3 -261 136.5t-61 353.5l12 100q31 254 153 395.5t306 136.5q131 -4 204.5 -85.5t82.5 -224.5q5 -85 -5 -166l-13 -95h-619l-10 -62q-9 -64 -5 -131q5 -115 64 -184t161 -72q81 -2 145.5 30t121.5 86l52 -76q-124 -146 -328 -142zM552 999 q-125 5 -210 -85.5t-125 -278.5h515l5 30q7 55 4 113q-5 100 -54 158.5t-135 62.5z" />
<glyph unicode="f" horiz-adv-x="607" d="M109 0l170 982h-144l17 100h145l19 132q24 171 108 259.5t212 86.5q47 -2 111 -20l-20 -101q-46 13 -90 14q-174 0 -212 -256l-17 -115h206l-18 -100h-205l-171 -982h-111z" />
<glyph unicode="g" horiz-adv-x="976" d="M520 1102q88 -3 152 -47t97 -125l36 152h103l-189 -1108q-28 -200 -136 -305.5t-278 -100.5q-84 2 -164.5 44t-129.5 111l61 78q94 -126 231 -130q128 -4 205 72.5t100 224.5l32 166q-117 -159 -287 -155q-135 2 -206 105t-65 297q1 82 22 224q37 252 141 377t275 120z M199 488q-11 -108 -7 -171q10 -229 189 -232q168 -4 274 171l92 555q-48 178 -211 185q-262 9 -321 -384z" />
<glyph unicode="h" horiz-adv-x="965" d="M300 912q134 193 304 190q210 -4 229 -262l2 -45l-6 -91l-118 -704h-109l117 706l5 65q7 223 -154 227q-90 2 -176 -72t-117 -174l-128 -752h-111l267 1536h111z" />
<glyph unicode="i" horiz-adv-x="428" d="M161 0h-111l188 1082h111zM276 1394q5 66 77 83q74 -13 68 -83q-4 -64 -77 -82q-72 13 -68 82z" />
<glyph unicode="j" horiz-adv-x="433" d="M345 1082l-206 -1211q-21 -156 -93.5 -235t-186.5 -76q-37 1 -93 21l13 101q43 -14 74 -16q139 -3 174 199l207 1217h111zM347 1477q31 0 50.5 -22.5t17.5 -60.5q-2 -31 -23 -56t-54 -26q-34 0 -51 24.5t-15 57.5t24 58t51 25z" />
<glyph unicode="k" horiz-adv-x="871" d="M356 539l-135 -129l-71 -410h-112l267 1536h111l-168 -967l100 106l397 407h146l-454 -463l293 -619h-123z" />
<glyph unicode="l" horiz-adv-x="428" d="M161 0h-111l267 1536h111z" />
<glyph unicode="m" horiz-adv-x="1524" d="M328 1082l-33 -162q125 186 305 182q95 -2 156.5 -53.5t76.5 -145.5q135 202 324 199q118 -2 179 -81t61 -224l-5 -92l-118 -705h-111l118 707q5 48 4 100q-2 90 -43.5 140t-118.5 51q-104 2 -187.5 -82t-105.5 -212l-121 -704h-111l119 716q5 48 4 98l-2 24 q-19 155 -161 160q-94 2 -174.5 -69.5t-109.5 -174.5l-129 -754h-111l188 1082h106z" />
<glyph unicode="n" horiz-adv-x="966" d="M332 1082l-35 -172q133 196 307 193q204 -4 228 -250l3 -58l-6 -91l-118 -704h-109l117 706l5 65q7 223 -155 227q-89 2 -175 -72t-117 -174l-128 -752h-111l188 1082h106z" />
<glyph unicode="o" horiz-adv-x="985" d="M560 1103q147 -4 229 -107.5t85 -282.5q2 -91 -20 -234q-36 -238 -156.5 -371.5t-301.5 -128.5q-135 4 -216.5 93t-96.5 256l-2 40q-3 81 20.5 235.5t85 267.5t156 174t217.5 58zM192 398q-3 -148 51.5 -230t160.5 -86q130 -5 218.5 94.5t119.5 293.5l17 127l5 85 q3 145 -51.5 229t-160.5 88q-134 5 -225 -107t-117 -310l-16 -127z" />
<glyph unicode="p" horiz-adv-x="976" d="M429 -20q-83 2 -150 39t-105 112l-98 -547h-110l260 1498l102 1l-29 -148q120 171 294 167q254 -4 271 -330l1 -69q-5 -101 -25 -232q-38 -250 -142 -373t-269 -118zM747 593q11 110 7 174q-15 227 -194 230q-84 2 -153.5 -45.5t-118.5 -134.5l-96 -572q54 -157 216 -163 q258 -9 321 372z" />
<glyph unicode="q" horiz-adv-x="983" d="M526 1102q177 -6 247 -161l34 141h104l-260 -1498h-112l102 542q-117 -150 -283 -146q-137 2 -208 104.5t-65 295.5q1 75 19 210q34 258 140.5 387.5t281.5 124.5zM197 315q5 -115 54 -173t136 -60q160 -4 268 159l98 585q-55 165 -211 173q-261 9 -321 -380 q-30 -197 -24 -304z" />
<glyph unicode="r" horiz-adv-x="610" d="M625 980q-45 8 -68 8q-92 2 -172 -66.5t-109 -173.5l-127 -748h-111l188 1082h109l-35 -162q111 192 271 185q23 -1 70 -15z" />
<glyph unicode="s" horiz-adv-x="897" d="M615 274q15 109 -132 194l-57 31l-100 56q-164 97 -154 251q7 127 106 212.5t242 83.5q142 -4 220 -91.5t68 -225.5h-110q6 94 -44 152t-140 60q-91 2 -157 -50t-77 -137q-12 -99 110 -169l175 -97q171 -102 161 -264q-9 -136 -112 -220t-252 -80q-144 2 -231.5 88.5 t-77.5 227.5l111 -1q-4 -100 49 -155.5t154 -56.5q99 0 168 52t80 139z" />
<glyph unicode="t" horiz-adv-x="586" d="M439 1358l-48 -276h179l-17 -100h-179l-120 -720l-4 -53q-4 -117 78 -119l78 7l-7 -100q-48 -17 -100 -15q-74 1 -113 50.5t-43 137.5q-2 49 2 94l118 718h-162l17 100h162l49 276h110z" />
<glyph unicode="u" horiz-adv-x="966" d="M631 128q-113 -153 -295 -149q-112 2 -173 82t-61 236l5 92l116 693h110l-116 -696q-5 -43 -4 -94q0 -94 38 -149.5t109 -57.5q98 -4 181 54.5t110 149.5l136 793h111l-187 -1082h-108z" />
<glyph unicode="v" horiz-adv-x="853" d="M354 179l399 903h117l-497 -1082h-88l-159 1082h109z" />
<glyph unicode="w" horiz-adv-x="1306" d="M302 246l-4 -61l24 66l358 831h93l70 -829v-72l26 74l324 827h117l-446 -1082h-92l-77 860v27l-8 -28l-373 -859h-95l-66 1082h103z" />
<glyph unicode="x" horiz-adv-x="864" d="M429 647l297 435h136l-386 -537l222 -545h-122l-169 452l-313 -452h-135l399 557l-212 525h122z" />
<glyph unicode="y" horiz-adv-x="841" d="M349 188l405 894h122l-585 -1256q-61 -144 -131.5 -205.5t-157.5 -60.5q-30 0 -86 16l12 101l50 -8q128 -6 208 154l86 192l-144 1067h117z" />
<glyph unicode="z" horiz-adv-x="864" d="M137 103h564l-19 -103h-697l17 96l679 881h-512l18 105h650l-17 -97z" />
<glyph unicode="{" horiz-adv-x="602" d="M390 -401q-98 42 -153 123.5t-64 195.5q-6 70 2 142l31 226q5 45 4 89q-7 156 -144 166l12 106q194 10 229 251l32 234q26 183 112 298t239 169l15 -82q-212 -85 -254 -385l-34 -242q-34 -214 -203 -298q49 -33 76.5 -92t29.5 -129l-3 -86l-34 -260l-3 -75 q0 -202 141 -270z" />
<glyph unicode="|" horiz-adv-x="448" d="M136 -270h-101l270 1726h101z" />
<glyph unicode="}" horiz-adv-x="602" d="M-115 -321q213 87 255 380l32 234q32 222 210 306q-105 63 -112 220l1 68l37 280l4 77q0 205 -141 272l31 79q96 -40 152 -123t64 -198q5 -72 -4 -142l-30 -228q-5 -45 -3 -88q4 -154 143 -165l-12 -106q-194 -10 -230 -252l-32 -240q-49 -352 -345 -458z" />
<glyph unicode="~" horiz-adv-x="1190" d="M1064 766q-16 -154 -91.5 -250.5t-188.5 -94.5q-102 3 -192 99l-78 91q-58 67 -123 69q-146 3 -183 -230l-97 -1q19 156 95 249t190 91q105 -3 202 -110l68 -81q60 -68 124 -68q143 -3 187 235z" />
<glyph unicode="&#xa1;" horiz-adv-x="424" d="M175 689h102l-175 -1048h-115zM351 1021q-2 -31 -23 -56.5t-55 -26.5q-31 0 -50.5 23.5t-17.5 59.5q2 31 23 56t54 26q33 0 52 -24.5t17 -57.5z" />
<glyph unicode="&#xa2;" horiz-adv-x="958" d="M411 82q98 -3 171.5 63.5t105.5 188.5l104 1q-26 -141 -117 -234.5t-232 -117.5l-43 -228h-111l45 232q-111 27 -171 124.5t-64 247.5q-5 191 43.5 355.5t145.5 262.5t231 121l42 220h111l-43 -222q118 -26 178 -129.5t51 -249.5h-106q5 128 -46.5 203.5t-145.5 78.5 q-100 3 -176 -61.5t-122.5 -195t-54.5 -310.5q-7 -165 44 -255.5t160 -94.5z" />
<glyph unicode="&#xa3;" horiz-adv-x="1005" d="M364 644l-38 -273q-24 -169 -104 -267l610 2l-19 -106h-820l19 105l73 -1q91 43 120 219l45 321h-149l19 107h146l39 282q29 210 138 329t263 114q139 -3 213.5 -110t57.5 -278h-113q11 135 -35.5 207t-139.5 75q-106 3 -177.5 -86.5t-94.5 -260.5l-37 -272h278l-19 -107 h-275z" />
<glyph unicode="&#xa4;" horiz-adv-x="1447" d="M1023 131q-192 -155 -403 -151q-101 2 -193.5 40t-161.5 112l-180 -158l-73 94l182 155q-79 182 -53 378q31 230 196 407l-132 173l94 84l130 -169q190 142 390 138q97 -2 186.5 -37.5t158.5 -104.5l197 173l73 -96l-196 -169q86 -186 58 -386q-27 -216 -184 -390 l129 -168l-94 -84zM252 599q-17 -129 26.5 -247.5t134.5 -187.5t214 -73q151 -4 286 86t212.5 247t61.5 314q-11 107 -62 195t-132.5 136.5t-181.5 51.5q-133 4 -255 -66t-204 -194t-100 -262z" />
<glyph unicode="&#xa5;" horiz-adv-x="1048" d="M538 750l455 706h138l-496 -749h290l-17 -91h-334l-35 -202h335l-16 -90h-334l-57 -324h-115l57 324h-332l16 90h331l36 202h-333l17 91h296l-236 749h124z" />
<glyph unicode="&#xa6;" horiz-adv-x="441" d="M2 -270l134 772h120l-135 -772h-119zM289 698h-119l132 758h119z" />
<glyph unicode="&#xa7;" horiz-adv-x="1061" d="M917 439q-10 -107 -74.5 -176.5t-161.5 -107.5q118 -100 102 -285q-16 -170 -136.5 -270t-298.5 -96q-180 4 -274.5 120.5t-75.5 311.5l110 2q-16 -146 51 -236.5t195 -92.5q120 -4 210.5 66.5t106.5 192.5q10 91 -39 155t-192 118.5t-211 108.5t-99.5 125.5t-22.5 167.5 q15 197 228 286q-87 79 -95 204q-11 135 46.5 236.5t162 155.5t228.5 51q172 -4 259.5 -122t67.5 -309h-110q9 92 -13.5 165.5t-77 116.5t-133.5 45q-129 2 -216.5 -68.5t-100.5 -188.5q-12 -95 38.5 -162t202.5 -124.5t222 -119.5q117 -103 101 -270zM433 771 q-91 -18 -147.5 -75t-67.5 -151q-20 -162 144 -243l48 -22l165 -66q98 20 159 77.5t72 144.5q21 162 -165 250l-49 22z" />
<glyph unicode="&#xa8;" horiz-adv-x="865" d="M262 1395q2 34 26 58t59 25q35 0 57.5 -24t19.5 -59q-2 -34 -26.5 -57t-58.5 -24q-35 -1 -57 22.5t-20 58.5zM686 1394q2 34 26 58t59 25t57 -23.5t20 -59.5q-2 -34 -26.5 -57t-59.5 -24q-34 0 -56 23t-20 58z" />
<glyph unicode="&#xa9;" horiz-adv-x="1598" d="M1100 606q-20 -155 -109.5 -237t-228.5 -78q-139 3 -215 111.5t-62 276.5l8 79q19 188 122 298.5t253 108.5q137 -4 208.5 -87.5t60.5 -226.5h-98q9 105 -35 162.5t-140 59.5q-107 2 -180 -80.5t-89 -224.5l-10 -90q-13 -130 35.5 -210t145.5 -83q199 -7 240 220z M219 563q14 -141 82.5 -255.5t177 -177.5t238.5 -64q195 -4 369 113.5t269.5 316t74.5 399.5q-16 142 -84.5 254.5t-175 174t-238.5 64.5q-145 3 -281.5 -62t-242 -188t-155.5 -275.5t-34 -299.5zM135 722q22 197 135.5 374.5t289.5 280.5t373 99q179 -2 321 -100.5 t212 -274t47 -366.5q-25 -206 -142.5 -384.5t-291.5 -277t-363 -94.5q-184 4 -324 102.5t-210 274.5t-47 366z" />
<glyph unicode="&#xaa;" horiz-adv-x="788" d="M569 703v46l2 46q-86 -105 -188 -105q-87 0 -136.5 58.5t-45.5 152.5q5 111 86 175.5t216 64.5l110 -1l9 63l3 59q-4 113 -96 116q-134 6 -166 -141l-101 7q16 106 89 170.5t183 62.5q101 -2 151 -79.5t38 -197.5l-53 -342l-5 -63l1 -91zM406 785q80 0 169 100l29 172 l-99 1q-91 -2 -143 -43.5t-59 -109.5q-5 -54 20.5 -87t82.5 -33z" />
<glyph unicode="&#xab;" horiz-adv-x="813" d="M213 530l153 -382h-85l-178 379l2 20l303 379h101zM469 530l153 -382h-85l-178 379l2 20l303 379h101z" />
<glyph unicode="&#xac;" horiz-adv-x="962" d="M750 385h-112l50 283h-557l19 109h668z" />
<glyph unicode="&#xad;" horiz-adv-x="523" d="M449 590h-395l18 103h395z" />
<glyph unicode="&#xae;" horiz-adv-x="1603" d="M130 722q25 207 140 382t289.5 275.5t368.5 96.5q177 -2 319.5 -99.5t214 -273.5t48.5 -368q-18 -151 -89 -292.5t-183 -248t-248.5 -162.5t-278.5 -53q-184 4 -324 102.5t-210 274.5t-47 366zM214 563q14 -141 82.5 -255.5t177.5 -177.5t238 -64q145 -3 279.5 61 t239.5 185.5t157.5 274.5t36.5 309q-14 139 -82 252t-176 175t-240 65q-194 4 -368 -111.5t-270.5 -313.5t-74.5 -400zM655 666l-55 -345h-98l132 839l244 -1q133 -5 201.5 -66.5t61.5 -173.5q-10 -133 -165 -208q82 -41 91 -141l-1 -61q-10 -76 -9 -109l2 -63l-2 -16h-98 q-5 36 -3 72l6 72l5 44q7 75 -20.5 113.5t-104.5 42.5zM669 758l170 -1q82 2 140.5 45t67.5 115q20 150 -170 151l-159 1z" />
<glyph unicode="&#xaf;" horiz-adv-x="770" d="M780 1357h-556l16 99h556z" />
<glyph unicode="&#xb0;" horiz-adv-x="761" d="M249 1217q4 106 82.5 184t179.5 76q92 -2 153.5 -73t57.5 -169q-4 -105 -80 -182t-178 -75q-96 2 -157.5 72t-57.5 167zM339 1219q-6 -62 31 -105.5t96 -43.5q65 0 113 48.5t54 114.5q6 63 -30 107.5t-95 44.5q-66 0 -114.5 -49t-54.5 -117z" />
<glyph unicode="&#xb1;" horiz-adv-x="934" d="M559 830h315l-17 -104h-314l-68 -437h-102l69 437h-335l17 104h333l69 437h102zM713 0h-684l17 103h683z" />
<glyph unicode="&#xb2;" horiz-adv-x="654" d="M578 665h-472l14 81l278 279l47 50q86 94 95 172q7 60 -19.5 95.5t-78.5 35.5q-128 0 -163 -161l-95 -1q16 115 87 184t172 67q93 0 148.5 -61t49.5 -159q-7 -110 -128 -234l-62 -63l-204 -196h347z" />
<glyph unicode="&#xb3;" horiz-adv-x="654" d="M323 1106h64q69 2 116 42t52 101q6 56 -22 92t-86 36q-62 0 -99.5 -37.5t-52.5 -92.5h-97q15 101 84 161.5t165 58.5q94 0 152 -59t52 -156q-9 -120 -145 -188q107 -44 100 -176q-6 -104 -79 -170t-182 -64q-102 2 -161 65.5t-53 165.5h96q-3 -61 27.5 -101t95.5 -41 q68 0 112.5 42t50.5 106q12 131 -141 133l-57 1z" />
<glyph unicode="&#xb4;" horiz-adv-x="569" d="M446 1525l151 -1l-269 -278h-112z" />
<glyph unicode="&#xb5;" horiz-adv-x="981" d="M343 1082l-105 -633q-11 -82 -9 -148q5 -216 151 -219q95 -4 175 55t107 161l134 784h111l-188 -1082h-100l26 144q-105 -169 -268 -165q-143 4 -201 123l-94 -518h-109l260 1498h110z" />
<glyph unicode="&#xb6;" horiz-adv-x="846" d="M475 0l91 520l-79 1q-169 7 -257 134t-67 325q21 211 150.5 344t324.5 133l201 -1l-253 -1456h-111z" />
<glyph unicode="&#xb7;" horiz-adv-x="463" d="M169 717q2 36 25.5 61t53.5 25q34 0 53.5 -24t17.5 -62q-2 -32 -23.5 -57t-56.5 -26t-53.5 24.5t-16.5 58.5z" />
<glyph unicode="&#xb8;" horiz-adv-x="456" d="M121 0l-21 -66q112 -26 107 -162q-5 -96 -77.5 -150.5t-194.5 -59.5v81q76 3 124.5 36.5t55.5 90.5q10 75 -72 93l-49 9l42 128h85z" />
<glyph unicode="&#xb9;" horiz-adv-x="654" d="M419 669h-102l115 656l-199 -68l18 98l282 103l16 1z" />
<glyph unicode="&#xba;" horiz-adv-x="802" d="M530 1477q115 -3 176.5 -99t48.5 -246l-10 -99q-20 -157 -103 -252t-208 -92q-114 3 -174.5 95t-52.5 236l1 13l7 77q15 167 102 269t213 98zM309 1031l-1 -79q4 -77 38.5 -121.5t94.5 -45.5q80 -3 135 65t69 193l10 90l1 80q-3 72 -37.5 118t-95.5 49q-79 2 -132.5 -62 t-69.5 -179z" />
<glyph unicode="&#xbb;" horiz-adv-x="809" d="M260 944l178 -382l-3 -21l-303 -380h-102l295 396l-152 387h87zM524 944l178 -382l-3 -21l-303 -380h-102l295 396l-152 387h87z" />
<glyph unicode="&#xbc;" horiz-adv-x="1260" d="M404 664h-102l115 656l-199 -68l18 98l282 103l16 1zM285 129l-63 54l774 1132l61 -51zM1009 276h101l-16 -90h-101l-33 -186h-96l33 186h-319l6 68l409 535h105zM693 276h219l71 377l-31 -46z" />
<glyph unicode="&#xbd;" horiz-adv-x="1317" d="M249 129l-63 54l774 1132l61 -51zM393 664h-102l115 656l-199 -68l18 98l282 103l16 1zM1094 0h-472l14 81l278 279l47 50q86 94 95 172q7 60 -19.5 95.5t-78.5 35.5q-128 0 -163 -161l-95 -1q16 115 87 184t172 67q93 0 148.5 -61t49.5 -159q-7 -110 -128 -234l-62 -63 l-204 -196h347z" />
<glyph unicode="&#xbe;" horiz-adv-x="1345" d="M400 129l-63 54l774 1132l61 -51zM1098 276h101l-16 -90h-101l-33 -186h-96l33 186h-319l6 68l409 535h105zM782 276h219l71 377l-31 -46zM362 1106h64q69 2 116 42t52 101q6 56 -22 92t-86 36q-62 0 -99.5 -37.5t-52.5 -92.5h-97q15 101 84 161.5t165 58.5q94 0 152 -59 t52 -156q-9 -120 -145 -188q107 -44 100 -176q-6 -104 -79 -170t-182 -64q-102 2 -161 65.5t-53 165.5h96q-3 -61 27.5 -101t95.5 -41q68 0 112.5 42t50.5 106q12 131 -141 133l-57 1z" />
<glyph unicode="&#xbf;" horiz-adv-x="819" d="M491 689q-14 -112 -53.5 -188t-115.5 -152l-75 -80q-160 -175 -142 -377q7 -77 49 -122t113 -46q91 -3 157 65t89 190h108q-26 -173 -123.5 -270t-239.5 -93q-138 4 -209.5 105t-55.5 261q11 109 71.5 215t199.5 237q48 45 77 101t47 152zM569 1021q-2 -31 -22.5 -56.5 t-53.5 -26.5q-35 -1 -53 25t-16 58q3 31 24 55.5t53 25.5q33 0 51.5 -23.5t16.5 -57.5z" />
<glyph unicode="&#xc0;" d="M777 407h-527l-192 -407h-122l703 1456h106l197 -1456h-114zM300 514h463l-96 776zM783 1560h-100l-175 280h133z" />
<glyph unicode="&#xc1;" d="M777 407h-527l-192 -407h-122l703 1456h106l197 -1456h-114zM300 514h463l-96 776zM870 1840l151 -1l-269 -278h-112z" />
<glyph unicode="&#xc2;" d="M777 407h-527l-192 -407h-122l703 1456h106l197 -1456h-114zM300 514h463l-96 776zM951 1584l-1 -12l-98 1l-100 180l-167 -179l-98 -1l1 13l233 255h68z" />
<glyph unicode="&#xc3;" d="M777 407h-527l-192 -407h-122l703 1456h106l197 -1456h-114zM300 514h463l-96 776zM1034 1810q-13 -100 -60.5 -158.5t-121.5 -58.5q-49 0 -111.5 56.5t-109.5 56.5q-66 -3 -96 -85l-11 -33l-81 3q13 98 61.5 157.5t121.5 57.5q35 0 61.5 -18t51 -39t50.5 -38t59 -17 q79 0 109 121z" />
<glyph unicode="&#xc4;" d="M777 407h-527l-192 -407h-122l703 1456h106l197 -1456h-114zM300 514h463l-96 776zM452 1710q2 34 26 58t59 25q35 0 57.5 -24t19.5 -59q-2 -34 -26.5 -57t-58.5 -24q-35 -1 -57 22.5t-20 58.5zM876 1709q2 34 26 58t59 25t57 -23.5t20 -59.5q-2 -34 -26.5 -57t-59.5 -24 q-34 0 -56 23t-20 58z" />
<glyph unicode="&#xc5;" d="M777 407h-527l-192 -407h-122l703 1456h106l197 -1456h-114zM300 514h463l-96 776zM555 1708q2 81 60 141t141 60q74 0 125.5 -54t49.5 -131q-2 -80 -60.5 -138t-140.5 -58q-75 0 -126 51.5t-49 128.5zM632 1710q-4 -48 23.5 -78.5t71.5 -30.5q47 0 84.5 35t43.5 86 q4 49 -23 81t-73 32q-48 0 -85.5 -37.5t-41.5 -87.5z" />
<glyph unicode="&#xc6;" horiz-adv-x="1576" d="M1411 0h-679l54 388h-472l-253 -388h-142l971 1456h724l-19 -104h-565l-76 -542h481l-18 -104h-476l-85 -603h573zM387 503h415l113 809z" />
<glyph unicode="&#xc7;" horiz-adv-x="1133" d="M985 454q-46 -237 -175 -358t-331 -116q-155 4 -247.5 109t-108.5 296l-2 57q-1 68 8 134l50 312q43 277 185.5 435.5t357.5 153.5q186 -5 279.5 -130t81.5 -347h-115q8 189 -56.5 277.5t-196.5 91.5q-164 5 -274.5 -120t-147.5 -364l-51 -331l-6 -82q-6 -105 20 -196 t85 -139t146 -51q149 -7 243 76.5t146 290.5zM510 -9l-21 -66q112 -26 107 -162q-5 -96 -77.5 -150.5t-194.5 -59.5v81q76 3 124.5 36.5t55.5 90.5q10 75 -72 93l-49 9l42 128h85z" />
<glyph unicode="&#xc8;" horiz-adv-x="997" d="M844 697h-548l-103 -591h631l-19 -106h-743l252 1456h739l-19 -108h-625l-95 -545h549zM761 1566h-100l-175 280h133z" />
<glyph unicode="&#xc9;" horiz-adv-x="997" d="M844 697h-548l-103 -591h631l-19 -106h-743l252 1456h739l-19 -108h-625l-95 -545h549zM848 1846l151 -1l-269 -278h-112z" />
<glyph unicode="&#xca;" horiz-adv-x="997" d="M844 697h-548l-103 -591h631l-19 -106h-743l252 1456h739l-19 -108h-625l-95 -545h549zM929 1590l-1 -12l-98 1l-100 180l-167 -179l-98 -1l1 13l233 255h68z" />
<glyph unicode="&#xcb;" horiz-adv-x="997" d="M844 697h-548l-103 -591h631l-19 -106h-743l252 1456h739l-19 -108h-625l-95 -545h549zM430 1716q2 34 26 58t59 25q35 0 57.5 -24t19.5 -59q-2 -34 -26.5 -57t-58.5 -24q-35 -1 -57 22.5t-20 58.5zM854 1715q2 34 26 58t59 25t57 -23.5t20 -59.5q-2 -34 -26.5 -57 t-59.5 -24q-34 0 -56 23t-20 58z" />
<glyph unicode="&#xcc;" horiz-adv-x="495" d="M195 0h-113l253 1456h113zM480 1566h-100l-175 280h133z" />
<glyph unicode="&#xcd;" horiz-adv-x="495" d="M195 0h-113l253 1456h113zM566 1846l151 -1l-269 -278h-112z" />
<glyph unicode="&#xce;" horiz-adv-x="495" d="M195 0h-113l253 1456h113zM648 1590l-1 -12l-98 1l-100 180l-167 -179l-98 -1l1 13l233 255h68z" />
<glyph unicode="&#xcf;" horiz-adv-x="495" d="M195 0h-113l253 1456h113zM149 1716q2 34 26 58t59 25q35 0 57.5 -24t19.5 -59q-2 -34 -26.5 -57t-58.5 -24q-35 -1 -57 22.5t-20 58.5zM573 1715q2 34 26 58t59 25t57 -23.5t20 -59.5q-2 -34 -26.5 -57t-59.5 -24q-34 0 -56 23t-20 58z" />
<glyph unicode="&#xd0;" horiz-adv-x="1172" d="M92 0l119 689h-155l19 104h154l115 663l326 -1q219 -5 329 -165.5t78 -416.5l-43 -279q-43 -279 -200 -435t-394 -159h-348zM562 689h-238l-101 -583l207 -1q199 0 327 128t164 361l44 283q12 86 4 169q-14 141 -92 219t-210 82l-228 1l-97 -555h238z" />
<glyph unicode="&#xd1;" horiz-adv-x="1234" d="M953 0h-110l-451 1242l-216 -1242h-115l253 1456h111l452 -1244l216 1244h113zM1098 1810q-13 -100 -60.5 -158.5t-121.5 -58.5q-49 0 -111.5 56.5t-109.5 56.5q-66 -3 -96 -85l-11 -33l-81 3q13 98 61.5 157.5t121.5 57.5q35 0 61.5 -18t51 -39t50.5 -38t59 -17 q79 0 109 121z" />
<glyph unicode="&#xd2;" horiz-adv-x="1182" d="M492 -20q-175 4 -274 122.5t-102 328.5q-1 70 8 139l48 303q47 297 192.5 452.5t360.5 150.5q117 -3 201 -57.5t127.5 -159t45.5 -236.5q1 -70 -8 -139l-51 -319q-32 -194 -109 -327t-188 -197t-251 -61zM977 888q7 52 9 108q3 176 -65 271t-204 99q-172 5 -283 -122 t-148 -364l-50 -325l-6 -93q-6 -173 63.5 -271.5t205.5 -102.5q165 -5 274.5 111.5t149.5 344.5zM823 1571h-100l-175 280h133z" />
<glyph unicode="&#xd3;" horiz-adv-x="1182" d="M492 -20q-175 4 -274 122.5t-102 328.5q-1 70 8 139l48 303q47 297 192.5 452.5t360.5 150.5q117 -3 201 -57.5t127.5 -159t45.5 -236.5q1 -70 -8 -139l-51 -319q-32 -194 -109 -327t-188 -197t-251 -61zM977 888q7 52 9 108q3 176 -65 271t-204 99q-172 5 -283 -122 t-148 -364l-50 -325l-6 -93q-6 -173 63.5 -271.5t205.5 -102.5q165 -5 274.5 111.5t149.5 344.5zM910 1851l151 -1l-269 -278h-112z" />
<glyph unicode="&#xd4;" horiz-adv-x="1182" d="M492 -20q-175 4 -274 122.5t-102 328.5q-1 70 8 139l48 303q47 297 192.5 452.5t360.5 150.5q117 -3 201 -57.5t127.5 -159t45.5 -236.5q1 -70 -8 -139l-51 -319q-32 -194 -109 -327t-188 -197t-251 -61zM977 888q7 52 9 108q3 176 -65 271t-204 99q-172 5 -283 -122 t-148 -364l-50 -325l-6 -93q-6 -173 63.5 -271.5t205.5 -102.5q165 -5 274.5 111.5t149.5 344.5zM991 1595l-1 -12l-98 1l-100 180l-167 -179l-98 -1l1 13l233 255h68z" />
<glyph unicode="&#xd5;" horiz-adv-x="1182" d="M492 -20q-175 4 -274 122.5t-102 328.5q-1 70 8 139l48 303q47 297 192.5 452.5t360.5 150.5q117 -3 201 -57.5t127.5 -159t45.5 -236.5q1 -70 -8 -139l-51 -319q-32 -194 -109 -327t-188 -197t-251 -61zM977 888q7 52 9 108q3 176 -65 271t-204 99q-172 5 -283 -122 t-148 -364l-50 -325l-6 -93q-6 -173 63.5 -271.5t205.5 -102.5q165 -5 274.5 111.5t149.5 344.5zM1074 1821q-13 -100 -60.5 -158.5t-121.5 -58.5q-49 0 -111.5 56.5t-109.5 56.5q-66 -3 -96 -85l-11 -33l-81 3q13 98 61.5 157.5t121.5 57.5q35 0 61.5 -18t51 -39t50.5 -38 t59 -17q79 0 109 121z" />
<glyph unicode="&#xd6;" horiz-adv-x="1182" d="M492 -20q-175 4 -274 122.5t-102 328.5q-1 70 8 139l48 303q47 297 192.5 452.5t360.5 150.5q117 -3 201 -57.5t127.5 -159t45.5 -236.5q1 -70 -8 -139l-51 -319q-32 -194 -109 -327t-188 -197t-251 -61zM977 888q7 52 9 108q3 176 -65 271t-204 99q-172 5 -283 -122 t-148 -364l-50 -325l-6 -93q-6 -173 63.5 -271.5t205.5 -102.5q165 -5 274.5 111.5t149.5 344.5zM492 1721q2 34 26 58t59 25q35 0 57.5 -24t19.5 -59q-2 -34 -26.5 -57t-58.5 -24q-35 -1 -57 22.5t-20 58.5zM916 1720q2 34 26 58t59 25t57 -23.5t20 -59.5q-2 -34 -26.5 -57 t-59.5 -24q-34 0 -56 23t-20 58z" />
<glyph unicode="&#xd7;" horiz-adv-x="926" d="M22 191l354 363l-220 350l81 77l216 -346l338 346l61 -89l-341 -350l228 -363l-81 -76l-225 358l-349 -358z" />
<glyph unicode="&#xd8;" horiz-adv-x="1182" d="M490 -21q-145 4 -249 96l-107 -158h-101l157 219q-84 165 -72 383q6 124 40.5 314.5t107.5 328.5q168 320 460 314q176 -4 283 -137l117 165h100l-170 -238q38 -112 43 -229q4 -123 -14 -239l-19 -123q-52 -332 -202.5 -516.5t-373.5 -179.5zM227 445q0 -112 32 -202 l681 993q-72 125 -221 131q-177 5 -294.5 -148t-159.5 -425l-25 -164q-14 -98 -13 -185zM990 979q3 85 -11 170l-670 -978q73 -79 189 -83q169 -5 284.5 135t161.5 398q42 237 46 358z" />
<glyph unicode="&#xd9;" horiz-adv-x="1143" d="M1142 1456l-175 -1026q-30 -216 -161 -336.5t-329 -114.5q-124 2 -209.5 58.5t-122 158t-21.5 233.5l175 1027h113l-174 -1028q-18 -160 46 -249t201 -93q151 -6 247.5 85t120.5 257l174 1028h115zM808 1560h-100l-175 280h133z" />
<glyph unicode="&#xda;" horiz-adv-x="1143" d="M1142 1456l-175 -1026q-30 -216 -161 -336.5t-329 -114.5q-124 2 -209.5 58.5t-122 158t-21.5 233.5l175 1027h113l-174 -1028q-18 -160 46 -249t201 -93q151 -6 247.5 85t120.5 257l174 1028h115zM895 1840l151 -1l-269 -278h-112z" />
<glyph unicode="&#xdb;" horiz-adv-x="1143" d="M1142 1456l-175 -1026q-30 -216 -161 -336.5t-329 -114.5q-124 2 -209.5 58.5t-122 158t-21.5 233.5l175 1027h113l-174 -1028q-18 -160 46 -249t201 -93q151 -6 247.5 85t120.5 257l174 1028h115zM976 1584l-1 -12l-98 1l-100 180l-167 -179l-98 -1l1 13l233 255h68z " />
<glyph unicode="&#xdc;" horiz-adv-x="1143" d="M1142 1456l-175 -1026q-30 -216 -161 -336.5t-329 -114.5q-124 2 -209.5 58.5t-122 158t-21.5 233.5l175 1027h113l-174 -1028q-18 -160 46 -249t201 -93q151 -6 247.5 85t120.5 257l174 1028h115zM477 1710q2 34 26 58t59 25q35 0 57.5 -24t19.5 -59q-2 -34 -26.5 -57 t-58.5 -24q-35 -1 -57 22.5t-20 58.5zM901 1709q2 34 26 58t59 25t57 -23.5t20 -59.5q-2 -34 -26.5 -57t-59.5 -24q-34 0 -56 23t-20 58z" />
<glyph unicode="&#xdd;" horiz-adv-x="1048" d="M526 667l489 789h136l-587 -915l-94 -541h-114l97 555l-265 901h127zM841 1834l151 -1l-269 -278h-112z" />
<glyph unicode="&#xde;" horiz-adv-x="1037" d="M424 1456l-53 -303l248 -1q162 -6 249 -117t72 -290q-16 -187 -140 -305t-309 -118l-263 1l-57 -323h-111l253 1456h111zM353 1049l-108 -622l250 -2q135 2 227 91.5t108 228.5q16 127 -41 212t-173 91z" />
<glyph unicode="&#xdf;" horiz-adv-x="1029" d="M146 0h-111l192 1127q29 204 122.5 313.5t236.5 104.5q119 -4 187 -87.5t57 -213.5q-5 -65 -41 -142l-86 -171q-27 -56 -35 -116l-2 -19q-6 -93 98 -225t105 -230l-1 -24q-10 -150 -111.5 -246t-240.5 -92q-155 2 -247 83l42 102q38 -38 90.5 -60.5t106.5 -22.5 q97 -2 167.5 64t83.5 170q7 57 -16.5 114.5t-82 131t-83 134t-18.5 121.5q5 48 22 92t59 120.5t59 119t22 90.5q10 84 -27.5 143t-107.5 63q-98 5 -162.5 -74.5t-86.5 -241.5z" />
<glyph unicode="&#xe0;" horiz-adv-x="945" d="M604 0q-4 38 0 75l9 75q-133 -175 -311 -171q-128 2 -194 84.5t-56 212.5q11 164 136 259.5t315 95.5l184 -1l22 152q11 100 -32.5 157.5t-147.5 59.5q-98 2 -168.5 -57t-91.5 -158l-109 1q20 140 126.5 230t253.5 88q144 -2 218 -88t60 -236l-91 -552q-9 -56 -9 -108 l2 -107l-2 -12h-114zM322 85q93 -2 172.5 48.5t131.5 139.5l45 264l-154 1q-151 0 -245 -67.5t-106 -185.5q-9 -93 31.5 -145.5t124.5 -54.5zM673 1245h-100l-175 280h133z" />
<glyph unicode="&#xe1;" horiz-adv-x="945" d="M604 0q-4 38 0 75l9 75q-133 -175 -311 -171q-128 2 -194 84.5t-56 212.5q11 164 136 259.5t315 95.5l184 -1l22 152q11 100 -32.5 157.5t-147.5 59.5q-98 2 -168.5 -57t-91.5 -158l-109 1q20 140 126.5 230t253.5 88q144 -2 218 -88t60 -236l-91 -552q-9 -56 -9 -108 l2 -107l-2 -12h-114zM322 85q93 -2 172.5 48.5t131.5 139.5l45 264l-154 1q-151 0 -245 -67.5t-106 -185.5q-9 -93 31.5 -145.5t124.5 -54.5zM760 1525l151 -1l-269 -278h-112z" />
<glyph unicode="&#xe2;" horiz-adv-x="945" d="M604 0q-4 38 0 75l9 75q-133 -175 -311 -171q-128 2 -194 84.5t-56 212.5q11 164 136 259.5t315 95.5l184 -1l22 152q11 100 -32.5 157.5t-147.5 59.5q-98 2 -168.5 -57t-91.5 -158l-109 1q20 140 126.5 230t253.5 88q144 -2 218 -88t60 -236l-91 -552q-9 -56 -9 -108 l2 -107l-2 -12h-114zM322 85q93 -2 172.5 48.5t131.5 139.5l45 264l-154 1q-151 0 -245 -67.5t-106 -185.5q-9 -93 31.5 -145.5t124.5 -54.5zM841 1269l-1 -12l-98 1l-100 180l-167 -179l-98 -1l1 13l233 255h68z" />
<glyph unicode="&#xe3;" horiz-adv-x="945" d="M604 0q-4 38 0 75l9 75q-133 -175 -311 -171q-128 2 -194 84.5t-56 212.5q11 164 136 259.5t315 95.5l184 -1l22 152q11 100 -32.5 157.5t-147.5 59.5q-98 2 -168.5 -57t-91.5 -158l-109 1q20 140 126.5 230t253.5 88q144 -2 218 -88t60 -236l-91 -552q-9 -56 -9 -108 l2 -107l-2 -12h-114zM322 85q93 -2 172.5 48.5t131.5 139.5l45 264l-154 1q-151 0 -245 -67.5t-106 -185.5q-9 -93 31.5 -145.5t124.5 -54.5zM924 1495q-13 -100 -60.5 -158.5t-121.5 -58.5q-49 0 -111.5 56.5t-109.5 56.5q-66 -3 -96 -85l-11 -33l-81 3q13 98 61.5 157.5 t121.5 57.5q35 0 61.5 -18t51 -39t50.5 -38t59 -17q79 0 109 121z" />
<glyph unicode="&#xe4;" horiz-adv-x="945" d="M604 0q-4 38 0 75l9 75q-133 -175 -311 -171q-128 2 -194 84.5t-56 212.5q11 164 136 259.5t315 95.5l184 -1l22 152q11 100 -32.5 157.5t-147.5 59.5q-98 2 -168.5 -57t-91.5 -158l-109 1q20 140 126.5 230t253.5 88q144 -2 218 -88t60 -236l-91 -552q-9 -56 -9 -108 l2 -107l-2 -12h-114zM322 85q93 -2 172.5 48.5t131.5 139.5l45 264l-154 1q-151 0 -245 -67.5t-106 -185.5q-9 -93 31.5 -145.5t124.5 -54.5zM342 1395q2 34 26 58t59 25q35 0 57.5 -24t19.5 -59q-2 -34 -26.5 -57t-58.5 -24q-35 -1 -57 22.5t-20 58.5zM766 1394q2 34 26 58 t59 25t57 -23.5t20 -59.5q-2 -34 -26.5 -57t-59.5 -24q-34 0 -56 23t-20 58z" />
<glyph unicode="&#xe5;" horiz-adv-x="945" d="M604 0q-4 38 0 75l9 75q-133 -175 -311 -171q-128 2 -194 84.5t-56 212.5q11 164 136 259.5t315 95.5l184 -1l22 152q11 100 -32.5 157.5t-147.5 59.5q-98 2 -168.5 -57t-91.5 -158l-109 1q20 140 126.5 230t253.5 88q144 -2 218 -88t60 -236l-91 -552q-9 -56 -9 -108 l2 -107l-2 -12h-114zM322 85q93 -2 172.5 48.5t131.5 139.5l45 264l-154 1q-151 0 -245 -67.5t-106 -185.5q-9 -93 31.5 -145.5t124.5 -54.5zM445 1393q2 81 60 141t141 60q74 0 125.5 -54t49.5 -131q-2 -80 -60.5 -138t-140.5 -58q-75 0 -126 51.5t-49 128.5zM522 1395 q-4 -48 23.5 -78.5t71.5 -30.5q47 0 84.5 35t43.5 86q4 49 -23 81t-73 32q-48 0 -85.5 -37.5t-41.5 -87.5z" />
<glyph unicode="&#xe6;" horiz-adv-x="1459" d="M960 -19q-102 2 -180 54t-114 147q-66 -96 -162.5 -150.5t-214.5 -52.5q-123 2 -191.5 86.5t-57.5 220.5q11 159 122 253t288 94l210 -1l12 89q5 45 3 93l-2 20q-20 160 -153 165q-103 2 -174 -61t-93 -172l-106 12q20 149 127.5 239t255.5 86q100 -4 165.5 -58 t83.5 -146q142 207 323 204q123 -3 196.5 -84.5t85.5 -221.5q7 -82 -2 -160l-15 -101h-609l-5 -27l-8 -88q-6 -156 52 -245.5t169 -91.5q82 -2 150.5 31.5t130.5 84.5l32 -90q-123 -133 -319 -129zM313 81q69 -2 141.5 36.5t137.5 113.5l52 303l-195 2q-121 -2 -203 -71 t-94 -183q-9 -89 33.5 -144t127.5 -57zM1094 999q-106 4 -187 -82.5t-137 -280.5h502q10 64 11 105q0 116 -47.5 185t-141.5 73z" />
<glyph unicode="&#xe7;" horiz-adv-x="911" d="M390 82q217 -7 278 252h104q-28 -162 -132.5 -260.5t-255.5 -94.5q-149 2 -230.5 101t-82.5 281q-2 91 25 261q38 241 155 363t297 117q145 -5 221.5 -106.5t67.5 -278.5h-107q8 135 -41 206t-149 76q-271 9 -332 -376l-21 -160l-5 -72l-1 -32q-3 -269 209 -277zM405 -9 l-21 -66q112 -26 107 -162q-5 -96 -77.5 -150.5t-194.5 -59.5v81q76 3 124.5 36.5t55.5 90.5q10 75 -72 93l-49 9l42 128h85z" />
<glyph unicode="&#xe8;" horiz-adv-x="919" d="M410 -20q-175 3 -261 136.5t-61 353.5l12 100q31 254 153 395.5t306 136.5q131 -4 204.5 -85.5t82.5 -224.5q5 -85 -5 -166l-13 -95h-619l-10 -62q-9 -64 -5 -131q5 -115 64 -184t161 -72q81 -2 145.5 30t121.5 86l52 -76q-124 -146 -328 -142zM552 999 q-125 5 -210 -85.5t-125 -278.5h515l5 30q7 55 4 113q-5 100 -54 158.5t-135 62.5zM650 1245h-100l-175 280h133z" />
<glyph unicode="&#xe9;" horiz-adv-x="919" d="M410 -20q-175 3 -261 136.5t-61 353.5l12 100q31 254 153 395.5t306 136.5q131 -4 204.5 -85.5t82.5 -224.5q5 -85 -5 -166l-13 -95h-619l-10 -62q-9 -64 -5 -131q5 -115 64 -184t161 -72q81 -2 145.5 30t121.5 86l52 -76q-124 -146 -328 -142zM552 999 q-125 5 -210 -85.5t-125 -278.5h515l5 30q7 55 4 113q-5 100 -54 158.5t-135 62.5zM737 1525l151 -1l-269 -278h-112z" />
<glyph unicode="&#xea;" horiz-adv-x="919" d="M410 -20q-175 3 -261 136.5t-61 353.5l12 100q31 254 153 395.5t306 136.5q131 -4 204.5 -85.5t82.5 -224.5q5 -85 -5 -166l-13 -95h-619l-10 -62q-9 -64 -5 -131q5 -115 64 -184t161 -72q81 -2 145.5 30t121.5 86l52 -76q-124 -146 -328 -142zM552 999 q-125 5 -210 -85.5t-125 -278.5h515l5 30q7 55 4 113q-5 100 -54 158.5t-135 62.5zM818 1269l-1 -12l-98 1l-100 180l-167 -179l-98 -1l1 13l233 255h68z" />
<glyph unicode="&#xeb;" horiz-adv-x="919" d="M410 -20q-175 3 -261 136.5t-61 353.5l12 100q31 254 153 395.5t306 136.5q131 -4 204.5 -85.5t82.5 -224.5q5 -85 -5 -166l-13 -95h-619l-10 -62q-9 -64 -5 -131q5 -115 64 -184t161 -72q81 -2 145.5 30t121.5 86l52 -76q-124 -146 -328 -142zM552 999 q-125 5 -210 -85.5t-125 -278.5h515l5 30q7 55 4 113q-5 100 -54 158.5t-135 62.5zM319 1395q2 34 26 58t59 25q35 0 57.5 -24t19.5 -59q-2 -34 -26.5 -57t-58.5 -24q-35 -1 -57 22.5t-20 58.5zM743 1394q2 34 26 58t59 25t57 -23.5t20 -59.5q-2 -34 -26.5 -57t-59.5 -24 q-34 0 -56 23t-20 58z" />
<glyph unicode="&#xec;" horiz-adv-x="428" d="M159 0h-110l188 1082h111zM391 1233h-100l-175 280h133z" />
<glyph unicode="&#xed;" horiz-adv-x="428" d="M159 0h-110l188 1082h111zM477 1513l151 -1l-269 -278h-112z" />
<glyph unicode="&#xee;" horiz-adv-x="428" d="M159 0h-110l188 1082h111zM559 1257l-1 -12l-98 1l-100 180l-167 -179l-98 -1l1 13l233 255h68z" />
<glyph unicode="&#xef;" horiz-adv-x="428" d="M159 0h-110l188 1082h111zM60 1383q2 34 26 58t59 25q35 0 57.5 -24t19.5 -59q-2 -34 -26.5 -57t-58.5 -24q-35 -1 -57 22.5t-20 58.5zM484 1382q2 34 26 58t59 25t57 -23.5t20 -59.5q-2 -34 -26.5 -57t-59.5 -24q-34 0 -56 23t-20 58z" />
<glyph unicode="&#xf0;" horiz-adv-x="1021" d="M805 1302q113 -225 102 -504q-4 -95 -28.5 -260t-91 -300.5t-157 -198.5t-199.5 -60q-107 3 -180.5 65.5t-108.5 174t-22 239.5q23 224 139 368.5t292 139.5q77 -2 140.5 -38.5t105.5 -99.5q11 228 -90 407l-204 -138l-34 82l188 125q-92 102 -247 169l46 105 q184 -74 297 -208l183 121l34 -83zM784 690q-25 78 -81.5 122.5t-138.5 47.5q-106 4 -186 -67t-119.5 -201t-27.5 -255q10 -113 65.5 -181.5t146.5 -72.5q126 -5 211 121t114 345l10 78z" />
<glyph unicode="&#xf1;" horiz-adv-x="966" d="M332 1082l-35 -172q133 196 307 193q204 -4 228 -250l3 -58l-6 -91l-118 -704h-109l117 706l5 65q7 223 -155 227q-89 2 -175 -72t-117 -174l-128 -752h-111l188 1082h106zM920 1494q-13 -100 -60.5 -158.5t-121.5 -58.5q-49 0 -111.5 56.5t-109.5 56.5q-66 -3 -96 -85 l-11 -33l-81 3q13 98 61.5 157.5t121.5 57.5q35 0 61.5 -18t51 -39t50.5 -38t59 -17q79 0 109 121z" />
<glyph unicode="&#xf2;" horiz-adv-x="985" d="M560 1103q147 -4 229 -107.5t85 -282.5q2 -91 -20 -234q-36 -238 -156.5 -371.5t-301.5 -128.5q-135 4 -216.5 93t-96.5 256l-2 40q-3 81 20.5 235.5t85 267.5t156 174t217.5 58zM192 398q-3 -148 51.5 -230t160.5 -86q130 -5 218.5 94.5t119.5 293.5l17 127l5 85 q3 145 -51.5 229t-160.5 88q-134 5 -225 -107t-117 -310l-16 -127zM655 1245h-100l-175 280h133z" />
<glyph unicode="&#xf3;" horiz-adv-x="985" d="M560 1103q147 -4 229 -107.5t85 -282.5q2 -91 -20 -234q-36 -238 -156.5 -371.5t-301.5 -128.5q-135 4 -216.5 93t-96.5 256l-2 40q-3 81 20.5 235.5t85 267.5t156 174t217.5 58zM192 398q-3 -148 51.5 -230t160.5 -86q130 -5 218.5 94.5t119.5 293.5l17 127l5 85 q3 145 -51.5 229t-160.5 88q-134 5 -225 -107t-117 -310l-16 -127zM742 1525l151 -1l-269 -278h-112z" />
<glyph unicode="&#xf4;" horiz-adv-x="985" d="M560 1103q147 -4 229 -107.5t85 -282.5q2 -91 -20 -234q-36 -238 -156.5 -371.5t-301.5 -128.5q-135 4 -216.5 93t-96.5 256l-2 40q-3 81 20.5 235.5t85 267.5t156 174t217.5 58zM192 398q-3 -148 51.5 -230t160.5 -86q130 -5 218.5 94.5t119.5 293.5l17 127l5 85 q3 145 -51.5 229t-160.5 88q-134 5 -225 -107t-117 -310l-16 -127zM823 1269l-1 -12l-98 1l-100 180l-167 -179l-98 -1l1 13l233 255h68z" />
<glyph unicode="&#xf5;" horiz-adv-x="985" d="M560 1103q147 -4 229 -107.5t85 -282.5q2 -91 -20 -234q-36 -238 -156.5 -371.5t-301.5 -128.5q-135 4 -216.5 93t-96.5 256l-2 40q-3 81 20.5 235.5t85 267.5t156 174t217.5 58zM192 398q-3 -148 51.5 -230t160.5 -86q130 -5 218.5 94.5t119.5 293.5l17 127l5 85 q3 145 -51.5 229t-160.5 88q-134 5 -225 -107t-117 -310l-16 -127zM906 1494q-13 -100 -60.5 -158.5t-121.5 -58.5q-49 0 -111.5 56.5t-109.5 56.5q-66 -3 -96 -85l-11 -33l-81 3q13 98 61.5 157.5t121.5 57.5q35 0 61.5 -18t51 -39t50.5 -38t59 -17q79 0 109 121z" />
<glyph unicode="&#xf6;" horiz-adv-x="985" d="M560 1103q147 -4 229 -107.5t85 -282.5q2 -91 -20 -234q-36 -238 -156.5 -371.5t-301.5 -128.5q-135 4 -216.5 93t-96.5 256l-2 40q-3 81 20.5 235.5t85 267.5t156 174t217.5 58zM192 398q-3 -148 51.5 -230t160.5 -86q130 -5 218.5 94.5t119.5 293.5l17 127l5 85 q3 145 -51.5 229t-160.5 88q-134 5 -225 -107t-117 -310l-16 -127zM324 1395q2 34 26 58t59 25q35 0 57.5 -24t19.5 -59q-2 -34 -26.5 -57t-58.5 -24q-35 -1 -57 22.5t-20 58.5zM748 1394q2 34 26 58t59 25t57 -23.5t20 -59.5q-2 -34 -26.5 -57t-59.5 -24q-34 0 -56 23 t-20 58z" />
<glyph unicode="&#xf7;" horiz-adv-x="998" d="M900 642h-817l22 119h816zM501 1088q2 36 25.5 61t53.5 25q34 0 53.5 -24t17.5 -62q-2 -32 -23.5 -57t-56.5 -26t-53.5 24.5t-16.5 58.5zM363 291q2 32 23 58t56 27q33 0 53 -24t18 -61q-2 -36 -26 -60t-54 -24q-36 0 -55 26.5t-15 57.5z" />
<glyph unicode="&#xf8;" horiz-adv-x="981" d="M562 1104q91 -1 171 -50l91 158h91l-124 -206q94 -130 91 -332q-5 -308 -142.5 -505t-348.5 -191q-83 1 -159 41l-94 -158l-89 1l122 204q-100 124 -98 334q0 195 64.5 361.5t174.5 255.5t250 87zM180 430q-10 -155 46 -260l453 788q-55 39 -123 43q-100 3 -181.5 -64 t-133.5 -203t-61 -304zM774 731q-7 97 -41 167l-449 -784q52 -32 114 -34q142 -2 238 123.5t125 322.5q17 133 13 205z" />
<glyph unicode="&#xf9;" horiz-adv-x="966" d="M631 128q-113 -153 -295 -149q-112 2 -173 82t-61 236l5 92l116 693h110l-116 -696q-5 -43 -4 -94q0 -94 38 -149.5t109 -57.5q98 -4 181 54.5t110 149.5l136 793h111l-187 -1082h-108zM666 1245h-100l-175 280h133z" />
<glyph unicode="&#xfa;" horiz-adv-x="966" d="M631 128q-113 -153 -295 -149q-112 2 -173 82t-61 236l5 92l116 693h110l-116 -696q-5 -43 -4 -94q0 -94 38 -149.5t109 -57.5q98 -4 181 54.5t110 149.5l136 793h111l-187 -1082h-108zM753 1525l151 -1l-269 -278h-112z" />
<glyph unicode="&#xfb;" horiz-adv-x="966" d="M631 128q-113 -153 -295 -149q-112 2 -173 82t-61 236l5 92l116 693h110l-116 -696q-5 -43 -4 -94q0 -94 38 -149.5t109 -57.5q98 -4 181 54.5t110 149.5l136 793h111l-187 -1082h-108zM834 1269l-1 -12l-98 1l-100 180l-167 -179l-98 -1l1 13l233 255h68z" />
<glyph unicode="&#xfc;" horiz-adv-x="966" d="M631 128q-113 -153 -295 -149q-112 2 -173 82t-61 236l5 92l116 693h110l-116 -696q-5 -43 -4 -94q0 -94 38 -149.5t109 -57.5q98 -4 181 54.5t110 149.5l136 793h111l-187 -1082h-108zM335 1395q2 34 26 58t59 25q35 0 57.5 -24t19.5 -59q-2 -34 -26.5 -57t-58.5 -24 q-35 -1 -57 22.5t-20 58.5zM759 1394q2 34 26 58t59 25t57 -23.5t20 -59.5q-2 -34 -26.5 -57t-59.5 -24q-34 0 -56 23t-20 58z" />
<glyph unicode="&#xfd;" horiz-adv-x="841" d="M349 188l405 894h122l-585 -1256q-61 -144 -131.5 -205.5t-157.5 -60.5q-30 0 -86 16l12 101l50 -8q128 -6 208 154l86 192l-144 1067h117zM705 1525l151 -1l-269 -278h-112z" />
<glyph unicode="&#xfe;" horiz-adv-x="991" d="M433 -21q-173 4 -255 148l-98 -543h-110l339 1952h110l-110 -592q122 163 289 159q137 -4 205 -119.5t61 -316.5l-8 -109l-3 -21q-38 -272 -147 -417.5t-273 -140.5zM746 558q12 104 7 177q-16 254 -189 261q-169 3 -275 -199l-88 -533q24 -84 78.5 -132t134.5 -50 q120 -4 204 100.5t119 314.5z" />
<glyph unicode="&#xff;" horiz-adv-x="841" d="M349 188l405 894h122l-585 -1256q-61 -144 -131.5 -205.5t-157.5 -60.5q-30 0 -86 16l12 101l50 -8q128 -6 208 154l86 192l-144 1067h117zM287 1395q2 34 26 58t59 25q35 0 57.5 -24t19.5 -59q-2 -34 -26.5 -57t-58.5 -24q-35 -1 -57 22.5t-20 58.5zM711 1394 q2 34 26 58t59 25t57 -23.5t20 -59.5q-2 -34 -26.5 -57t-59.5 -24q-34 0 -56 23t-20 58z" />
<glyph unicode="&#x100;" d="M777 407h-527l-192 -407h-122l703 1456h106l197 -1456h-114zM300 514h463l-96 776zM1010 1681h-556l16 99h556z" />
<glyph unicode="&#x101;" horiz-adv-x="945" d="M604 0q-4 38 0 75l9 75q-133 -175 -311 -171q-128 2 -194 84.5t-56 212.5q11 164 136 259.5t315 95.5l184 -1l22 152q11 100 -32.5 157.5t-147.5 59.5q-98 2 -168.5 -57t-91.5 -158l-109 1q20 140 126.5 230t253.5 88q144 -2 218 -88t60 -236l-91 -552q-9 -56 -9 -108 l2 -107l-2 -12h-114zM322 85q93 -2 172.5 48.5t131.5 139.5l45 264l-154 1q-151 0 -245 -67.5t-106 -185.5q-9 -93 31.5 -145.5t124.5 -54.5zM900 1366h-556l16 99h556z" />
<glyph unicode="&#x102;" d="M777 407h-527l-192 -407h-122l703 1456h106l197 -1456h-114zM300 514h463l-96 776zM1036 1808q-14 -121 -98.5 -191.5t-206.5 -66.5q-118 2 -189 72.5t-65 186.5l101 -1q-5 -79 34.5 -124t120.5 -47q85 -1 137 44.5t67 125.5z" />
<glyph unicode="&#x103;" horiz-adv-x="945" d="M604 0q-4 38 0 75l9 75q-133 -175 -311 -171q-128 2 -194 84.5t-56 212.5q11 164 136 259.5t315 95.5l184 -1l22 152q11 100 -32.5 157.5t-147.5 59.5q-98 2 -168.5 -57t-91.5 -158l-109 1q20 140 126.5 230t253.5 88q144 -2 218 -88t60 -236l-91 -552q-9 -56 -9 -108 l2 -107l-2 -12h-114zM322 85q93 -2 172.5 48.5t131.5 139.5l45 264l-154 1q-151 0 -245 -67.5t-106 -185.5q-9 -93 31.5 -145.5t124.5 -54.5zM926 1493q-14 -121 -98.5 -191.5t-206.5 -66.5q-118 2 -189 72.5t-65 186.5l101 -1q-5 -79 34.5 -124t120.5 -47q85 -1 137 44.5 t67 125.5z" />
<glyph unicode="&#x104;" d="M923 0l3 -2l-60 -52q-108 -96 -117 -186q-5 -76 50 -76q32 -1 89 30l4 -86q-53 -41 -116 -43q-60 0 -94 44t-32 119q7 141 177 260l-50 399h-527l-192 -407h-122l703 1456h106l197 -1456h-19zM300 514h463l-96 776z" />
<glyph unicode="&#x105;" horiz-adv-x="945" d="M697 0l3 -2l-60 -52q-108 -96 -117 -186q-5 -76 50 -76q32 -1 89 30l4 -86q-53 -41 -116 -43q-60 0 -94 44t-32 119q7 145 179 261q-5 55 10 141q-133 -175 -311 -171q-128 2 -194 84.5t-56 212.5q11 164 136 259.5t315 95.5l184 -1l22 152q11 100 -32.5 157.5 t-147.5 59.5q-98 2 -168.5 -57t-91.5 -158l-109 1q20 140 126.5 230t253.5 88q144 -2 218 -88t60 -236l-91 -552q-9 -56 -9 -108l2 -107l-2 -12h-21zM322 85q93 -2 172.5 48.5t131.5 139.5l45 264l-154 1q-151 0 -245 -67.5t-106 -185.5q-9 -93 31.5 -145.5t124.5 -54.5z " />
<glyph unicode="&#x106;" horiz-adv-x="1133" d="M985 454q-46 -237 -175 -358t-331 -116q-155 4 -247.5 109t-108.5 296l-2 57q-1 68 8 134l50 312q43 277 185.5 435.5t357.5 153.5q186 -5 279.5 -130t81.5 -347h-115q8 189 -56.5 277.5t-196.5 91.5q-164 5 -274.5 -120t-147.5 -364l-51 -331l-6 -82q-6 -105 20 -196 t85 -139t146 -51q149 -7 243 76.5t146 290.5zM900 1867l151 -1l-269 -278h-112z" />
<glyph unicode="&#x107;" horiz-adv-x="911" d="M390 82q217 -7 278 252h104q-28 -162 -132.5 -260.5t-255.5 -94.5q-149 2 -230.5 101t-82.5 281q-2 91 25 261q38 241 155 363t297 117q145 -5 221.5 -106.5t67.5 -278.5h-107q8 135 -41 206t-149 76q-271 9 -332 -376l-21 -160l-5 -72l-1 -32q-3 -269 209 -277z M713 1525l151 -1l-269 -278h-112z" />
<glyph unicode="&#x108;" horiz-adv-x="1133" d="M985 454q-46 -237 -175 -358t-331 -116q-155 4 -247.5 109t-108.5 296l-2 57q-1 68 8 134l50 312q43 277 185.5 435.5t357.5 153.5q186 -5 279.5 -130t81.5 -347h-115q8 189 -56.5 277.5t-196.5 91.5q-164 5 -274.5 -120t-147.5 -364l-51 -331l-6 -82q-6 -105 20 -196 t85 -139t146 -51q149 -7 243 76.5t146 290.5zM981 1611l-1 -12l-98 1l-100 180l-167 -179l-98 -1l1 13l233 255h68z" />
<glyph unicode="&#x109;" horiz-adv-x="911" d="M390 82q217 -7 278 252h104q-28 -162 -132.5 -260.5t-255.5 -94.5q-149 2 -230.5 101t-82.5 281q-2 91 25 261q38 241 155 363t297 117q145 -5 221.5 -106.5t67.5 -278.5h-107q8 135 -41 206t-149 76q-271 9 -332 -376l-21 -160l-5 -72l-1 -32q-3 -269 209 -277z M794 1269l-1 -12l-98 1l-100 180l-167 -179l-98 -1l1 13l233 255h68z" />
<glyph unicode="&#x10a;" horiz-adv-x="1133" d="M985 454q-46 -237 -175 -358t-331 -116q-155 4 -247.5 109t-108.5 296l-2 57q-1 68 8 134l50 312q43 277 185.5 435.5t357.5 153.5q186 -5 279.5 -130t81.5 -347h-115q8 189 -56.5 277.5t-196.5 91.5q-164 5 -274.5 -120t-147.5 -364l-51 -331l-6 -82q-6 -105 20 -196 t85 -139t146 -51q149 -7 243 76.5t146 290.5zM690 1723q2 34 26.5 58t58.5 25q35 1 57.5 -23.5t19.5 -59.5q-2 -34 -26.5 -57t-59.5 -24t-56.5 22.5t-19.5 58.5z" />
<glyph unicode="&#x10b;" horiz-adv-x="911" d="M390 82q217 -7 278 252h104q-28 -162 -132.5 -260.5t-255.5 -94.5q-149 2 -230.5 101t-82.5 281q-2 91 25 261q38 241 155 363t297 117q145 -5 221.5 -106.5t67.5 -278.5h-107q8 135 -41 206t-149 76q-271 9 -332 -376l-21 -160l-5 -72l-1 -32q-3 -269 209 -277z M503 1381q2 34 26.5 58t58.5 25q35 1 57.5 -23.5t19.5 -59.5q-2 -34 -26.5 -57t-59.5 -24t-56.5 22.5t-19.5 58.5z" />
<glyph unicode="&#x10c;" horiz-adv-x="1133" d="M985 454q-46 -237 -175 -358t-331 -116q-155 4 -247.5 109t-108.5 296l-2 57q-1 68 8 134l50 312q43 277 185.5 435.5t357.5 153.5q186 -5 279.5 -130t81.5 -347h-115q8 189 -56.5 277.5t-196.5 91.5q-164 5 -274.5 -120t-147.5 -364l-51 -331l-6 -82q-6 -105 20 -196 t85 -139t146 -51q149 -7 243 76.5t146 290.5zM752 1675l172 190l98 1l-1 -13l-235 -261h-77l-154 262v13l97 -1z" />
<glyph unicode="&#x10d;" horiz-adv-x="911" d="M390 82q217 -7 278 252h104q-28 -162 -132.5 -260.5t-255.5 -94.5q-149 2 -230.5 101t-82.5 281q-2 91 25 261q38 241 155 363t297 117q145 -5 221.5 -106.5t67.5 -278.5h-107q8 135 -41 206t-149 76q-271 9 -332 -376l-21 -160l-5 -72l-1 -32q-3 -269 209 -277z M565 1332l172 190l98 1l-1 -13l-235 -261h-77l-154 262v13l97 -1z" />
<glyph unicode="&#x10e;" horiz-adv-x="1142" d="M62 0l252 1456l326 -1q219 -5 329 -165.5t78 -416.5l-43 -279q-43 -279 -200 -435t-394 -159h-348zM409 1348l-216 -1242l207 -1q199 0 327 128t164 361l44 283q12 86 4 169q-14 141 -92 219t-210 82zM685 1654l172 190l98 1l-1 -13l-235 -261h-77l-154 262v13l97 -1z " />
<glyph unicode="&#x10f;" horiz-adv-x="1129" d="M523 1101q179 -6 247 -165l108 600h111l-267 -1536h-103l26 138q-114 -163 -289 -159q-136 2 -206.5 106t-65.5 296q1 80 22 223q37 254 141.5 378t275.5 119zM203 488q-11 -107 -8 -172q10 -228 189 -231q162 -4 273 167l94 563q-50 174 -213 181q-270 9 -322 -406z M1063 1177l-61 54q75 105 96 214l16 91h106l-11 -69q-29 -181 -146 -290z" />
<glyph unicode="&#x110;" horiz-adv-x="1172" d="M92 0l119 689h-155l19 104h154l115 663l326 -1q219 -5 329 -165.5t78 -416.5l-43 -279q-43 -279 -200 -435t-394 -159h-348zM562 689h-238l-101 -583l207 -1q199 0 327 128t164 361l44 283q12 86 4 169q-14 141 -92 219t-210 82l-228 1l-97 -555h238z" />
<glyph unicode="&#x111;" horiz-adv-x="1009" d="M1084 1257h-144l-218 -1257h-103l26 138q-114 -163 -289 -159q-136 2 -206.5 106t-65.5 296q1 80 22 223q37 254 141.5 378t275.5 119q179 -6 247 -165l58 321h-250l19 104h249l32 175h111l-31 -175h144zM203 488q-11 -107 -8 -172q10 -228 189 -231q162 -4 273 167 l94 563q-50 174 -213 181q-270 9 -322 -406z" />
<glyph unicode="&#x112;" horiz-adv-x="997" d="M844 697h-548l-103 -591h631l-19 -106h-743l252 1456h739l-19 -108h-625l-95 -545h549zM988 1687h-556l16 99h556z" />
<glyph unicode="&#x113;" horiz-adv-x="919" d="M410 -20q-175 3 -261 136.5t-61 353.5l12 100q31 254 153 395.5t306 136.5q131 -4 204.5 -85.5t82.5 -224.5q5 -85 -5 -166l-13 -95h-619l-10 -62q-9 -64 -5 -131q5 -115 64 -184t161 -72q81 -2 145.5 30t121.5 86l52 -76q-124 -146 -328 -142zM552 999 q-125 5 -210 -85.5t-125 -278.5h515l5 30q7 55 4 113q-5 100 -54 158.5t-135 62.5zM877 1365h-556l16 99h556z" />
<glyph unicode="&#x114;" horiz-adv-x="997" d="M844 697h-548l-103 -591h631l-19 -106h-743l252 1456h739l-19 -108h-625l-95 -545h549zM1014 1814q-14 -121 -98.5 -191.5t-206.5 -66.5q-118 2 -189 72.5t-65 186.5l101 -1q-5 -79 34.5 -124t120.5 -47q85 -1 137 44.5t67 125.5z" />
<glyph unicode="&#x115;" horiz-adv-x="919" d="M410 -20q-175 3 -261 136.5t-61 353.5l12 100q31 254 153 395.5t306 136.5q131 -4 204.5 -85.5t82.5 -224.5q5 -85 -5 -166l-13 -95h-619l-10 -62q-9 -64 -5 -131q5 -115 64 -184t161 -72q81 -2 145.5 30t121.5 86l52 -76q-124 -146 -328 -142zM552 999 q-125 5 -210 -85.5t-125 -278.5h515l5 30q7 55 4 113q-5 100 -54 158.5t-135 62.5zM903 1492q-14 -121 -98.5 -191.5t-206.5 -66.5q-118 2 -189 72.5t-65 186.5l101 -1q-5 -79 34.5 -124t120.5 -47q85 -1 137 44.5t67 125.5z" />
<glyph unicode="&#x116;" horiz-adv-x="997" d="M844 697h-548l-103 -591h631l-19 -106h-743l252 1456h739l-19 -108h-625l-95 -545h549zM638 1702q2 34 26.5 58t58.5 25q35 1 57.5 -23.5t19.5 -59.5q-2 -34 -26.5 -57t-59.5 -24t-56.5 22.5t-19.5 58.5z" />
<glyph unicode="&#x117;" horiz-adv-x="919" d="M410 -20q-175 3 -261 136.5t-61 353.5l12 100q31 254 153 395.5t306 136.5q131 -4 204.5 -85.5t82.5 -224.5q5 -85 -5 -166l-13 -95h-619l-10 -62q-9 -64 -5 -131q5 -115 64 -184t161 -72q81 -2 145.5 30t121.5 86l52 -76q-124 -146 -328 -142zM552 999 q-125 5 -210 -85.5t-125 -278.5h515l5 30q7 55 4 113q-5 100 -54 158.5t-135 62.5zM527 1381q2 34 26.5 58t58.5 25q35 1 57.5 -23.5t19.5 -59.5q-2 -34 -26.5 -57t-59.5 -24t-56.5 22.5t-19.5 58.5z" />
<glyph unicode="&#x118;" horiz-adv-x="997" d="M844 697h-548l-103 -591h631l-19 -106h-57l3 -2l-60 -52q-108 -96 -117 -186q-5 -76 50 -76q32 -1 89 30l4 -86q-53 -41 -116 -43q-60 0 -94 44t-32 119q7 138 166 252h-579l252 1456h739l-19 -108h-625l-95 -545h549z" />
<glyph unicode="&#x119;" horiz-adv-x="919" d="M410 -20q-175 3 -261 136.5t-61 353.5l12 100q31 254 153 395.5t306 136.5q131 -4 204.5 -85.5t82.5 -224.5q5 -85 -5 -166l-13 -95h-619l-10 -62q-9 -64 -5 -131q5 -115 64 -184t161 -72q81 -2 145.5 30t121.5 86l52 -76q-65 -77 -155 -112l-41 -37q-94 -87 -102 -172 q-5 -76 50 -76q32 -1 89 30l4 -86q-53 -41 -116 -43q-60 0 -94 44t-32 119q3 99 94 192zM552 999q-125 5 -210 -85.5t-125 -278.5h515l5 30q7 55 4 113q-5 100 -54 158.5t-135 62.5z" />
<glyph unicode="&#x11a;" horiz-adv-x="997" d="M844 697h-548l-103 -591h631l-19 -106h-743l252 1456h739l-19 -108h-625l-95 -545h549zM700 1654l172 190l98 1l-1 -13l-235 -261h-77l-154 262v13l97 -1z" />
<glyph unicode="&#x11b;" horiz-adv-x="919" d="M410 -20q-175 3 -261 136.5t-61 353.5l12 100q31 254 153 395.5t306 136.5q131 -4 204.5 -85.5t82.5 -224.5q5 -85 -5 -166l-13 -95h-619l-10 -62q-9 -64 -5 -131q5 -115 64 -184t161 -72q81 -2 145.5 30t121.5 86l52 -76q-124 -146 -328 -142zM552 999 q-125 5 -210 -85.5t-125 -278.5h515l5 30q7 55 4 113q-5 100 -54 158.5t-135 62.5zM589 1332l172 190l98 1l-1 -13l-235 -261h-77l-154 262v13l97 -1z" />
<glyph unicode="&#x11c;" horiz-adv-x="1189" d="M960 169q-74 -91 -191.5 -141t-251.5 -48q-178 2 -279 121.5t-107 324.5q-2 70 7 140l58 364q46 261 185 406t355 140q179 -4 276.5 -118t90.5 -314l-112 1q2 161 -65.5 240.5t-195.5 82.5q-164 5 -273 -108.5t-148 -332.5l-57 -362q-7 -52 -8 -107q-3 -172 69.5 -270.5 t208.5 -100.5q180 -4 323 120l67 379h-310l20 107h423zM986 1611l-1 -12l-98 1l-100 180l-167 -179l-98 -1l1 13l233 255h68z" />
<glyph unicode="&#x11d;" horiz-adv-x="976" d="M520 1102q88 -3 152 -47t97 -125l36 152h103l-189 -1108q-28 -200 -136 -305.5t-278 -100.5q-84 2 -164.5 44t-129.5 111l61 78q94 -126 231 -130q128 -4 205 72.5t100 224.5l32 166q-117 -159 -287 -155q-135 2 -206 105t-65 297q1 82 22 224q37 252 141 377t275 120z M199 488q-11 -108 -7 -171q10 -229 189 -232q168 -4 274 171l92 555q-48 178 -211 185q-262 9 -321 -384zM825 1269l-1 -12l-98 1l-100 180l-167 -179l-98 -1l1 13l233 255h68z" />
<glyph unicode="&#x11e;" horiz-adv-x="1189" d="M960 169q-74 -91 -191.5 -141t-251.5 -48q-178 2 -279 121.5t-107 324.5q-2 70 7 140l58 364q46 261 185 406t355 140q179 -4 276.5 -118t90.5 -314l-112 1q2 161 -65.5 240.5t-195.5 82.5q-164 5 -273 -108.5t-148 -332.5l-57 -362q-7 -52 -8 -107q-3 -172 69.5 -270.5 t208.5 -100.5q180 -4 323 120l67 379h-310l20 107h423zM1071 1835q-14 -121 -98.5 -191.5t-206.5 -66.5q-118 2 -189 72.5t-65 186.5l101 -1q-5 -79 34.5 -124t120.5 -47q85 -1 137 44.5t67 125.5z" />
<glyph unicode="&#x11f;" horiz-adv-x="976" d="M520 1102q88 -3 152 -47t97 -125l36 152h103l-189 -1108q-28 -200 -136 -305.5t-278 -100.5q-84 2 -164.5 44t-129.5 111l61 78q94 -126 231 -130q128 -4 205 72.5t100 224.5l32 166q-117 -159 -287 -155q-135 2 -206 105t-65 297q1 82 22 224q37 252 141 377t275 120z M199 488q-11 -108 -7 -171q10 -229 189 -232q168 -4 274 171l92 555q-48 178 -211 185q-262 9 -321 -384zM910 1492q-14 -121 -98.5 -191.5t-206.5 -66.5q-118 2 -189 72.5t-65 186.5l101 -1q-5 -79 34.5 -124t120.5 -47q85 -1 137 44.5t67 125.5z" />
<glyph unicode="&#x120;" horiz-adv-x="1189" d="M960 169q-74 -91 -191.5 -141t-251.5 -48q-178 2 -279 121.5t-107 324.5q-2 70 7 140l58 364q46 261 185 406t355 140q179 -4 276.5 -118t90.5 -314l-112 1q2 161 -65.5 240.5t-195.5 82.5q-164 5 -273 -108.5t-148 -332.5l-57 -362q-7 -52 -8 -107q-3 -172 69.5 -270.5 t208.5 -100.5q180 -4 323 120l67 379h-310l20 107h423zM695 1723q2 34 26.5 58t58.5 25q35 1 57.5 -23.5t19.5 -59.5q-2 -34 -26.5 -57t-59.5 -24t-56.5 22.5t-19.5 58.5z" />
<glyph unicode="&#x121;" horiz-adv-x="976" d="M520 1102q88 -3 152 -47t97 -125l36 152h103l-189 -1108q-28 -200 -136 -305.5t-278 -100.5q-84 2 -164.5 44t-129.5 111l61 78q94 -126 231 -130q128 -4 205 72.5t100 224.5l32 166q-117 -159 -287 -155q-135 2 -206 105t-65 297q1 82 22 224q37 252 141 377t275 120z M199 488q-11 -108 -7 -171q10 -229 189 -232q168 -4 274 171l92 555q-48 178 -211 185q-262 9 -321 -384zM534 1381q2 34 26.5 58t58.5 25q35 1 57.5 -23.5t19.5 -59.5q-2 -34 -26.5 -57t-59.5 -24t-56.5 22.5t-19.5 58.5z" />
<glyph unicode="&#x122;" horiz-adv-x="1189" d="M960 169q-74 -91 -191.5 -141t-251.5 -48q-178 2 -279 121.5t-107 324.5q-2 70 7 140l58 364q46 261 185 406t355 140q179 -4 276.5 -118t90.5 -314l-112 1q2 161 -65.5 240.5t-195.5 82.5q-164 5 -273 -108.5t-148 -332.5l-57 -362q-7 -52 -8 -107q-3 -172 69.5 -270.5 t208.5 -100.5q180 -4 323 120l67 379h-310l20 107h423zM360 -469l-61 54q75 105 96 214l16 91h106l-11 -69q-29 -181 -146 -290z" />
<glyph unicode="&#x123;" horiz-adv-x="976" d="M520 1102q88 -3 152 -47t97 -125l36 152h103l-189 -1108q-28 -200 -136 -305.5t-278 -100.5q-84 2 -164.5 44t-129.5 111l61 78q94 -126 231 -130q128 -4 205 72.5t100 224.5l32 166q-117 -159 -287 -155q-135 2 -206 105t-65 297q1 82 22 224q37 252 141 377t275 120z M199 488q-11 -108 -7 -171q10 -229 189 -232q168 -4 274 171l92 555q-48 178 -211 185q-262 9 -321 -384zM679 1638l65 -52q-61 -99 -81 -196l-22 -126h-109l21 133q21 125 126 241z" />
<glyph unicode="&#x124;" horiz-adv-x="1231" d="M950 0h-115l122 697h-661l-121 -697h-114l253 1456h114l-114 -653h661l113 653h115zM1005 1590l-1 -12l-98 1l-100 180l-167 -179l-98 -1l1 13l233 255h68z" />
<glyph unicode="&#x125;" horiz-adv-x="965" d="M300 912q134 193 304 190q210 -4 229 -262l2 -45l-6 -91l-118 -704h-109l117 706l5 65q7 223 -154 227q-90 2 -176 -72t-117 -174l-128 -752h-111l267 1536h111zM822 1589l-1 -12l-98 1l-100 180l-167 -179l-98 -1l1 13l233 255h68z" />
<glyph unicode="&#x126;" horiz-adv-x="1202" d="M1127 1124h118l-17 -98h-117l-179 -1026h-113l121 697h-659l-122 -697h-113l178 1026h-112l17 98h112l58 332h113l-58 -332h660l58 332h113zM298 803h660l39 223h-659z" />
<glyph unicode="&#x127;" horiz-adv-x="995" d="M632 1257h-238l-64 -345q134 193 304 190q210 -4 229 -262l2 -45l-6 -91l-118 -704h-109l117 706l5 65q7 223 -154 227q-90 2 -176 -72t-117 -174l-128 -752h-111l218 1257h-160l19 104h159l31 175h111l-33 -175h237z" />
<glyph unicode="&#x128;" horiz-adv-x="495" d="M195 0h-113l253 1456h113zM731 1816q-13 -100 -60.5 -158.5t-121.5 -58.5q-49 0 -111.5 56.5t-109.5 56.5q-66 -3 -96 -85l-11 -33l-81 3q13 98 61.5 157.5t121.5 57.5q35 0 61.5 -18t51 -39t50.5 -38t59 -17q79 0 109 121z" />
<glyph unicode="&#x129;" horiz-adv-x="428" d="M159 0h-110l188 1082h111zM642 1483q-13 -100 -60.5 -158.5t-121.5 -58.5q-49 0 -111.5 56.5t-109.5 56.5q-66 -3 -96 -85l-11 -33l-81 3q13 98 61.5 157.5t121.5 57.5q35 0 61.5 -18t51 -39t50.5 -38t59 -17q79 0 109 121z" />
<glyph unicode="&#x12a;" horiz-adv-x="495" d="M195 0h-113l253 1456h113zM707 1687h-556l16 99h556z" />
<glyph unicode="&#x12b;" horiz-adv-x="428" d="M159 0h-110l188 1082h111zM618 1354h-556l16 99h556z" />
<glyph unicode="&#x12c;" horiz-adv-x="495" d="M195 0h-113l253 1456h113zM733 1814q-14 -121 -98.5 -191.5t-206.5 -66.5q-118 2 -189 72.5t-65 186.5l101 -1q-5 -79 34.5 -124t120.5 -47q85 -1 137 44.5t67 125.5z" />
<glyph unicode="&#x12d;" horiz-adv-x="428" d="M159 0h-110l188 1082h111zM644 1481q-14 -121 -98.5 -191.5t-206.5 -66.5q-118 2 -189 72.5t-65 186.5l101 -1q-5 -79 34.5 -124t120.5 -47q85 -1 137 44.5t67 125.5z" />
<glyph unicode="&#x12e;" horiz-adv-x="495" d="M195 0h-113l253 1456h113zM190 2l-60 -52q-108 -96 -117 -186q-5 -76 50 -76q32 -1 89 30l4 -86q-53 -41 -116 -43q-60 0 -94 44t-32 119q6 156 225 291z" />
<glyph unicode="&#x12f;" horiz-adv-x="428" d="M161 0h-111l188 1082h111zM276 1394q5 66 77 83q74 -13 68 -83q-4 -64 -77 -82q-72 13 -68 82zM155 -2l-60 -52q-108 -96 -117 -186q-5 -76 50 -76q32 -1 89 30l4 -86q-53 -41 -116 -43q-60 0 -94 44t-32 119q6 156 225 291z" />
<glyph unicode="&#x130;" horiz-adv-x="495" d="M195 0h-113l253 1456h113zM356 1702q2 34 26.5 58t58.5 25q35 1 57.5 -23.5t19.5 -59.5q-2 -34 -26.5 -57t-59.5 -24t-56.5 22.5t-19.5 58.5z" />
<glyph unicode="&#x131;" horiz-adv-x="428" d="M159 0h-110l188 1082h111z" />
<glyph unicode="&#x132;" horiz-adv-x="1462" d="M195 0h-113l253 1456h113zM1339 1456h115l-175 -1023q-29 -209 -145.5 -334.5t-284.5 -120.5q-161 5 -241 119t-61 304h114q-6 -56 -1 -111q9 -96 59.5 -149t138.5 -56q118 -3 200.5 91t106.5 256z" />
<glyph unicode="&#x133;" horiz-adv-x="861" d="M161 0h-111l188 1082h111zM276 1394q5 66 77 83q74 -13 68 -83q-4 -64 -77 -82q-72 13 -68 82zM773 1082l-206 -1211q-21 -156 -93.5 -235t-186.5 -76q-37 1 -93 21l13 101q43 -14 74 -16q139 -3 174 199l207 1217h111zM775 1477q31 0 50.5 -22.5t17.5 -60.5 q-2 -31 -23 -56t-54 -26q-34 0 -51 24.5t-15 57.5t24 58t51 25z" />
<glyph unicode="&#x134;" horiz-adv-x="967" d="M844 1456h115l-175 -1023q-29 -209 -145.5 -334.5t-284.5 -120.5q-161 5 -241 119t-61 304h114q-6 -56 -1 -111q9 -96 59.5 -149t138.5 -56q118 -3 200.5 91t106.5 256zM1130 1568l-1 -12l-98 1l-100 180l-167 -179l-98 -1l1 13l233 255h68z" />
<glyph unicode="&#x135;" horiz-adv-x="437" d="M357 1082l-199 -1170q-24 -175 -103 -265t-202 -87q-43 2 -97 22l23 100q43 -17 81 -19q139 -3 182 219l205 1200h110zM560 1228l-1 -12l-98 1l-100 180l-167 -179l-98 -1l1 13l233 255h68z" />
<glyph unicode="&#x136;" horiz-adv-x="1100" d="M466 716l-202 -199l-89 -517h-114l253 1456h114l-134 -766l189 198l530 568h150l-611 -654l388 -802h-129zM336 -366l-61 54q75 105 96 214l16 91h106l-11 -69q-29 -181 -146 -290z" />
<glyph unicode="&#x137;" horiz-adv-x="871" d="M356 539l-135 -129l-71 -410h-112l267 1536h111l-168 -967l100 106l397 407h146l-454 -463l293 -619h-123zM236 -374l-61 54q75 105 96 214l16 91h106l-11 -69q-29 -181 -146 -290z" />
<glyph unicode="&#x138;" horiz-adv-x="959" d="M351 494h-108l-87 -494h-111l188 1082h112l-84 -479h95l437 479l142 -1l-486 -531l329 -550h-130z" />
<glyph unicode="&#x139;" horiz-adv-x="932" d="M194 106h583l-19 -106h-696l252 1456h115zM540 1806l151 -1l-269 -278h-112z" />
<glyph unicode="&#x13a;" horiz-adv-x="428" d="M161 0h-111l267 1536h111zM547 1919l151 -1l-269 -278h-112z" />
<glyph unicode="&#x13b;" horiz-adv-x="932" d="M194 106h583l-19 -106h-696l252 1456h115zM302 -455l-61 54q75 105 96 214l16 91h106l-11 -69q-29 -181 -146 -290z" />
<glyph unicode="&#x13c;" horiz-adv-x="428" d="M161 0h-111l267 1536h111zM-12 -455l-61 54q75 105 96 214l16 91h106l-11 -69q-29 -181 -146 -290z" />
<glyph unicode="&#x13d;" horiz-adv-x="932" d="M194 106h583l-19 -106h-696l252 1456h115zM624 1096l-61 54q75 105 96 214l16 91h106l-11 -69q-29 -181 -146 -290z" />
<glyph unicode="&#x13e;" horiz-adv-x="578" d="M161 0h-111l267 1536h111zM527 1177l-61 54q75 105 96 214l16 91h106l-11 -69q-29 -181 -146 -290z" />
<glyph unicode="&#x13f;" horiz-adv-x="932" d="M194 106h583l-19 -106h-696l252 1456h115zM533 776q2 34 26.5 58t58.5 25q35 1 57.5 -23.5t19.5 -59.5q-2 -34 -26.5 -57t-59.5 -24t-56.5 22.5t-19.5 58.5z" />
<glyph unicode="&#x140;" horiz-adv-x="648" d="M161 0h-111l267 1536h111zM403 787q2 34 26.5 58t58.5 25q35 1 57.5 -23.5t19.5 -59.5q-2 -34 -26.5 -57t-59.5 -24t-56.5 22.5t-19.5 58.5z" />
<glyph unicode="&#x141;" horiz-adv-x="933" d="M316 824l260 94l-17 -98l-260 -94l-108 -620h582l-19 -106h-695l118 680l-134 -47l17 98l134 47l117 678h115z" />
<glyph unicode="&#x142;" horiz-adv-x="483" d="M338 867l155 66l-18 -98l-154 -68l-134 -767h-110l124 713l-154 -65l18 98l153 67l126 723h110z" />
<glyph unicode="&#x143;" horiz-adv-x="1234" d="M953 0h-110l-451 1242l-216 -1242h-115l253 1456h111l452 -1244l216 1244h113zM934 1840l151 -1l-269 -278h-112z" />
<glyph unicode="&#x144;" horiz-adv-x="966" d="M332 1082l-35 -172q133 196 307 193q204 -4 228 -250l3 -58l-6 -91l-118 -704h-109l117 706l5 65q7 223 -155 227q-89 2 -175 -72t-117 -174l-128 -752h-111l188 1082h106zM756 1525l151 -1l-269 -278h-112z" />
<glyph unicode="&#x145;" horiz-adv-x="1234" d="M953 0h-110l-451 1242l-216 -1242h-115l253 1456h111l452 -1244l216 1244h113zM383 -455l-61 54q75 105 96 214l16 91h106l-11 -69q-29 -181 -146 -290z" />
<glyph unicode="&#x146;" horiz-adv-x="966" d="M332 1082l-35 -172q133 196 307 193q204 -4 228 -250l3 -58l-6 -91l-118 -704h-109l117 706l5 65q7 223 -155 227q-89 2 -175 -72t-117 -174l-128 -752h-111l188 1082h106zM259 -455l-61 54q75 105 96 214l16 91h106l-11 -69q-29 -181 -146 -290z" />
<glyph unicode="&#x147;" horiz-adv-x="1234" d="M953 0h-110l-451 1242l-216 -1242h-115l253 1456h111l452 -1244l216 1244h113zM786 1648l172 190l98 1l-1 -13l-235 -261h-77l-154 262v13l97 -1z" />
<glyph unicode="&#x148;" horiz-adv-x="966" d="M332 1082l-35 -172q133 196 307 193q204 -4 228 -250l3 -58l-6 -91l-118 -704h-109l117 706l5 65q7 223 -155 227q-89 2 -175 -72t-117 -174l-128 -752h-111l188 1082h106zM608 1332l172 190l98 1l-1 -13l-235 -261h-77l-154 262v13l97 -1z" />
<glyph unicode="&#x149;" horiz-adv-x="966" d="M332 1082l-35 -172q133 196 307 193q204 -4 228 -250l3 -58l-6 -91l-118 -704h-109l117 706l5 65q7 223 -155 227q-89 2 -175 -72t-117 -174l-128 -752h-111l188 1082h106zM146 1178l-61 54q75 105 96 214l16 91h106l-11 -69q-29 -181 -146 -290z" />
<glyph unicode="&#x14a;" horiz-adv-x="1215" d="M1195 1456l-264 -1542q-24 -175 -103.5 -265.5t-203.5 -87.5q-41 0 -99 21l22 103q45 -18 84 -18q144 -3 185 240l15 93l-444 1237l-215 -1237h-114l253 1456h110l445 -1235l215 1235h114z" />
<glyph unicode="&#x14b;" horiz-adv-x="981" d="M327 1082l-30 -177q120 201 303 198q122 -4 182 -94t56 -252l-7 -97l-122 -749q-24 -171 -103 -262t-201 -89q-49 2 -108 22l25 105q47 -17 90 -19q146 -3 185 237l122 755q10 83 7 144q-10 190 -158 193q-96 2 -175.5 -60t-107.5 -151l-134 -786h-111l188 1082h99z" />
<glyph unicode="&#x14c;" horiz-adv-x="1182" d="M492 -20q-175 4 -274 122.5t-102 328.5q-1 70 8 139l48 303q47 297 192.5 452.5t360.5 150.5q117 -3 201 -57.5t127.5 -159t45.5 -236.5q1 -70 -8 -139l-51 -319q-32 -194 -109 -327t-188 -197t-251 -61zM977 888q7 52 9 108q3 176 -65 271t-204 99q-172 5 -283 -122 t-148 -364l-50 -325l-6 -93q-6 -173 63.5 -271.5t205.5 -102.5q165 -5 274.5 111.5t149.5 344.5zM1050 1692h-556l16 99h556z" />
<glyph unicode="&#x14d;" horiz-adv-x="985" d="M560 1103q147 -4 229 -107.5t85 -282.5q2 -91 -20 -234q-36 -238 -156.5 -371.5t-301.5 -128.5q-135 4 -216.5 93t-96.5 256l-2 40q-3 81 20.5 235.5t85 267.5t156 174t217.5 58zM192 398q-3 -148 51.5 -230t160.5 -86q130 -5 218.5 94.5t119.5 293.5l17 127l5 85 q3 145 -51.5 229t-160.5 88q-134 5 -225 -107t-117 -310l-16 -127zM882 1365h-556l16 99h556z" />
<glyph unicode="&#x14e;" horiz-adv-x="1182" d="M492 -20q-175 4 -274 122.5t-102 328.5q-1 70 8 139l48 303q47 297 192.5 452.5t360.5 150.5q117 -3 201 -57.5t127.5 -159t45.5 -236.5q1 -70 -8 -139l-51 -319q-32 -194 -109 -327t-188 -197t-251 -61zM977 888q7 52 9 108q3 176 -65 271t-204 99q-172 5 -283 -122 t-148 -364l-50 -325l-6 -93q-6 -173 63.5 -271.5t205.5 -102.5q165 -5 274.5 111.5t149.5 344.5zM1076 1819q-14 -121 -98.5 -191.5t-206.5 -66.5q-118 2 -189 72.5t-65 186.5l101 -1q-5 -79 34.5 -124t120.5 -47q85 -1 137 44.5t67 125.5z" />
<glyph unicode="&#x14f;" horiz-adv-x="985" d="M560 1103q147 -4 229 -107.5t85 -282.5q2 -91 -20 -234q-36 -238 -156.5 -371.5t-301.5 -128.5q-135 4 -216.5 93t-96.5 256l-2 40q-3 81 20.5 235.5t85 267.5t156 174t217.5 58zM192 398q-3 -148 51.5 -230t160.5 -86q130 -5 218.5 94.5t119.5 293.5l17 127l5 85 q3 145 -51.5 229t-160.5 88q-134 5 -225 -107t-117 -310l-16 -127zM908 1492q-14 -121 -98.5 -191.5t-206.5 -66.5q-118 2 -189 72.5t-65 186.5l101 -1q-5 -79 34.5 -124t120.5 -47q85 -1 137 44.5t67 125.5z" />
<glyph unicode="&#x150;" horiz-adv-x="1182" d="M492 -20q-175 4 -274 122.5t-102 328.5q-1 70 8 139l48 303q47 297 192.5 452.5t360.5 150.5q117 -3 201 -57.5t127.5 -159t45.5 -236.5q1 -70 -8 -139l-51 -319q-32 -194 -109 -327t-188 -197t-251 -61zM977 888q7 52 9 108q3 176 -65 271t-204 99q-172 5 -283 -122 t-148 -364l-50 -325l-6 -93q-6 -173 63.5 -271.5t205.5 -102.5q165 -5 274.5 111.5t149.5 344.5zM1036 1861h138l-279 -303h-117zM779 1861h132l-240 -302h-105z" />
<glyph unicode="&#x151;" horiz-adv-x="985" d="M560 1103q147 -4 229 -107.5t85 -282.5q2 -91 -20 -234q-36 -238 -156.5 -371.5t-301.5 -128.5q-135 4 -216.5 93t-96.5 256l-2 40q-3 81 20.5 235.5t85 267.5t156 174t217.5 58zM192 398q-3 -148 51.5 -230t160.5 -86q130 -5 218.5 94.5t119.5 293.5l17 127l5 85 q3 145 -51.5 229t-160.5 88q-134 5 -225 -107t-117 -310l-16 -127zM868 1535h138l-279 -303h-117zM611 1535h132l-240 -302h-105z" />
<glyph unicode="&#x152;" horiz-adv-x="1613" d="M1384 0h-682l-194 -18h-58q-165 4 -258 129.5t-96 333.5q-1 73 9 137l46 292q44 277 186 440.5t350 163.5l56 -2l197 -20h693l-20 -108h-625l-95 -545h548l-19 -106h-547l-103 -591h631zM455 85q79 -3 200 11l222 1263q-89 15 -194 17q-165 0 -274.5 -131.5 t-147.5 -375.5l-46 -294l-8 -100q-4 -108 21.5 -198.5t84 -139.5t142.5 -52z" />
<glyph unicode="&#x153;" horiz-adv-x="1585" d="M87 550q21 164 91 296.5t167 195.5t215 60q112 -4 193 -74t108 -185q158 266 361 260q95 -2 155 -47q113 -85 130 -258q7 -81 -2 -159l-15 -103h-612l-5 -27q-6 -38 -7 -83q-3 -159 51.5 -248.5t156.5 -93.5q154 -6 281 117l39 -86q-124 -138 -326 -134q-103 2 -185.5 71 t-110.5 183q-73 -129 -170 -194t-208 -62q-147 4 -229.5 117t-85.5 304q-1 53 8 150zM195 517l-5 -86q-7 -156 48.5 -250.5t163.5 -98.5q158 -6 257 157t107 406q2 95 -19.5 177.5t-71.5 128t-123 48.5q-139 5 -234 -125t-123 -357zM1214 999q-103 4 -185 -84.5t-137 -274.5 h503q11 82 7 138q-7 97 -56.5 157.5t-131.5 63.5z" />
<glyph unicode="&#x154;" horiz-adv-x="1102" d="M609 606h-330l-105 -606h-115l253 1456l380 -1q175 -6 267 -120t73 -300q-14 -146 -97 -252.5t-214 -153.5l188 -616l-1 -13h-122zM297 712l289 -2q136 2 225.5 93.5t106.5 232.5q15 136 -44.5 220.5t-184.5 90.5l-281 1zM837 1840l151 -1l-269 -278h-112z" />
<glyph unicode="&#x155;" horiz-adv-x="610" d="M625 980q-45 8 -68 8q-92 2 -172 -66.5t-109 -173.5l-127 -748h-111l188 1082h109l-35 -162q111 192 271 185q23 -1 70 -15zM621 1525l151 -1l-269 -278h-112z" />
<glyph unicode="&#x156;" horiz-adv-x="1102" d="M609 606h-330l-105 -606h-115l253 1456l380 -1q175 -6 267 -120t73 -300q-14 -146 -97 -252.5t-214 -153.5l188 -616l-1 -13h-122zM297 712l289 -2q136 2 225.5 93.5t106.5 232.5q15 136 -44.5 220.5t-184.5 90.5l-281 1zM291 -455l-61 54q75 105 96 214l16 91h106 l-11 -69q-29 -181 -146 -290z" />
<glyph unicode="&#x157;" horiz-adv-x="610" d="M625 980q-45 8 -68 8q-92 2 -172 -66.5t-109 -173.5l-127 -748h-111l188 1082h109l-35 -162q111 192 271 185q23 -1 70 -15zM-19 -451l-61 54q75 105 96 214l16 91h106l-11 -69q-29 -181 -146 -290z" />
<glyph unicode="&#x158;" horiz-adv-x="1102" d="M609 606h-330l-105 -606h-115l253 1456l380 -1q175 -6 267 -120t73 -300q-14 -146 -97 -252.5t-214 -153.5l188 -616l-1 -13h-122zM297 712l289 -2q136 2 225.5 93.5t106.5 232.5q15 136 -44.5 220.5t-184.5 90.5l-281 1zM689 1648l172 190l98 1l-1 -13l-235 -261h-77 l-154 262v13l97 -1z" />
<glyph unicode="&#x159;" horiz-adv-x="610" d="M625 980q-45 8 -68 8q-92 2 -172 -66.5t-109 -173.5l-127 -748h-111l188 1082h109l-35 -162q111 192 271 185q23 -1 70 -15zM474 1332l172 190l98 1l-1 -13l-235 -261h-77l-154 262v13l97 -1z" />
<glyph unicode="&#x15a;" horiz-adv-x="1037" d="M796 366q13 106 -41 180t-212.5 137.5t-235.5 147.5q-97 105 -84 260q13 168 141 278.5t310 106.5q172 -4 268.5 -127.5t79.5 -308.5h-114q14 145 -50 234.5t-192 93.5q-133 2 -224.5 -76t-104.5 -199q-11 -99 46.5 -171t202 -128t220.5 -129q120 -115 105 -297 q-15 -174 -145.5 -283.5t-316.5 -105.5t-292 126.5t-88 310.5h112q-14 -147 59 -237t215 -94q133 -2 229 74t112 207zM854 1851l151 -1l-269 -278h-112z" />
<glyph unicode="&#x15b;" horiz-adv-x="897" d="M615 274q15 109 -132 194l-57 31l-100 56q-164 97 -154 251q7 127 106 212.5t242 83.5q142 -4 220 -91.5t68 -225.5h-110q6 94 -44 152t-140 60q-91 2 -157 -50t-77 -137q-12 -99 110 -169l175 -97q171 -102 161 -264q-9 -136 -112 -220t-252 -80q-144 2 -231.5 88.5 t-77.5 227.5l111 -1q-4 -100 49 -155.5t154 -56.5q99 0 168 52t80 139zM717 1525l151 -1l-269 -278h-112z" />
<glyph unicode="&#x15c;" horiz-adv-x="1037" d="M796 366q13 106 -41 180t-212.5 137.5t-235.5 147.5q-97 105 -84 260q13 168 141 278.5t310 106.5q172 -4 268.5 -127.5t79.5 -308.5h-114q14 145 -50 234.5t-192 93.5q-133 2 -224.5 -76t-104.5 -199q-11 -99 46.5 -171t202 -128t220.5 -129q120 -115 105 -297 q-15 -174 -145.5 -283.5t-316.5 -105.5t-292 126.5t-88 310.5h112q-14 -147 59 -237t215 -94q133 -2 229 74t112 207zM935 1595l-1 -12l-98 1l-100 180l-167 -179l-98 -1l1 13l233 255h68z" />
<glyph unicode="&#x15d;" horiz-adv-x="897" d="M615 274q15 109 -132 194l-57 31l-100 56q-164 97 -154 251q7 127 106 212.5t242 83.5q142 -4 220 -91.5t68 -225.5h-110q6 94 -44 152t-140 60q-91 2 -157 -50t-77 -137q-12 -99 110 -169l175 -97q171 -102 161 -264q-9 -136 -112 -220t-252 -80q-144 2 -231.5 88.5 t-77.5 227.5l111 -1q-4 -100 49 -155.5t154 -56.5q99 0 168 52t80 139zM798 1269l-1 -12l-98 1l-100 180l-167 -179l-98 -1l1 13l233 255h68z" />
<glyph unicode="&#x15e;" horiz-adv-x="1037" d="M796 366q13 106 -41 180t-212.5 137.5t-235.5 147.5q-97 105 -84 260q13 168 141 278.5t310 106.5q172 -4 268.5 -127.5t79.5 -308.5h-114q14 145 -50 234.5t-192 93.5q-133 2 -224.5 -76t-104.5 -199q-11 -99 46.5 -171t202 -128t220.5 -129q120 -115 105 -297 q-15 -174 -145.5 -283.5t-316.5 -105.5t-292 126.5t-88 310.5h112q-14 -147 59 -237t215 -94q133 -2 229 74t112 207zM471 -4l-21 -66q112 -26 107 -162q-5 -96 -77.5 -150.5t-194.5 -59.5v81q76 3 124.5 36.5t55.5 90.5q10 75 -72 93l-49 9l42 128h85z" />
<glyph unicode="&#x15f;" horiz-adv-x="897" d="M615 274q15 109 -132 194l-57 31l-100 56q-164 97 -154 251q7 127 106 212.5t242 83.5q142 -4 220 -91.5t68 -225.5h-110q6 94 -44 152t-140 60q-91 2 -157 -50t-77 -137q-12 -99 110 -169l175 -97q171 -102 161 -264q-9 -136 -112 -220t-252 -80q-144 2 -231.5 88.5 t-77.5 227.5l111 -1q-4 -100 49 -155.5t154 -56.5q99 0 168 52t80 139zM409 -6l-21 -66q112 -26 107 -162q-5 -96 -77.5 -150.5t-194.5 -59.5v81q76 3 124.5 36.5t55.5 90.5q10 75 -72 93l-49 9l42 128h85z" />
<glyph unicode="&#x160;" horiz-adv-x="1037" d="M796 366q13 106 -41 180t-212.5 137.5t-235.5 147.5q-97 105 -84 260q13 168 141 278.5t310 106.5q172 -4 268.5 -127.5t79.5 -308.5h-114q14 145 -50 234.5t-192 93.5q-133 2 -224.5 -76t-104.5 -199q-11 -99 46.5 -171t202 -128t220.5 -129q120 -115 105 -297 q-15 -174 -145.5 -283.5t-316.5 -105.5t-292 126.5t-88 310.5h112q-14 -147 59 -237t215 -94q133 -2 229 74t112 207zM706 1659l172 190l98 1l-1 -13l-235 -261h-77l-154 262v13l97 -1z" />
<glyph unicode="&#x161;" horiz-adv-x="897" d="M615 274q15 109 -132 194l-57 31l-100 56q-164 97 -154 251q7 127 106 212.5t242 83.5q142 -4 220 -91.5t68 -225.5h-110q6 94 -44 152t-140 60q-91 2 -157 -50t-77 -137q-12 -99 110 -169l175 -97q171 -102 161 -264q-9 -136 -112 -220t-252 -80q-144 2 -231.5 88.5 t-77.5 227.5l111 -1q-4 -100 49 -155.5t154 -56.5q99 0 168 52t80 139zM569 1332l172 190l98 1l-1 -13l-235 -261h-77l-154 262v13l97 -1z" />
<glyph unicode="&#x162;" horiz-adv-x="1045" d="M1106 1348h-401l-234 -1348h-115l234 1348h-401l20 108h916zM457 0l-21 -66q112 -26 107 -162q-5 -96 -77.5 -150.5t-194.5 -59.5v81q76 3 124.5 36.5t55.5 90.5q10 75 -72 93l-49 9l42 128h85z" />
<glyph unicode="&#x163;" horiz-adv-x="586" d="M439 1358l-48 -276h179l-17 -100h-179l-120 -720l-4 -53q-4 -117 78 -119l78 7l-7 -100q-48 -17 -100 -15q-74 1 -113 50.5t-43 137.5q-2 49 2 94l118 718h-162l17 100h162l49 276h110zM314 0l-21 -66q112 -26 107 -162q-5 -96 -77.5 -150.5t-194.5 -59.5v81 q76 3 124.5 36.5t55.5 90.5q10 75 -72 93l-49 9l42 128h85z" />
<glyph unicode="&#x164;" horiz-adv-x="1045" d="M1106 1348h-401l-234 -1348h-115l234 1348h-401l20 108h916zM691 1644l172 190l98 1l-1 -13l-235 -261h-77l-154 262v13l97 -1z" />
<glyph unicode="&#x165;" horiz-adv-x="626" d="M439 1358l-48 -276h179l-17 -100h-179l-120 -720l-4 -53q-4 -117 78 -119l78 7l-7 -100q-48 -17 -100 -15q-74 1 -113 50.5t-43 137.5q-2 49 2 94l118 718h-162l17 100h162l49 276h110zM591 1249l-61 54q75 105 96 214l16 91h106l-11 -69q-29 -181 -146 -290z" />
<glyph unicode="&#x166;" horiz-adv-x="1045" d="M809 834h-193l-145 -834h-115l145 834h-198l19 104h197l71 410h-401l20 108h916l-19 -108h-401l-71 -410h193z" />
<glyph unicode="&#x167;" horiz-adv-x="586" d="M534 617h-221l-59 -355l-4 -53q-4 -117 78 -119l78 7l-7 -100q-48 -17 -100 -15q-74 1 -113 50.5t-43 137.5q-2 49 2 94l58 353h-175l19 104h173l43 261h-162l17 100h162l49 276h110l-48 -276h179l-17 -100h-179l-44 -261h222z" />
<glyph unicode="&#x168;" horiz-adv-x="1143" d="M1142 1456l-175 -1026q-30 -216 -161 -336.5t-329 -114.5q-124 2 -209.5 58.5t-122 158t-21.5 233.5l175 1027h113l-174 -1028q-18 -160 46 -249t201 -93q151 -6 247.5 85t120.5 257l174 1028h115zM1059 1810q-13 -100 -60.5 -158.5t-121.5 -58.5q-49 0 -111.5 56.5 t-109.5 56.5q-66 -3 -96 -85l-11 -33l-81 3q13 98 61.5 157.5t121.5 57.5q35 0 61.5 -18t51 -39t50.5 -38t59 -17q79 0 109 121z" />
<glyph unicode="&#x169;" horiz-adv-x="966" d="M631 128q-113 -153 -295 -149q-112 2 -173 82t-61 236l5 92l116 693h110l-116 -696q-5 -43 -4 -94q0 -94 38 -149.5t109 -57.5q98 -4 181 54.5t110 149.5l136 793h111l-187 -1082h-108zM917 1495q-13 -100 -60.5 -158.5t-121.5 -58.5q-49 0 -111.5 56.5t-109.5 56.5 q-66 -3 -96 -85l-11 -33l-81 3q13 98 61.5 157.5t121.5 57.5q35 0 61.5 -18t51 -39t50.5 -38t59 -17q79 0 109 121z" />
<glyph unicode="&#x16a;" horiz-adv-x="1143" d="M1142 1456l-175 -1026q-30 -216 -161 -336.5t-329 -114.5q-124 2 -209.5 58.5t-122 158t-21.5 233.5l175 1027h113l-174 -1028q-18 -160 46 -249t201 -93q151 -6 247.5 85t120.5 257l174 1028h115zM1035 1681h-556l16 99h556z" />
<glyph unicode="&#x16b;" horiz-adv-x="966" d="M631 128q-113 -153 -295 -149q-112 2 -173 82t-61 236l5 92l116 693h110l-116 -696q-5 -43 -4 -94q0 -94 38 -149.5t109 -57.5q98 -4 181 54.5t110 149.5l136 793h111l-187 -1082h-108zM893 1366h-556l16 99h556z" />
<glyph unicode="&#x16c;" horiz-adv-x="1143" d="M1142 1456l-175 -1026q-30 -216 -161 -336.5t-329 -114.5q-124 2 -209.5 58.5t-122 158t-21.5 233.5l175 1027h113l-174 -1028q-18 -160 46 -249t201 -93q151 -6 247.5 85t120.5 257l174 1028h115zM1061 1808q-14 -121 -98.5 -191.5t-206.5 -66.5q-118 2 -189 72.5 t-65 186.5l101 -1q-5 -79 34.5 -124t120.5 -47q85 -1 137 44.5t67 125.5z" />
<glyph unicode="&#x16d;" horiz-adv-x="966" d="M631 128q-113 -153 -295 -149q-112 2 -173 82t-61 236l5 92l116 693h110l-116 -696q-5 -43 -4 -94q0 -94 38 -149.5t109 -57.5q98 -4 181 54.5t110 149.5l136 793h111l-187 -1082h-108zM919 1493q-14 -121 -98.5 -191.5t-206.5 -66.5q-118 2 -189 72.5t-65 186.5l101 -1 q-5 -79 34.5 -124t120.5 -47q85 -1 137 44.5t67 125.5z" />
<glyph unicode="&#x16e;" horiz-adv-x="1143" d="M1142 1456l-175 -1026q-30 -216 -161 -336.5t-329 -114.5q-124 2 -209.5 58.5t-122 158t-21.5 233.5l175 1027h113l-174 -1028q-18 -160 46 -249t201 -93q151 -6 247.5 85t120.5 257l174 1028h115zM580 1708q2 81 60 141t141 60q74 0 125.5 -54t49.5 -131 q-2 -80 -60.5 -138t-140.5 -58q-75 0 -126 51.5t-49 128.5zM657 1710q-4 -48 23.5 -78.5t71.5 -30.5q47 0 84.5 35t43.5 86q4 49 -23 81t-73 32q-48 0 -85.5 -37.5t-41.5 -87.5z" />
<glyph unicode="&#x16f;" horiz-adv-x="966" d="M631 128q-113 -153 -295 -149q-112 2 -173 82t-61 236l5 92l116 693h110l-116 -696q-5 -43 -4 -94q0 -94 38 -149.5t109 -57.5q98 -4 181 54.5t110 149.5l136 793h111l-187 -1082h-108zM438 1393q2 81 60 141t141 60q74 0 125.5 -54t49.5 -131q-2 -80 -60.5 -138 t-140.5 -58q-75 0 -126 51.5t-49 128.5zM515 1395q-4 -48 23.5 -78.5t71.5 -30.5q47 0 84.5 35t43.5 86q4 49 -23 81t-73 32q-48 0 -85.5 -37.5t-41.5 -87.5z" />
<glyph unicode="&#x170;" horiz-adv-x="1143" d="M1142 1456l-175 -1026q-30 -216 -161 -336.5t-329 -114.5q-124 2 -209.5 58.5t-122 158t-21.5 233.5l175 1027h113l-174 -1028q-18 -160 46 -249t201 -93q151 -6 247.5 85t120.5 257l174 1028h115zM1021 1850h138l-279 -303h-117zM764 1850h132l-240 -302h-105z" />
<glyph unicode="&#x171;" horiz-adv-x="966" d="M631 128q-113 -153 -295 -149q-112 2 -173 82t-61 236l5 92l116 693h110l-116 -696q-5 -43 -4 -94q0 -94 38 -149.5t109 -57.5q98 -4 181 54.5t110 149.5l136 793h111l-187 -1082h-108zM879 1535h138l-279 -303h-117zM622 1535h132l-240 -302h-105z" />
<glyph unicode="&#x172;" horiz-adv-x="1143" d="M1142 1456l-175 -1026q-23 -162 -105 -273.5t-208 -153.5q-130 -108 -139 -205q-5 -76 50 -76q32 -1 89 30l4 -86q-53 -41 -116 -43q-60 0 -94 44t-32 119q3 101 96 194l-35 -1q-124 2 -209.5 58.5t-122 158t-21.5 233.5l175 1027h113l-174 -1028q-18 -160 46 -249 t201 -93q151 -6 247.5 85t120.5 257l174 1028h115z" />
<glyph unicode="&#x173;" horiz-adv-x="966" d="M701 0l3 -2l-60 -52q-108 -96 -117 -186q-5 -76 50 -76q32 -1 89 30l4 -86q-53 -41 -116 -43q-60 0 -94 44t-32 119q7 142 176 260l27 120q-113 -153 -295 -149q-112 2 -173 82t-61 236l5 92l116 693h110l-116 -696q-5 -43 -4 -94q0 -94 38 -149.5t109 -57.5 q98 -4 181 54.5t110 149.5l136 793h111l-187 -1082h-10z" />
<glyph unicode="&#x174;" horiz-adv-x="1542" d="M362 393l-1 -204l74 201l419 1066h102l82 -1075l8 -196l70 214l374 1057h118l-529 -1456h-108l-87 1139l-6 124l-47 -128l-447 -1135h-109l-72 1456h113zM1160 1584l-1 -12l-98 1l-100 180l-167 -179l-98 -1l1 13l233 255h68z" />
<glyph unicode="&#x175;" horiz-adv-x="1306" d="M302 246l-4 -61l24 66l358 831h93l70 -829v-72l26 74l324 827h117l-446 -1082h-92l-77 860v27l-8 -28l-373 -859h-95l-66 1082h103zM992 1269l-1 -12l-98 1l-100 180l-167 -179l-98 -1l1 13l233 255h68z" />
<glyph unicode="&#x176;" horiz-adv-x="1048" d="M526 667l489 789h136l-587 -915l-94 -541h-114l97 555l-265 901h127zM922 1578l-1 -12l-98 1l-100 180l-167 -179l-98 -1l1 13l233 255h68z" />
<glyph unicode="&#x177;" horiz-adv-x="841" d="M349 188l405 894h122l-585 -1256q-61 -144 -131.5 -205.5t-157.5 -60.5q-30 0 -86 16l12 101l50 -8q128 -6 208 154l86 192l-144 1067h117zM786 1269l-1 -12l-98 1l-100 180l-167 -179l-98 -1l1 13l233 255h68z" />
<glyph unicode="&#x178;" horiz-adv-x="1048" d="M526 667l489 789h136l-587 -915l-94 -541h-114l97 555l-265 901h127zM423 1704q2 34 26 58t59 25q35 0 57.5 -24t19.5 -59q-2 -34 -26.5 -57t-58.5 -24q-35 -1 -57 22.5t-20 58.5zM847 1703q2 34 26 58t59 25t57 -23.5t20 -59.5q-2 -34 -26.5 -57t-59.5 -24q-34 0 -56 23 t-20 58z" />
<glyph unicode="&#x179;" horiz-adv-x="1047" d="M141 106h723l-19 -106h-858l18 101l911 1248h-676l19 107h813l-17 -97zM842 1840l151 -1l-269 -278h-112z" />
<glyph unicode="&#x17a;" horiz-adv-x="864" d="M137 103h564l-19 -103h-697l17 96l679 881h-512l18 105h650l-17 -97zM705 1525l151 -1l-269 -278h-112z" />
<glyph unicode="&#x17b;" horiz-adv-x="1047" d="M141 106h723l-19 -106h-858l18 101l911 1248h-676l19 107h813l-17 -97zM632 1696q2 34 26.5 58t58.5 25q35 1 57.5 -23.5t19.5 -59.5q-2 -34 -26.5 -57t-59.5 -24t-56.5 22.5t-19.5 58.5z" />
<glyph unicode="&#x17c;" horiz-adv-x="864" d="M137 103h564l-19 -103h-697l17 96l679 881h-512l18 105h650l-17 -97zM495 1381q2 34 26.5 58t58.5 25q35 1 57.5 -23.5t19.5 -59.5q-2 -34 -26.5 -57t-59.5 -24t-56.5 22.5t-19.5 58.5z" />
<glyph unicode="&#x17d;" horiz-adv-x="1047" d="M141 106h723l-19 -106h-858l18 101l911 1248h-676l19 107h813l-17 -97zM694 1648l172 190l98 1l-1 -13l-235 -261h-77l-154 262v13l97 -1z" />
<glyph unicode="&#x17e;" horiz-adv-x="864" d="M137 103h564l-19 -103h-697l17 96l679 881h-512l18 105h650l-17 -97zM557 1333l172 190l98 1l-1 -13l-235 -261h-77l-154 262v13l97 -1z" />
<glyph unicode="&#x17f;" horiz-adv-x="434" d="M49 0l206 1215q24 170 104.5 259t203.5 87q52 -2 118 -20l-23 -100q-42 16 -85 16q-82 0 -136 -63t-70 -179l-208 -1215h-110z" />
<glyph unicode="&#x18f;" horiz-adv-x="1214" d="M510 -20q-187 4 -292 132.5t-108 355.5q-1 75 9 148l20 123h855l12 65q9 59 12 123q6 205 -74 320t-237 119q-174 4 -349 -116l-23 94q59 58 147 92q106 41 230 39q129 -1 223.5 -64.5t144.5 -184t51 -269.5q0 -146 -40.5 -341.5t-128 -343.5t-202.5 -221.5t-250 -70.5z M517 86q165 -5 285.5 138.5t180.5 411.5h-746l-9 -53q-8 -55 -8 -113q-3 -174 75 -277t222 -107z" />
<glyph unicode="&#x192;" horiz-adv-x="599" d="M570 982h-191l-164 -1071q-21 -174 -100.5 -264t-200.5 -87q-42 2 -96 22l22 100q45 -18 81 -18q150 -3 183 247l164 1071h-146l16 100h146l18 140q22 162 100.5 250.5t202.5 86.5q43 0 119 -21l-24 -100q-49 15 -90 15q-159 0 -196 -225l-20 -146h192z" />
<glyph unicode="&#x1a0;" horiz-adv-x="1209" d="M493 -21q-166 4 -261.5 126.5t-108.5 342.5l-1 59q0 121 37 324t119.5 352t196.5 222.5t252 70.5q105 -2 187.5 -54t133.5 -143q153 21 196 192l20 94l100 1q-23 -175 -91.5 -263.5t-187.5 -113.5q17 -96 17 -192q-1 -138 -43.5 -372t-143.5 -396.5t-250 -221.5 q-78 -31 -172 -28zM985 920q10 205 -57.5 322t-208.5 123q-175 7 -293.5 -147t-160.5 -430l-25 -169l-6 -80q-10 -206 59 -326.5t207 -124.5q173 -7 292 144.5t162 436.5l24 161z" />
<glyph unicode="&#x1a1;" horiz-adv-x="986" d="M83 549q21 162 91 294.5t168.5 197t218.5 61.5q168 -4 265 -146q124 20 158 156l18 85l90 1q-21 -153 -76.5 -225.5t-151.5 -96.5q19 -79 21 -158q1 -79 -9 -160l-5 -33q-20 -154 -90.5 -287.5t-169.5 -197.5t-216 -61q-147 4 -231 116.5t-88 303.5q-2 56 7 150zM189 517 l-5 -87q-3 -161 54 -252.5t164 -95.5q160 -6 261.5 160.5t106.5 403.5q3 162 -53.5 255.5t-164.5 97.5q-140 5 -237.5 -125.5t-125.5 -356.5z" />
<glyph unicode="&#x1af;" horiz-adv-x="1190" d="M1142 1456l-29 -215q162 21 205 201l20 101l93 1q-28 -202 -111 -293t-227 -102l-118 -680q-20 -144 -88 -257.5t-174 -175t-235 -57.5q-174 5 -268 128t-80 328l3 34l168 987h113l-167 -988q-8 -67 -1 -134q12 -113 75 -179t167 -70q145 -5 246 99.5t127 284.5l169 987 h112z" />
<glyph unicode="&#x1b0;" horiz-adv-x="1037" d="M1139 1179q-22 -166 -88 -236t-187 -80l-152 -863h-108l28 128q-112 -153 -295 -149q-114 2 -175 84.5t-59 233.5l5 92l116 693h110l-116 -696q-5 -43 -4 -94q0 -94 38 -149.5t109 -57.5q98 -4 180.5 53.5t110.5 150.5l136 793h111l-27 -136q131 15 164 146l18 87h85z " />
<glyph unicode="&#x1f0;" horiz-adv-x="437" d="M357 1082l-199 -1170q-24 -175 -103 -265t-202 -87q-43 2 -97 22l23 100q43 -17 81 -19q139 -3 182 219l205 1200h110zM331 1292l172 190l98 1l-1 -13l-235 -261h-77l-154 262v13l97 -1z" />
<glyph unicode="&#x1fa;" d="M777 407h-527l-192 -407h-122l703 1456h106l197 -1456h-114zM300 514h463l-96 776zM873 1929h130l-201 -185h-88zM583 1531q2 65 41.5 113.5t94.5 48.5q52 2 87.5 -44t33.5 -106q-2 -63 -39.5 -109.5t-94.5 -48.5q-54 -2 -89.5 43.5t-33.5 102.5zM642 1533 q-4 -29 11.5 -55.5t44.5 -26.5t53 26.5t29 63.5q2 13 0 28q-8 58 -53 58q-30 0 -55 -28t-30 -66z" />
<glyph unicode="&#x1fb;" horiz-adv-x="945" d="M604 0q-4 38 0 75l9 75q-133 -175 -311 -171q-128 2 -194 84.5t-56 212.5q11 164 136 259.5t315 95.5l184 -1l22 152q11 100 -32.5 157.5t-147.5 59.5q-98 2 -168.5 -57t-91.5 -158l-109 1q20 140 126.5 230t253.5 88q144 -2 218 -88t60 -236l-91 -552q-9 -56 -9 -108 l2 -107l-2 -12h-114zM322 85q93 -2 172.5 48.5t131.5 139.5l45 264l-154 1q-151 0 -245 -67.5t-106 -185.5q-9 -93 31.5 -145.5t124.5 -54.5zM763 1615h130l-201 -185h-88zM473 1217q2 65 41.5 113.5t94.5 48.5q52 2 87.5 -44t33.5 -106q-2 -63 -39.5 -109.5t-94.5 -48.5 q-54 -2 -89.5 43.5t-33.5 102.5zM532 1219q-4 -29 11.5 -55.5t44.5 -26.5t53 26.5t29 63.5q2 13 0 28q-8 58 -53 58q-30 0 -55 -28t-30 -66z" />
<glyph unicode="&#x1fc;" horiz-adv-x="1576" d="M1411 0h-679l54 388h-472l-253 -388h-142l971 1456h724l-19 -104h-565l-76 -542h481l-18 -104h-476l-85 -603h573zM387 503h415l113 809zM1118 1846l151 -1l-269 -278h-112z" />
<glyph unicode="&#x1fd;" horiz-adv-x="1459" d="M960 -19q-102 2 -180 54t-114 147q-66 -96 -162.5 -150.5t-214.5 -52.5q-123 2 -191.5 86.5t-57.5 220.5q11 159 122 253t288 94l210 -1l12 89q5 45 3 93l-2 20q-20 160 -153 165q-103 2 -174 -61t-93 -172l-106 12q20 149 127.5 239t255.5 86q100 -4 165.5 -58 t83.5 -146q142 207 323 204q123 -3 196.5 -84.5t85.5 -221.5q7 -82 -2 -160l-15 -101h-609l-5 -27l-8 -88q-6 -156 52 -245.5t169 -91.5q82 -2 150.5 31.5t130.5 84.5l32 -90q-123 -133 -319 -129zM313 81q69 -2 141.5 36.5t137.5 113.5l52 303l-195 2q-121 -2 -203 -71 t-94 -183q-9 -89 33.5 -144t127.5 -57zM1094 999q-106 4 -187 -82.5t-137 -280.5h502q10 64 11 105q0 116 -47.5 185t-141.5 73zM988 1525l151 -1l-269 -278h-112z" />
<glyph unicode="&#x1fe;" horiz-adv-x="1182" d="M490 -21q-145 4 -249 96l-107 -158h-101l157 219q-84 165 -72 383q6 124 40.5 314.5t107.5 328.5q168 320 460 314q176 -4 283 -137l117 165h100l-170 -238q38 -112 43 -229q4 -123 -14 -239l-19 -123q-52 -332 -202.5 -516.5t-373.5 -179.5zM227 445q0 -112 32 -202 l681 993q-72 125 -221 131q-177 5 -294.5 -148t-159.5 -425l-25 -164q-14 -98 -13 -185zM990 979q3 85 -11 170l-670 -978q73 -79 189 -83q169 -5 284.5 135t161.5 398q42 237 46 358zM935 1908l151 -1l-269 -278h-112z" />
<glyph unicode="&#x1ff;" horiz-adv-x="981" d="M562 1104q91 -1 171 -50l91 158h91l-124 -206q94 -130 91 -332q-5 -308 -142.5 -505t-348.5 -191q-83 1 -159 41l-94 -158l-89 1l122 204q-100 124 -98 334q0 195 64.5 361.5t174.5 255.5t250 87zM180 430q-10 -155 46 -260l453 788q-55 39 -123 43q-100 3 -181.5 -64 t-133.5 -203t-61 -304zM774 731q-7 97 -41 167l-449 -784q52 -32 114 -34q142 -2 238 123.5t125 322.5q17 133 13 205zM715 1524l151 -1l-269 -278h-112z" />
<glyph unicode="&#x218;" horiz-adv-x="1037" d="M796 366q13 106 -41 180t-212.5 137.5t-235.5 147.5q-97 105 -84 260q13 168 141 278.5t310 106.5q172 -4 268.5 -127.5t79.5 -308.5h-114q14 145 -50 234.5t-192 93.5q-133 2 -224.5 -76t-104.5 -199q-11 -99 46.5 -171t202 -128t220.5 -129q120 -115 105 -297 q-15 -174 -145.5 -283.5t-316.5 -105.5t-292 126.5t-88 310.5h112q-14 -147 59 -237t215 -94q133 -2 229 74t112 207zM306 -470l-61 54q75 105 96 214l16 91h106l-11 -69q-29 -181 -146 -290z" />
<glyph unicode="&#x219;" horiz-adv-x="897" d="M615 274q15 109 -132 194l-57 31l-100 56q-164 97 -154 251q7 127 106 212.5t242 83.5q142 -4 220 -91.5t68 -225.5h-110q6 94 -44 152t-140 60q-91 2 -157 -50t-77 -137q-12 -99 110 -169l175 -97q171 -102 161 -264q-9 -136 -112 -220t-252 -80q-144 2 -231.5 88.5 t-77.5 227.5l111 -1q-4 -100 49 -155.5t154 -56.5q99 0 168 52t80 139zM244 -472l-61 54q75 105 96 214l16 91h106l-11 -69q-29 -181 -146 -290z" />
<glyph unicode="&#x21a;" horiz-adv-x="1045" d="M1106 1348h-401l-234 -1348h-115l234 1348h-401l20 108h916zM292 -465l-61 54q75 105 96 214l16 91h106l-11 -69q-29 -181 -146 -290z" />
<glyph unicode="&#x21b;" horiz-adv-x="586" d="M439 1358l-48 -276h179l-17 -100h-179l-120 -720l-4 -53q-4 -117 78 -119l78 7l-7 -100q-48 -17 -100 -15q-74 1 -113 50.5t-43 137.5q-2 49 2 94l118 718h-162l17 100h162l49 276h110zM149 -465l-61 54q75 105 96 214l16 91h106l-11 -69q-29 -181 -146 -290z" />
<glyph unicode="&#x237;" horiz-adv-x="437" d="M357 1082l-199 -1170q-24 -175 -103 -265t-202 -87q-43 2 -97 22l23 100q43 -17 81 -19q139 -3 182 219l205 1200h110z" />
<glyph unicode="&#x259;" horiz-adv-x="912" d="M504 1101q95 -3 164.5 -55t107 -149t40.5 -208q1 -58 -11 -170q-21 -150 -88.5 -281t-161 -196.5t-203.5 -62.5q-134 4 -209.5 98.5t-79.5 258.5l1 70l19 139h613q9 60 11 111q4 158 -51 248t-158 94q-152 5 -280 -118l-37 86q125 139 323 135zM361 82q103 -4 184.5 85 t136.5 274h-504l-5 -30q-7 -52 -2 -109q9 -121 84 -184q41 -34 106 -36z" />
<glyph unicode="&#x2bc;" horiz-adv-x="352" d="M224 1096l-61 56q98 132 121 265l21 119h109l-18 -120q-34 -191 -172 -320z" />
<glyph unicode="&#x2c6;" horiz-adv-x="779" d="M730 1269l-1 -12l-98 1l-100 180l-167 -179l-98 -1l1 13l233 255h68z" />
<glyph unicode="&#x2c7;" horiz-adv-x="741" d="M485 1330l172 190l98 1l-1 -13l-235 -261h-77l-154 262v13l97 -1z" />
<glyph unicode="&#x2c9;" horiz-adv-x="771" d="M780 1357h-556l16 99h556z" />
<glyph unicode="&#x2d8;" horiz-adv-x="849" d="M836 1490q-14 -121 -98.5 -191.5t-206.5 -66.5q-118 2 -189 72.5t-65 186.5l101 -1q-5 -79 34.5 -124t120.5 -47q85 -1 137 44.5t67 125.5z" />
<glyph unicode="&#x2d9;" horiz-adv-x="455" d="M278 1381q2 34 26.5 58t58.5 25q35 1 57.5 -23.5t19.5 -59.5q-2 -34 -26.5 -57t-59.5 -24t-56.5 22.5t-19.5 58.5z" />
<glyph unicode="&#x2da;" horiz-adv-x="626" d="M252 1387q2 81 60 141t141 60q74 0 125.5 -54t49.5 -131q-2 -80 -60.5 -138t-140.5 -58q-75 0 -126 51.5t-49 128.5zM329 1389q-4 -48 23.5 -78.5t71.5 -30.5q47 0 84.5 35t43.5 86q4 49 -23 81t-73 32q-48 0 -85.5 -37.5t-41.5 -87.5z" />
<glyph unicode="&#x2db;" horiz-adv-x="473" d="M216 -2l-60 -52q-108 -96 -117 -186q-5 -76 50 -76q32 -1 89 30l4 -86q-53 -41 -116 -43q-60 0 -94 44t-32 119q6 156 225 291z" />
<glyph unicode="&#x2dc;" horiz-adv-x="786" d="M801 1486q-13 -100 -60.5 -158.5t-121.5 -58.5q-49 0 -111.5 56.5t-109.5 56.5q-66 -3 -96 -85l-11 -33l-81 3q13 98 61.5 157.5t121.5 57.5q35 0 61.5 -18t51 -39t50.5 -38t59 -17q79 0 109 121z" />
<glyph unicode="&#x2dd;" horiz-adv-x="677" d="M688 1535h138l-279 -303h-117zM431 1535h132l-240 -302h-105z" />
<glyph unicode="&#x2f3;" horiz-adv-x="552" d="M-1 -236q2 61 42.5 105.5t92.5 44.5q52 2 87.5 -40.5t33.5 -99.5q-2 -60 -41 -103t-92 -43q-52 -2 -88.5 39.5t-34.5 96.5zM63 -234q-3 -26 11 -46.5t42 -21.5q28 0 51 23t27 51q4 29 -11.5 50.5t-40.5 21.5q-28 0 -52.5 -24.5t-26.5 -53.5z" />
<glyph unicode="&#x300;" horiz-adv-x="0" d="M-241 1244l-97 1l-139 280h120z" />
<glyph unicode="&#x301;" horiz-adv-x="0" d="M-176 1525l141 -1l-245 -278h-101z" />
<glyph unicode="&#x303;" horiz-adv-x="0" d="M11 1486q-13 -100 -60.5 -158.5t-121.5 -58.5q-49 0 -111.5 56.5t-109.5 56.5q-66 -3 -96 -85l-11 -33l-81 3q13 98 61.5 157.5t121.5 57.5q35 0 61.5 -18t51 -39t50.5 -38t59 -17q79 0 109 121z" />
<glyph unicode="&#x309;" horiz-adv-x="0" d="M-386 1234l19 126q80 10 113.5 34t37.5 67q8 74 -110 85l-30 2l13 77q105 -3 162.5 -48t52.5 -118q-4 -73 -48.5 -112t-111.5 -51l-11 -63z" />
<glyph unicode="&#x30f;" horiz-adv-x="0" d="M-308 1252h-114l-201 266h144zM-108 1252h-101l-158 266h131z" />
<glyph unicode="&#x323;" horiz-adv-x="0" d="M-797 -232q3 34 27 58t58 25q36 1 58 -23.5t19 -59.5q-2 -34 -26.5 -57t-58.5 -24q-35 -1 -57 22.5t-20 58.5z" />
<glyph unicode="&#x384;" horiz-adv-x="513" d="M434 1588h121l-160 -305h-87z" />
<glyph unicode="&#x385;" horiz-adv-x="857" d="M589 1664h124l-108 -252h-91zM276 1395q2 31 22.5 56.5t53.5 26.5q33 0 51.5 -23t16.5 -60q-2 -31 -22.5 -55.5t-54.5 -25.5q-33 0 -51 24t-16 57zM697 1394q2 31 22.5 56.5t54.5 26.5q35 1 52.5 -25t15.5 -58q-2 -31 -23 -55.5t-54 -25.5q-32 0 -51 23.5t-17 57.5z" />
<glyph unicode="&#x386;" d="M777 407h-527l-192 -407h-122l703 1456h106l197 -1456h-114zM300 514h463l-96 776zM394 1588h121l-160 -305h-87z" />
<glyph unicode="&#x387;" horiz-adv-x="463" d="M169 717q2 36 25.5 61t53.5 25q34 0 53.5 -24t17.5 -62q-2 -32 -23.5 -57t-56.5 -26t-53.5 24.5t-16.5 58.5z" />
<glyph unicode="&#x388;" horiz-adv-x="1097" d="M944 697h-548l-103 -591h631l-19 -106h-743l252 1456h739l-19 -108h-625l-95 -545h549zM163 1589h121l-160 -305h-87z" />
<glyph unicode="&#x389;" horiz-adv-x="1331" d="M1050 0h-115l122 697h-661l-121 -697h-114l253 1456h114l-114 -653h661l113 653h115zM174 1590h121l-160 -305h-87z" />
<glyph unicode="&#x38a;" horiz-adv-x="595" d="M295 0h-113l253 1456h113zM185 1587h121l-160 -305h-87z" />
<glyph unicode="&#x38c;" horiz-adv-x="1202" d="M512 -20q-175 4 -274 122.5t-102 328.5q-1 70 8 139l48 303q47 297 192.5 452.5t360.5 150.5q117 -3 201 -57.5t127.5 -159t45.5 -236.5q1 -70 -8 -139l-51 -319q-32 -194 -109 -327t-188 -197t-251 -61zM997 888q7 52 9 108q3 176 -65 271t-204 99q-172 5 -283 -122 t-148 -364l-50 -325l-6 -93q-6 -173 63.5 -271.5t205.5 -102.5q165 -5 274.5 111.5t149.5 344.5zM239 1588h121l-160 -305h-87z" />
<glyph unicode="&#x38e;" horiz-adv-x="1148" d="M626 667l489 789h136l-587 -915l-94 -541h-114l97 555l-265 901h127zM73 1588h121l-160 -305h-87z" />
<glyph unicode="&#x38f;" horiz-adv-x="1165" d="M562 120q292 114 367 589q25 156 29 240q7 197 -55.5 306t-190.5 115q-159 5 -267.5 -133t-147.5 -379q-37 -228 -35 -348q0 -306 173 -389l-20 -121h-384l19 106l233 2q-134 183 -132 459q0 123 34 312.5t120 336.5q156 266 414 260q158 -4 248.5 -122t102.5 -323l2 -53 q-1 -71 -9 -134l-15 -100q-65 -437 -341 -640l235 2l-19 -106h-381zM248 1588h121l-160 -305h-87z" />
<glyph unicode="&#x390;" horiz-adv-x="557" d="M363 1082l-135 -811l-4 -53q-4 -116 78 -118q23 -1 78 7l-8 -102q-53 -15 -101 -13q-73 1 -112 50.5t-43 136.5q-2 49 2 94l135 809h110zM391 1643h124l-108 -252h-91zM78 1374q2 31 22.5 56.5t53.5 26.5q33 0 51.5 -23t16.5 -60q-2 -31 -22.5 -55.5t-54.5 -25.5 q-33 0 -51 24t-16 57zM499 1373q2 31 22.5 56.5t54.5 26.5q35 1 52.5 -25t15.5 -58q-2 -31 -23 -55.5t-54 -25.5q-32 0 -51 23.5t-17 57.5z" />
<glyph unicode="&#x391;" d="M777 407h-527l-192 -407h-122l703 1456h106l197 -1456h-114zM300 514h463l-96 776z" />
<glyph unicode="&#x392;" horiz-adv-x="1074" d="M62 0l252 1456l351 -1q170 -4 258.5 -101.5t72.5 -270.5q-11 -117 -75 -199.5t-170 -127.5q88 -33 133 -124.5t35 -213.5q-16 -192 -136.5 -305t-303.5 -113h-417zM296 699l-103 -593l286 -1q135 0 223 85t105 227q13 123 -39.5 199t-164.5 82zM314 804l252 -2 q129 0 215 75t100 210q13 121 -41.5 188.5t-177.5 71.5l-253 1z" />
<glyph unicode="&#x393;" horiz-adv-x="970" d="M1018 1348h-607l-234 -1348h-114l253 1456h721z" />
<glyph unicode="&#x394;" horiz-adv-x="1214" d="M806 1456l232 -1456h-1092l754 1456h106zM123 106h785l-180 1184z" />
<glyph unicode="&#x2206;" horiz-adv-x="1214" d="M806 1456l232 -1456h-1092l754 1456h106zM123 106h785l-180 1184z" />
<glyph unicode="&#x395;" horiz-adv-x="997" d="M844 697h-548l-103 -591h631l-19 -106h-743l252 1456h739l-19 -108h-625l-95 -545h549z" />
<glyph unicode="&#x396;" horiz-adv-x="1047" d="M141 106h723l-19 -106h-858l18 101l911 1248h-676l19 107h813l-17 -97z" />
<glyph unicode="&#x397;" horiz-adv-x="1231" d="M950 0h-115l122 697h-661l-121 -697h-114l253 1456h114l-114 -653h661l113 653h115z" />
<glyph unicode="&#x398;" horiz-adv-x="1174" d="M821 675h-450l19 103h449zM485 -20q-177 4 -274.5 144t-95.5 383q0 116 35.5 316.5t113.5 347.5q166 311 454 305q179 -4 276.5 -145.5t94.5 -382.5q-1 -76 -10 -144l-20 -129q-52 -333 -202.5 -517.5t-371.5 -177.5zM977 920q10 205 -57.5 322.5t-208.5 123.5 q-173 5 -291.5 -146.5t-161.5 -431.5l-25 -169l-6 -80q-10 -206 59 -326.5t206 -124.5q174 -7 292.5 144.5t161.5 435.5l24 162z" />
<glyph unicode="&#x399;" horiz-adv-x="495" d="M195 0h-113l253 1456h113z" />
<glyph unicode="&#x39a;" horiz-adv-x="1100" d="M466 716l-202 -199l-89 -517h-114l253 1456h114l-134 -766l189 198l530 568h150l-611 -654l388 -802h-129z" />
<glyph unicode="&#x39b;" horiz-adv-x="1132" d="M675 1257l-584 -1257h-127l687 1456h107l182 -1456h-119z" />
<glyph unicode="&#x39c;" horiz-adv-x="1495" d="M460 1456l206 -1275l650 1275h152l-253 -1456h-114l110 634l117 615l-645 -1249h-87l-212 1257l-99 -625l-110 -632h-114l253 1456h146z" />
<glyph unicode="&#x39d;" horiz-adv-x="1234" d="M953 0h-110l-451 1242l-216 -1242h-115l253 1456h111l452 -1244l216 1244h113z" />
<glyph unicode="&#x39e;" horiz-adv-x="986" d="M28 106h756l-19 -106h-756zM224 787h593l-19 -107h-594zM271 1456h726l-19 -107h-727z" />
<glyph unicode="&#x39f;" horiz-adv-x="1182" d="M492 -20q-175 4 -274 122.5t-102 328.5q-1 70 8 139l48 303q47 297 192.5 452.5t360.5 150.5q117 -3 201 -57.5t127.5 -159t45.5 -236.5q1 -70 -8 -139l-51 -319q-32 -194 -109 -327t-188 -197t-251 -61zM977 888q7 52 9 108q3 176 -65 271t-204 99q-172 5 -283 -122 t-148 -364l-50 -325l-6 -93q-6 -173 63.5 -271.5t205.5 -102.5q165 -5 274.5 111.5t149.5 344.5z" />
<glyph unicode="&#x3a0;" horiz-adv-x="1231" d="M946 0h-114l235 1348h-653l-234 -1348h-114l253 1456h880z" />
<glyph unicode="&#x3a1;" horiz-adv-x="1081" d="M278 592l-103 -592h-114l253 1456l404 -1q175 -6 263.5 -121.5t71.5 -305.5q-18 -202 -143 -319.5t-326 -117.5zM296 699l293 -2q144 0 239 89t112 241q16 141 -44 228t-182 92l-305 1z" />
<glyph unicode="&#x3a3;" horiz-adv-x="986" d="M628 742l-502 -635h685l-19 -107h-825l17 100l529 663l-310 605l16 88h783l-19 -107h-643l292 -571z" />
<glyph unicode="&#x3a4;" horiz-adv-x="1045" d="M1106 1348h-401l-234 -1348h-115l234 1348h-401l20 108h916z" />
<glyph unicode="&#x3a5;" horiz-adv-x="1048" d="M526 667l489 789h136l-587 -915l-94 -541h-114l97 555l-265 901h127z" />
<glyph unicode="&#x3a6;" horiz-adv-x="1242" d="M792 1267q128 -6 220 -76.5t134.5 -190t27.5 -261.5q-16 -152 -93.5 -278t-200 -197t-268.5 -72l-37 -192h-117l47 192h-3q-129 6 -221.5 75t-136.5 191t-28 263q17 151 95 280.5t200 201t264 65.5h3l36 188h115zM511 299l159 863l-4 1q-107 9 -200.5 -46t-158 -164.5 t-77.5 -231.5q-21 -184 52.5 -296t226.5 -126h2zM780 1161l-159 -863l3 -1q104 -10 197.5 43.5t158.5 162t81 237.5q21 182 -52 294.5t-226 126.5h-3z" />
<glyph unicode="&#x3a7;" horiz-adv-x="1074" d="M567 844l420 612h141l-506 -724l284 -732h-129l-236 631l-434 -631h-141l522 744l-276 712h127z" />
<glyph unicode="&#x3a8;" horiz-adv-x="1207" d="M631 493q156 20 259 137t135 308l88 518h113l-91 -536q-42 -237 -179 -376.5t-342 -155.5l-71 -388h-114l71 389q-137 20 -222.5 116.5t-103.5 248.5q-11 91 1 184l87 518h113l-87 -519q-9 -69 -4 -140q9 -122 68 -200t161 -99l169 958h114z" />
<glyph unicode="&#x3a9;" horiz-adv-x="1145" d="M542 120q292 114 367 589q25 156 29 240q7 197 -55.5 306t-190.5 115q-159 5 -267.5 -133t-147.5 -379q-37 -228 -35 -348q0 -306 173 -389l-20 -121h-384l19 106l233 2q-134 183 -132 459q0 123 34 312.5t120 336.5q156 266 414 260q158 -4 248.5 -122t102.5 -323l2 -53 q-1 -71 -9 -134l-15 -100q-65 -437 -341 -640l235 2l-19 -106h-381z" />
<glyph unicode="&#x2126;" horiz-adv-x="1145" d="M542 120q292 114 367 589q25 156 29 240q7 197 -55.5 306t-190.5 115q-159 5 -267.5 -133t-147.5 -379q-37 -228 -35 -348q0 -306 173 -389l-20 -121h-384l19 106l233 2q-134 183 -132 459q0 123 34 312.5t120 336.5q156 266 414 260q158 -4 248.5 -122t102.5 -323l2 -53 q-1 -71 -9 -134l-15 -100q-65 -437 -341 -640l235 2l-19 -106h-381z" />
<glyph unicode="&#x3aa;" horiz-adv-x="495" d="M195 0h-113l253 1456h113zM149 1716q2 34 26 58t59 25q35 0 57.5 -24t19.5 -59q-2 -34 -26.5 -57t-58.5 -24q-35 -1 -57 22.5t-20 58.5zM573 1715q2 34 26 58t59 25t57 -23.5t20 -59.5q-2 -34 -26.5 -57t-59.5 -24q-34 0 -56 23t-20 58z" />
<glyph unicode="&#x3ab;" horiz-adv-x="1048" d="M526 667l489 789h136l-587 -915l-94 -541h-114l97 555l-265 901h127zM423 1704q2 34 26 58t59 25q35 0 57.5 -24t19.5 -59q-2 -34 -26.5 -57t-58.5 -24q-35 -1 -57 22.5t-20 58.5zM847 1703q2 34 26 58t59 25t57 -23.5t20 -59.5q-2 -34 -26.5 -57t-59.5 -24q-34 0 -56 23 t-20 58z" />
<glyph unicode="&#x3ac;" horiz-adv-x="989" d="M908 1082l-135 -809q-9 -82 -8 -103q4 -77 48 -79l39 7l5 -95q-43 -24 -80 -22q-127 0 -121 185q-69 -102 -141.5 -146t-158.5 -42q-134 4 -203 114.5t-66 307.5q3 146 42 294t104 245q112 168 289 163q93 -3 154.5 -56.5t90.5 -138.5l46 175h95zM200 331 q11 -248 184 -251q86 -4 168.5 64t113.5 167l72 438q-46 243 -203 249q-128 4 -210.5 -114.5t-115.5 -358.5q-13 -134 -9 -194zM710 1546h121l-160 -305h-87z" />
<glyph unicode="&#x3ad;" horiz-adv-x="954" d="M57 288q15 196 226 271q-63 35 -96.5 94.5t-28.5 131.5q9 147 116.5 233.5t269.5 82.5q144 -4 232 -91t80 -222l-108 1q6 93 -52.5 150t-157.5 59q-108 2 -183.5 -55t-86.5 -155q-9 -88 43 -135.5t158 -48.5l154 -1l-18 -102l-148 1q-130 0 -204 -56t-84 -159 q-9 -93 51.5 -148.5t163.5 -57.5q111 -2 192 61t103 167l109 1q-22 -155 -136 -245t-274 -86q-149 4 -239.5 87.5t-81.5 221.5zM650 1545h121l-160 -305h-87z" />
<glyph unicode="&#x3ae;" horiz-adv-x="981" d="M331 1082l-30 -163q121 187 299 183q119 -2 181 -83t59 -238l-6 -96l-186 -1100h-111l187 1101l6 104q0 98 -41.5 153t-120.5 57q-99 2 -179.5 -69t-107.5 -171l-129 -760h-112l188 1082h103zM672 1546h121l-160 -305h-87z" />
<glyph unicode="&#x3af;" horiz-adv-x="557" d="M363 1082l-135 -811l-4 -53q-4 -116 78 -118q23 -1 78 7l-8 -102q-53 -15 -101 -13q-73 1 -112 50.5t-43 136.5q-2 49 2 94l135 809h110zM406 1525h121l-160 -305h-87z" />
<glyph unicode="&#x3b0;" horiz-adv-x="944" d="M338 1082l-113 -678q-9 -80 -6 -131q10 -188 142 -191q106 -4 187 84t127 256t46 393q-1 135 -26 268l113 -1q23 -133 21 -266q-4 -288 -64.5 -471t-165.5 -277t-243 -90q-123 4 -186 91t-61 243l5 96l113 674h111zM615 1643h124l-108 -252h-91zM302 1374q2 31 22.5 56.5 t53.5 26.5q33 0 51.5 -23t16.5 -60q-2 -31 -22.5 -55.5t-54.5 -25.5q-33 0 -51 24t-16 57zM723 1373q2 31 22.5 56.5t54.5 26.5q35 1 52.5 -25t15.5 -58q-2 -31 -23 -55.5t-54 -25.5q-32 0 -51 23.5t-17 57.5z" />
<glyph unicode="&#x3b1;" horiz-adv-x="989" d="M908 1082l-135 -809q-9 -82 -8 -103q4 -77 48 -79l39 7l5 -95q-43 -24 -80 -22q-127 0 -121 185q-69 -102 -141.5 -146t-158.5 -42q-134 4 -203 114.5t-66 307.5q3 146 42 294t104 245q112 168 289 163q93 -3 154.5 -56.5t90.5 -138.5l46 175h95zM200 331 q11 -248 184 -251q86 -4 168.5 64t113.5 167l72 438q-46 243 -203 249q-128 4 -210.5 -114.5t-115.5 -358.5q-13 -134 -9 -194z" />
<glyph unicode="&#x3b2;" horiz-adv-x="1037" d="M641 1477q142 -4 221 -110.5t65 -266.5q-20 -212 -217 -322q89 -40 133 -137t32 -228q-18 -196 -136.5 -317t-291.5 -117q-75 2 -143.5 32t-115.5 90l-91 -499h-110l250 1461q26 177 139 297.5t265 116.5zM537 823q120 2 193.5 75.5t86.5 207.5q12 110 -37.5 187 t-146.5 81q-106 3 -185.5 -85.5t-99.5 -224.5l-141 -832q33 -72 97 -110t142 -40q100 -3 177.5 54t116 162t25.5 218q-10 90 -61 144.5t-133 58.5l-125 1l19 104z" />
<glyph unicode="&#x3b3;" horiz-adv-x="869" d="M778 1082h118l-508 -1056l-77 -441h-110l80 460l-141 1037h110l106 -843l-1 -71l28 72z" />
<glyph unicode="&#x3b4;" horiz-adv-x="981" d="M316 1280q10 130 105.5 208.5t229.5 76.5q124 -2 234 -69l-20 -105q-105 67 -219 67q-86 0 -147.5 -47t-73.5 -128q-13 -115 110 -180l63 -30q148 -63 217.5 -204t49.5 -330l-2 -17q-30 -244 -157 -396t-313 -147q-144 4 -228.5 112t-90.5 294q-2 53 7 149 q24 190 124 319t243 158l3 11q-70 42 -105.5 109t-29.5 149zM189 497l-4 -85q-3 -150 53 -238t163 -92q109 -4 192 74t129 225t33 283q-12 108 -65 184.5t-138 103.5q-142 -3 -239 -120t-124 -335z" />
<glyph unicode="&#x3b5;" horiz-adv-x="954" d="M57 288q15 196 226 271q-63 35 -96.5 94.5t-28.5 131.5q9 147 116.5 233.5t269.5 82.5q144 -4 232 -91t80 -222l-108 1q6 93 -52.5 150t-157.5 59q-108 2 -183.5 -55t-86.5 -155q-9 -88 43 -135.5t158 -48.5l154 -1l-18 -102l-148 1q-130 0 -204 -56t-84 -159 q-9 -93 51.5 -148.5t163.5 -57.5q111 -2 192 61t103 167l109 1q-22 -155 -136 -245t-274 -86q-149 4 -239.5 87.5t-81.5 221.5z" />
<glyph unicode="&#x3b6;" horiz-adv-x="877" d="M947 1456l-12 -86l-432 -540l-53 -69q-162 -215 -187 -404q-12 -88 21 -144.5t115 -89.5q126 -47 157 -63q100 -50 92 -162q-5 -77 -51.5 -154.5t-122.5 -131.5l-58 61q110 103 124 211q8 63 -61 94l-35 15l-64 22q-260 89 -230 339q13 121 84.5 260t219.5 319l349 419 h-568l15 104h697z" />
<glyph unicode="&#x3b7;" horiz-adv-x="981" d="M331 1082l-30 -163q121 187 299 183q119 -2 181 -83t59 -238l-6 -96l-186 -1100h-111l187 1101l6 104q0 98 -41.5 153t-120.5 57q-99 2 -179.5 -69t-107.5 -171l-129 -760h-112l188 1082h103z" />
<glyph unicode="&#x3b8;" horiz-adv-x="1003" d="M406 -20q-126 3 -198.5 97.5t-83.5 279.5q-7 114 12 260l42 271q46 264 145 413q122 182 314 175q128 -5 200 -97t83 -275q6 -110 -13 -261l-37 -232q-54 -336 -171.5 -486.5t-292.5 -144.5zM272 775h514q29 190 29 281q0 307 -186 317q-122 6 -206.5 -104.5 t-128.5 -354.5zM773 671h-514l-12 -69q-17 -122 -17 -197q0 -317 184 -323q119 -6 202 100t128 330z" />
<glyph unicode="&#x3b9;" horiz-adv-x="557" d="M363 1082l-135 -811l-4 -53q-4 -116 78 -118q23 -1 78 7l-8 -102q-53 -15 -101 -13q-73 1 -112 50.5t-43 136.5q-2 49 2 94l135 809h110z" />
<glyph unicode="&#x3ba;" horiz-adv-x="959" d="M351 494h-108l-87 -494h-111l188 1082h112l-84 -479h95l437 479l142 -1l-486 -531l329 -550h-130z" />
<glyph unicode="&#x3bb;" horiz-adv-x="968" d="M374 1516q143 0 175 -222l151 -1059l8 -48q16 -83 66 -87q9 -2 18 0l18 2l-5 -102q-31 -9 -53 -9q-108 0 -146 145l-15 63l-94 671l-420 -870h-128l523 1054l-34 204l-10 56q-19 93 -82 97h-18l-20 -3l7 98q35 10 59 10z" />
<glyph unicode="&#x3bc;" horiz-adv-x="981" d="M343 1082l-105 -633q-11 -82 -9 -148q5 -216 151 -219q95 -4 175 55t107 161l134 784h111l-188 -1082h-100l26 144q-105 -169 -268 -165q-143 4 -201 123l-94 -518h-109l260 1498h110z" />
<glyph unicode="&#x3bd;" horiz-adv-x="853" d="M354 179l399 903h117l-497 -1082h-88l-159 1082h109z" />
<glyph unicode="&#x3be;" horiz-adv-x="867" d="M890 1331q-103 43 -196 43q-128 0 -213 -64t-98 -175q-13 -109 52 -169t197 -61l109 -1l-19 -105l-102 1q-178 0 -288.5 -98.5t-127.5 -265.5q-13 -125 40 -212t170 -130q121 -41 149 -56q95 -49 87 -154q-11 -144 -169 -267l-59 63l37 37q76 78 86 157q7 55 -60 85 l-36 15l-65 23q-161 59 -233 167.5t-57 275.5q13 149 100.5 256t236.5 159q-80 40 -122.5 111.5t-36.5 162.5q11 161 128.5 256t298.5 93q113 -2 218 -47z" />
<glyph unicode="&#x3bf;" horiz-adv-x="985" d="M560 1103q147 -4 229 -107.5t85 -282.5q2 -91 -20 -234q-36 -238 -156.5 -371.5t-301.5 -128.5q-135 4 -216.5 93t-96.5 256l-2 40q-3 81 20.5 235.5t85 267.5t156 174t217.5 58zM192 398q-3 -148 51.5 -230t160.5 -86q130 -5 218.5 94.5t119.5 293.5l17 127l5 85 q3 145 -51.5 229t-160.5 88q-134 5 -225 -107t-117 -310l-16 -127z" />
<glyph unicode="&#x3c0;" horiz-adv-x="1042" d="M1010 977h-146l-117 -705l-3 -54v-25q5 -91 77 -93q19 -1 78 8l-7 -103q-53 -15 -101 -13q-73 1 -112.5 50t-43.5 137q-2 49 2 94l116 704h-372l-170 -977h-111l170 977h-147l19 105h886z" />
<glyph unicode="&#x3c1;" horiz-adv-x="981" d="M143 604q21 148 83 268t151.5 177t196.5 54q146 -6 218.5 -126t65.5 -328l-8 -116l-9 -62q-38 -226 -137 -356q-109 -141 -273 -136q-81 2 -147.5 37.5t-106.5 107.5l-98 -540h-111zM203 257q53 -169 210 -175q124 -5 208 104t114 319l4 28q12 103 10 183 q-6 145 -52 212.5t-132 70.5q-119 5 -200.5 -106t-111.5 -306z" />
<glyph unicode="&#x3c2;" horiz-adv-x="942" d="M588 1103q143 -5 219 -113.5t60 -275.5h-104q13 127 -36 204.5t-147 80.5q-134 5 -225 -121t-119 -360q-17 -157 42.5 -266.5t196.5 -159.5q102 -37 137 -84t29 -120q-5 -69 -52 -143t-114 -122l-55 62q42 40 73.5 85.5t39.5 105.5q10 71 -56 100l-40 15 q-350 119 -311 526l2 19q30 260 154.5 416t305.5 151z" />
<glyph unicode="&#x3c3;" horiz-adv-x="979" d="M1014 977l-252 -3q109 -125 112 -317q3 -191 -62 -352.5t-173.5 -245.5t-241.5 -80q-144 4 -228 115.5t-88 309.5q-6 171 52.5 333.5t172 254t258.5 91.5l469 -1zM195 517l-5 -87q-3 -164 52.5 -254.5t161.5 -94.5q100 -4 181 65.5t131 205.5t52 292l-2 48 q-21 278 -217 286q-136 5 -231 -117t-123 -344z" />
<glyph unicode="&#x3c4;" horiz-adv-x="905" d="M878 978h-323l-117 -705l-4 -55q-4 -58 16 -93t62 -36q29 0 77 15l17 -93q-57 -30 -122 -29q-75 1 -116 52.5t-43 145.5q-2 52 3 99l116 699h-298l19 104h731z" />
<glyph unicode="&#x3c5;" horiz-adv-x="944" d="M338 1082l-113 -678q-9 -80 -6 -131q10 -188 142 -191q106 -4 187 84t127 256t46 393q-1 135 -26 268l113 -1q23 -133 21 -266q-4 -288 -64.5 -471t-165.5 -277t-243 -90q-123 4 -186 91t-61 243l5 96l113 674h111z" />
<glyph unicode="&#x3c6;" horiz-adv-x="1199" d="M442 -17q-147 20 -233 117.5t-101 255.5q-20 212 58 413t241 315l49 -91q-120 -99 -185 -261t-56 -334q5 -126 66.5 -208.5t171.5 -103.5l133 788q14 99 69 155.5t136 54.5q89 -1 156.5 -54.5t104 -153.5t39.5 -215q3 -182 -64 -334t-191 -242t-284 -104l-83 -459h-111z M572 82q178 26 290.5 175t117.5 370q2 95 -19.5 181.5t-66.5 130.5t-109 40q-71 -7 -88 -113z" />
<glyph unicode="&#x3c7;" horiz-adv-x="864" d="M429 647l297 435h136l-386 -537l222 -545h-122l-169 452l-313 -452h-135l399 557l-212 525h122z" />
<glyph unicode="&#x3c8;" horiz-adv-x="1194" d="M725 1082l-166 -1000q137 18 236 113t148.5 263t39.5 377q-6 126 -39 248l113 -1q29 -124 35 -248q10 -240 -52 -433t-190.5 -299.5t-310.5 -119.5l-77 -426h-110l78 428q-164 24 -245.5 148.5t-76.5 328.5q1 67 9 132l82 489h112l-83 -492l-9 -101l-1 -51 q4 -307 224 -352l176 996h107z" />
<glyph unicode="&#x3c9;" horiz-adv-x="1424" d="M442 1081q-117 -211 -171 -379t-54 -342q0 -139 40 -207t111 -71q103 -6 171 88.5t97 305.5l47 294h112l-47 -294q-10 -75 -9 -153q0 -235 150 -242q98 -4 167 93.5t100 287.5t25 349q-6 138 -41 272l114 -1q32 -135 36 -271q6 -206 -37 -409t-137.5 -314.5 t-231.5 -107.5q-95 2 -156 67.5t-73 181.5q-108 -257 -301 -251q-88 3 -146.5 59.5t-80.5 159.5t-16 225q9 182 61 341.5t148 318.5z" />
<glyph unicode="&#x3ca;" horiz-adv-x="557" d="M363 1082l-135 -811l-4 -53q-4 -116 78 -118q23 -1 78 7l-8 -102q-53 -15 -101 -13q-73 1 -112 50.5t-43 136.5q-2 49 2 94l135 809h110zM75 1374q2 34 26 58t59 25q35 0 57.5 -24t19.5 -59q-2 -34 -26.5 -57t-58.5 -24q-35 -1 -57 22.5t-20 58.5zM499 1373q2 34 26 58 t59 25t57 -23.5t20 -59.5q-2 -34 -26.5 -57t-59.5 -24q-34 0 -56 23t-20 58z" />
<glyph unicode="&#x3cb;" horiz-adv-x="944" d="M338 1082l-113 -678q-9 -80 -6 -131q10 -188 142 -191q106 -4 187 84t127 256t46 393q-1 135 -26 268l113 -1q23 -133 21 -266q-4 -288 -64.5 -471t-165.5 -277t-243 -90q-123 4 -186 91t-61 243l5 96l113 674h111zM299 1374q2 34 26 58t59 25q35 0 57.5 -24t19.5 -59 q-2 -34 -26.5 -57t-58.5 -24q-35 -1 -57 22.5t-20 58.5zM723 1373q2 34 26 58t59 25t57 -23.5t20 -59.5q-2 -34 -26.5 -57t-59.5 -24q-34 0 -56 23t-20 58z" />
<glyph unicode="&#x3cc;" horiz-adv-x="985" d="M560 1103q147 -4 229 -107.5t85 -282.5q2 -91 -20 -234q-36 -238 -156.5 -371.5t-301.5 -128.5q-135 4 -216.5 93t-96.5 256l-2 40q-3 81 20.5 235.5t85 267.5t156 174t217.5 58zM192 398q-3 -148 51.5 -230t160.5 -86q130 -5 218.5 94.5t119.5 293.5l17 127l5 85 q3 145 -51.5 229t-160.5 88q-134 5 -225 -107t-117 -310l-16 -127zM655 1546h121l-160 -305h-87z" />
<glyph unicode="&#x3cd;" horiz-adv-x="944" d="M338 1082l-113 -678q-9 -80 -6 -131q10 -188 142 -191q106 -4 187 84t127 256t46 393q-1 135 -26 268l113 -1q23 -133 21 -266q-4 -288 -64.5 -471t-165.5 -277t-243 -90q-123 4 -186 91t-61 243l5 96l113 674h111zM630 1525h121l-160 -305h-87z" />
<glyph unicode="&#x3ce;" horiz-adv-x="1424" d="M442 1081q-117 -211 -171 -379t-54 -342q0 -139 40 -207t111 -71q103 -6 171 88.5t97 305.5l47 294h112l-47 -294q-10 -75 -9 -153q0 -235 150 -242q98 -4 167 93.5t100 287.5t25 349q-6 138 -41 272l114 -1q32 -135 36 -271q6 -206 -37 -409t-137.5 -314.5 t-231.5 -107.5q-95 2 -156 67.5t-73 181.5q-108 -257 -301 -251q-88 3 -146.5 59.5t-80.5 159.5t-16 225q9 182 61 341.5t148 318.5zM894 1523h121l-160 -305h-87z" />
<glyph unicode="&#x3d1;" horiz-adv-x="1008" d="M985 673q-70 -27 -143 -34l-34 -211q-31 -220 -138.5 -337t-272.5 -112q-153 5 -230.5 128.5t-54.5 320.5l54 329l111 2l-53 -332q-6 -54 -4 -113q4 -104 52.5 -164.5t135.5 -64.5q239 -10 290 342l36 216q-170 29 -256 161.5t-71 328.5q17 170 96.5 264t198.5 91 q98 -3 154 -74.5t63 -192.5q4 -69 -3 -129l-57 -347q62 9 126 29v-101zM517 1131q-12 -166 48 -261t182 -120l57 343l7 85q4 94 -26.5 148.5t-93.5 55.5q-70 2 -116 -61.5t-58 -189.5z" />
<glyph unicode="&#x3d2;" horiz-adv-x="942" d="M767 1262l35 68q78 143 200 140q51 -2 101 -31l-36 -95q-27 15 -54 17q-72 2 -124 -96l-24 -47l-340 -630l-102 -588h-114l106 607l-127 610l-10 37q-26 100 -84 100q-23 0 -57 -12l-13 97q42 25 88 25q61 0 103.5 -46.5t71.5 -157.5l98 -486l1 -58l27 62z" />
<glyph unicode="&#x3d6;" horiz-adv-x="1360" d="M1371 977h-133q10 -112 9 -220q-4 -223 -53.5 -411.5t-135 -279t-202.5 -87.5q-94 2 -155 67t-73 181q-55 -129 -128.5 -190.5t-171.5 -58.5q-102 3 -161.5 85.5t-67.5 245.5q-8 164 31.5 340.5t128.5 329.5l-123 -2l20 105h1235zM1135 757q-2 109 -14 220l-742 1 q-87 -162 -128.5 -308.5t-44.5 -303.5q-3 -134 31.5 -206.5t103.5 -77.5q199 -12 259 337l52 327h112l-43 -270q-11 -82 -10 -153q0 -115 38.5 -177.5t112.5 -64.5q174 -4 240 338q35 179 33 338z" />
<glyph unicode="&#x400;" horiz-adv-x="997" d="M844 697h-548l-103 -591h631l-19 -106h-743l252 1456h739l-19 -108h-625l-95 -545h549zM761 1566h-100l-175 280h133z" />
<glyph unicode="&#x401;" horiz-adv-x="997" d="M844 697h-548l-103 -591h631l-19 -106h-743l252 1456h739l-19 -108h-625l-95 -545h549zM430 1716q2 34 26 58t59 25q35 0 57.5 -24t19.5 -59q-2 -34 -26.5 -57t-58.5 -24q-35 -1 -57 22.5t-20 58.5zM854 1715q2 34 26 58t59 25t57 -23.5t20 -59.5q-2 -34 -26.5 -57 t-59.5 -24q-34 0 -56 23t-20 58z" />
<glyph unicode="&#x402;" horiz-adv-x="1292" d="M1108 1348h-454l-96 -528q150 67 266 65q183 -4 273 -126.5t70 -327.5q-20 -199 -147.5 -319.5t-321.5 -124.5l11 101q141 4 233 96.5t109 247.5q17 158 -44.5 247.5t-188.5 92.5q-112 3 -272 -61l-126 -711h-115l234 1348h-350l20 108h918z" />
<glyph unicode="&#x403;" horiz-adv-x="970" d="M1018 1348h-607l-234 -1348h-114l253 1456h721zM847 1846l151 -1l-269 -278h-112z" />
<glyph unicode="&#x404;" horiz-adv-x="1155" d="M988 454q-49 -230 -181 -354.5t-325 -119.5q-116 3 -197 67t-122 186t-39 266l6 107l31 206q32 203 113.5 359.5t196.5 232t254 72.5q177 -5 271.5 -131.5t89.5 -344.5h-113q5 359 -255 369q-155 4 -264.5 -119t-167.5 -378l-17 -82h493l-19 -107h-486l-8 -47l-10 -107 q-6 -93 7.5 -178t44.5 -141q64 -121 199 -125q142 -5 237 81t151 287z" />
<glyph unicode="&#x405;" horiz-adv-x="1037" d="M796 366q13 106 -41 180t-212.5 137.5t-235.5 147.5q-97 105 -84 260q13 168 141 278.5t310 106.5q172 -4 268.5 -127.5t79.5 -308.5h-114q14 145 -50 234.5t-192 93.5q-133 2 -224.5 -76t-104.5 -199q-11 -99 46.5 -171t202 -128t220.5 -129q120 -115 105 -297 q-15 -174 -145.5 -283.5t-316.5 -105.5t-292 126.5t-88 310.5h112q-14 -147 59 -237t215 -94q133 -2 229 74t112 207z" />
<glyph unicode="&#x406;" horiz-adv-x="495" d="M195 0h-113l253 1456h113z" />
<glyph unicode="&#x407;" horiz-adv-x="495" d="M195 0h-113l253 1456h113zM149 1716q2 34 26 58t59 25q35 0 57.5 -24t19.5 -59q-2 -34 -26.5 -57t-58.5 -24q-35 -1 -57 22.5t-20 58.5zM573 1715q2 34 26 58t59 25t57 -23.5t20 -59.5q-2 -34 -26.5 -57t-59.5 -24q-34 0 -56 23t-20 58z" />
<glyph unicode="&#x408;" horiz-adv-x="967" d="M844 1456h115l-175 -1023q-29 -209 -145.5 -334.5t-284.5 -120.5q-161 5 -241 119t-61 304h114q-6 -56 -1 -111q9 -96 59.5 -149t138.5 -56q118 -3 200.5 91t106.5 256z" />
<glyph unicode="&#x409;" horiz-adv-x="1814" d="M1162 1456l-105 -606l281 -1q170 -6 259 -121t72 -296q-19 -196 -147 -316t-315 -116h-412l234 1348h-445l-125 -576l-39 -218q-58 -293 -156.5 -421t-246.5 -133h-59l13 105l31 2q130 5 210 140.5t120 427.5l17 108l144 673h669zM1038 743l-110 -637l283 -1 q137 0 232.5 90.5t112.5 239.5q15 132 -44 217t-177 90z" />
<glyph unicode="&#x40a;" horiz-adv-x="1850" d="M314 787h652l117 669h114l-109 -628l282 -1q111 -4 189.5 -54t116 -142t26.5 -208q-18 -190 -144.5 -308.5t-314.5 -114.5h-413l118 680h-652l-118 -680h-114l253 1456h114zM1070 722l-107 -612l285 -1q141 2 233 89.5t108 228.5q15 129 -44 208.5t-178 85.5z" />
<glyph unicode="&#x40b;" horiz-adv-x="1393" d="M1110 1348h-450l-97 -535q158 50 298 48q184 -4 268 -118t61 -329l-68 -414h-116l68 415q8 67 4 128q-14 207 -221 212q-123 3 -306 -48l-125 -707h-114l234 1348h-353l19 108h917z" />
<glyph unicode="&#x40c;" horiz-adv-x="1100" d="M466 716l-202 -199l-89 -517h-114l253 1456h114l-134 -766l189 198l530 568h150l-611 -654l388 -802h-129zM826 1794l151 -1l-269 -278h-112z" />
<glyph unicode="&#x40d;" horiz-adv-x="1234" d="M1085 1456h117l-253 -1456h-114l214 1228l-866 -1228h-118l253 1456h115l-214 -1227zM854 1566h-100l-175 280h133z" />
<glyph unicode="&#x40e;" horiz-adv-x="1096" d="M550 538l485 918h138l-674 -1245l-29 -50q-113 -188 -283 -185q-38 2 -85 13l21 101q48 -8 72 -8q104 0 179 129l98 181l-254 1064h123zM1036 1814q-14 -121 -98.5 -191.5t-206.5 -66.5q-118 2 -189 72.5t-65 186.5l101 -1q-5 -79 34.5 -124t120.5 -47q85 -1 137 44.5 t67 125.5z" />
<glyph unicode="&#x40f;" horiz-adv-x="1228" d="M316 1456h115l-235 -1350h652l235 1350h114l-253 -1456h-378l-62 -354h-115l62 354h-388z" />
<glyph unicode="&#x410;" d="M777 407h-527l-192 -407h-122l703 1456h106l197 -1456h-114zM300 514h463l-96 776z" />
<glyph unicode="&#x411;" horiz-adv-x="1096" d="M1010 1348h-606l-91 -522l282 -2q170 -6 260.5 -114.5t73.5 -287.5q-18 -194 -146 -310t-314 -112h-414l253 1456h721zM295 718l-106 -612l284 -2q141 2 233.5 90.5t108.5 230.5q15 130 -45.5 208.5t-177.5 83.5z" />
<glyph unicode="&#x412;" horiz-adv-x="1074" d="M62 0l252 1456l351 -1q170 -4 258.5 -101.5t72.5 -270.5q-11 -117 -75 -199.5t-170 -127.5q88 -33 133 -124.5t35 -213.5q-16 -192 -136.5 -305t-303.5 -113h-417zM296 699l-103 -593l286 -1q135 0 223 85t105 227q13 123 -39.5 199t-164.5 82zM314 804l252 -2 q129 0 215 75t100 210q13 121 -41.5 188.5t-177.5 71.5l-253 1z" />
<glyph unicode="&#x413;" horiz-adv-x="970" d="M1018 1348h-607l-234 -1348h-114l253 1456h721z" />
<glyph unicode="&#x414;" horiz-adv-x="1265" d="M968 106h132l-81 -459h-115l62 353h-883l-62 -353h-114l81 459l78 -2q106 95 187.5 261.5t141.5 440.5l137 650h670zM192 104l662 2l216 1242h-446l-110 -517l-35 -143q-101 -384 -287 -584z" />
<glyph unicode="&#x415;" horiz-adv-x="997" d="M844 697h-548l-103 -591h631l-19 -106h-743l252 1456h739l-19 -108h-625l-95 -545h549z" />
<glyph unicode="&#x416;" horiz-adv-x="1526" d="M968 691h-134l-120 -691h-114l120 691h-129l-512 -691h-149l570 761l-281 695h129l248 -657h142l115 657h114l-114 -657h132l475 657h143l-531 -708l301 -748h-133z" />
<glyph unicode="&#x417;" horiz-adv-x="1041" d="M548 795q149 0 241 76t107 213q14 128 -52 205.5t-197 81.5q-127 2 -218 -79.5t-117 -216.5l-112 -1q25 179 151.5 293t302.5 110q181 -4 277 -113t80 -284q-11 -110 -78.5 -196.5t-191.5 -141.5q188 -83 169 -338q-18 -195 -157 -312.5t-332 -111.5q-172 4 -271.5 122 t-82.5 302h113q-13 -136 55.5 -225.5t192.5 -93.5q149 -4 251 83.5t118 231.5q15 140 -51 211.5t-204 75.5l-150 1l20 108z" />
<glyph unicode="&#x418;" horiz-adv-x="1234" d="M1085 1456h117l-253 -1456h-114l214 1228l-866 -1228h-118l253 1456h115l-214 -1227z" />
<glyph unicode="&#x419;" horiz-adv-x="1234" d="M1085 1456h117l-253 -1456h-114l214 1228l-866 -1228h-118l253 1456h115l-214 -1227zM1107 1814q-14 -121 -98.5 -191.5t-206.5 -66.5q-118 2 -189 72.5t-65 186.5l101 -1q-5 -79 34.5 -124t120.5 -47q85 -1 137 44.5t67 125.5z" />
<glyph unicode="&#x41a;" horiz-adv-x="1116" d="M458 682h-160l-118 -682h-114l253 1456h114l-117 -667h145l566 667l150 -1l-613 -721l388 -734h-131z" />
<glyph unicode="&#x41b;" horiz-adv-x="1223" d="M1192 1456l-253 -1456h-114l234 1348h-483l-123 -572l-47 -253q-60 -285 -161.5 -406t-252.5 -117h-41l13 105l44 3q120 12 197.5 140t120.5 429l18 111l142 668h706z" />
<glyph unicode="&#x41c;" horiz-adv-x="1495" d="M460 1456l206 -1275l650 1275h152l-253 -1456h-114l110 634l117 615l-645 -1249h-87l-212 1257l-99 -625l-110 -632h-114l253 1456h146z" />
<glyph unicode="&#x41d;" horiz-adv-x="1231" d="M950 0h-115l122 697h-661l-121 -697h-114l253 1456h114l-114 -653h661l113 653h115z" />
<glyph unicode="&#x41e;" horiz-adv-x="1182" d="M492 -20q-175 4 -274 122.5t-102 328.5q-1 70 8 139l48 303q47 297 192.5 452.5t360.5 150.5q117 -3 201 -57.5t127.5 -159t45.5 -236.5q1 -70 -8 -139l-51 -319q-32 -194 -109 -327t-188 -197t-251 -61zM977 888q7 52 9 108q3 176 -65 271t-204 99q-172 5 -283 -122 t-148 -364l-50 -325l-6 -93q-6 -173 63.5 -271.5t205.5 -102.5q165 -5 274.5 111.5t149.5 344.5z" />
<glyph unicode="&#x41f;" horiz-adv-x="1231" d="M946 0h-114l235 1348h-653l-234 -1348h-114l253 1456h880z" />
<glyph unicode="&#x420;" horiz-adv-x="1081" d="M278 592l-103 -592h-114l253 1456l404 -1q175 -6 263.5 -121.5t71.5 -305.5q-18 -202 -143 -319.5t-326 -117.5zM296 699l293 -2q144 0 239 89t112 241q16 141 -44 228t-182 92l-305 1z" />
<glyph unicode="&#x421;" horiz-adv-x="1133" d="M985 454q-46 -237 -175 -358t-331 -116q-155 4 -247.5 109t-108.5 296l-2 57q-1 68 8 134l50 312q43 277 185.5 435.5t357.5 153.5q186 -5 279.5 -130t81.5 -347h-115q8 189 -56.5 277.5t-196.5 91.5q-164 5 -274.5 -120t-147.5 -364l-51 -331l-6 -82q-6 -105 20 -196 t85 -139t146 -51q149 -7 243 76.5t146 290.5z" />
<glyph unicode="&#x422;" horiz-adv-x="1045" d="M1106 1348h-401l-234 -1348h-115l234 1348h-401l20 108h916z" />
<glyph unicode="&#x423;" horiz-adv-x="1096" d="M550 538l485 918h138l-674 -1245l-29 -50q-113 -188 -283 -185q-38 2 -85 13l21 101q48 -8 72 -8q104 0 179 129l98 181l-254 1064h123z" />
<glyph unicode="&#x424;" horiz-adv-x="1297" d="M828 1307h17q111 -3 198 -57t138 -153t62 -223q13 -182 -62 -355t-214.5 -271t-308.5 -97l-23 1l-41 -212h-110l41 213h-18q-171 4 -277 123.5t-120 309.5q-13 182 62 354.5t213 270.5t308 98l25 -1l41 208h105zM687 1206q-145 0 -257.5 -87t-169 -243t-38.5 -317 q15 -132 87 -212t187 -89l40 -2l169 949zM817 1204l-168 -950h27q140 2 251 89t166.5 242.5t37.5 315.5q-15 132 -87 212t-187 89z" />
<glyph unicode="&#x425;" horiz-adv-x="1074" d="M567 844l420 612h141l-506 -724l284 -732h-129l-236 631l-434 -631h-141l522 744l-276 712h127z" />
<glyph unicode="&#x426;" horiz-adv-x="1245" d="M312 1456h115l-235 -1350h652l235 1350h113l-234 -1348h119l-89 -459h-105l62 351h-885z" />
<glyph unicode="&#x427;" horiz-adv-x="1165" d="M1150 1456l-253 -1456h-115l119 659q-170 -57 -323 -55q-182 2 -267 117.5t-60 329.5l67 405h114l-66 -406q-8 -68 -3 -128q7 -99 63.5 -153.5t158.5 -55.5q147 -3 328 53l123 690h114z" />
<glyph unicode="&#x428;" horiz-adv-x="1598" d="M429 1456l-235 -1350h459l235 1350h113l-234 -1350h457l234 1350h114l-252 -1456h-1258l252 1456h115z" />
<glyph unicode="&#x429;" horiz-adv-x="1630" d="M429 1456l-235 -1350h459l235 1350h113l-234 -1350h457l234 1350h114l-234 -1353h113l-88 -454h-100l62 351h-1263l252 1456h115z" />
<glyph unicode="&#x42a;" horiz-adv-x="1335" d="M162 1456h500l-109 -630l282 -1q173 -6 261.5 -116.5t71.5 -286.5q-18 -194 -146 -310t-314 -112h-413l235 1352h-387zM535 718l-107 -612l285 -1q139 0 231 87.5t109 232.5q15 129 -44 207.5t-177 84.5z" />
<glyph unicode="&#x42b;" horiz-adv-x="1451" d="M321 826l282 -2q170 -6 260.5 -114.5t73.5 -287.5q-18 -194 -146 -310t-314 -112h-412l253 1456h113zM303 718l-106 -612l284 -2q141 2 233.5 90.5t108.5 230.5q15 130 -45.5 208.5t-177.5 83.5zM1162 0h-113l253 1456h113z" />
<glyph unicode="&#x42c;" horiz-adv-x="1075" d="M313 826l282 -2q170 -6 260.5 -114.5t73.5 -287.5q-18 -194 -146 -310t-314 -112h-412l253 1456h113zM295 718l-106 -612l284 -2q141 2 233.5 90.5t108.5 230.5q15 130 -45.5 208.5t-177.5 83.5z" />
<glyph unicode="&#x42d;" horiz-adv-x="1155" d="M228 454q-3 -183 63 -273.5t199 -95.5q164 -5 278 142t166 451h-496l19 107h489q12 84 16 143q10 201 -56 318t-204 123q-136 5 -231 -83t-150 -285l-112 -1q51 232 182 356.5t318 119.5q117 -3 200.5 -67t125 -184t39.5 -267q-1 -109 -40 -338t-142.5 -396.5 t-259.5 -221.5q-68 -24 -149 -22q-180 3 -278 130.5t-91 343.5h114z" />
<glyph unicode="&#x42e;" horiz-adv-x="1563" d="M878 -20q-175 4 -274 122.5t-102 328.5q-1 70 8 139l18 114h-215l-119 -684h-113l253 1456h113l-116 -669h213l16 96q47 291 192 444.5t359 148.5q117 -3 201 -57.5t127.5 -159t45.5 -236.5q1 -70 -8 -139l-51 -319q-32 -194 -109 -327t-188 -197t-251 -61zM1363 888 q7 52 9 108q3 176 -65 271t-204 99q-172 5 -283 -122t-148 -364l-50 -325l-6 -93q-6 -173 63.5 -271.5t205.5 -102.5q165 -5 274.5 111.5t149.5 344.5z" />
<glyph unicode="&#x42f;" horiz-adv-x="1077" d="M693 0l103 592h-321l-361 -592h-128l394 631q-93 49 -138 148.5t-31 228.5q18 202 145.5 325.5t327.5 123.5l376 -1l-253 -1456h-114zM325 1011q-14 -137 40.5 -221t164.5 -89l284 -2l113 649l-247 2q-149 0 -243.5 -92t-111.5 -247z" />
<glyph unicode="&#x430;" horiz-adv-x="945" d="M604 0q-4 38 0 75l9 75q-133 -175 -311 -171q-128 2 -194 84.5t-56 212.5q11 164 136 259.5t315 95.5l184 -1l22 152q11 100 -32.5 157.5t-147.5 59.5q-98 2 -168.5 -57t-91.5 -158l-109 1q20 140 126.5 230t253.5 88q144 -2 218 -88t60 -236l-91 -552q-9 -56 -9 -108 l2 -107l-2 -12h-114zM322 85q93 -2 172.5 48.5t131.5 139.5l45 264l-154 1q-151 0 -245 -67.5t-106 -185.5q-9 -93 31.5 -145.5t124.5 -54.5z" />
<glyph unicode="&#x431;" horiz-adv-x="967" d="M560 1011q139 -4 220 -103.5t92 -268.5q3 -56 -5 -143q-17 -150 -83.5 -274t-163.5 -185t-213 -58q-146 4 -232.5 112t-93.5 287q-5 104 29.5 304t104.5 349.5t170 234.5t227 109t182.5 66t71.5 111h94q-15 -120 -88.5 -187t-244 -97t-280.5 -190q-61 -89 -116 -247 q146 184 329 180zM535 907q-129 5 -222 -102.5t-116 -288.5l-3 -24q-6 -60 -1 -130q7 -124 64.5 -200t156.5 -80q133 -5 225.5 110.5t117.5 303.5l3 32l2 29q7 150 -46 242q-61 105 -181 108z" />
<glyph unicode="&#x432;" horiz-adv-x="986" d="M50 0l188 1082l321 -1q157 -5 237 -78t70 -201q-11 -172 -198 -250q73 -22 112.5 -88.5t35.5 -155.5q-9 -142 -109.5 -225t-264.5 -83h-392zM246 497l-69 -395l269 -1q108 0 179 54.5t82 154.5q9 81 -37.5 131.5t-141.5 54.5zM263 599l221 -1q115 0 189 51.5t84 147.5 q17 173 -197 180l-231 1z" />
<glyph unicode="&#x433;" horiz-adv-x="751" d="M763 977h-437l-170 -977h-111l188 1082h549z" />
<glyph unicode="&#x434;" horiz-adv-x="1015" d="M39 101q175 199 245 502l99 479h533l-170 -979h96l-73 -421h-111l56 318h-650l-56 -318h-107l70 420zM159 101l476 2l150 865h-315l-57 -278q-40 -211 -99.5 -350t-154.5 -239z" />
<glyph unicode="&#x435;" horiz-adv-x="919" d="M410 -20q-175 3 -261 136.5t-61 353.5l12 100q31 254 153 395.5t306 136.5q131 -4 204.5 -85.5t82.5 -224.5q5 -85 -5 -166l-13 -95h-619l-10 -62q-9 -64 -5 -131q5 -115 64 -184t161 -72q81 -2 145.5 30t121.5 86l52 -76q-124 -146 -328 -142zM552 999 q-125 5 -210 -85.5t-125 -278.5h515l5 30q7 55 4 113q-5 100 -54 158.5t-135 62.5z" />
<glyph unicode="&#x436;" horiz-adv-x="1328" d="M808 498h-116l-87 -498h-110l87 498h-108l-398 -498h-147l460 563l-225 519h125l195 -474h116l83 474h111l-83 -474h109l361 474h142l-417 -532l259 -550h-132z" />
<glyph unicode="&#x437;" horiz-adv-x="894" d="M446 604q104 0 170 51t75 148q9 91 -40 143t-140 54q-93 2 -162.5 -56.5t-90.5 -153.5h-108q20 141 122 227.5t245 84.5q139 -2 217.5 -84t66.5 -215q-15 -166 -192 -252q67 -31 99 -96t25 -150q-12 -149 -118 -238.5t-262 -85.5q-143 4 -226 97t-73 233l109 -1 q-6 -99 49.5 -162t147.5 -65q108 -2 180 59t82 161q19 189 -182 195l-146 1l18 106z" />
<glyph unicode="&#x438;" horiz-adv-x="992" d="M801 1082h114l-188 -1082h-111l153 873l-609 -873h-114l188 1082h111l-153 -874z" />
<glyph unicode="&#x439;" horiz-adv-x="992" d="M801 1082h114l-188 -1082h-111l153 873l-609 -873h-114l188 1082h111l-153 -874zM919 1472q-14 -121 -98.5 -191.5t-206.5 -66.5q-118 2 -189 72.5t-65 186.5l101 -1q-5 -79 34.5 -124t120.5 -47q85 -1 137 44.5t67 125.5z" />
<glyph unicode="&#x43a;" horiz-adv-x="920" d="M374 494h-130l-87 -494h-111l188 1082h112l-84 -479h120l402 479h145l-459 -529l300 -553h-134z" />
<glyph unicode="&#x43b;" horiz-adv-x="993" d="M916 1082l-188 -1082h-111l170 977h-346l-83 -403l-24 -136q-27 -143 -68.5 -240.5t-110 -149t-157.5 -48.5h-45l14 107l33 1q97 5 156.5 103.5t87.5 304.5l13 88l95 478h564z" />
<glyph unicode="&#x43c;" horiz-adv-x="1272" d="M558 169l499 913h138l-188 -1082h-110l149 855l-473 -855h-78l-180 891l-156 -891h-109l188 1082h140z" />
<glyph unicode="&#x43d;" horiz-adv-x="992" d="M727 0h-111l87 495h-459l-87 -495h-111l188 1082h112l-85 -484h459l84 484h111z" />
<glyph unicode="&#x43e;" horiz-adv-x="985" d="M560 1103q147 -4 229 -107.5t85 -282.5q2 -91 -20 -234q-36 -238 -156.5 -371.5t-301.5 -128.5q-135 4 -216.5 93t-96.5 256l-2 40q-3 81 20.5 235.5t85 267.5t156 174t217.5 58zM192 398q-3 -148 51.5 -230t160.5 -86q130 -5 218.5 94.5t119.5 293.5l17 127l5 85 q3 145 -51.5 229t-160.5 88q-134 5 -225 -107t-117 -310l-16 -127z" />
<glyph unicode="&#x43f;" horiz-adv-x="992" d="M727 0h-111l170 977h-459l-170 -977h-111l188 1082h681z" />
<glyph unicode="&#x440;" horiz-adv-x="976" d="M429 -20q-83 2 -150 39t-105 112l-98 -547h-110l260 1498l102 1l-29 -148q120 171 294 167q254 -4 271 -330l1 -69q-5 -101 -25 -232q-38 -250 -142 -373t-269 -118zM747 593q11 110 7 174q-15 227 -194 230q-84 2 -153.5 -45.5t-118.5 -134.5l-96 -572q54 -157 216 -163 q258 -9 321 372z" />
<glyph unicode="&#x441;" horiz-adv-x="911" d="M390 82q217 -7 278 252h104q-28 -162 -132.5 -260.5t-255.5 -94.5q-149 2 -230.5 101t-82.5 281q-2 91 25 261q38 241 155 363t297 117q145 -5 221.5 -106.5t67.5 -278.5h-107q8 135 -41 206t-149 76q-271 9 -332 -376l-21 -160l-5 -72l-1 -32q-3 -269 209 -277z" />
<glyph unicode="&#x442;" horiz-adv-x="843" d="M848 978h-316l-170 -978h-111l170 978h-305l19 104h731z" />
<glyph unicode="&#x443;" horiz-adv-x="841" d="M349 188l405 894h122l-585 -1256q-61 -144 -131.5 -205.5t-157.5 -60.5q-30 0 -86 16l12 101l50 -8q128 -6 208 154l86 192l-144 1067h117z" />
<glyph unicode="&#x444;" horiz-adv-x="1258" d="M507 1104q79 -2 139 -43l87 475h111l-90 -479q68 44 148 44q132 -2 193 -125t49 -338l-9 -105q-39 -285 -143.5 -423t-259.5 -133q-86 2 -148 44l-80 -437h-110l81 435q-68 -39 -141 -39q-127 2 -188.5 112.5t-54.5 309.5l7 101q25 187 67 301q110 303 342 300zM1024 537 q12 98 12 175q-6 281 -166 284q-62 4 -126 -36l-147 -845q49 -34 116 -36q122 -2 199.5 106.5t109.5 330.5zM200 340q0 -123 41.5 -189t120.5 -68q58 -2 123 34l149 846q-44 35 -111 37q-125 2 -204 -120.5t-107 -354.5q-13 -94 -12 -185z" />
<glyph unicode="&#x445;" horiz-adv-x="864" d="M429 647l297 435h136l-386 -537l222 -545h-122l-169 452l-313 -452h-135l399 557l-212 525h122z" />
<glyph unicode="&#x446;" horiz-adv-x="1006" d="M234 1082h112l-171 -979h459l170 979h111l-170 -979h92l-82 -424h-101l56 321h-664z" />
<glyph unicode="&#x447;" horiz-adv-x="940" d="M676 0h-111l83 450q-117 -50 -227 -48q-122 1 -192.5 66t-82.5 185q-8 73 1 154l43 275h111l-44 -276q-6 -54 -5 -107q4 -190 176 -193q95 -2 231 47l94 529h112z" />
<glyph unicode="&#x448;" horiz-adv-x="1378" d="M346 1082l-171 -979h376l170 979h111l-171 -979h374l170 979h111l-188 -1082h-1082l188 1082h112z" />
<glyph unicode="&#x449;" horiz-adv-x="1395" d="M340 1082l-170 -979h376l170 979h111l-170 -979h372l170 979h111l-170 -979h110l-83 -424h-101l56 321h-1082l188 1082h112z" />
<glyph unicode="&#x44a;" horiz-adv-x="1097" d="M130 1082h387l-68 -392l238 -1q137 -6 210.5 -97.5t62.5 -236.5q-12 -159 -116.5 -257.5t-259.5 -97.5h-364l169 978h-277zM431 586l-84 -483l240 -1q107 2 177.5 69.5t83.5 181.5q11 101 -32.5 164.5t-131.5 67.5z" />
<glyph unicode="&#x44b;" horiz-adv-x="1310" d="M279 690l237 -2q138 -4 212.5 -96.5t61.5 -236.5q-12 -156 -114.5 -255.5t-262.5 -99.5h-363l188 1082h110zM261 586l-84 -483l240 -1q106 2 177.5 69t84.5 182q12 104 -33 166t-132 66zM1032 0h-110l188 1082h111z" />
<glyph unicode="&#x44c;" horiz-adv-x="944" d="M279 690l237 -2q138 -4 212.5 -96.5t61.5 -236.5q-12 -156 -114.5 -255.5t-262.5 -99.5h-363l188 1082h110zM261 586l-84 -483l240 -1q106 2 177.5 69t84.5 182q12 104 -33 166t-132 66z" />
<glyph unicode="&#x44d;" horiz-adv-x="942" d="M514 999q-97 3 -170.5 -66.5t-97.5 -188.5l-105 -1q22 155 128.5 259.5t251.5 100.5q131 -4 208.5 -99t92.5 -271l3 -53q0 -203 -63 -368.5t-167 -251t-237 -81.5q-141 5 -218 113t-63 274h107q-13 -122 37 -201.5t145 -82.5q122 -5 208 100t130 313h-391l19 104h383 l4 81q0 150 -53 232.5t-152 86.5z" />
<glyph unicode="&#x44e;" horiz-adv-x="1407" d="M262 590h236q36 162 105.5 281t164 177t205.5 55q99 -3 171 -56.5t109.5 -152.5t39.5 -217q3 -192 -62 -359t-175.5 -255t-247.5 -84q-140 4 -225.5 110.5t-94.5 285.5q-3 58 3 113l-247 -1l-85 -487h-109l188 1082h110zM597 429q-3 -161 53.5 -252t164.5 -95 q137 -5 232.5 118t126.5 326l3 32l6 88q3 158 -53.5 253t-164.5 99q-101 4 -182.5 -66t-133 -207t-52.5 -296z" />
<glyph unicode="&#x44f;" horiz-adv-x="957" d="M878 1082l-188 -1082h-111l76 435h-255l-293 -435h-128l308 454q-73 34 -109.5 112.5t-29.5 183.5q12 150 114 241.5t255 91.5zM259 748q-9 -90 27.5 -146.5t113.5 -61.5l273 -1l76 439l-236 2q-104 -2 -173 -65.5t-81 -166.5z" />
<glyph unicode="&#x450;" horiz-adv-x="919" d="M410 -20q-175 3 -261 136.5t-61 353.5l12 100q31 254 153 395.5t306 136.5q131 -4 204.5 -85.5t82.5 -224.5q5 -85 -5 -166l-13 -95h-619l-10 -62q-9 -64 -5 -131q5 -115 64 -184t161 -72q81 -2 145.5 30t121.5 86l52 -76q-124 -146 -328 -142zM552 999 q-125 5 -210 -85.5t-125 -278.5h515l5 30q7 55 4 113q-5 100 -54 158.5t-135 62.5zM650 1245h-100l-175 280h133z" />
<glyph unicode="&#x451;" horiz-adv-x="919" d="M410 -20q-175 3 -261 136.5t-61 353.5l12 100q31 254 153 395.5t306 136.5q131 -4 204.5 -85.5t82.5 -224.5q5 -85 -5 -166l-13 -95h-619l-10 -62q-9 -64 -5 -131q5 -115 64 -184t161 -72q81 -2 145.5 30t121.5 86l52 -76q-124 -146 -328 -142zM552 999 q-125 5 -210 -85.5t-125 -278.5h515l5 30q7 55 4 113q-5 100 -54 158.5t-135 62.5zM319 1395q2 34 26 58t59 25q35 0 57.5 -24t19.5 -59q-2 -34 -26.5 -57t-58.5 -24q-35 -1 -57 22.5t-20 58.5zM743 1394q2 34 26 58t59 25t57 -23.5t20 -59.5q-2 -34 -26.5 -57t-59.5 -24 q-34 0 -56 23t-20 58z" />
<glyph unicode="&#x452;" horiz-adv-x="965" d="M611 1234h-248l-64 -322q131 193 304 190q114 -2 173.5 -82.5t58.5 -224.5l-6 -91l-129 -793q-21 -168 -100 -261t-204 -90q-48 2 -107 22l24 100q47 -17 89 -19q145 0 186 236l131 807l5 65q7 224 -154 228q-92 2 -178 -74t-114 -173l-129 -752h-111l214 1234h-144 l18 104h144l35 198h111l-36 -198h249z" />
<glyph unicode="&#x453;" horiz-adv-x="751" d="M763 977h-437l-170 -977h-111l188 1082h549zM631 1504l151 -1l-269 -278h-112z" />
<glyph unicode="&#x454;" horiz-adv-x="942" d="M400 82q98 -3 171.5 63.5t105.5 188.5h104q-29 -158 -137 -258.5t-251 -96.5q-148 4 -227 117.5t-79 304.5q0 206 63 371.5t167.5 249.5t239.5 80q141 -4 219.5 -111t69.5 -274h-105q5 128 -47 203.5t-145 78.5q-219 8 -315 -311l-25 -95h393l-18 -104h-386l-5 -84 q-3 -153 50 -236t157 -87z" />
<glyph unicode="&#x455;" horiz-adv-x="897" d="M615 274q15 109 -132 194l-57 31l-100 56q-164 97 -154 251q7 127 106 212.5t242 83.5q142 -4 220 -91.5t68 -225.5h-110q6 94 -44 152t-140 60q-91 2 -157 -50t-77 -137q-12 -99 110 -169l175 -97q171 -102 161 -264q-9 -136 -112 -220t-252 -80q-144 2 -231.5 88.5 t-77.5 227.5l111 -1q-4 -100 49 -155.5t154 -56.5q99 0 168 52t80 139z" />
<glyph unicode="&#x456;" horiz-adv-x="428" d="M161 0h-111l188 1082h111zM276 1394q5 66 77 83q74 -13 68 -83q-4 -64 -77 -82q-72 13 -68 82z" />
<glyph unicode="&#x457;" horiz-adv-x="428" d="M159 0h-110l188 1082h111zM60 1383q2 34 26 58t59 25q35 0 57.5 -24t19.5 -59q-2 -34 -26.5 -57t-58.5 -24q-35 -1 -57 22.5t-20 58.5zM484 1382q2 34 26 58t59 25t57 -23.5t20 -59.5q-2 -34 -26.5 -57t-59.5 -24q-34 0 -56 23t-20 58z" />
<glyph unicode="&#x458;" horiz-adv-x="433" d="M345 1082l-206 -1211q-21 -156 -93.5 -235t-186.5 -76q-37 1 -93 21l13 101q43 -14 74 -16q139 -3 174 199l207 1217h111zM347 1477q31 0 50.5 -22.5t17.5 -60.5q-2 -31 -23 -56t-54 -26q-34 0 -51 24.5t-15 57.5t24 58t51 25z" />
<glyph unicode="&#x459;" horiz-adv-x="1473" d="M898 1082l-75 -432l238 -2q133 -4 209.5 -89.5t66.5 -223.5q-12 -151 -114 -243t-264 -92h-359l170 977h-336l-86 -418l-22 -125q-42 -229 -123.5 -333.5t-211.5 -100.5h-43l13 107l36 1q165 7 224 307l31 189l95 478h551zM805 546l-77 -444l240 -1q108 2 178 67t82 170 q10 90 -34.5 146.5t-135.5 60.5z" />
<glyph unicode="&#x45a;" horiz-adv-x="1486" d="M271 653h459l74 429h111l-75 -432l237 -2q133 -4 209.5 -89.5t66.5 -223.5q-12 -151 -113.5 -243t-258.5 -92h-365l96 549h-459l-96 -549h-111l188 1082h112zM822 546l-77 -444l239 -1q108 2 177.5 67t81.5 170q10 89 -33.5 146t-134.5 61z" />
<glyph unicode="&#x45b;" horiz-adv-x="982" d="M625 1246h-263l-62 -334q134 193 304 190q210 -4 229 -262l2 -45l-6 -91l-118 -704h-109l117 706l5 65q7 223 -154 227q-90 2 -176 -72t-117 -174l-128 -752h-111l216 1246h-135l19 104h134l33 186h111l-35 -186h262z" />
<glyph unicode="&#x45c;" horiz-adv-x="920" d="M374 494h-130l-87 -494h-111l188 1082h112l-84 -479h120l402 479h145l-459 -529l300 -553h-134zM723 1503l151 -1l-269 -278h-112z" />
<glyph unicode="&#x45d;" horiz-adv-x="992" d="M801 1082h114l-188 -1082h-111l153 873l-609 -873h-114l188 1082h111l-153 -874zM666 1224h-100l-175 280h133z" />
<glyph unicode="&#x45e;" horiz-adv-x="841" d="M349 188l405 894h122l-585 -1256q-61 -144 -131.5 -205.5t-157.5 -60.5q-30 0 -86 16l12 101l50 -8q128 -6 208 154l86 192l-144 1067h117zM871 1493q-14 -121 -98.5 -191.5t-206.5 -66.5q-118 2 -189 72.5t-65 186.5l101 -1q-5 -79 34.5 -124t120.5 -47q85 -1 137 44.5 t67 125.5z" />
<glyph unicode="&#x45f;" horiz-adv-x="992" d="M346 1082l-171 -979h459l170 979h111l-188 -1082h-282l-62 -353h-110l62 353h-289l188 1082h112z" />
<glyph unicode="&#x460;" horiz-adv-x="1527" d="M1512 1456l-178 -1042q-32 -213 -136 -326.5t-257 -108.5q-96 3 -160 57t-85 147q-117 -211 -311 -204q-114 4 -181.5 80.5t-78.5 206.5q-7 75 1 147l177 1043h115l-176 -1044l-4 -65v-32q7 -222 158 -230q106 -5 179 83t96 244l178 1044h118l-176 -1044l-3 -67 q-3 -120 41 -189t126 -71q101 -5 170.5 78.5t95.5 242.5l178 1050h113z" />
<glyph unicode="&#x461;" horiz-adv-x="1406" d="M1324 1082l-118 -702q-26 -190 -122 -298.5t-239 -103.5q-85 3 -143 51.5t-78 130.5q-109 -189 -280 -182q-104 3 -166 75.5t-72 191.5q-6 70 1 135l118 702h111l-118 -703l-3 -90q0 -93 36.5 -149.5t103.5 -58.5q93 -5 159.5 74.5t87.5 223.5l118 703h110l-117 -703 l-3 -59q-3 -111 36 -174t112 -65q89 -5 152.5 73t85.5 224l118 704h110z" />
<glyph unicode="&#x462;" horiz-adv-x="1075" d="M605 1127h-240l-52 -301l282 -2q170 -6 260.5 -114.5t73.5 -287.5q-18 -194 -146 -310t-314 -112h-412l196 1127h-154l19 104h153l39 225h113l-40 -225h240zM295 718l-106 -612l284 -2q141 2 233.5 90.5t108.5 230.5q15 130 -45.5 208.5t-177.5 83.5z" />
<glyph unicode="&#x463;" horiz-adv-x="943" d="M612 1082h-265l-65 -373l237 -1q137 -6 211 -101.5t61 -243.5q-12 -155 -112 -257.5t-253 -105.5h-377l188 1082h-160l18 103h159l64 363h110l-63 -363h265zM265 605l-88 -502l239 -1q110 2 180.5 73t83.5 187q12 106 -31.5 171.5t-132.5 70.5z" />
<glyph unicode="&#x464;" horiz-adv-x="1541" d="M336 813l195 -2q37 168 79 272q161 401 487 394q177 -5 271.5 -131.5t89.5 -344.5h-113q5 359 -255 369q-147 4 -251.5 -106.5t-169.5 -358.5l-23 -95l438 3l-19 -104h-429l-13 -72l-11 -107q-8 -118 16.5 -223.5t84 -161.5t149.5 -59q144 -5 240.5 84t148.5 284h111 q-48 -226 -180 -352t-327 -121q-162 4 -255.5 127.5t-101.5 341.5v49q1 78 23 210h-203l-124 -709h-113l253 1456h113z" />
<glyph unicode="&#x465;" horiz-adv-x="1290" d="M263 602h187q50 241 167 373t286 127q141 -4 220 -111.5t70 -274.5l-105 1q5 128 -47 203.5t-145 78.5q-120 4 -204 -91t-133 -306h384l-18 -104h-378l-6 -84q-5 -114 26 -197q49 -130 179 -135q104 -4 177.5 67.5t100.5 184.5h104q-26 -153 -134.5 -256t-253.5 -99 q-144 4 -224.5 114.5t-81.5 291.5q-1 59 6 114l-195 -1l-87 -498h-111l188 1082h112z" />
<glyph unicode="&#x466;" horiz-adv-x="1051" d="M745 472h-181l-83 -472h-111l82 472h-168l-220 -472h-121l686 1456h108l177 -1456h-114zM335 582h397l-78 683z" />
<glyph unicode="&#x467;" horiz-adv-x="931" d="M596 345h-130l-60 -345h-111l61 345h-131l-176 -345h-119l555 1082h97l179 -1082h-108zM277 449h301l-61 364l-7 109l-51 -120z" />
<glyph unicode="&#x468;" horiz-adv-x="1514" d="M311 582h336l413 874h108l177 -1456h-113l-55 472h-183l-82 -472h-112l83 472h-168l-220 -472h-122l224 473h-305l-82 -473h-115l253 1456h115zM766 582h398l-78 685z" />
<glyph unicode="&#x469;" horiz-adv-x="1306" d="M264 449h260l325 633h97l180 -1082h-109l-58 345h-128l-61 -345h-111l61 345h-130l-177 -345h-119l177 344h-224l-61 -344h-110l188 1082h111zM642 449h299l-60 364l-7 108l-51 -119z" />
<glyph unicode="&#x46a;" horiz-adv-x="1420" d="M40 0l63 378q27 198 135.5 300.5t299.5 102.5l86 -1l-233 676h938l-474 -678h65q171 -4 248.5 -108.5t55.5 -290.5l-62 -379h-114l62 380q7 61 3 114q-13 170 -198 178l-128 2l-12 -17l-116 -657h-114l120 664l-2 9l-130 2q-141 0 -218.5 -72t-98.5 -224l-62 -379h-114z M732 780h5l382 568l-565 -1z" />
<glyph unicode="&#x46b;" horiz-adv-x="1237" d="M731 592q155 -7 225.5 -110t49.5 -289l-30 -193h-111l30 194q7 58 5 110q-7 178 -183 186l-55 1l-12 -17l-84 -474h-110l88 483l-1 8l-59 1q-262 4 -301 -299l-30 -193h-112l30 193q26 196 130.5 299t296.5 103l-174 487h760zM608 594h5l267 383l-398 -1z" />
<glyph unicode="&#x46c;" horiz-adv-x="1867" d="M330 781h703l1 -1l32 1l-228 675h937l-474 -678h65q168 -4 247 -107t57 -292l-61 -379h-115l62 380q7 61 4 114q-13 171 -196 178l-131 2l-12 -17l-116 -657h-113l119 664l-2 9l-130 2q-139 2 -217.5 -71t-99.5 -224l-62 -380h-115l68 403q32 178 139 276l-380 -2 l-118 -677h-114l253 1456h114zM1179 780h3l383 568l-564 -1z" />
<glyph unicode="&#x46d;" horiz-adv-x="1611" d="M415 0l32 192q14 86 44 162t93 138l-339 -2l-86 -490h-110l188 1082h111l-86 -488h616l-180 488h761l-354 -490q156 -7 226.5 -110t49.5 -289l-30 -193h-111l30 194q7 58 5 110q-7 175 -179 185l-58 2l-14 -19l-84 -472h-110l89 482l-2 9l-71 1q-238 0 -285 -278 l-33 -214h-113zM982 594h5l267 383l-397 -1z" />
<glyph unicode="&#x46e;" horiz-adv-x="908" d="M415 796q149 0 241.5 76.5t107.5 212.5q12 118 -45.5 189.5t-177.5 76.5l-268 1l19 104l252 -1q164 -6 254 -108t76 -267q-22 -226 -272 -337q191 -84 172 -340q-15 -182 -145.5 -298.5t-323.5 -114.5l-54 1q-75 -2 -117 -38t-49 -97q-5 -55 23.5 -102t84.5 -76l-48 -86 q-78 40 -122 112.5t-40 154.5q6 111 80 173t193 62l51 -1q147 0 244 85.5t112 221.5q15 139 -50 213t-204 78l-118 1l19 105zM671 1722l171 189l97 1l-1 -13l-235 -261h-76l-154 262l1 13h96z" />
<glyph unicode="&#x46f;" horiz-adv-x="856" d="M349 600q127 0 205 53t88 151q8 80 -45.5 125t-152.5 47l-247 1l19 105l231 -1q146 -5 231 -81t74 -200q-14 -163 -211 -252q76 -32 113 -93t31 -143q-9 -146 -124.5 -234t-287.5 -88l-37 1q-66 -2 -112 -34t-54 -101q-11 -114 107 -176l-50 -88q-74 39 -119 111.5 t-41 155.5q5 107 78.5 170.5t214 63.5t223 59t92.5 156q19 178 -223 187l-127 1l19 105zM520 1391l173 190l97 1l-1 -13l-235 -261h-77l-154 262l1 13l96 -1z" />
<glyph unicode="&#x470;" horiz-adv-x="1207" d="M631 493q156 20 259 137t135 308l88 518h113l-91 -536q-42 -237 -179 -376.5t-342 -155.5l-71 -388h-114l71 389q-137 20 -222.5 116.5t-103.5 248.5q-11 91 1 184l87 518h113l-87 -519q-9 -69 -4 -140q9 -122 68 -200t161 -99l169 958h114z" />
<glyph unicode="&#x471;" horiz-adv-x="1194" d="M725 1082l-166 -1000q137 18 236 113t148.5 263t39.5 377q-6 126 -39 248l113 -1q29 -124 35 -248q10 -240 -52 -433t-190.5 -299.5t-310.5 -119.5l-77 -426h-110l78 428q-164 24 -245.5 148.5t-76.5 328.5q1 67 9 132l82 489h112l-83 -492l-9 -101l-1 -51 q4 -307 224 -352l176 996h107z" />
<glyph unicode="&#x472;" horiz-adv-x="1174" d="M485 -20q-177 4 -274.5 144t-95.5 383q0 116 35.5 316.5t113.5 347.5q166 311 454 305q179 -4 276.5 -145.5t94.5 -382.5q-1 -76 -10 -144l-20 -129q-52 -333 -202.5 -517.5t-371.5 -177.5zM253 775h710q11 73 16 144q10 205 -58.5 323t-209.5 124q-164 7 -280 -132.5 t-171 -421.5zM949 672l-709 -1l-4 -22l-10 -110q-10 -209 60 -328t206 -123q164 -7 278 127.5t175 434.5z" />
<glyph unicode="&#x473;" horiz-adv-x="994" d="M563 1103q148 -4 233 -119.5t88 -305.5q3 -193 -62 -360t-174.5 -255t-248.5 -84q-148 4 -232 118t-88 302q-6 184 58.5 355.5t176 262t249.5 86.5zM406 82q127 -5 219 103.5t137 305.5h-573l-3 -84q0 -142 57 -231.5t163 -93.5zM556 999q-127 5 -219 -103t-137 -301h573 l3 84q-3 146 -60 231t-160 89z" />
<glyph unicode="&#x474;" horiz-adv-x="1081" d="M409 260l6 -100l443 1045q60 156 127 214.5t159 58.5l31 -1l-14 -110l-9 1q-103 3 -163 -126l-26 -60l-518 -1182h-106l-149 1456h120z" />
<glyph unicode="&#x475;" horiz-adv-x="873" d="M323 268l5 -118l309 747q76 210 215 207q41 -2 88 -25l-27 -96q-24 13 -46 15q-64 3 -108 -88l-15 -33l-394 -877h-89l-121 1082h110z" />
<glyph unicode="&#x476;" horiz-adv-x="1081" d="M409 260l6 -100l443 1045q60 156 127 214.5t159 58.5l31 -1l-14 -110l-9 1q-103 3 -163 -126l-26 -60l-518 -1182h-106l-149 1456h120zM619 1503h-114l-201 266h144zM819 1503h-101l-158 266h131z" />
<glyph unicode="&#x477;" horiz-adv-x="873" d="M323 268l5 -118l309 747q76 210 215 207q41 -2 88 -25l-27 -96q-24 13 -46 15q-64 3 -108 -88l-15 -33l-394 -877h-89l-121 1082h110zM486 1208h-114l-201 266h144zM686 1208h-101l-158 266h131z" />
<glyph unicode="&#x478;" horiz-adv-x="2023" d="M492 -20q-175 4 -274 122.5t-102 328.5q-1 70 8 139l48 303q47 297 192.5 452.5t360.5 150.5q117 -3 201 -57.5t127.5 -159t45.5 -236.5q1 -70 -8 -139l-51 -319q-32 -194 -109 -327t-188 -197t-251 -61zM977 888q7 52 9 108q3 176 -65 271t-204 99q-172 5 -283 -122 t-148 -364l-50 -325l-6 -93q-6 -173 63.5 -271.5t205.5 -102.5q165 -5 274.5 111.5t149.5 344.5zM1531 188l405 894h122l-585 -1256q-61 -144 -131.5 -205.5t-157.5 -60.5q-30 0 -86 16l12 101l50 -8q128 -6 208 154l86 192l-144 1067h117z" />
<glyph unicode="&#x479;" horiz-adv-x="1826" d="M560 1103q147 -4 229 -107.5t85 -282.5q2 -91 -20 -234q-36 -238 -156.5 -371.5t-301.5 -128.5q-135 4 -216.5 93t-96.5 256l-2 40q-3 81 20.5 235.5t85 267.5t156 174t217.5 58zM192 398q-3 -148 51.5 -230t160.5 -86q130 -5 218.5 94.5t119.5 293.5l17 127l5 85 q3 145 -51.5 229t-160.5 88q-134 5 -225 -107t-117 -310l-16 -127zM1334 188l405 894h122l-585 -1256q-61 -144 -131.5 -205.5t-157.5 -60.5q-30 0 -86 16l12 101l50 -8q128 -6 208 154l86 192l-144 1067h117z" />
<glyph unicode="&#x47a;" horiz-adv-x="1174" d="M538 -16l-25 -126h-111l26 128q-157 29 -237 170t-74 363q2 69 10 131l22 142q48 309 185.5 482.5t344.5 198.5l23 120l112 -1l-25 -122q103 -21 174 -93t102.5 -190t27.5 -252q-3 -69 -11 -131l-24 -152q-47 -297 -180 -469t-340 -199zM970 808q16 125 13 212 q-15 289 -207 339l-23 -115l-110 2l20 117q-159 -27 -260.5 -172.5t-139.5 -391.5l-20 -130q-20 -128 -14 -234q8 -149 62.5 -233.5t148.5 -107.5l23 116l111 -2l-23 -116q156 29 257 172.5t138 386.5z" />
<glyph unicode="&#x47b;" horiz-adv-x="981" d="M517 1099l22 113l110 -2l-23 -114q126 -30 191.5 -142t65.5 -288q0 -164 -51 -317.5t-153.5 -249.5t-239.5 -116l-23 -116l-109 2l24 118q-121 27 -187.5 136.5t-67.5 287.5q-3 155 48.5 312.5t153.5 256t239 119.5zM451 86q146 36 233.5 194t89.5 399l-2 48 q-18 215 -159 264l-23 -119l-109 2l24 120q-124 -32 -206.5 -152t-108.5 -320l-6 -79q-7 -143 33.5 -234t124.5 -119l23 116l109 -2z" />
<glyph unicode="&#x47c;" horiz-adv-x="1519" d="M1175 1453q114 -5 180 -86t75 -214q5 -78 -3 -150l-94 -579q-35 -220 -135 -335.5t-252 -110.5q-95 3 -162.5 56t-89.5 146q-119 -209 -309 -202q-113 4 -180 81t-80 225l-2 47q-1 51 5 99l93 573q30 216 134 333t268 120l-13 -107q-104 -3 -175 -87.5t-98 -252.5 l-93 -580l-5 -66q-7 -125 33 -200.5t123 -79.5q105 -5 179 83t97 246l78 469h116l-78 -469q-6 -48 -3 -104q4 -101 48.5 -161t124.5 -64q100 -4 167.5 82.5t95.5 263.5l93 575l6 68q7 126 -31.5 196t-120.5 78zM1317 1684l-8 -87l-46 2q-65 7 -166.5 81.5t-168.5 74.5 q-53 0 -91.5 -39t-50.5 -107l-2 -18h-82l2 21q11 110 71 173.5t150 61.5q76 -2 181 -81.5t183 -81.5h28zM821 1381q64 64 79 126l21 112l96 -1l-15 -95q-19 -117 -139 -193z" />
<glyph unicode="&#x47d;" horiz-adv-x="1371" d="M1008 1093q112 -6 173.5 -92t61.5 -236l-5 -91l-43 -295q-33 -198 -124 -302t-228 -99q-87 3 -148 50t-82 132q-109 -189 -279 -182q-114 4 -175.5 90.5t-62.5 240.5q-1 47 4 90l44 301q32 191 125.5 292t239.5 104l-13 -103q-201 -10 -247 -325l-39 -270l-4 -59 q-7 -116 29 -185.5t110 -73.5q91 -5 156.5 73t87.5 221l40 250h110l-38 -245q-5 -44 -2 -95q4 -92 44.5 -147t111.5 -57q188 -5 236 331l38 264l7 94l-1 36q-12 172 -134 183zM1191 1357l-8 -87h-26q-76 2 -181.5 80t-173.5 78q-53 0 -91.5 -39t-50.5 -107l-2 -18h-80l2 21 q10 107 68.5 171.5t152.5 62.5q77 -2 181.5 -81t180.5 -81h28zM689 1045q65 65 79 133l19 103l96 -1l-14 -102q-18 -109 -131 -187z" />
<glyph unicode="&#x47e;" horiz-adv-x="1527" d="M1512 1456l-178 -1042q-32 -213 -136 -326.5t-257 -108.5q-96 3 -160.5 57t-84.5 147q-117 -211 -311 -204q-124 4 -192.5 94t-71.5 242q-1 50 5 98l177 1043h115l-176 -1044l-4 -65v-32q7 -222 158 -230q106 -5 179 83t96 244l178 1044h118l-176 -1044l-3 -67 q-3 -120 41 -189t126 -71q101 -5 170.5 78.5t95.5 242.5l178 1050h113zM642 1696l12 82h626l-14 -82h-269l-20 -114h-103l23 114h-255z" />
<glyph unicode="&#x47f;" horiz-adv-x="1406" d="M1324 1082l-122 -726q-34 -186 -127 -283.5t-230 -94.5q-85 3 -143 51t-78 131q-107 -187 -280 -183q-113 4 -175.5 87.5t-65.5 225.5q-1 46 4 90l118 702h111l-118 -703l-3 -90q0 -92 36 -148.5t104 -60.5q94 -5 160 75t87 224l118 703h110l-117 -703l-3 -59 q-3 -111 36 -174.5t112 -65.5q89 -3 151.5 72.5t85.5 220.5l119 709h110zM516 1374l14 82h626l-12 -82h-271l-23 -131h-103l27 131h-258z" />
<glyph unicode="&#x480;" horiz-adv-x="1110" d="M469 -366h-113l64 348q-144 25 -221.5 156t-78.5 346l1 37q3 102 37 307t123 364q163 291 430 285q183 -5 275.5 -134t76.5 -343h-113q11 180 -53.5 272.5t-191.5 97.5q-165 5 -280.5 -149t-157.5 -429l-22 -143q-16 -122 -10 -223q8 -161 68.5 -248t167.5 -92l73 -1z " />
<glyph unicode="&#x481;" horiz-adv-x="925" d="M387 -366h-111l65 350q-125 25 -189 139.5t-61 288.5q4 210 66 367t165.5 242t236.5 81q139 -3 217 -111.5t64 -276.5h-106q11 130 -39.5 206t-142.5 79q-153 5 -245.5 -151t-105.5 -413q-10 -152 39 -248.5t154 -102.5l67 -2z" />
<glyph unicode="&#x482;" horiz-adv-x="1071" d="M465 428l207 -172l-61 -91l-207 169l-210 -334h-123l256 403l-207 171l59 90l209 -170l249 397l-207 171l60 92l209 -170l225 358h122l-272 -426l209 -171l-63 -90l-205 169z" />
<glyph unicode="&#x483;" horiz-adv-x="0" d="M-462 1338l-22 -123h-103l36 204h420l19 108l102 -1l-33 -188h-419z" />
<glyph unicode="&#x484;" horiz-adv-x="0" d="M-555 1395q81 2 197.5 81.5t196.5 79.5q82 0 128.5 -60.5t39.5 -160.5l-4 -32h-82q5 46 2 69q-7 88 -87 91q-74 2 -194 -75t-199 -79h-32l10 86h24z" />
<glyph unicode="&#x485;" horiz-adv-x="0" d="M-359 1507l23 125h122l-25 -147l29 -115l-54 -45z" />
<glyph unicode="&#x486;" horiz-adv-x="0" d="M-290 1325l-47 49l72 126l21 132h124l-22 -132z" />
<glyph unicode="&#x488;" horiz-adv-x="0" d="M-617 1268q12 89 72 139.5t147 48.5q88 -2 139 -52.5t49 -137.5h-109q5 102 -78 102q-82 0 -109 -100h-111zM-92 991q12 86 69.5 137t148.5 51q88 -2 139.5 -52t49.5 -138h-110q5 102 -78 102q-77 0 -107 -100h-112zM3 487q12 90 71.5 140t146.5 48q87 -1 138 -52 t50 -137h-110q5 102 -77 102q-81 0 -110 -100zM-277 -32q13 91 71.5 140.5t145.5 47.5q88 -1 139 -51.5t49 -137.5h-110q5 102 -77 102q-79 0 -109 -100zM-887 -315q12 88 70.5 138.5t148.5 49.5q90 -2 140.5 -54.5t48.5 -135.5h-110q5 102 -77 102q-81 0 -110 -100h-111z M-1221 991q12 89 72 139.5t148 48.5t139 -52.5t49 -137.5h-109q5 102 -78 102q-82 0 -109 -100h-112zM-1477 487q12 90 71.5 140t146.5 48q88 -1 138.5 -51t48.5 -138h-109q5 102 -78 102q-80 0 -109 -100zM-1406 -32q12 90 71.5 140t146.5 48q88 -1 139 -51t49 -138h-110 q5 102 -78 102q-81 0 -108 -100z" />
<glyph unicode="&#x489;" horiz-adv-x="0" d="M-572 -59l11 -17l-173 -337h-100l128 352zM-550 1125l-11 15l173 338h100l-128 -351zM15 631l12 11l309 -126l-17 -94l-323 70zM-1140 432l-13 -10l-309 126l17 94l323 -70zM-151 1002l3 16l335 154l59 -74l-311 -195zM-981 21l-4 -17l-335 -154l-59 75l313 195z M-968 860l-17 2l-92 332l72 65l146 -303zM-166 161l16 -2l93 -331l-73 -67l-144 303z" />
<glyph unicode="&#x48a;" horiz-adv-x="1234" d="M1085 1456h117l-253 -1456h-114l214 1228l-866 -1228h-118l253 1456h115l-214 -1227zM1107 1814q-14 -121 -98.5 -191.5t-206.5 -66.5q-118 2 -189 72.5t-65 186.5l101 -1q-5 -79 34.5 -124t120.5 -47q85 -1 137 44.5t67 125.5zM884 -321l-75 58q107 123 133 248l28 159 h116l-23 -145q-29 -188 -179 -320z" />
<glyph unicode="&#x48b;" horiz-adv-x="992" d="M801 1082h114l-188 -1082h-111l153 873l-609 -873h-114l188 1082h111l-153 -874zM919 1472q-14 -121 -98.5 -191.5t-206.5 -66.5q-118 2 -189 72.5t-65 186.5l101 -1q-5 -79 34.5 -124t120.5 -47q85 -1 137 44.5t67 125.5zM663 -321l-75 58q107 123 133 248l28 159h116 l-23 -145q-29 -188 -179 -320z" />
<glyph unicode="&#x48c;" horiz-adv-x="1075" d="M605 1127h-240l-52 -301l282 -2q170 -6 260.5 -114.5t73.5 -287.5q-18 -194 -146 -310t-314 -112h-412l196 1127h-154l19 104h153l39 225h113l-40 -225h240zM295 718l-106 -612l284 -2q141 2 233.5 90.5t108.5 230.5q15 130 -45.5 208.5t-177.5 83.5z" />
<glyph unicode="&#x48d;" horiz-adv-x="943" d="M658 1352h-264l-112 -643l237 -1q137 -6 211 -101.5t61 -243.5q-12 -155 -112 -257.5t-253 -105.5h-377l234 1352h-159l18 104h159l32 180h111l-32 -180h265zM265 605l-88 -502l239 -1q110 2 180.5 73t83.5 187q12 106 -31.5 171.5t-132.5 70.5z" />
<glyph unicode="&#x48e;" horiz-adv-x="1105" d="M276 592l-103 -592h-115l253 1456l404 -1q175 -6 264.5 -122.5t70.5 -302.5q-23 -206 -159 -330l80 -148l-74 -64l-86 155q-99 -49 -228 -51h-307zM831 797q65 73 90.5 166t12.5 184q-13 90 -71 143t-152 57l-304 1l-113 -649h290q88 2 170 39l-74 136l75 66z" />
<glyph unicode="&#x48f;" horiz-adv-x="992" d="M674 111l69 -140l-76 -65l-65 133q-88 -60 -177 -58q-81 1 -146.5 37.5t-105.5 108.5l-97 -543h-110l260 1498l102 1l-28 -143q122 167 293 163q126 -4 194.5 -102t73.5 -286v-49l-8 -110q-20 -138 -59.5 -246t-119.5 -199zM740 558q13 94 8 176q-16 256 -189 263 q-168 3 -275 -200l-89 -532q24 -84 78 -132t131 -48q69 -2 145 50l-68 138l78 64l60 -124q90 129 119 323z" />
<glyph unicode="&#x490;" horiz-adv-x="963" d="M1016 1351h-2v-3h-611l-234 -1348h-113l252 1456h612l63 353h105z" />
<glyph unicode="&#x491;" horiz-adv-x="781" d="M762 977h-441l-169 -977h-112l188 1082h442l60 343h111z" />
<glyph unicode="&#x492;" horiz-adv-x="970" d="M571 707h-271l-123 -707h-114l123 707h-121l19 104h120l112 645h721l-19 -108h-607l-93 -537h271z" />
<glyph unicode="&#x493;" horiz-adv-x="751" d="M506 502h-263l-87 -502h-111l87 502h-132l19 104h131l83 476h549l-19 -105h-437l-65 -371h263z" />
<glyph unicode="&#x494;" horiz-adv-x="1022" d="M1018 1348h-607l-91 -520l162 -1q207 -6 308.5 -156t72.5 -407q-12 -112 -50.5 -214.5t-101.5 -179.5q-125 -150 -315 -155l11 100q128 4 215.5 107t120.5 288q19 108 11 216q-10 135 -81.5 212t-197.5 81l-173 1l-125 -720h-114l253 1456h721z" />
<glyph unicode="&#x495;" horiz-adv-x="881" d="M759 977h-438l-61 -351l103 -1q120 -4 204 -60.5t122.5 -159.5t24.5 -233q-18 -163 -121 -284.5t-255 -160.5l-21 99q119 35 193.5 125.5t91.5 221.5q18 154 -46.5 246t-195.5 97l-118 1l-91 -517h-111l188 1082h550z" />
<glyph unicode="&#x496;" horiz-adv-x="1526" d="M968 691h-134l-120 -691h-114l120 691h-129l-512 -691h-149l570 761l-281 695h129l248 -657h142l115 657h114l-114 -657h132l475 657h143l-531 -708l301 -748h-133zM1357 -355h-111l84 480h111z" />
<glyph unicode="&#x497;" horiz-adv-x="1328" d="M808 498h-116l-87 -498h-110l87 498h-108l-398 -498h-147l460 563l-225 519h125l195 -474h116l83 474h111l-83 -474h109l361 474h142l-417 -532l259 -550h-132zM1134 -355h-111l84 480h111z" />
<glyph unicode="&#x498;" horiz-adv-x="1041" d="M548 795q149 0 241 76t107 213q14 128 -52 205.5t-197 81.5q-127 2 -218 -79.5t-117 -216.5l-112 -1q25 179 151.5 293t302.5 110q181 -4 277 -113t80 -284q-11 -110 -78.5 -196.5t-191.5 -141.5q188 -83 169 -338q-18 -195 -157 -312.5t-332 -111.5q-172 4 -271.5 122 t-82.5 302h113q-13 -136 55.5 -225.5t192.5 -93.5q149 -4 251 83.5t118 231.5q15 140 -51 211.5t-204 75.5l-150 1l20 108zM398 -430h-111l84 480h111z" />
<glyph unicode="&#x499;" horiz-adv-x="894" d="M446 604q104 0 170 51t75 148q9 91 -40 143t-140 54q-93 2 -162.5 -56.5t-90.5 -153.5h-108q20 141 122 227.5t245 84.5q139 -2 217.5 -84t66.5 -215q-15 -166 -192 -252q67 -31 99 -96t25 -150q-12 -149 -118 -238.5t-262 -85.5q-143 4 -226 97t-73 233l109 -1 q-6 -99 49.5 -162t147.5 -65q108 -2 180 59t82 161q19 189 -182 195l-146 1l18 106zM313 -429h-111l84 480h111z" />
<glyph unicode="&#x49a;" horiz-adv-x="1116" d="M458 682h-160l-118 -682h-114l253 1456h114l-117 -667h145l566 667l150 -1l-613 -721l388 -734h-131zM913 -372h-111l84 480h111z" />
<glyph unicode="&#x49b;" horiz-adv-x="920" d="M374 494h-130l-87 -494h-111l188 1082h112l-84 -479h120l402 479h145l-459 -529l300 -553h-134zM744 -355h-111l84 480h111z" />
<glyph unicode="&#x49c;" horiz-adv-x="1077" d="M1139 1456l-477 -708l265 -748h-136l-224 687h-71l-53 -283h-94l51 283h-108l-120 -687h-115l253 1456h115l-115 -661h107l50 281h94l-50 -281h70l417 661h141z" />
<glyph unicode="&#x49d;" horiz-adv-x="957" d="M965 1082l-378 -527l221 -555h-135l-176 494h-56l-44 -236h-94l42 236h-102l-87 -494h-111l188 1082h112l-84 -479h102l42 240h95l-47 -241h54l314 480h144z" />
<glyph unicode="&#x49e;" horiz-adv-x="1136" d="M598 1091h-209l-53 -302h145l566 667l150 -1l-613 -721l388 -734h-131l-363 682h-160l-118 -682h-114l189 1091h-183l19 104h182l46 261h114l-46 -261h209z" />
<glyph unicode="&#x49f;" horiz-adv-x="894" d="M616 1240h-229l-105 -609h96l394 451h140l-441 -500l282 -582h-123l-253 526h-113l-92 -526h-111l215 1240h-166l19 104h165l34 192h111l-34 -192h229z" />
<glyph unicode="&#x4a0;" horiz-adv-x="1400" d="M766 682h-160l-119 -682h-113l234 1352h-396l19 104h509l-116 -667h144l567 667l150 -1l-614 -721l388 -734h-130z" />
<glyph unicode="&#x4a1;" horiz-adv-x="1158" d="M614 494h-132l-86 -494h-112l170 977h-327l19 105h438l-84 -479h121l402 479h145l-458 -529l300 -553h-135z" />
<glyph unicode="&#x4a2;" horiz-adv-x="1231" d="M950 0h-115l122 697h-661l-121 -697h-114l253 1456h114l-114 -653h661l113 653h115zM984 -355h-111l84 480h111z" />
<glyph unicode="&#x4a3;" horiz-adv-x="992" d="M727 0h-111l87 495h-459l-87 -495h-111l188 1082h112l-85 -484h459l84 484h111zM761 -355h-111l84 480h111z" />
<glyph unicode="&#x4a4;" horiz-adv-x="1720" d="M313 803h660l113 653h690l-19 -104h-574l-235 -1352h-115l122 697h-660l-121 -697h-115l253 1456h115z" />
<glyph unicode="&#x4a5;" horiz-adv-x="1253" d="M255 598h459l84 484h452l-19 -105h-340l-170 -977h-111l87 495h-459l-87 -495h-111l188 1082h112z" />
<glyph unicode="&#x4a6;" horiz-adv-x="1751" d="M1082 834h121q209 -5 311.5 -154.5t73.5 -408.5q-12 -112 -50.5 -214.5t-101.5 -179.5q-125 -150 -315 -155l11 100q128 4 215.5 107t120.5 288q19 108 11 216q-10 135 -81.5 212t-197.5 81h-137l-126 -726h-114l235 1348h-653l-234 -1348h-114l253 1456h880z" />
<glyph unicode="&#x4a7;" horiz-adv-x="1476" d="M831 626l124 -1q186 -6 283.5 -129t76.5 -324q-16 -160 -117.5 -282.5t-256.5 -162.5l-21 99q119 35 192 125.5t90 221.5q18 152 -47 244.5t-203 98.5l-140 1l-90 -517h-111l170 977h-460l-169 -977h-112l188 1082h682z" />
<glyph unicode="&#x4a8;" horiz-adv-x="1288" d="M1088 -26q-165 4 -297 70q-134 -66 -268 -64q-175 4 -278 131t-120 353l-2 63q-1 79 9 148l31 196q46 287 169 445t308 163l-12 -111q-127 -4 -215.5 -122.5t-127.5 -326.5l-39 -244q-7 -53 -9 -116q-7 -215 70.5 -341t220.5 -128q74 -2 158 27q-147 168 -155 411 q-3 79 9 156l37 237q42 265 147.5 408.5t259.5 138.5q129 -4 196 -120.5t62 -312.5l-8 -105l-41 -257q-58 -362 -299 -558q80 -27 204 -32zM645 536q2 -114 43.5 -208.5t119.5 -157.5q218 160 275 521l38 243q10 74 10 161q-3 127 -43 194.5t-113 70.5q-100 4 -170 -95 t-105 -294l-46 -289q-11 -70 -9 -146z" />
<glyph unicode="&#x4a9;" horiz-adv-x="1042" d="M868 -13q-143 4 -242 55q-110 -64 -214 -62q-145 2 -228 124t-84 329q-1 93 21 225.5t68 227.5q102 212 291 218l-14 -106q-88 -4 -150 -97t-89 -272q-15 -119 -17 -165q-7 -180 46.5 -276.5t159.5 -98.5q51 -2 116 23q-109 131 -113 329q-4 114 32 297t112.5 276 t182.5 89q102 -4 152.5 -104.5t43.5 -271.5l-6 -83l-14 -103q-40 -255 -205 -422q56 -20 158 -25zM531 452q2 -83 32 -156.5t85 -122.5q125 125 160 349q24 154 26 248q0 221 -99 227q-68 4 -114.5 -72t-66.5 -220t-23 -196v-57z" />
<glyph unicode="&#x4aa;" horiz-adv-x="1133" d="M985 454q-46 -237 -175 -358t-331 -116q-155 4 -247.5 109t-108.5 296l-2 57q-1 68 8 134l50 312q43 277 185.5 435.5t357.5 153.5q186 -5 279.5 -130t81.5 -347h-115q8 189 -56.5 277.5t-196.5 91.5q-164 5 -274.5 -120t-147.5 -364l-51 -331l-6 -82q-6 -105 20 -196 t85 -139t146 -51q149 -7 243 76.5t146 290.5zM450 -430h-111l84 480h111z" />
<glyph unicode="&#x4ab;" horiz-adv-x="911" d="M390 82q217 -7 278 252h104q-28 -162 -132.5 -260.5t-255.5 -94.5q-149 2 -230.5 101t-82.5 281q-2 91 25 261q38 241 155 363t297 117q145 -5 221.5 -106.5t67.5 -278.5h-107q8 135 -41 206t-149 76q-271 9 -332 -376l-21 -160l-5 -72l-1 -32q-3 -269 209 -277z M345 -430h-111l84 480h111z" />
<glyph unicode="&#x4ac;" horiz-adv-x="1045" d="M1106 1348h-401l-234 -1348h-115l234 1348h-401l20 108h916zM503 -355h-111l84 480h111z" />
<glyph unicode="&#x4ad;" horiz-adv-x="843" d="M848 978h-316l-170 -978h-111l170 978h-305l19 104h731zM398 -355h-111l84 480h111z" />
<glyph unicode="&#x4ae;" horiz-adv-x="1048" d="M526 667l489 789h136l-587 -915l-94 -541h-114l97 555l-265 901h127z" />
<glyph unicode="&#x4af;" horiz-adv-x="869" d="M778 1082h118l-508 -1056l-77 -441h-110l80 460l-141 1037h110l106 -843l-1 -71l28 72z" />
<glyph unicode="&#x4b0;" horiz-adv-x="1048" d="M760 539h-197l-93 -539h-114l94 539h-196l19 104h154l-239 813h127l211 -789l489 789h136l-522 -813h149z" />
<glyph unicode="&#x4b1;" horiz-adv-x="869" d="M582 -3h-199l-72 -412h-110l71 412h-196l19 104h178l-133 981h110l106 -843l-1 -71l28 72l395 842h118l-472 -981h176z" />
<glyph unicode="&#x4b2;" horiz-adv-x="1074" d="M567 844l420 612h141l-506 -724l284 -732h-129l-236 631l-434 -631h-141l522 744l-276 712h127zM870 -355h-111l84 480h111z" />
<glyph unicode="&#x4b3;" horiz-adv-x="864" d="M429 647l297 435h136l-386 -537l222 -545h-122l-169 452l-313 -452h-135l399 557l-212 525h122zM677 -355h-111l84 480h111z" />
<glyph unicode="&#x4b4;" horiz-adv-x="1507" d="M501 1351h-322l19 104h316v1h113v-1h347l-19 -104h-340l-216 -1245h652l234 1350h115l-234 -1348h117l-88 -459h-104l61 351h-886z" />
<glyph unicode="&#x4b5;" horiz-adv-x="1144" d="M349 978h-242l18 104h580l-18 -104h-229l-152 -875h460l170 979h111l-170 -979h92l-82 -424h-102l57 321h-663z" />
<glyph unicode="&#x4b6;" horiz-adv-x="1165" d="M1150 1456l-253 -1456h-115l119 659q-170 -57 -323 -55q-182 2 -267 117.5t-60 329.5l67 405h114l-66 -406q-8 -68 -3 -128q7 -99 63.5 -153.5t158.5 -55.5q147 -3 328 53l123 690h114zM915 -355h-111l84 480h111z" />
<glyph unicode="&#x4b7;" horiz-adv-x="940" d="M676 0h-111l83 450q-117 -50 -227 -48q-122 1 -192.5 66t-82.5 185q-8 73 1 154l43 275h111l-44 -276q-6 -54 -5 -107q4 -190 176 -193q95 -2 231 47l94 529h112zM710 -355h-111l84 480h111z" />
<glyph unicode="&#x4b8;" horiz-adv-x="1160" d="M418 1456l-66 -407q-8 -67 -4 -126q10 -199 213 -213l63 340h92l-59 -338q119 15 242 54l123 690h114l-253 -1456h-115l119 659q-116 -39 -245 -53l-47 -248h-93l47 246q-135 5 -216 76.5t-97 199.5q-10 79 1 171l67 405h114z" />
<glyph unicode="&#x4b9;" horiz-adv-x="966" d="M707 0h-110l83 450q-82 -31 -167 -46l-32 -169h-94l33 167q-111 9 -174 76.5t-71 184.5q-5 69 3 144l43 275h112l-44 -276l-7 -100q-4 -181 150 -201l54 292h94l-53 -288q77 14 164 44l94 529h111z" />
<glyph unicode="&#x4ba;" horiz-adv-x="1160" d="M213 0l253 1456h115l-119 -659q170 57 323 55q186 -4 269 -120t58 -327l-67 -405h-114l66 406q8 67 4 128q-17 204 -223 209q-147 3 -328 -53l-123 -690h-114z" />
<glyph unicode="&#x4bb;" horiz-adv-x="965" d="M300 912q134 193 304 190q210 -4 229 -262l2 -45l-6 -91l-118 -704h-109l117 706l5 65q7 223 -154 227q-90 2 -176 -72t-117 -174l-128 -752h-111l267 1536h111z" />
<glyph unicode="&#x4bc;" horiz-adv-x="1315" d="M709 -20q-118 1 -208 56.5t-140 160.5t-54 241q-3 71 7 143l27 153q-107 22 -158.5 111.5t-36.5 231.5h95q-5 -39 -4 -77q0 -134 114 -167q52 302 197 475t346 168q116 -3 196.5 -64.5t119.5 -179.5t37 -257l-7 -108l-21 -138h-768l-27 -179l-4 -82q-3 -177 74.5 -278 t219.5 -103q166 -4 332 114l23 -94q-62 -62 -155 -95.5t-205 -31.5zM464 827h659q13 94 15 146q7 187 -59 288.5t-192 105.5q-157 5 -266.5 -135t-156.5 -405z" />
<glyph unicode="&#x4bd;" horiz-adv-x="1034" d="M497 -20q-94 1 -166.5 52.5t-112.5 148t-42 214.5q-2 60 6 116l7 42q-127 45 -138 210q-3 46 1 91h92l-5 -57q-7 -105 62 -146q58 211 176 334t267 118q137 -4 211 -108t76 -281q0 -60 -15 -183h-623q-9 -66 -9 -108q-3 -150 56.5 -243t166.5 -97q70 -3 134 31t131 114 l63 -58q-59 -88 -144 -140t-194 -50zM637 999q-222 9 -330 -364l511 -1l3 16q7 51 4 111q-7 106 -56 170t-132 68z" />
<glyph unicode="&#x4be;" horiz-adv-x="1315" d="M709 -20q-118 1 -208 56.5t-140 160.5t-54 241q-3 71 7 143l27 153q-107 22 -158.5 111.5t-36.5 231.5h95q-5 -39 -4 -77q0 -134 114 -167q52 302 197 475t346 168q116 -3 196.5 -64.5t119.5 -179.5t37 -257l-7 -108l-21 -138h-768l-27 -179l-4 -82q-3 -177 74.5 -278 t219.5 -103q166 -4 332 114l23 -94q-62 -62 -155 -95.5t-205 -31.5zM464 827h659q13 94 15 146q7 187 -59 288.5t-192 105.5q-157 5 -266.5 -135t-156.5 -405zM656 -444h-111l84 480h111z" />
<glyph unicode="&#x4bf;" horiz-adv-x="1034" d="M497 -20q-94 1 -166.5 52.5t-112.5 148t-42 214.5q-2 60 6 116l7 42q-127 45 -138 210q-3 46 1 91h92l-5 -57q-7 -105 62 -146q58 211 176 334t267 118q137 -4 211 -108t76 -281q0 -60 -15 -183h-623q-9 -66 -9 -108q-3 -150 56.5 -243t166.5 -97q70 -3 134 31t131 114 l63 -58q-59 -88 -144 -140t-194 -50zM637 999q-222 9 -330 -364l511 -1l3 16q7 51 4 111q-7 106 -56 170t-132 68zM469 -421h-111l84 480h111z" />
<glyph unicode="&#x4c0;" horiz-adv-x="495" d="M195 0h-113l253 1456h113z" />
<glyph unicode="&#x4c1;" horiz-adv-x="1526" d="M968 691h-134l-120 -691h-114l120 691h-129l-512 -691h-149l570 761l-281 695h129l248 -657h142l115 657h114l-114 -657h132l475 657h143l-531 -708l301 -748h-133zM1246 1814q-14 -121 -98.5 -191.5t-206.5 -66.5q-118 2 -189 72.5t-65 186.5l101 -1q-5 -79 34.5 -124 t120.5 -47q85 -1 137 44.5t67 125.5z" />
<glyph unicode="&#x4c2;" horiz-adv-x="1328" d="M808 498h-116l-87 -498h-110l87 498h-108l-398 -498h-147l460 563l-225 519h125l195 -474h116l83 474h111l-83 -474h109l361 474h142l-417 -532l259 -550h-132zM1083 1472q-14 -121 -98.5 -191.5t-206.5 -66.5q-118 2 -189 72.5t-65 186.5l101 -1q-5 -79 34.5 -124 t120.5 -47q85 -1 137 44.5t67 125.5z" />
<glyph unicode="&#x4c3;" horiz-adv-x="1077" d="M172 0h-115l253 1456h115l-114 -653h129l554 653h143l-567 -658q200 -10 296.5 -159t69.5 -402q-12 -111 -51 -215t-102 -180q-127 -151 -319 -156l12 103q110 4 189 78.5t119.5 205t40.5 271.5q0 163 -72 252t-207 93l-254 1z" />
<glyph unicode="&#x4c4;" horiz-adv-x="934" d="M483 595q152 -26 226 -141.5t56 -290.5q-16 -156 -118 -277t-255 -159l-22 99q132 40 207 141q61 83 76 197q18 148 -52.5 242.5t-201.5 87.5h-1l-1 -1l-155 2l-86 -495h-111l188 1082h112l-84 -479h95l427 479h145z" />
<glyph unicode="&#x4c5;" horiz-adv-x="1223" d="M1192 1456l-253 -1456h-114l234 1348h-483l-123 -572l-47 -253q-60 -285 -161.5 -406t-252.5 -117h-41l13 105l44 3q120 12 197.5 140t120.5 429l18 111l142 668h706zM874 -321l-75 58q107 123 133 248l28 159h116l-23 -145q-29 -188 -179 -320z" />
<glyph unicode="&#x4c6;" horiz-adv-x="993" d="M916 1082l-188 -1082h-111l170 977h-346l-83 -403l-24 -136q-27 -143 -68.5 -240.5t-110 -149t-157.5 -48.5h-45l14 107l33 1q97 5 156.5 103.5t87.5 304.5l13 88l95 478h564zM664 -321l-75 58q107 123 133 248l28 159h116l-23 -145q-29 -188 -179 -320z" />
<glyph unicode="&#x4c7;" horiz-adv-x="1227" d="M431 1456l-119 -682h651l119 682h114l-263 -1542q-24 -175 -104.5 -266t-203.5 -88q-44 2 -100 22l24 103q40 -16 83 -18q145 -3 185 241l128 759h-651l-116 -667h-114l253 1456h114z" />
<glyph unicode="&#x4c8;" horiz-adv-x="981" d="M340 1082l-85 -484h459l85 484h110l-199 -1171q-24 -173 -103 -263t-202 -87q-42 0 -98 21l23 100q43 -17 82 -19q145 -3 186 241l99 591h-459l-87 -495h-111l188 1082h112z" />
<glyph unicode="&#x4c9;" horiz-adv-x="1231" d="M950 0h-115l122 697h-661l-121 -697h-114l253 1456h114l-114 -653h661l113 653h115zM885 -321l-75 58q107 123 133 248l28 159h116l-23 -145q-29 -188 -179 -320z" />
<glyph unicode="&#x4ca;" horiz-adv-x="992" d="M727 0h-111l87 495h-459l-87 -495h-111l188 1082h112l-85 -484h459l84 484h111zM662 -321l-75 58q107 123 133 248l28 159h116l-23 -145q-29 -188 -179 -320z" />
<glyph unicode="&#x4cb;" horiz-adv-x="1165" d="M1150 1456l-253 -1456h-115l119 659q-170 -57 -323 -55q-182 2 -267 117.5t-60 329.5l67 405h114l-66 -406q-8 -68 -3 -128q7 -99 63.5 -153.5t158.5 -55.5q147 -3 328 53l123 690h114zM722 -355h-111l84 480h111z" />
<glyph unicode="&#x4cc;" horiz-adv-x="940" d="M676 0h-111l83 450q-117 -50 -227 -48q-122 1 -192.5 66t-82.5 185q-8 73 1 154l43 275h111l-44 -276q-6 -54 -5 -107q4 -190 176 -193q95 -2 231 47l94 529h112zM517 -355h-111l84 480h111z" />
<glyph unicode="&#x4cd;" horiz-adv-x="1495" d="M460 1456l206 -1275l650 1275h152l-253 -1456h-114l110 634l117 615l-645 -1249h-87l-212 1257l-99 -625l-110 -632h-114l253 1456h146zM1144 -321l-75 58q107 123 133 248l28 159h116l-23 -145q-29 -188 -179 -320z" />
<glyph unicode="&#x4ce;" horiz-adv-x="1272" d="M558 169l499 913h138l-188 -1082h-110l149 855l-473 -855h-78l-180 891l-156 -891h-109l188 1082h140zM943 -321l-75 58q107 123 133 248l28 159h116l-23 -145q-29 -188 -179 -320z" />
<glyph unicode="&#x4cf;" horiz-adv-x="495" d="M195 0h-113l253 1456h113z" />
<glyph unicode="&#x4d0;" d="M777 407h-527l-192 -407h-122l703 1456h106l197 -1456h-114zM300 514h463l-96 776zM1036 1808q-14 -121 -98.5 -191.5t-206.5 -66.5q-118 2 -189 72.5t-65 186.5l101 -1q-5 -79 34.5 -124t120.5 -47q85 -1 137 44.5t67 125.5z" />
<glyph unicode="&#x4d1;" horiz-adv-x="945" d="M604 0q-4 38 0 75l9 75q-133 -175 -311 -171q-128 2 -194 84.5t-56 212.5q11 164 136 259.5t315 95.5l184 -1l22 152q11 100 -32.5 157.5t-147.5 59.5q-98 2 -168.5 -57t-91.5 -158l-109 1q20 140 126.5 230t253.5 88q144 -2 218 -88t60 -236l-91 -552q-9 -56 -9 -108 l2 -107l-2 -12h-114zM322 85q93 -2 172.5 48.5t131.5 139.5l45 264l-154 1q-151 0 -245 -67.5t-106 -185.5q-9 -93 31.5 -145.5t124.5 -54.5zM926 1493q-14 -121 -98.5 -191.5t-206.5 -66.5q-118 2 -189 72.5t-65 186.5l101 -1q-5 -79 34.5 -124t120.5 -47q85 -1 137 44.5 t67 125.5z" />
<glyph unicode="&#x4d2;" d="M777 407h-527l-192 -407h-122l703 1456h106l197 -1456h-114zM300 514h463l-96 776zM452 1710q2 34 26 58t59 25q35 0 57.5 -24t19.5 -59q-2 -34 -26.5 -57t-58.5 -24q-35 -1 -57 22.5t-20 58.5zM876 1709q2 34 26 58t59 25t57 -23.5t20 -59.5q-2 -34 -26.5 -57t-59.5 -24 q-34 0 -56 23t-20 58z" />
<glyph unicode="&#x4d3;" horiz-adv-x="945" d="M604 0q-4 38 0 75l9 75q-133 -175 -311 -171q-128 2 -194 84.5t-56 212.5q11 164 136 259.5t315 95.5l184 -1l22 152q11 100 -32.5 157.5t-147.5 59.5q-98 2 -168.5 -57t-91.5 -158l-109 1q20 140 126.5 230t253.5 88q144 -2 218 -88t60 -236l-91 -552q-9 -56 -9 -108 l2 -107l-2 -12h-114zM322 85q93 -2 172.5 48.5t131.5 139.5l45 264l-154 1q-151 0 -245 -67.5t-106 -185.5q-9 -93 31.5 -145.5t124.5 -54.5zM342 1395q2 34 26 58t59 25q35 0 57.5 -24t19.5 -59q-2 -34 -26.5 -57t-58.5 -24q-35 -1 -57 22.5t-20 58.5zM766 1394q2 34 26 58 t59 25t57 -23.5t20 -59.5q-2 -34 -26.5 -57t-59.5 -24q-34 0 -56 23t-20 58z" />
<glyph unicode="&#x4d4;" horiz-adv-x="1576" d="M1411 0h-679l54 388h-472l-253 -388h-142l971 1456h724l-19 -104h-565l-76 -542h481l-18 -104h-476l-85 -603h573zM387 503h415l113 809z" />
<glyph unicode="&#x4d5;" horiz-adv-x="1459" d="M960 -19q-102 2 -180 54t-114 147q-66 -96 -162.5 -150.5t-214.5 -52.5q-123 2 -191.5 86.5t-57.5 220.5q11 159 122 253t288 94l210 -1l12 89q5 45 3 93l-2 20q-20 160 -153 165q-103 2 -174 -61t-93 -172l-106 12q20 149 127.5 239t255.5 86q100 -4 165.5 -58 t83.5 -146q142 207 323 204q123 -3 196.5 -84.5t85.5 -221.5q7 -82 -2 -160l-15 -101h-609l-5 -27l-8 -88q-6 -156 52 -245.5t169 -91.5q82 -2 150.5 31.5t130.5 84.5l32 -90q-123 -133 -319 -129zM313 81q69 -2 141.5 36.5t137.5 113.5l52 303l-195 2q-121 -2 -203 -71 t-94 -183q-9 -89 33.5 -144t127.5 -57zM1094 999q-106 4 -187 -82.5t-137 -280.5h502q10 64 11 105q0 116 -47.5 185t-141.5 73z" />
<glyph unicode="&#x4d6;" horiz-adv-x="997" d="M844 697h-548l-103 -591h631l-19 -106h-743l252 1456h739l-19 -108h-625l-95 -545h549zM1014 1814q-14 -121 -98.5 -191.5t-206.5 -66.5q-118 2 -189 72.5t-65 186.5l101 -1q-5 -79 34.5 -124t120.5 -47q85 -1 137 44.5t67 125.5z" />
<glyph unicode="&#x4d7;" horiz-adv-x="919" d="M410 -20q-175 3 -261 136.5t-61 353.5l12 100q31 254 153 395.5t306 136.5q131 -4 204.5 -85.5t82.5 -224.5q5 -85 -5 -166l-13 -95h-619l-10 -62q-9 -64 -5 -131q5 -115 64 -184t161 -72q81 -2 145.5 30t121.5 86l52 -76q-124 -146 -328 -142zM552 999 q-125 5 -210 -85.5t-125 -278.5h515l5 30q7 55 4 113q-5 100 -54 158.5t-135 62.5zM903 1492q-14 -121 -98.5 -191.5t-206.5 -66.5q-118 2 -189 72.5t-65 186.5l101 -1q-5 -79 34.5 -124t120.5 -47q85 -1 137 44.5t67 125.5z" />
<glyph unicode="&#x4d8;" horiz-adv-x="1214" d="M712 1475q129 -1 223.5 -64.5t144.5 -184t51 -269.5q0 -146 -40.5 -341.5t-128 -343.5t-202.5 -221.5t-250 -70.5q-187 4 -292 132.5t-108 355.5q-1 75 9 148l20 123h855l12 65q9 59 12 123q6 205 -74 320t-237 119q-174 4 -349 -116l-23 94q59 58 147 92q106 41 230 39z M517 86q165 -5 285.5 138.5t180.5 411.5h-746l-9 -53q-8 -55 -8 -113q-3 -174 75 -277t222 -107z" />
<glyph unicode="&#x4d9;" horiz-adv-x="912" d="M504 1101q95 -3 164.5 -55t107 -149t40.5 -208q1 -58 -11 -170q-21 -150 -88.5 -281t-161 -196.5t-203.5 -62.5q-134 4 -209.5 98.5t-79.5 258.5l1 70l19 139h613q9 60 11 111q4 158 -51 248t-158 94q-152 5 -280 -118l-37 86q125 139 323 135zM361 82q103 -4 184.5 85 t136.5 274h-504l-5 -30q-7 -52 -2 -109q9 -121 84 -184q41 -34 106 -36z" />
<glyph unicode="&#x4da;" horiz-adv-x="1214" d="M712 1475q129 -1 223.5 -64.5t144.5 -184t51 -269.5q0 -146 -40.5 -341.5t-128 -343.5t-202.5 -221.5t-250 -70.5q-187 4 -292 132.5t-108 355.5q-1 75 9 148l20 123h855l12 65q9 59 12 123q6 205 -74 320t-237 119q-174 4 -349 -116l-23 94q59 58 147 92q106 41 230 39z M517 86q165 -5 285.5 138.5t180.5 411.5h-746l-9 -53q-8 -55 -8 -113q-3 -174 75 -277t222 -107zM453 1670q2 34 26 58t59 25q35 0 57.5 -24t19.5 -59q-2 -34 -26.5 -57t-58.5 -24q-35 -1 -57 22.5t-20 58.5zM877 1669q2 34 26 58t59 25t57 -23.5t20 -59.5q-2 -34 -26.5 -57 t-59.5 -24q-34 0 -56 23t-20 58z" />
<glyph unicode="&#x4db;" horiz-adv-x="912" d="M504 1101q95 -3 164.5 -55t107 -149t40.5 -208q1 -58 -11 -170q-21 -150 -88.5 -281t-161 -196.5t-203.5 -62.5q-134 4 -209.5 98.5t-79.5 258.5l1 70l19 139h613q9 60 11 111q4 158 -51 248t-158 94q-152 5 -280 -118l-37 86q125 139 323 135zM361 82q103 -4 184.5 85 t136.5 274h-504l-5 -30q-7 -52 -2 -109q9 -121 84 -184q41 -34 106 -36zM327 1395q2 34 26 58t59 25q35 0 57.5 -24t19.5 -59q-2 -34 -26.5 -57t-58.5 -24q-35 -1 -57 22.5t-20 58.5zM751 1394q2 34 26 58t59 25t57 -23.5t20 -59.5q-2 -34 -26.5 -57t-59.5 -24q-34 0 -56 23 t-20 58z" />
<glyph unicode="&#x4dc;" horiz-adv-x="1526" d="M968 691h-134l-120 -691h-114l120 691h-129l-512 -691h-149l570 761l-281 695h129l248 -657h142l115 657h114l-114 -657h132l475 657h143l-531 -708l301 -748h-133zM662 1716q2 34 26 58t59 25q35 0 57.5 -24t19.5 -59q-2 -34 -26.5 -57t-58.5 -24q-35 -1 -57 22.5 t-20 58.5zM1086 1715q2 34 26 58t59 25t57 -23.5t20 -59.5q-2 -34 -26.5 -57t-59.5 -24q-34 0 -56 23t-20 58z" />
<glyph unicode="&#x4dd;" horiz-adv-x="1328" d="M808 498h-116l-87 -498h-110l87 498h-108l-398 -498h-147l460 563l-225 519h125l195 -474h116l83 474h111l-83 -474h109l361 474h142l-417 -532l259 -550h-132zM499 1374q2 34 26 58t59 25q35 0 57.5 -24t19.5 -59q-2 -34 -26.5 -57t-58.5 -24q-35 -1 -57 22.5t-20 58.5z M923 1373q2 34 26 58t59 25t57 -23.5t20 -59.5q-2 -34 -26.5 -57t-59.5 -24q-34 0 -56 23t-20 58z" />
<glyph unicode="&#x4de;" horiz-adv-x="1041" d="M548 795q149 0 241 76t107 213q14 128 -52 205.5t-197 81.5q-127 2 -218 -79.5t-117 -216.5l-112 -1q25 179 151.5 293t302.5 110q181 -4 277 -113t80 -284q-11 -110 -78.5 -196.5t-191.5 -141.5q188 -83 169 -338q-18 -195 -157 -312.5t-332 -111.5q-172 4 -271.5 122 t-82.5 302h113q-13 -136 55.5 -225.5t192.5 -93.5q149 -4 251 83.5t118 231.5q15 140 -51 211.5t-204 75.5l-150 1l20 108zM429 1737q2 34 26 58t59 25q35 0 57.5 -24t19.5 -59q-2 -34 -26.5 -57t-58.5 -24q-35 -1 -57 22.5t-20 58.5zM853 1736q2 34 26 58t59 25t57 -23.5 t20 -59.5q-2 -34 -26.5 -57t-59.5 -24q-34 0 -56 23t-20 58z" />
<glyph unicode="&#x4df;" horiz-adv-x="894" d="M446 604q104 0 170 51t75 148q9 91 -40 143t-140 54q-93 2 -162.5 -56.5t-90.5 -153.5h-108q20 141 122 227.5t245 84.5q139 -2 217.5 -84t66.5 -215q-15 -166 -192 -252q67 -31 99 -96t25 -150q-12 -149 -118 -238.5t-262 -85.5q-143 4 -226 97t-73 233l109 -1 q-6 -99 49.5 -162t147.5 -65q108 -2 180 59t82 161q19 189 -182 195l-146 1l18 106zM286 1394q2 34 26 58t59 25q35 0 57.5 -24t19.5 -59q-2 -34 -26.5 -57t-58.5 -24q-35 -1 -57 22.5t-20 58.5zM710 1393q2 34 26 58t59 25t57 -23.5t20 -59.5q-2 -34 -26.5 -57t-59.5 -24 q-34 0 -56 23t-20 58z" />
<glyph unicode="&#x4e0;" horiz-adv-x="1011" d="M847 1348h-578l19 108h714l-16 -102l-452 -518q164 -9 243 -123.5t61 -308.5q-11 -123 -71.5 -223.5t-157.5 -154.5t-213 -50q-108 4 -183 60.5t-109.5 154.5t-23.5 213h114q-13 -141 45.5 -229t166.5 -90q100 -3 179 52.5t116.5 157.5t26.5 229q-10 100 -65.5 155 t-153.5 59l-111 1l19 110z" />
<glyph unicode="&#x4e1;" horiz-adv-x="1011" d="M781 977h-570l18 105h711l-15 -100l-449 -523q157 -12 237 -125.5t64 -303.5q-11 -122 -71.5 -222t-157 -154t-212.5 -50q-159 5 -245 124t-70 301h111q-12 -139 46 -228t168 -92q131 -4 219.5 86t103.5 230q17 158 -42.5 245.5t-187.5 92.5l-101 1l20 110z" />
<glyph unicode="&#x4e2;" horiz-adv-x="1234" d="M1085 1456h117l-253 -1456h-114l214 1228l-866 -1228h-118l253 1456h115l-214 -1227zM1081 1687h-556l16 99h556z" />
<glyph unicode="&#x4e3;" horiz-adv-x="992" d="M801 1082h114l-188 -1082h-111l153 873l-609 -873h-114l188 1082h111l-153 -874zM893 1345h-556l16 99h556z" />
<glyph unicode="&#x4e4;" horiz-adv-x="1234" d="M1085 1456h117l-253 -1456h-114l214 1228l-866 -1228h-118l253 1456h115l-214 -1227zM523 1716q2 34 26 58t59 25q35 0 57.5 -24t19.5 -59q-2 -34 -26.5 -57t-58.5 -24q-35 -1 -57 22.5t-20 58.5zM947 1715q2 34 26 58t59 25t57 -23.5t20 -59.5q-2 -34 -26.5 -57 t-59.5 -24q-34 0 -56 23t-20 58z" />
<glyph unicode="&#x4e5;" horiz-adv-x="992" d="M801 1082h114l-188 -1082h-111l153 873l-609 -873h-114l188 1082h111l-153 -874zM335 1374q2 34 26 58t59 25q35 0 57.5 -24t19.5 -59q-2 -34 -26.5 -57t-58.5 -24q-35 -1 -57 22.5t-20 58.5zM759 1373q2 34 26 58t59 25t57 -23.5t20 -59.5q-2 -34 -26.5 -57t-59.5 -24 q-34 0 -56 23t-20 58z" />
<glyph unicode="&#x4e6;" horiz-adv-x="1182" d="M492 -20q-175 4 -274 122.5t-102 328.5q-1 70 8 139l48 303q47 297 192.5 452.5t360.5 150.5q117 -3 201 -57.5t127.5 -159t45.5 -236.5q1 -70 -8 -139l-51 -319q-32 -194 -109 -327t-188 -197t-251 -61zM977 888q7 52 9 108q3 176 -65 271t-204 99q-172 5 -283 -122 t-148 -364l-50 -325l-6 -93q-6 -173 63.5 -271.5t205.5 -102.5q165 -5 274.5 111.5t149.5 344.5zM492 1721q2 34 26 58t59 25q35 0 57.5 -24t19.5 -59q-2 -34 -26.5 -57t-58.5 -24q-35 -1 -57 22.5t-20 58.5zM916 1720q2 34 26 58t59 25t57 -23.5t20 -59.5q-2 -34 -26.5 -57 t-59.5 -24q-34 0 -56 23t-20 58z" />
<glyph unicode="&#x4e7;" horiz-adv-x="985" d="M560 1103q147 -4 229 -107.5t85 -282.5q2 -91 -20 -234q-36 -238 -156.5 -371.5t-301.5 -128.5q-135 4 -216.5 93t-96.5 256l-2 40q-3 81 20.5 235.5t85 267.5t156 174t217.5 58zM192 398q-3 -148 51.5 -230t160.5 -86q130 -5 218.5 94.5t119.5 293.5l17 127l5 85 q3 145 -51.5 229t-160.5 88q-134 5 -225 -107t-117 -310l-16 -127zM324 1395q2 34 26 58t59 25q35 0 57.5 -24t19.5 -59q-2 -34 -26.5 -57t-58.5 -24q-35 -1 -57 22.5t-20 58.5zM748 1394q2 34 26 58t59 25t57 -23.5t20 -59.5q-2 -34 -26.5 -57t-59.5 -24q-34 0 -56 23 t-20 58z" />
<glyph unicode="&#x4e8;" horiz-adv-x="1174" d="M485 -20q-177 4 -274.5 144t-95.5 383q0 116 35.5 316.5t113.5 347.5q166 311 454 305q179 -4 276.5 -145.5t94.5 -382.5q-1 -76 -10 -144l-20 -129q-52 -333 -202.5 -517.5t-371.5 -177.5zM253 775h710q11 73 16 144q10 205 -58.5 323t-209.5 124q-164 7 -280 -132.5 t-171 -421.5zM949 672l-709 -1l-4 -22l-10 -110q-10 -209 60 -328t206 -123q164 -7 278 127.5t175 434.5z" />
<glyph unicode="&#x4e9;" horiz-adv-x="994" d="M563 1103q148 -4 233 -119.5t88 -305.5q3 -193 -62 -360t-174.5 -255t-248.5 -84q-148 4 -232 118t-88 302q-6 184 58.5 355.5t176 262t249.5 86.5zM406 82q127 -5 219 103.5t137 305.5h-573l-3 -84q0 -142 57 -231.5t163 -93.5zM556 999q-127 5 -219 -103t-137 -301h573 l3 84q-3 146 -60 231t-160 89z" />
<glyph unicode="&#x4ea;" horiz-adv-x="1174" d="M485 -20q-177 4 -274.5 144t-95.5 383q0 116 35.5 316.5t113.5 347.5q166 311 454 305q179 -4 276.5 -145.5t94.5 -382.5q-1 -76 -10 -144l-20 -129q-52 -333 -202.5 -517.5t-371.5 -177.5zM253 775h710q11 73 16 144q10 205 -58.5 323t-209.5 124q-164 7 -280 -132.5 t-171 -421.5zM949 672l-709 -1l-4 -22l-10 -110q-10 -209 60 -328t206 -123q164 -7 278 127.5t175 434.5zM506 1711q2 34 26 58t59 25q35 0 57.5 -24t19.5 -59q-2 -34 -26.5 -57t-58.5 -24q-35 -1 -57 22.5t-20 58.5zM930 1710q2 34 26 58t59 25t57 -23.5t20 -59.5 q-2 -34 -26.5 -57t-59.5 -24q-34 0 -56 23t-20 58z" />
<glyph unicode="&#x4eb;" horiz-adv-x="994" d="M563 1103q148 -4 233 -119.5t88 -305.5q3 -193 -62 -360t-174.5 -255t-248.5 -84q-148 4 -232 118t-88 302q-6 184 58.5 355.5t176 262t249.5 86.5zM406 82q127 -5 219 103.5t137 305.5h-573l-3 -84q0 -142 57 -231.5t163 -93.5zM556 999q-127 5 -219 -103t-137 -301h573 l3 84q-3 146 -60 231t-160 89zM328 1408q2 34 26 58t59 25q35 0 57.5 -24t19.5 -59q-2 -34 -26.5 -57t-58.5 -24q-35 -1 -57 22.5t-20 58.5zM752 1407q2 34 26 58t59 25t57 -23.5t20 -59.5q-2 -34 -26.5 -57t-59.5 -24q-34 0 -56 23t-20 58z" />
<glyph unicode="&#x4ec;" horiz-adv-x="1155" d="M228 454q-3 -183 63 -273.5t199 -95.5q164 -5 278 142t166 451h-496l19 107h489q12 84 16 143q10 201 -56 318t-204 123q-136 5 -231 -83t-150 -285l-112 -1q51 232 182 356.5t318 119.5q117 -3 200.5 -67t125 -184t39.5 -267q-1 -109 -40 -338t-142.5 -396.5 t-259.5 -221.5q-68 -24 -149 -22q-180 3 -278 130.5t-91 343.5h114zM493 1738q2 34 26 58t59 25q35 0 57.5 -24t19.5 -59q-2 -34 -26.5 -57t-58.5 -24q-35 -1 -57 22.5t-20 58.5zM917 1737q2 34 26 58t59 25t57 -23.5t20 -59.5q-2 -34 -26.5 -57t-59.5 -24q-34 0 -56 23 t-20 58z" />
<glyph unicode="&#x4ed;" horiz-adv-x="942" d="M514 999q-97 3 -170.5 -66.5t-97.5 -188.5l-105 -1q22 155 128.5 259.5t251.5 100.5q131 -4 208.5 -99t92.5 -271l3 -53q0 -203 -63 -368.5t-167 -251t-237 -81.5q-141 5 -218 113t-63 274h107q-13 -122 37 -201.5t145 -82.5q122 -5 208 100t130 313h-391l19 104h383 l4 81q0 150 -53 232.5t-152 86.5zM315 1395q2 34 26 58t59 25q35 0 57.5 -24t19.5 -59q-2 -34 -26.5 -57t-58.5 -24q-35 -1 -57 22.5t-20 58.5zM739 1394q2 34 26 58t59 25t57 -23.5t20 -59.5q-2 -34 -26.5 -57t-59.5 -24q-34 0 -56 23t-20 58z" />
<glyph unicode="&#x4ee;" horiz-adv-x="1096" d="M550 538l485 918h138l-674 -1245l-29 -50q-113 -188 -283 -185q-38 2 -85 13l21 101q48 -8 72 -8q104 0 179 129l98 181l-254 1064h123zM1010 1687h-556l16 99h556z" />
<glyph unicode="&#x4ef;" horiz-adv-x="841" d="M349 188l405 894h122l-585 -1256q-61 -144 -131.5 -205.5t-157.5 -60.5q-30 0 -86 16l12 101l50 -8q128 -6 208 154l86 192l-144 1067h117zM845 1366h-556l16 99h556z" />
<glyph unicode="&#x4f0;" horiz-adv-x="1096" d="M550 538l485 918h138l-674 -1245l-29 -50q-113 -188 -283 -185q-38 2 -85 13l21 101q48 -8 72 -8q104 0 179 129l98 181l-254 1064h123zM452 1716q2 34 26 58t59 25q35 0 57.5 -24t19.5 -59q-2 -34 -26.5 -57t-58.5 -24q-35 -1 -57 22.5t-20 58.5zM876 1715q2 34 26 58 t59 25t57 -23.5t20 -59.5q-2 -34 -26.5 -57t-59.5 -24q-34 0 -56 23t-20 58z" />
<glyph unicode="&#x4f1;" horiz-adv-x="841" d="M349 188l405 894h122l-585 -1256q-61 -144 -131.5 -205.5t-157.5 -60.5q-30 0 -86 16l12 101l50 -8q128 -6 208 154l86 192l-144 1067h117zM287 1395q2 34 26 58t59 25q35 0 57.5 -24t19.5 -59q-2 -34 -26.5 -57t-58.5 -24q-35 -1 -57 22.5t-20 58.5zM711 1394 q2 34 26 58t59 25t57 -23.5t20 -59.5q-2 -34 -26.5 -57t-59.5 -24q-34 0 -56 23t-20 58z" />
<glyph unicode="&#x4f2;" horiz-adv-x="1096" d="M550 538l485 918h138l-674 -1245l-29 -50q-113 -188 -283 -185q-38 2 -85 13l21 101q48 -8 72 -8q104 0 179 129l98 181l-254 1064h123zM996 1856h138l-279 -303h-117zM739 1856h132l-240 -302h-105z" />
<glyph unicode="&#x4f3;" horiz-adv-x="841" d="M349 188l405 894h122l-585 -1256q-61 -144 -131.5 -205.5t-157.5 -60.5q-30 0 -86 16l12 101l50 -8q128 -6 208 154l86 192l-144 1067h117zM831 1535h138l-279 -303h-117zM574 1535h132l-240 -302h-105z" />
<glyph unicode="&#x4f4;" horiz-adv-x="1165" d="M1150 1456l-253 -1456h-115l119 659q-170 -57 -323 -55q-182 2 -267 117.5t-60 329.5l67 405h114l-66 -406q-8 -68 -3 -128q7 -99 63.5 -153.5t158.5 -55.5q147 -3 328 53l123 690h114zM486 1716q2 34 26 58t59 25q35 0 57.5 -24t19.5 -59q-2 -34 -26.5 -57t-58.5 -24 q-35 -1 -57 22.5t-20 58.5zM910 1715q2 34 26 58t59 25t57 -23.5t20 -59.5q-2 -34 -26.5 -57t-59.5 -24q-34 0 -56 23t-20 58z" />
<glyph unicode="&#x4f5;" horiz-adv-x="940" d="M676 0h-111l83 450q-117 -50 -227 -48q-122 1 -192.5 66t-82.5 185q-8 73 1 154l43 275h111l-44 -276q-6 -54 -5 -107q4 -190 176 -193q95 -2 231 47l94 529h112zM283 1374q2 34 26 58t59 25q35 0 57.5 -24t19.5 -59q-2 -34 -26.5 -57t-58.5 -24q-35 -1 -57 22.5 t-20 58.5zM707 1373q2 34 26 58t59 25t57 -23.5t20 -59.5q-2 -34 -26.5 -57t-59.5 -24q-34 0 -56 23t-20 58z" />
<glyph unicode="&#x4f6;" horiz-adv-x="970" d="M1018 1348h-607l-234 -1348h-114l253 1456h721zM211 -355h-111l84 480h111z" />
<glyph unicode="&#x4f7;" horiz-adv-x="751" d="M763 977h-437l-170 -977h-111l188 1082h549zM190 -355h-111l84 480h111z" />
<glyph unicode="&#x4f8;" horiz-adv-x="1451" d="M321 826l282 -2q170 -6 260.5 -114.5t73.5 -287.5q-18 -194 -146 -310t-314 -112h-412l253 1456h113zM303 718l-106 -612l284 -2q141 2 233.5 90.5t108.5 230.5q15 130 -45.5 208.5t-177.5 83.5zM1162 0h-113l253 1456h113zM646 1716q2 34 26 58t59 25q35 0 57.5 -24 t19.5 -59q-2 -34 -26.5 -57t-58.5 -24q-35 -1 -57 22.5t-20 58.5zM1070 1715q2 34 26 58t59 25t57 -23.5t20 -59.5q-2 -34 -26.5 -57t-59.5 -24q-34 0 -56 23t-20 58z" />
<glyph unicode="&#x4f9;" horiz-adv-x="1310" d="M279 690l237 -2q138 -4 212.5 -96.5t61.5 -236.5q-12 -156 -114.5 -255.5t-262.5 -99.5h-363l188 1082h110zM261 586l-84 -483l240 -1q106 2 177.5 69t84.5 182q12 104 -33 166t-132 66zM1032 0h-110l188 1082h111zM513 1374q2 34 26 58t59 25q35 0 57.5 -24t19.5 -59 q-2 -34 -26.5 -57t-58.5 -24q-35 -1 -57 22.5t-20 58.5zM937 1373q2 34 26 58t59 25t57 -23.5t20 -59.5q-2 -34 -26.5 -57t-59.5 -24q-34 0 -56 23t-20 58z" />
<glyph unicode="&#x4fa;" horiz-adv-x="1004" d="M1051 1348h-607l-234 -1348h-114l253 1456h721zM576 753h-506l19 104h505zM326 135l-37 -242q-28 -168 -106 -252t-197 -81q-43 2 -97 22l23 105q43 -17 82 -19q143 -3 184 230l37 237h111z" />
<glyph unicode="&#x4fb;" horiz-adv-x="735" d="M802 977h-437l-170 -977h-111l188 1082h549zM546 562h-506l19 104h505zM316 135l-37 -242q-28 -168 -106 -252t-197 -81q-43 2 -97 22l23 105q43 -17 82 -19q143 -3 184 230l37 237h111z" />
<glyph unicode="&#x4fc;" horiz-adv-x="1074" d="M567 844l420 612h141l-506 -724l284 -732h-129l-236 631l-434 -631h-141l522 744l-276 712h127zM967 135l-37 -242q-28 -168 -106 -252t-197 -81q-43 2 -97 22l23 105q43 -17 82 -19q143 -3 184 230l37 237h111z" />
<glyph unicode="&#x4fd;" horiz-adv-x="864" d="M429 647l297 435h136l-386 -537l222 -545h-122l-169 452l-313 -452h-135l399 557l-212 525h122zM774 135l-37 -242q-28 -168 -106 -252t-197 -81q-43 2 -97 22l23 105q43 -17 82 -19q143 -3 184 230l37 237h111z" />
<glyph unicode="&#x4fe;" horiz-adv-x="1074" d="M799 696h-163l270 -696h-129l-236 631l-434 -631h-141l488 696h-161l19 104h154l-254 656h127l228 -612l420 612h141l-459 -656h148z" />
<glyph unicode="&#x4ff;" horiz-adv-x="864" d="M666 504h-174l206 -504h-122l-169 452l-313 -452h-135l361 504h-160l19 104h158l-191 474h122l161 -435l297 435h136l-341 -474h163z" />
<glyph unicode="&#x500;" horiz-adv-x="1020" d="M819 846l106 610h115l-253 -1456l-397 1q-168 6 -257.5 119.5t-72.5 296.5q18 195 144.5 312.5t316.5 117.5zM690 106l110 633l-283 2q-135 0 -230 -87.5t-112 -233.5q-16 -135 42.5 -221.5t176.5 -91.5z" />
<glyph unicode="&#x501;" horiz-adv-x="979" d="M523 1101q179 -6 247 -165l108 600h111l-267 -1536h-103l26 138q-114 -163 -289 -159q-136 2 -206.5 106t-65.5 296q1 80 22 223q37 254 141.5 378t275.5 119zM203 488q-11 -107 -8 -172q10 -228 189 -231q162 -4 273 167l94 563q-50 174 -213 181q-270 9 -322 -406z" />
<glyph unicode="&#x502;" horiz-adv-x="1365" d="M392 1q-170 8 -259 120.5t-72 295.5q18 194 145 312t316 118l298 -1l107 610h115l-235 -1352l87 -1q129 2 203 120.5t79 358.5q1 85 -11 170l104 -1q9 -85 11 -170q6 -273 -102.5 -429t-287.5 -152zM692 106l110 633l-284 2q-135 0 -230 -87.5t-112 -233.5 q-16 -139 43.5 -223.5t175.5 -89.5z" />
<glyph unicode="&#x503;" horiz-adv-x="1482" d="M522 1102q168 -4 241 -161l112 619h110l-206 -1216l-4 -78q-2 -81 29 -131.5t90 -52.5q99 -5 173.5 70.5t118.5 231t52 349.5q4 98 -4 199h103q7 -100 6 -199q-5 -226 -63.5 -401.5t-159 -265t-238.5 -87.5q-94 2 -148 52.5t-66 142.5q-127 -203 -313 -196 q-133 4 -201.5 112t-65.5 307q2 115 31.5 253t86 243.5t137.5 158.5t179 50zM742 811q-50 178 -206 185q-128 4 -211.5 -115t-115.5 -352q-13 -134 -9 -193q5 -120 52 -184.5t133 -67.5q163 -7 273 188l7 72z" />
<glyph unicode="&#x504;" horiz-adv-x="1367" d="M571 481q-7 87 -49.5 136.5t-117.5 53.5l-167 2l19 107l130 -2q148 1 235.5 79.5t102.5 225.5q14 126 -46.5 193t-186.5 71l-302 1l20 108l273 -1q182 -1 277.5 -100t79.5 -274q-12 -131 -84 -222.5t-193 -140.5q61 -31 93 -93.5t33 -145.5l-4 -96q-12 -108 -10 -149 q4 -65 33.5 -106.5t80.5 -43.5q111 -4 189 101.5t117 314t21 433.5l107 -1q6 -100 6 -199q0 -208 -59 -388.5t-159 -274.5t-233 -92q-112 2 -169.5 85t-46.5 241q13 128 10 177z" />
<glyph unicode="&#x505;" horiz-adv-x="1124" d="M543 212v-50q7 -81 88 -84q80 -4 142.5 54t99.5 182.5t35 267.5q-1 79 -18 157l106 -1l14 -156q9 -147 -36.5 -296.5t-138 -230.5t-213.5 -78q-201 4 -188 237l7 81q14 171 -156 179l-180 2l17 102l159 -1q104 2 171 55t78 144q10 92 -40 146t-141 58l-222 1l13 101 l211 -1q144 -4 223 -85t68 -215q-14 -166 -197 -253q121 -54 106 -233z" />
<glyph unicode="&#x506;" horiz-adv-x="939" d="M188 657l19 104l127 -1q151 0 246 80t110 222q15 135 -45 209.5t-182 78.5l-237 1l18 104l212 -1q177 -1 269 -105.5t75 -288.5q-12 -125 -83 -214t-183 -138q68 -27 105.5 -88t42.5 -147q2 -51 -4 -102l-22 -137l-11 -78h107l-22 -135q-32 -196 -173 -329l-62 56 q92 123 124 252h-49q-29 54 -29 116l3 87l23 167q14 129 -38 204.5t-158 80.5z" />
<glyph unicode="&#x507;" horiz-adv-x="886" d="M156 466l17 104l176 -1q116 0 184.5 53.5t79.5 154.5q22 194 -180 200l-258 1l21 104l239 -1q144 -4 221.5 -83t66.5 -217q-15 -180 -199 -262q104 -47 111 -173q2 -38 -3 -76l-16 -97l-3 -12l97 1l-22 -134q-33 -200 -173 -328l-61 55q85 115 117 245l-53 1 q-19 40 -16 85q2 41 21 184q9 84 -28 137t-125 57z" />
<glyph unicode="&#x508;" horiz-adv-x="1663" d="M1044 1348h-448l-126 -586l-31 -178q-56 -304 -155 -441t-252 -143h-60l13 105l29 2q130 5 210.5 139.5t120.5 428.5l17 108l144 673h671l-187 -1112l-4 -50q-7 -206 117 -210q154 -6 241 172t99 477q4 99 -4 199h106q6 -100 5 -199q-7 -340 -129 -551t-330 -205 q-99 4 -155 67t-63 174q-5 64 2 127z" />
<glyph unicode="&#x509;" horiz-adv-x="1392" d="M766 977h-318l-84 -403l-25 -145q-44 -232 -126 -332.5t-208 -96.5h-44l14 107l36 1q88 4 145.5 90t88.5 277l19 129l96 478h533l-122 -738q-6 -63 -3 -105q3 -76 31.5 -116t79.5 -42q136 -6 212 152.5t84 423.5q3 94 -7 189h101q8 -94 9 -188q3 -299 -109 -493 t-301 -188q-96 3 -150 66.5t-60 176.5q-4 64 3 125z" />
<glyph unicode="&#x50a;" horiz-adv-x="1681" d="M1150 1456l-188 -1113l-4 -78q-2 -79 28.5 -129t88.5 -52q114 -4 194 96t120.5 316t20.5 436h107q8 -100 7 -198q-7 -339 -129.5 -551t-331.5 -206q-105 2 -160.5 75.5t-58.5 208.5l3 84l51 321h-602l-116 -666h-116l253 1456h116l-119 -683h602l119 683h115z" />
<glyph unicode="&#x50b;" horiz-adv-x="1428" d="M690 489h-459l-85 -489h-111l188 1082h111l-86 -490h459l86 490h109l-122 -738l-4 -76l1 -43q12 -140 111 -144q101 -4 172 87.5t104 283t12 394.5h102q8 -94 9 -188q2 -187 -47.5 -348.5t-142 -248t-220.5 -84.5q-95 1 -149 66t-61 178q-4 64 2 124z" />
<glyph unicode="&#x50c;" horiz-adv-x="1080" d="M491 -22q-169 6 -267.5 136t-102.5 348q-2 76 8 141l36 232q46 294 196.5 470t365.5 173q162 -2 274 -80l-48 -97q-101 67 -232 71q-164 2 -280 -136t-155 -364l-47 -297l-5 -83q-3 -183 65 -293.5t200 -114.5q102 -3 182 55.5t122.5 170t50.5 298.5q3 89 -2 179l109 -1 l1 -178q-4 -174 -37.5 -282.5t-95.5 -187t-147 -121t-191 -39.5z" />
<glyph unicode="&#x50d;" horiz-adv-x="903" d="M423 81q88 -2 149.5 51.5t81 153.5t14.5 251h103q3 -174 -12 -257q-26 -142 -118.5 -224t-227.5 -78q-144 4 -226.5 116t-86.5 307q-6 184 55 352.5t166.5 260.5t240.5 90q144 -2 224 -67l-41 -95q-80 57 -188 59q-147 0 -238 -144t-109 -369l-2 -55q-3 -164 53 -257 t162 -95z" />
<glyph unicode="&#x50e;" horiz-adv-x="1229" d="M587 1348h-412l19 108h942l-19 -108h-415l-169 -1004l-4 -50q-7 -206 118 -210q155 -6 241.5 174t98.5 475q4 99 -5 199h106q8 -100 7 -198q-4 -220 -64.5 -401t-161.5 -270.5t-233 -85.5q-97 3 -153 65.5t-65 176.5q-6 64 0 126z" />
<glyph unicode="&#x50f;" horiz-adv-x="1115" d="M450 979h-311l18 103h741l-18 -103h-319l-105 -635l-3 -78q-2 -82 29 -132.5t90 -52.5q132 -6 209.5 141.5t80.5 393.5q1 87 -10 175l101 -1l11 -173q5 -138 -23 -256t-78 -202q-110 -184 -301 -182q-118 2 -175 95.5t-43 272.5z" />
<glyph unicode="&#x510;" horiz-adv-x="1155" d="M619 689q-179 0 -282 -78t-119 -227q-13 -138 69.5 -217.5t226.5 -81.5q143 -4 249.5 83.5t135.5 234.5l112 1q-26 -196 -166 -312.5t-338 -112.5q-125 3 -221 54t-144 143t-38 212q12 137 92 228t215 134q-91 46 -135 129t-36 184q15 191 155 305.5t347 108.5 q172 -4 277.5 -116t91.5 -287h-112q12 125 -61 208t-202 87q-156 4 -261 -78.5t-120 -221.5q-14 -122 52 -193q70 -74 218 -79l159 -1l-19 -108z" />
<glyph unicode="&#x511;" horiz-adv-x="954" d="M57 288q15 196 226 271q-63 35 -96.5 94.5t-28.5 131.5q9 147 116.5 233.5t269.5 82.5q144 -4 232 -91t80 -222l-108 1q6 93 -52.5 150t-157.5 59q-108 2 -183.5 -55t-86.5 -155q-9 -88 43 -135.5t158 -48.5l154 -1l-18 -102l-148 1q-130 0 -204 -56t-84 -159 q-9 -93 51.5 -148.5t163.5 -57.5q111 -2 192 61t103 167l109 1q-22 -155 -136 -245t-274 -86q-149 4 -239.5 87.5t-81.5 221.5z" />
</font>
</defs>
</svg>
