<?xml version="1.0" standalone="no"?>
<!DOCTYPE svg PUBLIC "-//W3C//DTD SVG 1.1//EN" "http://www.w3.org/Graphics/SVG/1.1/DTD/svg11.dtd" >
<svg xmlns="http://www.w3.org/2000/svg" xmlns:xlink="http://www.w3.org/1999/xlink" version="1.1">
<metadata></metadata>
<defs>
<font id="roboto_condensedregular" horiz-adv-x="1028" >
<font-face units-per-em="2048" ascent="1536" descent="-512" />
<missing-glyph horiz-adv-x="469" />
<glyph unicode="&#xfb01;" horiz-adv-x="1003" d="M181 0v939h-141v143h141v100q2 177 92.5 276t252.5 99q63 0 120 -17.5t120 -43.5l-30 -156q-97 50 -196 50q-100 0 -140.5 -53t-40.5 -161v-94h175v-143h-175v-939h-178zM852 0h-178v1082h178v-1082z" />
<glyph unicode="&#xfb02;" horiz-adv-x="1032" d="M703 1381q-98 18 -153 18q-163 0 -163 -209v-108h185v-143h-185v-939h-177v939h-141v143h141v118q1 174 85.5 265.5t239.5 91.5q84 0 345 -61v-1496h-177v1381z" />
<glyph horiz-adv-x="40" />
<glyph horiz-adv-x="40" />
<glyph unicode="&#xd;" horiz-adv-x="469" />
<glyph horiz-adv-x="40" />
<glyph unicode=" "  horiz-adv-x="469" />
<glyph unicode="&#x09;" horiz-adv-x="469" />
<glyph unicode="&#xa0;" horiz-adv-x="469" />
<glyph unicode="!" horiz-adv-x="503" d="M332 411h-159l-13 1045h186zM257 199q50 0 75.5 -30.5t25.5 -75.5t-25.5 -74.5t-75.5 -29.5q-51 0 -76 29.5t-25 74.5t25 75.5t76 30.5z" />
<glyph unicode="&#x22;" horiz-adv-x="655" d="M277 1400l-30 -358h-111l1 494h140v-136zM547 1400l-30 -358h-111l1 494h140v-136z" />
<glyph unicode="#" horiz-adv-x="1122" d="M666 410h-206l-68 -410h-134l68 410h-195v137h218l59 354h-213v139h236l69 416h134l-69 -416h206l69 416h135l-69 -416h162v-139h-185l-59 -354h181v-137h-204l-68 -410h-135zM483 547h206l59 354h-206z" />
<glyph unicode="$" horiz-adv-x="1011" d="M724 375q0 91 -50 153.5t-172 115.5q-179 65 -261 169.5t-82 265.5q0 164 79.5 267.5t216.5 125.5v220h141v-221q140 -25 216.5 -142.5t76.5 -320.5h-175q0 139 -51 223t-140 84t-138.5 -61t-49.5 -172q0 -101 53.5 -161.5t174.5 -111.5q181 -68 259.5 -169.5 t78.5 -262.5q0 -164 -84 -268t-241 -125v-192h-139v192q-158 23 -242 138t-84 307h176q0 -139 56 -214t158 -75q104 0 163.5 62.5t59.5 172.5z" />
<glyph unicode="%" horiz-adv-x="1296" d="M107 1176q0 130 70.5 215.5t183.5 85.5q112 0 183.5 -84t71.5 -221v-73q0 -131 -70.5 -215t-182.5 -84t-184 84t-72 221v71zM236 1099q0 -80 35 -129.5t92 -49.5q55 0 89.5 48.5t34.5 134.5v73q0 81 -35 130.5t-91 49.5q-57 0 -91 -50t-34 -133v-74zM695 357 q0 131 71 215.5t183 84.5t184 -84t72 -223v-71q0 -132 -72 -216t-182 -84q-112 0 -184 84t-72 221v73zM824 279q0 -81 35 -130.5t92 -49.5q56 0 90 50t34 133v75q0 81 -35 130t-91 49q-55 0 -90 -48.5t-35 -133.5v-75zM399 110l-97 66l597 1138l98 -66z" />
<glyph unicode="&#x26;" horiz-adv-x="1113" d="M103 391q0 103 49.5 190.5t189.5 203.5q-82 115 -112.5 189.5t-30.5 147.5q0 167 85.5 260.5t229.5 93.5q132 0 217 -88t85 -220q0 -86 -34 -159t-120 -148l-103 -88l256 -369q47 119 47 268h158q0 -252 -102 -416l178 -256h-212l-74 107q-57 -59 -138 -93t-168 -34 q-183 0 -292 114t-109 297zM504 131q117 0 215 110l-289 421l-30 -25q-121 -115 -121 -246q0 -116 60 -188t165 -72zM375 1128q0 -54 27 -111t70 -121l77 66q61 49 83 94.5t22 111.5t-40 111t-101 45q-65 0 -101.5 -56t-36.5 -140z" />
<glyph unicode="'" horiz-adv-x="357" d="M253 1425l-21 -368h-129l1 479h149v-111z" />
<glyph unicode="(" horiz-adv-x="643" d="M129 591q0 262 71 493t201 405q79 105 152 154l35 -122q-120 -115 -197 -346.5t-84 -514.5l-1 -81q0 -352 99 -622q75 -203 183 -314l-35 -113q-92 62 -187 204q-237 357 -237 857z" />
<glyph unicode=")" horiz-adv-x="652" d="M513 581q0 -446 -200 -789q-108 -184 -224 -262l-35 113q126 121 203 369.5t79 544.5v36q0 380 -125 680q-69 164 -157 257l35 113q110 -74 213 -243q211 -348 211 -819z" />
<glyph unicode="*" horiz-adv-x="882" d="M330 983l-302 90l46 151l302 -112l-9 344h153l-10 -349l297 110l46 -152l-307 -91l198 -271l-124 -94l-186 288l-180 -281l-125 91z" />
<glyph unicode="+" horiz-adv-x="1017" d="M596 781h329v-175h-329v-460h-178v460h-332v175h332v425h178v-425z" />
<glyph unicode="," horiz-adv-x="402" d="M134 -290l-105 72q94 131 98 270v167h181v-145q0 -101 -49.5 -202t-124.5 -162z" />
<glyph unicode="-" horiz-adv-x="508" d="M460 543h-413v151h413v-151z" />
<glyph unicode="." horiz-adv-x="539" d="M144 97q0 48 28.5 80t85.5 32t86.5 -32t29.5 -80q0 -46 -29.5 -77t-86.5 -31t-85.5 31t-28.5 77z" />
<glyph unicode="/" horiz-adv-x="759" d="M181 -125h-150l511 1581h149z" />
<glyph unicode="0" horiz-adv-x="1011" d="M895 621q0 -322 -94 -481.5t-295 -159.5q-195 0 -291 153t-100 460v250q0 319 94.5 476t294.5 157q197 0 291.5 -149t99.5 -451v-255zM718 874q0 231 -51 340.5t-163 109.5q-109 0 -160 -107.5t-53 -324.5v-300q0 -230 53 -345.5t162 -115.5q108 0 159 109t53 333v301z " />
<glyph unicode="1" horiz-adv-x="1011" d="M644 0h-178v1233l-306 -137v168l456 199h28v-1463z" />
<glyph unicode="2" horiz-adv-x="1011" d="M931 0h-814v133l415 550q94 127 130.5 208.5t36.5 172.5q0 116 -54 188t-142 72q-111 0 -171.5 -76.5t-60.5 -220.5h-177q0 201 110 325t299 124q174 0 274 -106.5t100 -283.5q0 -216 -225 -511l-324 -424h603v-151z" />
<glyph unicode="3" horiz-adv-x="1011" d="M343 818h113q109 0 168 67t59 183q0 256 -198 256q-95 0 -149 -69t-54 -181h-176q0 175 106.5 288.5t272.5 113.5q172 0 273 -107.5t101 -304.5q0 -101 -52.5 -188.5t-136.5 -128.5q206 -76 206 -341q0 -195 -108.5 -310.5t-283.5 -115.5q-173 0 -279.5 109.5 t-106.5 294.5h177q0 -116 56 -184.5t153 -68.5q99 0 157.5 67t58.5 204q0 265 -251 265h-106v151z" />
<glyph unicode="4" horiz-adv-x="1011" d="M787 489h162v-151h-162v-338h-177v338h-550v109l541 1009h186v-967zM256 489h354v692z" />
<glyph unicode="5" horiz-adv-x="1011" d="M189 730l63 726h633v-171h-484l-34 -397q90 63 194 63q170 0 267 -132t97 -355q0 -226 -105.5 -355t-289.5 -129q-164 0 -267 107t-118 296h166q15 -125 71.5 -188.5t147.5 -63.5q103 0 161 89.5t58 241.5q0 143 -62.5 233t-168.5 90q-88 0 -141 -46l-47 -47z" />
<glyph unicode="6" horiz-adv-x="1011" d="M733 1457v-157h-29q-177 -4 -277 -119.5t-115 -347.5q97 122 248 122q161 0 255.5 -132.5t94.5 -347.5q0 -229 -104.5 -362t-280.5 -133q-177 0 -285 157t-108 417v71q0 300 65 478t191.5 264.5t314.5 89.5h30zM530 801q-72 0 -133 -55t-88 -140v-73q0 -177 62.5 -288.5 t153.5 -111.5q99 0 155 91.5t56 241.5q0 148 -56 241.5t-150 93.5z" />
<glyph unicode="7" horiz-adv-x="1011" d="M920 1352l-501 -1352h-185l500 1304h-649v152h835v-104z" />
<glyph unicode="8" horiz-adv-x="1011" d="M866 1076q0 -109 -48.5 -194t-130.5 -133q97 -50 152 -143.5t55 -212.5q0 -188 -106.5 -300.5t-282.5 -112.5t-282.5 112.5t-106.5 300.5q0 120 54.5 214.5t148.5 142.5q-82 48 -129 132.5t-47 193.5q0 184 99.5 292t262.5 108q162 0 261.5 -107t99.5 -293zM717 397 q0 125 -59 200.5t-155 75.5q-98 0 -154.5 -76t-56.5 -200q0 -126 55.5 -196t157.5 -70t157 70t55 196zM690 1073q0 111 -52 181t-133 70q-85 0 -135 -69t-50 -182q0 -114 51 -181t134 -67q85 0 135 68t50 180z" />
<glyph unicode="9" horiz-adv-x="1011" d="M699 622q-106 -135 -248 -135q-159 0 -253 134t-94 351q0 228 102.5 366t279.5 138q184 0 287.5 -159.5t103.5 -441.5v-55q0 -242 -36.5 -392t-107.5 -242t-181 -139.5t-275 -47.5v156h31q188 4 285.5 114.5t105.5 352.5zM481 640q64 0 125 53.5t95 140.5v78 q0 181 -63 295.5t-152 114.5q-96 0 -152.5 -94.5t-56.5 -245.5t55 -246.5t149 -95.5z" />
<glyph unicode=":" horiz-adv-x="478" d="M138 97q0 48 28.5 80t85.5 32t86.5 -32t29.5 -80q0 -46 -29.5 -77t-86.5 -31t-85.5 31t-28.5 77zM139 980q0 48 28.5 80t85.5 32t86.5 -32t29.5 -80q0 -46 -29.5 -77t-86.5 -31t-85.5 31t-28.5 77z" />
<glyph unicode=";" horiz-adv-x="415" d="M115 980q0 48 28.5 80t85.5 32t86.5 -32t29.5 -80q0 -46 -29.5 -77t-86.5 -31t-85.5 31t-28.5 77zM148 -290l-105 72q94 131 98 270v167h181v-145q0 -101 -49.5 -202t-124.5 -162z" />
<glyph unicode="&#x3c;" horiz-adv-x="913" d="M253 644l510 -253v-196l-684 379v146l684 378v-196z" />
<glyph unicode="=" horiz-adv-x="981" d="M849 814h-701v161h701v-161zM849 399h-701v160h701v-160z" />
<glyph unicode="&#x3e;" horiz-adv-x="942" d="M678 651l-542 258v190l720 -378v-146l-720 -379v192z" />
<glyph unicode="?" horiz-adv-x="864" d="M314 410q0 120 25 195t122 191l70 90q70 98 70 204q0 105 -43.5 164.5t-124.5 59.5q-76 0 -126.5 -54t-50.5 -145h-176q2 165 100 263t253 98q161 0 253 -101t92 -279q0 -170 -139 -341l-92 -111q-57 -81 -57 -234h-176zM410 199q50 0 75.5 -30.5t25.5 -75.5t-25.5 -74.5 t-75.5 -29.5q-51 0 -75.5 29.5t-24.5 74.5t24.5 75.5t75.5 30.5z" />
<glyph unicode="@" horiz-adv-x="1575" d="M1474 502q-8 -235 -99.5 -378.5t-250.5 -143.5q-155 0 -203 159q-45 -80 -100.5 -119.5t-112.5 -39.5q-122 0 -183 116.5t-45 320.5q12 163 63.5 293.5t131.5 204.5t167 74q71 0 126 -22t123 -84l-45 -554q-16 -231 99 -231q89 0 145.5 108t63.5 296q15 391 -120.5 594 t-407.5 203q-168 0 -294 -99.5t-198.5 -287t-80.5 -434.5q-14 -379 123.5 -592.5t395.5 -213.5q77 0 153.5 22.5t125.5 56.5l33 -115q-53 -39 -139.5 -64t-175.5 -25q-209 0 -360.5 112t-226.5 323.5t-66 495.5q9 275 102.5 495t252.5 339t359 119q206 0 356.5 -112.5 t223.5 -322t64 -494.5zM630 417q-11 -142 22 -218t102 -76q44 0 84.5 48t67.5 138l2 20l39 509q-44 23 -89 23q-93 0 -154 -120t-74 -324z" />
<glyph unicode="A" horiz-adv-x="1180" d="M836 380h-492l-113 -380h-188l469 1456h157l470 -1456h-188zM392 538h397l-199 662z" />
<glyph unicode="B" horiz-adv-x="1117" d="M157 0v1456h415q199 0 299.5 -97t100.5 -291q0 -102 -51 -180t-138 -121q100 -30 158.5 -123t58.5 -224q0 -196 -107.5 -308t-306.5 -112h-429zM340 681v-524h250q104 0 165 68.5t61 192.5q0 263 -222 263h-254zM340 835h235q95 0 153.5 64t58.5 170q0 120 -53 174.5 t-162 54.5h-232v-463z" />
<glyph unicode="C" horiz-adv-x="1161" d="M1070 462q-12 -234 -131.5 -358t-337.5 -124q-219 0 -348 166.5t-129 451.5v264q0 284 132.5 449t361.5 165q211 0 326.5 -126.5t125.5 -361.5h-185q-12 178 -75 254t-192 76q-149 0 -229 -116.5t-80 -341.5v-267q0 -221 74.5 -339t217.5 -118t206 71t78 255h185z" />
<glyph unicode="D" horiz-adv-x="1169" d="M157 0v1456h347q255 0 396 -159.5t141 -448.5v-244q0 -289 -143 -446.5t-415 -157.5h-326zM340 1298v-1141h147q193 0 282 110.5t91 327.5v258q0 230 -88.5 337.5t-267.5 107.5h-164z" />
<glyph unicode="E" horiz-adv-x="1017" d="M855 673h-515v-516h600v-157h-783v1456h773v-158h-590v-468h515v-157z" />
<glyph unicode="F" horiz-adv-x="984" d="M832 643h-492v-643h-183v1456h758v-158h-575v-498h492v-157z" />
<glyph unicode="G" horiz-adv-x="1210" d="M1068 181l-32 -40q-138 -161 -404 -161q-236 0 -370.5 156.5t-137.5 442.5v286q0 306 122.5 458.5t366.5 152.5q208 0 325.5 -116t129.5 -331h-183q-11 136 -75.5 212.5t-195.5 76.5q-157 0 -230 -102.5t-76 -327.5v-297q0 -220 84 -337.5t241 -117.5q148 0 225 72l27 25 v336h-266v156h449v-544z" />
<glyph unicode="H" horiz-adv-x="1270" d="M1110 0h-184v673h-586v-673h-183v1456h183v-626h586v626h184v-1456z" />
<glyph unicode="I" horiz-adv-x="512" d="M348 0h-183v1456h183v-1456z" />
<glyph unicode="J" horiz-adv-x="990" d="M659 1456h184v-1031q0 -209 -106.5 -327t-286.5 -118q-185 0 -288 112t-103 310h183q0 -125 55 -195t153 -70q95 0 152 76t57 213v1030z" />
<glyph unicode="K" horiz-adv-x="1116" d="M483 671l-143 -173v-498h-183v1456h183v-703l120 159l392 544h220l-473 -641l510 -815h-219z" />
<glyph unicode="L" horiz-adv-x="973" d="M341 157h571v-157h-755v1456h184v-1299z" />
<glyph unicode="M" horiz-adv-x="1547" d="M393 1456l380 -1188l380 1188h236v-1456h-183v567l17 568l-381 -1135h-140l-379 1131l17 -564v-567h-183v1456h236z" />
<glyph unicode="N" horiz-adv-x="1268" d="M1108 0h-184l-583 1122v-1122h-184v1456h184l585 -1127v1127h182v-1456z" />
<glyph unicode="O" horiz-adv-x="1230" d="M1104 600q0 -298 -127 -459t-361 -161q-225 0 -355.5 156.5t-135.5 442.5v274q0 292 129 457.5t360 165.5q230 0 358.5 -158.5t131.5 -452.5v-265zM921 855q0 231 -75.5 343.5t-231.5 112.5q-151 0 -228.5 -114t-78.5 -336v-261q0 -223 77.5 -340t231.5 -117t228 108 t77 331v273z" />
<glyph unicode="P" horiz-adv-x="1135" d="M340 570v-570h-183v1456h464q203 0 319 -121.5t116 -323.5q0 -210 -110.5 -323.5t-311.5 -117.5h-294zM340 727h281q122 0 187 73t65 209q0 131 -67 210t-184 79h-282v-571z" />
<glyph unicode="Q" horiz-adv-x="1230" d="M1096 601q0 -192 -51.5 -324.5t-146.5 -206.5l217 -195l-124 -121l-262 239q-63 -13 -122 -13q-227 0 -357.5 159.5t-133.5 448.5v265q0 294 129 458.5t360 164.5q233 0 361 -160.5t130 -454.5v-260zM913 855q0 231 -75.5 343.5t-232.5 112.5q-150 0 -227.5 -114 t-78.5 -336v-260q0 -224 77.5 -341t230.5 -117q152 0 227 106t79 327v279z" />
<glyph unicode="R" horiz-adv-x="1087" d="M597 589h-256v-589h-184v1456h408q214 0 324 -111.5t110 -326.5q0 -135 -59.5 -235.5t-168.5 -151.5l282 -619v-12h-197zM341 746h222q115 0 183.5 74t68.5 198q0 280 -254 280h-220v-552z" />
<glyph unicode="S" horiz-adv-x="1061" d="M793 368q0 109 -59 167t-213 113t-235.5 115.5t-122 138t-40.5 177.5q0 173 115.5 285t302.5 112q128 0 228 -57.5t154 -159.5t54 -224h-184q0 135 -65 209t-187 74q-111 0 -172 -62t-61 -174q0 -92 66 -154t204 -111q215 -71 307.5 -175t92.5 -272q0 -177 -115 -283.5 t-313 -106.5q-127 0 -234.5 55.5t-169 156t-61.5 230.5h184q0 -135 75.5 -210t205.5 -75q121 0 182 62t61 169z" />
<glyph unicode="T" horiz-adv-x="1066" d="M1008 1298h-383v-1298h-183v1298h-382v158h948v-158z" />
<glyph unicode="U" horiz-adv-x="1150" d="M1025 1456v-1035q-2 -207 -120 -324t-329 -117q-216 0 -330 114.5t-116 326.5v1035h182v-1028q0 -147 62.5 -219.5t201.5 -72.5q140 0 202.5 72.5t62.5 219.5v1028h184z" />
<glyph unicode="V" horiz-adv-x="1147" d="M573 281l333 1175h201l-453 -1456h-160l-452 1456h200z" />
<glyph unicode="W" horiz-adv-x="1560" d="M435 459l19 -163l29 144l233 1016h153l226 -1016l29 -148l21 168l178 996h183l-290 -1456h-165l-243 1061l-15 86l-15 -86l-252 -1061h-166l-289 1456h183z" />
<glyph unicode="X" horiz-adv-x="1128" d="M566 898l274 558h215l-379 -722l387 -734h-217l-280 568l-281 -568h-217l389 734l-381 722h214z" />
<glyph unicode="Y" horiz-adv-x="1074" d="M536 725l298 731h207l-414 -913v-543h-183v543l-414 913h208z" />
<glyph unicode="Z" horiz-adv-x="1070" d="M294 157h691v-157h-894v144l663 1154h-656v158h860v-141z" />
<glyph unicode="[" horiz-adv-x="513" d="M469 1512h-155v-1672h155v-152h-332v1976h332v-152z" />
<glyph unicode="\" horiz-adv-x="756" d="M51 1456h167l510 -1581h-166z" />
<glyph unicode="]" horiz-adv-x="513" d="M30 1664h333v-1976h-333v152h157v1672h-157v152z" />
<glyph unicode="^" horiz-adv-x="760" d="M379 1211l-147 -482h-163l252 727h118l250 -727h-161z" />
<glyph unicode="_" horiz-adv-x="829" d="M805 -151h-781v151h781v-151z" />
<glyph unicode="`" horiz-adv-x="633" d="M474 1240h-159l-258 294h223z" />
<glyph unicode="a" horiz-adv-x="981" d="M689 0q-16 35 -23 118q-94 -138 -240 -138q-147 0 -229.5 82.5t-82.5 232.5q0 165 112 262t307 99h130v115q0 97 -43 138t-131 41q-80 0 -130 -47.5t-50 -120.5h-177q0 83 49 158.5t132 118.5t185 43q166 0 252.5 -82.5t88.5 -240.5v-546q1 -125 34 -217v-16h-184z M453 141q65 0 124 36t86 90v258h-100q-126 -2 -199 -56.5t-73 -152.5q0 -92 37 -133.5t125 -41.5z" />
<glyph unicode="b" horiz-adv-x="1010" d="M916 489q0 -253 -91 -381t-264 -128q-172 0 -258 148l-9 -128h-161v1536h176v-573q87 139 250 139q178 0 267 -126t90 -380v-107zM740 590q0 192 -53.5 273.5t-173.5 81.5q-137 0 -204 -148v-515q66 -146 206 -146q120 0 172 84t53 261v109z" />
<glyph unicode="c" horiz-adv-x="946" d="M508 131q88 0 141 54.5t58 155.5h167q-6 -156 -110.5 -258.5t-255.5 -102.5q-201 0 -306.5 126.5t-105.5 376.5v119q0 245 105 372.5t306 127.5q166 0 263.5 -105t103.5 -287h-167q-6 120 -57.5 180t-142.5 60q-118 0 -175 -77.5t-59 -254.5v-138q0 -191 56.5 -270 t178.5 -79z" />
<glyph unicode="d" horiz-adv-x="1016" d="M95 590q0 250 93.5 381t268.5 131q155 0 242 -126v560h177v-1536h-162l-9 116q-87 -136 -249 -136q-168 0 -263.5 130.5t-97.5 368.5v111zM272 489q0 -182 54 -267.5t176 -85.5q132 0 197 133v546q-68 130 -196 130q-122 0 -176 -85.5t-55 -262.5v-108z" />
<glyph unicode="e" horiz-adv-x="959" d="M519 -20q-202 0 -310 120.5t-110 353.5v131q0 242 105.5 379.5t294.5 137.5q190 0 284 -121t96 -377v-116h-604v-25q0 -174 65.5 -253t188.5 -79q78 0 137.5 29.5t111.5 93.5l92 -112q-115 -162 -351 -162zM499 950q-110 0 -163 -75.5t-60 -234.5h426v24 q-7 154 -55.5 220t-147.5 66z" />
<glyph unicode="f" horiz-adv-x="648" d="M210 0v939h-141v143h141v125q3 165 83.5 257.5t227.5 92.5q53 0 107 -17l-9 -150q-38 9 -81 9q-151 0 -151 -215v-102h185v-143h-185v-939h-177z" />
<glyph unicode="g" horiz-adv-x="1009" d="M97 590q0 253 92 382.5t269 129.5q165 0 251 -141l9 121h160v-1092q0 -201 -103 -308.5t-287 -107.5q-80 0 -179.5 39.5t-149.5 97.5l72 122q110 -108 243 -108q221 0 227 241v141q-86 -127 -244 -127q-168 0 -262 126.5t-98 363.5v120zM274 489q0 -182 53.5 -267.5 t175.5 -85.5q132 0 198 135v541q-69 133 -196 133q-122 0 -176 -85.5t-55 -262.5v-108z" />
<glyph unicode="h" horiz-adv-x="989" d="M309 971q101 131 258 131q287 0 291 -383v-719h-176v711q0 127 -42.5 180.5t-127.5 53.5q-66 0 -118.5 -44t-84.5 -115v-786h-177v1536h177v-565z" />
<glyph unicode="i" horiz-adv-x="469" d="M323 0h-177v1082h177v-1082zM337 1369q0 -45 -25 -75t-76 -30q-50 0 -75 30t-25 75t25 76t75 31t75.5 -31.5t25.5 -75.5z" />
<glyph unicode="j" horiz-adv-x="458" d="M313 1082v-1218q-3 -301 -238 -301q-54 0 -97 18l-1 148q27 -8 69 -8q45 0 67.5 33.5t22.5 116.5v1211h177zM321 1369q0 -45 -25 -75t-76 -30q-50 0 -74.5 30t-24.5 75t24.5 76t74.5 31t75.5 -31.5t25.5 -75.5z" />
<glyph unicode="k" horiz-adv-x="923" d="M404 495l-94 -108v-387h-177v1536h177v-919l337 465h212l-344 -452l389 -630h-206z" />
<glyph unicode="l" horiz-adv-x="469" d="M323 0h-177v1536h177v-1536z" />
<glyph unicode="m" horiz-adv-x="1541" d="M299 1082l4 -100q99 120 261 120q181 0 253 -157q102 157 284 157q299 0 306 -373v-729h-176v712q0 118 -42 175.5t-142 57.5q-80 0 -130 -62t-58 -158v-725h-178v720q-3 225 -183 225q-134 0 -189 -134v-811h-176v1082h166z" />
<glyph unicode="n" horiz-adv-x="991" d="M299 1082l5 -117q103 137 263 137q287 0 291 -383v-719h-176v711q0 127 -42.5 180.5t-127.5 53.5q-66 0 -118.5 -44t-84.5 -115v-786h-177v1082h167z" />
<glyph unicode="o" d="M95 591q0 236 114.5 373.5t302.5 137.5t302.5 -134t117.5 -365v-114q0 -235 -114 -372t-304 -137q-188 0 -301.5 133t-117.5 360v118zM272 489q0 -167 65.5 -262.5t176.5 -95.5q234 0 241 338v122q0 166 -66 262.5t-177 96.5q-109 0 -174.5 -96.5t-65.5 -261.5v-103z" />
<glyph unicode="p" horiz-adv-x="1010" d="M914 489q0 -257 -92.5 -383t-261.5 -126q-163 0 -251 123v-519h-176v1498h160l9 -120q89 140 255 140q178 0 266 -124t91 -371v-118zM738 590q0 182 -56 268.5t-180 86.5q-127 0 -193 -127v-563q65 -124 195 -124q120 0 176.5 86.5t57.5 264.5v108z" />
<glyph unicode="q" horiz-adv-x="1025" d="M95 590q0 253 92 382.5t274 129.5q157 0 244 -126l8 106h162v-1498h-177v511q-86 -115 -238 -115q-175 0 -269 127.5t-96 371.5v111zM272 489q0 -182 56 -270t178 -88q124 0 192 119v580q-72 120 -191 120q-122 0 -178 -88t-57 -265v-108z" />
<glyph unicode="r" horiz-adv-x="623" d="M579 916q-37 7 -80 7q-136 0 -190 -149v-774h-177v1082h172l3 -110q71 130 201 130q42 0 70 -14z" />
<glyph unicode="s" horiz-adv-x="933" d="M658 277q0 57 -43 98t-166 96q-143 59 -201.5 101t-87.5 95.5t-29 127.5q0 132 96.5 219.5t246.5 87.5q158 0 254 -92t96 -236h-176q0 73 -49 124.5t-125 51.5q-78 0 -122.5 -40.5t-44.5 -108.5q0 -54 32.5 -87t156.5 -87q197 -77 268 -150.5t71 -186.5 q0 -141 -97 -225.5t-260 -84.5q-169 0 -274 97t-105 246h178q3 -90 55 -141t146 -51q88 0 134 39.5t46 106.5z" />
<glyph unicode="t" horiz-adv-x="605" d="M364 1344v-262h163v-143h-163v-671q0 -64 21 -97t72 -33q35 0 71 12l-2 -150q-60 -20 -123 -20q-105 0 -160 75t-55 212v672h-165v143h165v262h176z" />
<glyph unicode="u" horiz-adv-x="990" d="M684 95q-88 -115 -257 -115q-147 0 -222 101.5t-76 295.5v705h176v-692q0 -253 152 -253q161 0 222 144v801h177v-1082h-168z" />
<glyph unicode="v" horiz-adv-x="876" d="M439 269l205 813h180l-321 -1082h-132l-325 1082h180z" />
<glyph unicode="w" horiz-adv-x="1331" d="M939 311l164 771h175l-265 -1082h-141l-211 774l-206 -774h-142l-263 1082h174l168 -752l201 752h140z" />
<glyph unicode="x" horiz-adv-x="899" d="M445 687l185 395h205l-294 -535l301 -547h-203l-191 405l-192 -405h-204l301 547l-293 535h203z" />
<glyph unicode="y" horiz-adv-x="853" d="M428 294l197 788h188l-354 -1235q-40 -139 -113 -211.5t-166 -72.5q-36 0 -92 16v150l39 -4q77 0 120.5 36.5t70.5 126.5l35 121l-318 1073h193z" />
<glyph unicode="z" horiz-adv-x="899" d="M296 151h522v-151h-724v136l496 793h-492v153h700v-131z" />
<glyph unicode="{" horiz-adv-x="627" d="M549 -366q-151 50 -227.5 163t-77.5 298v207q0 241 -172 241v145q172 0 172 241v206q1 184 76 297.5t229 164.5l36 -115q-160 -63 -164 -335v-216q0 -226 -147 -316q147 -90 147 -317v-219q5 -268 163 -330z" />
<glyph unicode="|" horiz-adv-x="499" d="M324 -270h-149v1726h149v-1726z" />
<glyph unicode="}" horiz-adv-x="627" d="M39 -251q160 63 165 331v221q0 231 159 314q-159 82 -159 318v207q-2 278 -165 342l36 115q150 -49 225.5 -159.5t79.5 -288.5v-236q5 -225 172 -225v-145q-172 0 -172 -241v-204q0 -364 -305 -464z" />
<glyph unicode="~" horiz-adv-x="1207" d="M1084 777q0 -155 -81.5 -265t-199.5 -110q-64 0 -122 30.5t-129 108.5q-40 47 -74 72.5t-72 25.5q-62 0 -95 -53.5t-33 -147.5l-153 -2q0 158 80.5 262t200.5 104q72 0 130 -36.5t120 -102.5q41 -50 74.5 -74t72.5 -24q59 0 98 58.5t39 152.5z" />
<glyph unicode="&#xa1;" horiz-adv-x="474" d="M161 684h160l13 -1044h-186zM237 889q-51 0 -76 31t-25 76t25 75t76 30q50 0 75.5 -30t25.5 -75t-25.5 -76t-75.5 -31z" />
<glyph unicode="&#xa2;" horiz-adv-x="982" d="M514 131q78 0 136 60t64 150h167q-6 -125 -88 -224.5t-201 -127.5v-234h-176v237q-147 35 -229.5 175.5t-82.5 357.5v37q0 207 82 349t230 179v228h176v-224q126 -25 204.5 -129.5t84.5 -254.5h-167q-6 105 -61 172.5t-139 67.5q-113 0 -173.5 -99.5t-60.5 -295.5v-35 q0 -191 60 -290t174 -99z" />
<glyph unicode="&#xa3;" horiz-adv-x="1046" d="M411 622l7 -220q-2 -153 -55 -245h615l-1 -157h-878v157h58q34 10 55 77.5t21 166.5l-6 221h-131v157h126l-7 260q0 198 106.5 317.5t279.5 119.5q161 0 256.5 -105.5t95.5 -283.5h-182q0 110 -51 170.5t-136 60.5q-82 0 -133.5 -78t-51.5 -201l8 -260h260v-157h-256z " />
<glyph unicode="&#xa4;" horiz-adv-x="1460" d="M1103 112q-159 -132 -368 -132q-207 0 -366 130l-134 -136l-130 135l139 141q-104 156 -104 358q0 206 112 369l-147 151l130 136l147 -150q158 120 353 120q196 0 355 -121l149 152l132 -137l-151 -154q110 -163 110 -366q0 -196 -102 -355l143 -144l-132 -136zM311 608 q0 -123 57.5 -229t155.5 -167t211 -61t211 61.5t154.5 167t56.5 228.5q0 122 -56.5 227.5t-155 166t-210.5 60.5q-113 0 -211 -60t-155.5 -166t-57.5 -228z" />
<glyph unicode="&#xa5;" horiz-adv-x="1087" d="M538 816l287 640h209l-347 -720h251v-125h-311v-165h311v-124h-311v-322h-185v322h-306v124h306v165h-306v125h254l-348 720h209z" />
<glyph unicode="&#xa6;" horiz-adv-x="491" d="M147 -270v791h186v-791h-186zM333 698h-186v758h186v-758z" />
<glyph unicode="&#xa7;" horiz-adv-x="1100" d="M990 431q0 -190 -158 -274q59 -49 89.5 -117t30.5 -168q0 -169 -111 -268t-305 -99q-206 0 -325 112.5t-119 318.5l177 2q0 -131 71.5 -206t195.5 -75q108 0 173.5 59t65.5 154q0 89 -58.5 141t-230.5 115q-219 69 -304 167t-85 258q0 93 40.5 162.5t113.5 110.5 q-117 101 -117 286q0 166 114 266t303 100q198 0 308.5 -113t110.5 -318h-176q0 124 -66 202t-177 78t-175 -57t-64 -156q0 -100 55.5 -149.5t226.5 -107.5t246.5 -111.5t112.5 -128.5t37 -184zM528 691q-85 27 -138 50q-116 -39 -116 -188q0 -101 54 -152t228 -112 q88 -29 134 -50q60 22 91.5 71.5t31.5 117.5q0 89 -56.5 143t-228.5 120z" />
<glyph unicode="&#xa8;" horiz-adv-x="856" d="M102 1371q0 45 27.5 75.5t81.5 30.5t82 -30.5t28 -75.5t-28 -75t-82 -30t-81.5 30t-27.5 75zM532 1369q0 45 27.5 76t81.5 31t82 -31t28 -76t-28 -75t-82 -30t-81.5 30t-27.5 75z" />
<glyph unicode="&#xa9;" horiz-adv-x="1609" d="M1119 597q0 -153 -86.5 -233.5t-244.5 -80.5q-157 0 -251.5 105.5t-94.5 287.5v110q0 176 95.5 281.5t250.5 105.5q160 0 246 -82t86 -231h-146q0 99 -47.5 141.5t-138.5 42.5q-94 0 -148 -69t-54 -192v-113q0 -120 54 -189t148 -69q92 0 138.5 42t46.5 143h146zM206 729 q0 -172 80 -318.5t217.5 -229.5t297.5 -83t297 83t217 229.5t80 318.5q0 170 -79 315t-216.5 228.5t-298.5 83.5q-160 0 -298 -82.5t-217.5 -228.5t-79.5 -316zM91 729q0 202 93.5 375t259 272.5t357.5 99.5t357 -99.5t258.5 -272.5t93.5 -375q0 -197 -90 -369 t-255.5 -276.5t-363.5 -104.5q-197 0 -362.5 103.5t-256.5 275.5t-91 371z" />
<glyph unicode="&#xaa;" horiz-adv-x="811" d="M529 705l-14 68q-63 -82 -166 -82q-101 0 -155 62t-54 165q0 227 279 231h90v52q0 135 -92 135q-52 0 -81 -27t-29 -78l-153 12q0 104 73.5 168.5t189.5 64.5q114 0 180 -71.5t66 -204.5v-314q0 -96 22 -181h-156zM388 828q65 0 121 61v148h-70q-145 0 -145 -115 q0 -94 94 -94z" />
<glyph unicode="&#xab;" horiz-adv-x="856" d="M265 548l211 -397h-129l-248 388v19l248 389h129zM549 548l211 -397h-129l-248 388v19l248 389h129z" />
<glyph unicode="&#xac;" horiz-adv-x="998" d="M832 375h-178v264h-527v161h705v-425z" />
<glyph unicode="&#xad;" horiz-adv-x="508" d="M460 543h-413v151h413v-151z" />
<glyph unicode="&#xae;" horiz-adv-x="1610" d="M90 729q0 202 93.5 375t259 272.5t357.5 99.5t357 -99.5t258.5 -272.5t93.5 -375q0 -197 -90 -369t-255.5 -276.5t-363.5 -104.5q-197 0 -362.5 103.5t-256.5 275.5t-91 371zM205 729q0 -172 80 -318.5t217.5 -229.5t297.5 -83q161 0 299 84.5t216.5 229.5t78.5 317 q0 171 -78.5 315.5t-216.5 228t-299 83.5q-160 0 -298 -82.5t-217.5 -228.5t-79.5 -316zM653 654v-338h-141v849h276q153 0 237.5 -65.5t84.5 -190.5q0 -123 -128 -188q122 -50 123 -204v-61q0 -86 17 -124v-16h-145q-14 36 -14 128.5t-3 109.5q-16 96 -131 100h-176z M653 782h156q72 2 116 35t44 87q0 73 -39 103.5t-139 30.5h-138v-256z" />
<glyph unicode="&#xaf;" horiz-adv-x="848" d="M739 1313h-614v143h614v-143z" />
<glyph unicode="&#xb0;" horiz-adv-x="765" d="M130 1216q0 104 74.5 182t180.5 78q104 0 177.5 -77.5t73.5 -182.5q0 -106 -73.5 -181t-177.5 -75q-105 0 -180 75t-75 181zM385 1088q54 0 91 35.5t37 92.5q0 58 -37 95.5t-91 37.5q-55 0 -92.5 -39.5t-37.5 -93.5t37.5 -91t92.5 -37z" />
<glyph unicode="&#xb1;" horiz-adv-x="962" d="M578 854h297v-151h-297v-414h-158v414h-315v151h315v413h158v-413zM837 0h-702v152h702v-152z" />
<glyph unicode="&#xb2;" horiz-adv-x="675" d="M599 667h-512v108l256 288q82 97 82 165q0 49 -24 79.5t-69 30.5q-58 0 -84.5 -38t-26.5 -95h-149q0 114 71.5 188t184.5 74q116 0 181 -63.5t65 -173.5q0 -107 -97 -219l-201 -216h323v-128z" />
<glyph unicode="&#xb3;" horiz-adv-x="675" d="M242 1125h66q117 0 117 109q0 44 -24 73.5t-77 29.5q-42 0 -70 -24.5t-28 -67.5h-149q0 97 69 159t176 62q118 0 185 -60.5t67 -164.5q0 -55 -29.5 -100.5t-85.5 -70.5q125 -40 125 -184q0 -108 -74 -169.5t-189 -61.5q-114 0 -183 63.5t-69 169.5h150q0 -45 28.5 -75 t79.5 -30q54 0 81.5 30t27.5 81q0 114 -119 115h-75v116z" />
<glyph unicode="&#xb4;" horiz-adv-x="642" d="M316 1534h224l-268 -294h-149z" />
<glyph unicode="&#xb5;" horiz-adv-x="1021" d="M323 1082v-642q2 -159 41 -234.5t130 -75.5q147 0 202 134v818h178v-1082h-159l-8 102q-74 -122 -206 -122q-115 0 -178 67v-463h-176v1498h176z" />
<glyph unicode="&#xb6;" horiz-adv-x="890" d="M551 0v520h-69q-125 0 -218.5 58t-143 165t-49.5 245q0 213 112 340.5t303 127.5h243v-1456h-178z" />
<glyph unicode="&#xb7;" horiz-adv-x="498" d="M138 729q0 48 26.5 80t79.5 32t80 -32t27 -80q0 -47 -27 -78.5t-80 -31.5t-79.5 31.5t-26.5 78.5z" />
<glyph unicode="&#xb8;" horiz-adv-x="469" d="M272 0l-10 -52q60 -13 92 -58t32 -115q0 -96 -66.5 -153t-190.5 -57l-6 107q128 0 128 99q0 45 -26.5 65.5t-105.5 29.5l28 134h125z" />
<glyph unicode="&#xb9;" horiz-adv-x="675" d="M446 674h-149v601l-176 -57v128l308 117h17v-789z" />
<glyph unicode="&#xba;" horiz-adv-x="825" d="M118 1123q0 154 80 253.5t214 99.5t214 -98t80 -260v-75q0 -157 -80 -255t-213 -98q-135 0 -215 99.5t-80 257.5v76zM273 1043q0 -101 38 -157.5t102 -56.5t101 57t37 160v77q0 99 -37.5 156t-101.5 57q-63 0 -100.5 -55.5t-38.5 -154.5v-83z" />
<glyph unicode="&#xbb;" horiz-adv-x="856" d="M232 949l248 -389v-19l-248 -389h-131l211 398l-211 399h131zM535 949l248 -389v-19l-248 -389h-131l211 398l-211 399h131z" />
<glyph unicode="&#xbc;" horiz-adv-x="1305" d="M407 664h-149v601l-176 -57v128l308 117h17v-789zM401 118l-96 66l597 1138l97 -66zM1142 299h84v-130h-84v-169h-148v169h-308l-5 102l310 518h151v-490zM827 299h167v279l-10 -18z" />
<glyph unicode="&#xbd;" horiz-adv-x="1388" d="M364 118l-96 66l597 1138l97 -66zM406 664h-149v601l-176 -57v128l308 117h17v-789zM1278 0h-512v108l256 288q82 97 82 165q0 49 -24 79.5t-69 30.5q-58 0 -84.5 -38t-26.5 -95h-149q0 114 71.5 188t184.5 74q116 0 181 -63.5t65 -173.5q0 -107 -97 -219l-201 -216h323 v-128z" />
<glyph unicode="&#xbe;" horiz-adv-x="1379" d="M502 118l-96 66l597 1138l97 -66zM1211 299h84v-130h-84v-169h-148v169h-308l-5 102l310 518h151v-490zM896 299h167v279l-10 -18zM284 1126h66q117 0 117 109q0 44 -24 73.5t-77 29.5q-42 0 -70 -24.5t-28 -67.5h-149q0 97 69 159t176 62q118 0 185 -60.5t67 -164.5 q0 -55 -29.5 -100.5t-85.5 -70.5q125 -40 125 -184q0 -108 -74 -169.5t-189 -61.5q-114 0 -183 63.5t-69 169.5h150q0 -45 28.5 -75t79.5 -30q54 0 81.5 30t27.5 81q0 114 -119 115h-75v116z" />
<glyph unicode="&#xbf;" horiz-adv-x="863" d="M526 680q-1 -103 -19.5 -167t-61.5 -125l-68 -90l-55 -75q-75 -105 -75 -223q0 -109 45.5 -166.5t131.5 -57.5q74 0 125.5 56t51.5 148h176q-2 -164 -100 -264.5t-253 -100.5q-167 0 -260 99.5t-93 280.5q0 169 134 347l86 110q58 84 58 228h177zM530 997q0 -45 -25 -76 t-75 -31t-75.5 31t-25.5 76q0 44 25.5 74t75.5 30t75 -30t25 -74z" />
<glyph unicode="&#xc0;" horiz-adv-x="1180" d="M836 380h-492l-113 -380h-188l469 1456h157l470 -1456h-188zM392 538h397l-199 662zM700 1550h-159l-258 294h223z" />
<glyph unicode="&#xc1;" horiz-adv-x="1180" d="M836 380h-492l-113 -380h-188l469 1456h157l470 -1456h-188zM392 538h397l-199 662zM685 1844h224l-268 -294h-149z" />
<glyph unicode="&#xc2;" horiz-adv-x="1180" d="M836 380h-492l-113 -380h-188l469 1456h157l470 -1456h-188zM392 538h397l-199 662zM856 1572v-10h-142l-120 170l-120 -170h-142v12l209 272h105z" />
<glyph unicode="&#xc3;" horiz-adv-x="1180" d="M836 380h-492l-113 -380h-188l469 1456h157l470 -1456h-188zM392 538h397l-199 662zM896 1814q0 -105 -52 -173.5t-134 -68.5q-35 0 -60 10.5t-65 41t-58 37t-41 6.5q-34 0 -56.5 -32t-22.5 -80l-115 7q0 109 53 178t132 69q30 0 54 -11.5t60.5 -37.5t59.5 -36.5 t50 -10.5q34 0 57 32.5t23 80.5z" />
<glyph unicode="&#xc4;" horiz-adv-x="1180" d="M836 380h-492l-113 -380h-188l469 1456h157l470 -1456h-188zM392 538h397l-199 662zM273 1681q0 45 27.5 75.5t81.5 30.5t82 -30.5t28 -75.5t-28 -75t-82 -30t-81.5 30t-27.5 75zM703 1679q0 45 27.5 76t81.5 31t82 -31t28 -76t-28 -75t-82 -30t-81.5 30t-27.5 75z" />
<glyph unicode="&#xc5;" horiz-adv-x="1180" d="M836 380h-492l-113 -380h-188l469 1456h157l470 -1456h-188zM392 538h397l-199 662zM809 1729q0 -87 -62 -145.5t-153 -58.5q-92 0 -153.5 59t-61.5 145t61.5 147t153.5 61t153.5 -61t61.5 -147zM478 1729q0 -47 33.5 -81t82.5 -34q48 0 82 33t34 82t-33.5 83.5 t-82.5 34.5q-50 0 -83 -35t-33 -83z" />
<glyph unicode="&#xc6;" horiz-adv-x="1663" d="M1616 0h-763l-13 353h-458l-168 -353h-216l739 1456h827v-152h-580l17 -471h495v-151h-490l19 -531h591v-151zM465 527h369l-25 723z" />
<glyph unicode="&#xc7;" horiz-adv-x="1161" d="M1070 462q-12 -234 -131.5 -358t-337.5 -124q-219 0 -348 166.5t-129 451.5v264q0 284 132.5 449t361.5 165q211 0 326.5 -126.5t125.5 -361.5h-185q-12 178 -75 254t-192 76q-149 0 -229 -116.5t-80 -341.5v-267q0 -221 74.5 -339t217.5 -118t206 71t78 255h185zM659 -9 l-10 -52q60 -13 92 -58t32 -115q0 -96 -66.5 -153t-190.5 -57l-6 107q128 0 128 99q0 45 -26.5 65.5t-105.5 29.5l28 134h125z" />
<glyph unicode="&#xc8;" horiz-adv-x="1017" d="M855 673h-515v-516h600v-157h-783v1456h773v-158h-590v-468h515v-157zM646 1562h-159l-258 294h223z" />
<glyph unicode="&#xc9;" horiz-adv-x="1017" d="M855 673h-515v-516h600v-157h-783v1456h773v-158h-590v-468h515v-157zM631 1856h224l-268 -294h-149z" />
<glyph unicode="&#xca;" horiz-adv-x="1017" d="M855 673h-515v-516h600v-157h-783v1456h773v-158h-590v-468h515v-157zM802 1584v-10h-142l-120 170l-120 -170h-142v12l209 272h105z" />
<glyph unicode="&#xcb;" horiz-adv-x="1017" d="M855 673h-515v-516h600v-157h-783v1456h773v-158h-590v-468h515v-157zM219 1693q0 45 27.5 75.5t81.5 30.5t82 -30.5t28 -75.5t-28 -75t-82 -30t-81.5 30t-27.5 75zM649 1691q0 45 27.5 76t81.5 31t82 -31t28 -76t-28 -75t-82 -30t-81.5 30t-27.5 75z" />
<glyph unicode="&#xcc;" horiz-adv-x="512" d="M348 0h-183v1456h183v-1456zM362 1562h-159l-258 294h223z" />
<glyph unicode="&#xcd;" horiz-adv-x="512" d="M348 0h-183v1456h183v-1456zM346 1856h224l-268 -294h-149z" />
<glyph unicode="&#xce;" horiz-adv-x="512" d="M348 0h-183v1456h183v-1456zM518 1584v-10h-142l-120 170l-120 -170h-142v12l209 272h105z" />
<glyph unicode="&#xcf;" horiz-adv-x="512" d="M348 0h-183v1456h183v-1456zM-65 1693q0 45 27.5 75.5t81.5 30.5t82 -30.5t28 -75.5t-28 -75t-82 -30t-81.5 30t-27.5 75zM365 1691q0 45 27.5 76t81.5 31t82 -31t28 -76t-28 -75t-82 -30t-81.5 30t-27.5 75z" />
<glyph unicode="&#xd0;" horiz-adv-x="1199" d="M187 0v666h-169v151h169v639h347q255 0 396 -159.5t141 -448.5v-244q0 -289 -143 -446.5t-415 -157.5h-326zM560 666h-190v-509h147q193 0 282 110.5t91 327.5v258q0 230 -88.5 337.5t-267.5 107.5h-164v-481h190v-151z" />
<glyph unicode="&#xd1;" horiz-adv-x="1268" d="M1108 0h-184l-583 1122v-1122h-184v1456h184l585 -1127v1127h182v-1456zM932 1814q0 -105 -52 -173.5t-134 -68.5q-35 0 -60 10.5t-65 41t-58 37t-41 6.5q-34 0 -56.5 -32t-22.5 -80l-115 7q0 109 53 178t132 69q30 0 54 -11.5t60.5 -37.5t59.5 -36.5t50 -10.5 q34 0 57 32.5t23 80.5z" />
<glyph unicode="&#xd2;" horiz-adv-x="1230" d="M1104 600q0 -298 -127 -459t-361 -161q-225 0 -355.5 156.5t-135.5 442.5v274q0 292 129 457.5t360 165.5q230 0 358.5 -158.5t131.5 -452.5v-265zM921 855q0 231 -75.5 343.5t-231.5 112.5q-151 0 -228.5 -114t-78.5 -336v-261q0 -223 77.5 -340t231.5 -117t228 108 t77 331v273zM724 1552h-159l-258 294h223z" />
<glyph unicode="&#xd3;" horiz-adv-x="1230" d="M1104 600q0 -298 -127 -459t-361 -161q-225 0 -355.5 156.5t-135.5 442.5v274q0 292 129 457.5t360 165.5q230 0 358.5 -158.5t131.5 -452.5v-265zM921 855q0 231 -75.5 343.5t-231.5 112.5q-151 0 -228.5 -114t-78.5 -336v-261q0 -223 77.5 -340t231.5 -117t228 108 t77 331v273zM709 1846h224l-268 -294h-149z" />
<glyph unicode="&#xd4;" horiz-adv-x="1230" d="M1104 600q0 -298 -127 -459t-361 -161q-225 0 -355.5 156.5t-135.5 442.5v274q0 292 129 457.5t360 165.5q230 0 358.5 -158.5t131.5 -452.5v-265zM921 855q0 231 -75.5 343.5t-231.5 112.5q-151 0 -228.5 -114t-78.5 -336v-261q0 -223 77.5 -340t231.5 -117t228 108 t77 331v273zM880 1574v-10h-142l-120 170l-120 -170h-142v12l209 272h105z" />
<glyph unicode="&#xd5;" horiz-adv-x="1230" d="M1104 600q0 -298 -127 -459t-361 -161q-225 0 -355.5 156.5t-135.5 442.5v274q0 292 129 457.5t360 165.5q230 0 358.5 -158.5t131.5 -452.5v-265zM921 855q0 231 -75.5 343.5t-231.5 112.5q-151 0 -228.5 -114t-78.5 -336v-261q0 -223 77.5 -340t231.5 -117t228 108 t77 331v273zM920 1816q0 -105 -52 -173.5t-134 -68.5q-35 0 -60 10.5t-65 41t-58 37t-41 6.5q-34 0 -56.5 -32t-22.5 -80l-115 7q0 109 53 178t132 69q30 0 54 -11.5t60.5 -37.5t59.5 -36.5t50 -10.5q34 0 57 32.5t23 80.5z" />
<glyph unicode="&#xd6;" horiz-adv-x="1230" d="M1104 600q0 -298 -127 -459t-361 -161q-225 0 -355.5 156.5t-135.5 442.5v274q0 292 129 457.5t360 165.5q230 0 358.5 -158.5t131.5 -452.5v-265zM921 855q0 231 -75.5 343.5t-231.5 112.5q-151 0 -228.5 -114t-78.5 -336v-261q0 -223 77.5 -340t231.5 -117t228 108 t77 331v273zM297 1683q0 45 27.5 75.5t81.5 30.5t82 -30.5t28 -75.5t-28 -75t-82 -30t-81.5 30t-27.5 75zM727 1681q0 45 27.5 76t81.5 31t82 -31t28 -76t-28 -75t-82 -30t-81.5 30t-27.5 75z" />
<glyph unicode="&#xd7;" horiz-adv-x="964" d="M93 329l275 334l-277 337l113 123l272 -330l272 330l112 -123l-278 -337l276 -334l-113 -123l-270 327l-269 -327z" />
<glyph unicode="&#xd8;" horiz-adv-x="1230" d="M1112 681q0 -323 -134 -512t-362 -189q-140 0 -250 78l-79 -151h-131l122 233q-161 193 -161 549v84q0 208 61 368t174.5 247.5t261.5 87.5q179 0 302 -119l84 159h131l-136 -258q113 -181 117 -466v-111zM299 681q0 -228 70 -368l463 882q-82 116 -218 116 q-148 0 -231.5 -144.5t-83.5 -393.5v-92zM930 775q0 167 -37 288l-448 -854q72 -66 171 -66q150 0 232 138.5t82 399.5v94z" />
<glyph unicode="&#xd9;" horiz-adv-x="1150" d="M1025 1456v-1035q-2 -207 -120 -324t-329 -117q-216 0 -330 114.5t-116 326.5v1035h182v-1028q0 -147 62.5 -219.5t201.5 -72.5q140 0 202.5 72.5t62.5 219.5v1028h184zM681 1550h-159l-258 294h223z" />
<glyph unicode="&#xda;" horiz-adv-x="1150" d="M1025 1456v-1035q-2 -207 -120 -324t-329 -117q-216 0 -330 114.5t-116 326.5v1035h182v-1028q0 -147 62.5 -219.5t201.5 -72.5q140 0 202.5 72.5t62.5 219.5v1028h184zM666 1844h224l-268 -294h-149z" />
<glyph unicode="&#xdb;" horiz-adv-x="1150" d="M1025 1456v-1035q-2 -207 -120 -324t-329 -117q-216 0 -330 114.5t-116 326.5v1035h182v-1028q0 -147 62.5 -219.5t201.5 -72.5q140 0 202.5 72.5t62.5 219.5v1028h184zM837 1572v-10h-142l-120 170l-120 -170h-142v12l209 272h105z" />
<glyph unicode="&#xdc;" horiz-adv-x="1150" d="M1025 1456v-1035q-2 -207 -120 -324t-329 -117q-216 0 -330 114.5t-116 326.5v1035h182v-1028q0 -147 62.5 -219.5t201.5 -72.5q140 0 202.5 72.5t62.5 219.5v1028h184zM254 1681q0 45 27.5 75.5t81.5 30.5t82 -30.5t28 -75.5t-28 -75t-82 -30t-81.5 30t-27.5 75z M684 1679q0 45 27.5 76t81.5 31t82 -31t28 -76t-28 -75t-82 -30t-81.5 30t-27.5 75z" />
<glyph unicode="&#xdd;" horiz-adv-x="1074" d="M536 725l298 731h207l-414 -913v-543h-183v543l-414 913h208zM631 1844h224l-268 -294h-149z" />
<glyph unicode="&#xde;" horiz-adv-x="1055" d="M331 1456v-293h223q191 -2 301 -118.5t110 -306.5q0 -192 -111.5 -308.5t-309.5 -116.5h-213v-313h-177v1456h177zM331 1012v-547h218q112 0 175.5 75.5t63.5 195.5q0 123 -63.5 198.5t-171.5 76.5h-221z" />
<glyph unicode="&#xdf;" horiz-adv-x="1069" d="M309 0h-176v1111q0 209 91 326t249 117q156 0 241.5 -88t85.5 -250q0 -125 -54.5 -226.5t-54.5 -170.5q0 -52 31 -99t109.5 -120t113.5 -140t35 -143q0 -165 -85.5 -251t-240.5 -86q-66 0 -141.5 21.5t-108.5 50.5l39 155q33 -28 90 -52t102 -24q169 0 169 176 q0 53 -31.5 102t-108 119.5t-113.5 141t-37 151.5q0 60 19 105.5t41.5 87t41.5 86t19 101.5q0 100 -43 150.5t-110 50.5q-170 0 -173 -282v-1120z" />
<glyph unicode="&#xe0;" horiz-adv-x="981" d="M689 0q-16 35 -23 118q-94 -138 -240 -138q-147 0 -229.5 82.5t-82.5 232.5q0 165 112 262t307 99h130v115q0 97 -43 138t-131 41q-80 0 -130 -47.5t-50 -120.5h-177q0 83 49 158.5t132 118.5t185 43q166 0 252.5 -82.5t88.5 -240.5v-546q1 -125 34 -217v-16h-184z M453 141q65 0 124 36t86 90v258h-100q-126 -2 -199 -56.5t-73 -152.5q0 -92 37 -133.5t125 -41.5zM615 1240h-159l-258 294h223z" />
<glyph unicode="&#xe1;" horiz-adv-x="981" d="M689 0q-16 35 -23 118q-94 -138 -240 -138q-147 0 -229.5 82.5t-82.5 232.5q0 165 112 262t307 99h130v115q0 97 -43 138t-131 41q-80 0 -130 -47.5t-50 -120.5h-177q0 83 49 158.5t132 118.5t185 43q166 0 252.5 -82.5t88.5 -240.5v-546q1 -125 34 -217v-16h-184z M453 141q65 0 124 36t86 90v258h-100q-126 -2 -199 -56.5t-73 -152.5q0 -92 37 -133.5t125 -41.5zM600 1534h224l-268 -294h-149z" />
<glyph unicode="&#xe2;" horiz-adv-x="981" d="M689 0q-16 35 -23 118q-94 -138 -240 -138q-147 0 -229.5 82.5t-82.5 232.5q0 165 112 262t307 99h130v115q0 97 -43 138t-131 41q-80 0 -130 -47.5t-50 -120.5h-177q0 83 49 158.5t132 118.5t185 43q166 0 252.5 -82.5t88.5 -240.5v-546q1 -125 34 -217v-16h-184z M453 141q65 0 124 36t86 90v258h-100q-126 -2 -199 -56.5t-73 -152.5q0 -92 37 -133.5t125 -41.5zM771 1262v-10h-142l-120 170l-120 -170h-142v12l209 272h105z" />
<glyph unicode="&#xe3;" horiz-adv-x="981" d="M689 0q-16 35 -23 118q-94 -138 -240 -138q-147 0 -229.5 82.5t-82.5 232.5q0 165 112 262t307 99h130v115q0 97 -43 138t-131 41q-80 0 -130 -47.5t-50 -120.5h-177q0 83 49 158.5t132 118.5t185 43q166 0 252.5 -82.5t88.5 -240.5v-546q1 -125 34 -217v-16h-184z M453 141q65 0 124 36t86 90v258h-100q-126 -2 -199 -56.5t-73 -152.5q0 -92 37 -133.5t125 -41.5zM811 1504q0 -105 -52 -173.5t-134 -68.5q-35 0 -60 10.5t-65 41t-58 37t-41 6.5q-34 0 -56.5 -32t-22.5 -80l-115 7q0 109 53 178t132 69q30 0 54 -11.5t60.5 -37.5 t59.5 -36.5t50 -10.5q34 0 57 32.5t23 80.5z" />
<glyph unicode="&#xe4;" horiz-adv-x="981" d="M689 0q-16 35 -23 118q-94 -138 -240 -138q-147 0 -229.5 82.5t-82.5 232.5q0 165 112 262t307 99h130v115q0 97 -43 138t-131 41q-80 0 -130 -47.5t-50 -120.5h-177q0 83 49 158.5t132 118.5t185 43q166 0 252.5 -82.5t88.5 -240.5v-546q1 -125 34 -217v-16h-184z M453 141q65 0 124 36t86 90v258h-100q-126 -2 -199 -56.5t-73 -152.5q0 -92 37 -133.5t125 -41.5zM188 1371q0 45 27.5 75.5t81.5 30.5t82 -30.5t28 -75.5t-28 -75t-82 -30t-81.5 30t-27.5 75zM618 1369q0 45 27.5 76t81.5 31t82 -31t28 -76t-28 -75t-82 -30t-81.5 30 t-27.5 75z" />
<glyph unicode="&#xe5;" horiz-adv-x="981" d="M689 0q-16 35 -23 118q-94 -138 -240 -138q-147 0 -229.5 82.5t-82.5 232.5q0 165 112 262t307 99h130v115q0 97 -43 138t-131 41q-80 0 -130 -47.5t-50 -120.5h-177q0 83 49 158.5t132 118.5t185 43q166 0 252.5 -82.5t88.5 -240.5v-546q1 -125 34 -217v-16h-184z M453 141q65 0 124 36t86 90v258h-100q-126 -2 -199 -56.5t-73 -152.5q0 -92 37 -133.5t125 -41.5zM724 1419q0 -87 -62 -145.5t-153 -58.5q-92 0 -153.5 59t-61.5 145t61.5 147t153.5 61t153.5 -61t61.5 -147zM393 1419q0 -47 33.5 -81t82.5 -34q48 0 82 33t34 82 t-33.5 83.5t-82.5 34.5q-50 0 -83 -35t-33 -83z" />
<glyph unicode="&#xe6;" horiz-adv-x="1491" d="M1079 -20q-220 0 -335 172q-56 -82 -152 -127t-211 -45q-139 0 -218.5 85.5t-79.5 238.5q0 157 96 244t283 87h177v85q0 107 -43.5 168.5t-123.5 61.5q-81 0 -135.5 -54.5t-54.5 -136.5l-175 19q0 142 102.5 233t262.5 91q198 0 285 -153q111 153 281 153 q180 0 278.5 -129t98.5 -362v-114h-602q5 -174 74.5 -270.5t191.5 -96.5q126 0 224 76l39 31l59 -136q-51 -55 -137.5 -88t-184.5 -33zM417 130q94 0 192 88l30 30v247h-177q-91 -1 -146.5 -55t-55.5 -140q0 -81 41.5 -125.5t115.5 -44.5zM1038 950q-91 0 -150.5 -87 t-71.5 -223h423v31q0 135 -52 207t-149 72z" />
<glyph unicode="&#xe7;" horiz-adv-x="946" d="M508 131q88 0 141 54.5t58 155.5h167q-6 -156 -110.5 -258.5t-255.5 -102.5q-201 0 -306.5 126.5t-105.5 376.5v119q0 245 105 372.5t306 127.5q166 0 263.5 -105t103.5 -287h-167q-6 120 -57.5 180t-142.5 60q-118 0 -175 -77.5t-59 -254.5v-138q0 -191 56.5 -270 t178.5 -79zM532 -9l-10 -52q60 -13 92 -58t32 -115q0 -96 -66.5 -153t-190.5 -57l-6 107q128 0 128 99q0 45 -26.5 65.5t-105.5 29.5l28 134h125z" />
<glyph unicode="&#xe8;" horiz-adv-x="959" d="M519 -20q-202 0 -310 120.5t-110 353.5v131q0 242 105.5 379.5t294.5 137.5q190 0 284 -121t96 -377v-116h-604v-25q0 -174 65.5 -253t188.5 -79q78 0 137.5 29.5t111.5 93.5l92 -112q-115 -162 -351 -162zM499 950q-110 0 -163 -75.5t-60 -234.5h426v24 q-7 154 -55.5 220t-147.5 66zM600 1240h-159l-258 294h223z" />
<glyph unicode="&#xe9;" horiz-adv-x="959" d="M519 -20q-202 0 -310 120.5t-110 353.5v131q0 242 105.5 379.5t294.5 137.5q190 0 284 -121t96 -377v-116h-604v-25q0 -174 65.5 -253t188.5 -79q78 0 137.5 29.5t111.5 93.5l92 -112q-115 -162 -351 -162zM499 950q-110 0 -163 -75.5t-60 -234.5h426v24 q-7 154 -55.5 220t-147.5 66zM585 1534h224l-268 -294h-149z" />
<glyph unicode="&#xea;" horiz-adv-x="959" d="M519 -20q-202 0 -310 120.5t-110 353.5v131q0 242 105.5 379.5t294.5 137.5q190 0 284 -121t96 -377v-116h-604v-25q0 -174 65.5 -253t188.5 -79q78 0 137.5 29.5t111.5 93.5l92 -112q-115 -162 -351 -162zM499 950q-110 0 -163 -75.5t-60 -234.5h426v24 q-7 154 -55.5 220t-147.5 66zM756 1262v-10h-142l-120 170l-120 -170h-142v12l209 272h105z" />
<glyph unicode="&#xeb;" horiz-adv-x="959" d="M519 -20q-202 0 -310 120.5t-110 353.5v131q0 242 105.5 379.5t294.5 137.5q190 0 284 -121t96 -377v-116h-604v-25q0 -174 65.5 -253t188.5 -79q78 0 137.5 29.5t111.5 93.5l92 -112q-115 -162 -351 -162zM499 950q-110 0 -163 -75.5t-60 -234.5h426v24 q-7 154 -55.5 220t-147.5 66zM173 1371q0 45 27.5 75.5t81.5 30.5t82 -30.5t28 -75.5t-28 -75t-82 -30t-81.5 30t-27.5 75zM603 1369q0 45 27.5 76t81.5 31t82 -31t28 -76t-28 -75t-82 -30t-81.5 30t-27.5 75z" />
<glyph unicode="&#xec;" horiz-adv-x="481" d="M323 0h-177v1082h177v-1082zM346 1239h-159l-258 294h223z" />
<glyph unicode="&#xed;" horiz-adv-x="481" d="M323 0h-177v1082h177v-1082zM330 1533h224l-268 -294h-149z" />
<glyph unicode="&#xee;" horiz-adv-x="481" d="M323 0h-177v1082h177v-1082zM502 1261v-10h-142l-120 170l-120 -170h-142v12l209 272h105z" />
<glyph unicode="&#xef;" horiz-adv-x="481" d="M323 0h-177v1082h177v-1082zM-81 1370q0 45 27.5 75.5t81.5 30.5t82 -30.5t28 -75.5t-28 -75t-82 -30t-81.5 30t-27.5 75zM349 1368q0 45 27.5 76t81.5 31t82 -31t28 -76t-28 -75t-82 -30t-81.5 30t-27.5 75z" />
<glyph unicode="&#xf0;" horiz-adv-x="1051" d="M705 1302q217 -266 217 -675v-92q0 -159 -50.5 -285.5t-143 -198t-207.5 -71.5q-113 0 -206 63t-145 176t-52 248q0 147 48.5 264t136.5 181.5t195 64.5q125 0 223 -100q-42 185 -152 317l-181 -143l-68 99l164 130q-110 91 -263 141l54 159q198 -53 347 -190l159 126 l68 -100zM746 635l-2 60q-26 59 -80.5 94.5t-121.5 35.5q-114 0 -180.5 -96t-66.5 -262q0 -141 65 -238.5t165 -97.5q98 0 158.5 110t62.5 284v110z" />
<glyph unicode="&#xf1;" horiz-adv-x="991" d="M299 1082l5 -117q103 137 263 137q287 0 291 -383v-719h-176v711q0 127 -42.5 180.5t-127.5 53.5q-66 0 -118.5 -44t-84.5 -115v-786h-177v1082h167zM802 1504q0 -105 -52 -173.5t-134 -68.5q-35 0 -60 10.5t-65 41t-58 37t-41 6.5q-34 0 -56.5 -32t-22.5 -80l-115 7 q0 109 53 178t132 69q30 0 54 -11.5t60.5 -37.5t59.5 -36.5t50 -10.5q34 0 57 32.5t23 80.5z" />
<glyph unicode="&#xf2;" d="M95 591q0 236 114.5 373.5t302.5 137.5t302.5 -134t117.5 -365v-114q0 -235 -114 -372t-304 -137q-188 0 -301.5 133t-117.5 360v118zM272 489q0 -167 65.5 -262.5t176.5 -95.5q234 0 241 338v122q0 166 -66 262.5t-177 96.5q-109 0 -174.5 -96.5t-65.5 -261.5v-103z M610 1240h-159l-258 294h223z" />
<glyph unicode="&#xf3;" d="M95 591q0 236 114.5 373.5t302.5 137.5t302.5 -134t117.5 -365v-114q0 -235 -114 -372t-304 -137q-188 0 -301.5 133t-117.5 360v118zM272 489q0 -167 65.5 -262.5t176.5 -95.5q234 0 241 338v122q0 166 -66 262.5t-177 96.5q-109 0 -174.5 -96.5t-65.5 -261.5v-103z M595 1534h224l-268 -294h-149z" />
<glyph unicode="&#xf4;" d="M95 591q0 236 114.5 373.5t302.5 137.5t302.5 -134t117.5 -365v-114q0 -235 -114 -372t-304 -137q-188 0 -301.5 133t-117.5 360v118zM272 489q0 -167 65.5 -262.5t176.5 -95.5q234 0 241 338v122q0 166 -66 262.5t-177 96.5q-109 0 -174.5 -96.5t-65.5 -261.5v-103z M766 1262v-10h-142l-120 170l-120 -170h-142v12l209 272h105z" />
<glyph unicode="&#xf5;" d="M95 591q0 236 114.5 373.5t302.5 137.5t302.5 -134t117.5 -365v-114q0 -235 -114 -372t-304 -137q-188 0 -301.5 133t-117.5 360v118zM272 489q0 -167 65.5 -262.5t176.5 -95.5q234 0 241 338v122q0 166 -66 262.5t-177 96.5q-109 0 -174.5 -96.5t-65.5 -261.5v-103z M806 1504q0 -105 -52 -173.5t-134 -68.5q-35 0 -60 10.5t-65 41t-58 37t-41 6.5q-34 0 -56.5 -32t-22.5 -80l-115 7q0 109 53 178t132 69q30 0 54 -11.5t60.5 -37.5t59.5 -36.5t50 -10.5q34 0 57 32.5t23 80.5z" />
<glyph unicode="&#xf6;" d="M95 591q0 236 114.5 373.5t302.5 137.5t302.5 -134t117.5 -365v-114q0 -235 -114 -372t-304 -137q-188 0 -301.5 133t-117.5 360v118zM272 489q0 -167 65.5 -262.5t176.5 -95.5q234 0 241 338v122q0 166 -66 262.5t-177 96.5q-109 0 -174.5 -96.5t-65.5 -261.5v-103z M183 1371q0 45 27.5 75.5t81.5 30.5t82 -30.5t28 -75.5t-28 -75t-82 -30t-81.5 30t-27.5 75zM613 1369q0 45 27.5 76t81.5 31t82 -31t28 -76t-28 -75t-82 -30t-81.5 30t-27.5 75z" />
<glyph unicode="&#xf7;" horiz-adv-x="1024" d="M918 600h-839v184h839v-184zM396 1098q0 48 26.5 80t79.5 32t80 -32t27 -80q0 -47 -27 -78t-80 -31t-79.5 31t-26.5 78zM396 281q0 48 26.5 80t79.5 32t80 -32t27 -80q0 -46 -27 -77.5t-80 -31.5t-79.5 31.5t-26.5 77.5z" />
<glyph unicode="&#xf8;" horiz-adv-x="1021" d="M97 551q0 245 115 398t300 153q90 0 168 -39l60 145h114l-86 -206q163 -155 163 -473q0 -243 -115 -396t-302 -153q-81 0 -156 32l-61 -146h-114l85 205q-171 148 -171 480zM273 529q0 -180 65 -290l281 678q-47 33 -107 33q-108 0 -173.5 -108t-65.5 -313zM753 551 q0 168 -57 276l-278 -671q44 -25 96 -25q111 0 175 108.5t64 311.5z" />
<glyph unicode="&#xf9;" horiz-adv-x="990" d="M684 95q-88 -115 -257 -115q-147 0 -222 101.5t-76 295.5v705h176v-692q0 -253 152 -253q161 0 222 144v801h177v-1082h-168zM600 1240h-159l-258 294h223z" />
<glyph unicode="&#xfa;" horiz-adv-x="990" d="M684 95q-88 -115 -257 -115q-147 0 -222 101.5t-76 295.5v705h176v-692q0 -253 152 -253q161 0 222 144v801h177v-1082h-168zM585 1534h224l-268 -294h-149z" />
<glyph unicode="&#xfb;" horiz-adv-x="990" d="M684 95q-88 -115 -257 -115q-147 0 -222 101.5t-76 295.5v705h176v-692q0 -253 152 -253q161 0 222 144v801h177v-1082h-168zM756 1262v-10h-142l-120 170l-120 -170h-142v12l209 272h105z" />
<glyph unicode="&#xfc;" horiz-adv-x="990" d="M684 95q-88 -115 -257 -115q-147 0 -222 101.5t-76 295.5v705h176v-692q0 -253 152 -253q161 0 222 144v801h177v-1082h-168zM173 1371q0 45 27.5 75.5t81.5 30.5t82 -30.5t28 -75.5t-28 -75t-82 -30t-81.5 30t-27.5 75zM603 1369q0 45 27.5 76t81.5 31t82 -31t28 -76 t-28 -75t-82 -30t-81.5 30t-27.5 75z" />
<glyph unicode="&#xfd;" horiz-adv-x="853" d="M428 294l197 788h188l-354 -1235q-40 -139 -113 -211.5t-166 -72.5q-36 0 -92 16v150l39 -4q77 0 120.5 36.5t70.5 126.5l35 121l-318 1073h193zM536 1534h224l-268 -294h-149z" />
<glyph unicode="&#xfe;" horiz-adv-x="1041" d="M923 529q0 -247 -95 -398t-259 -151q-157 0 -251 108v-504h-176v1952h176v-547q92 113 248 113q168 0 262.5 -148.5t94.5 -424.5zM747 550q0 180 -62 287.5t-174 107.5q-126 0 -193 -138v-542q65 -134 195 -134q109 0 171.5 107t62.5 312z" />
<glyph unicode="&#xff;" horiz-adv-x="853" d="M428 294l197 788h188l-354 -1235q-40 -139 -113 -211.5t-166 -72.5q-36 0 -92 16v150l39 -4q77 0 120.5 36.5t70.5 126.5l35 121l-318 1073h193zM124 1371q0 45 27.5 75.5t81.5 30.5t82 -30.5t28 -75.5t-28 -75t-82 -30t-81.5 30t-27.5 75zM554 1369q0 45 27.5 76 t81.5 31t82 -31t28 -76t-28 -75t-82 -30t-81.5 30t-27.5 75z" />
<glyph unicode="&#x100;" horiz-adv-x="1180" d="M836 380h-492l-113 -380h-188l469 1456h157l470 -1456h-188zM392 538h397l-199 662zM906 1631h-614v143h614v-143z" />
<glyph unicode="&#x101;" horiz-adv-x="981" d="M689 0q-16 35 -23 118q-94 -138 -240 -138q-147 0 -229.5 82.5t-82.5 232.5q0 165 112 262t307 99h130v115q0 97 -43 138t-131 41q-80 0 -130 -47.5t-50 -120.5h-177q0 83 49 158.5t132 118.5t185 43q166 0 252.5 -82.5t88.5 -240.5v-546q1 -125 34 -217v-16h-184z M453 141q65 0 124 36t86 90v258h-100q-126 -2 -199 -56.5t-73 -152.5q0 -92 37 -133.5t125 -41.5zM821 1321h-614v143h614v-143z" />
<glyph unicode="&#x102;" horiz-adv-x="1180" d="M836 380h-492l-113 -380h-188l469 1456h157l470 -1456h-188zM392 538h397l-199 662zM894 1806q0 -121 -82.5 -194.5t-216.5 -73.5t-217 74t-83 194h151q0 -70 38 -109.5t111 -39.5q70 0 109.5 39t39.5 110h150z" />
<glyph unicode="&#x103;" horiz-adv-x="981" d="M689 0q-16 35 -23 118q-94 -138 -240 -138q-147 0 -229.5 82.5t-82.5 232.5q0 165 112 262t307 99h130v115q0 97 -43 138t-131 41q-80 0 -130 -47.5t-50 -120.5h-177q0 83 49 158.5t132 118.5t185 43q166 0 252.5 -82.5t88.5 -240.5v-546q1 -125 34 -217v-16h-184z M453 141q65 0 124 36t86 90v258h-100q-126 -2 -199 -56.5t-73 -152.5q0 -92 37 -133.5t125 -41.5zM809 1496q0 -121 -82.5 -194.5t-216.5 -73.5t-217 74t-83 194h151q0 -70 38 -109.5t111 -39.5q70 0 109.5 39t39.5 110h150z" />
<glyph unicode="&#x104;" horiz-adv-x="1180" d="M669 1456l470 -1456h-38q-79 -70 -110 -121.5t-31 -100.5q0 -72 63 -72q38 0 83 26l10 -121q-62 -44 -140 -44q-77 0 -122.5 51.5t-45.5 138.5q0 146 141 249l-113 374h-492l-113 -380h-188l469 1456h157zM392 538h397l-199 662z" />
<glyph unicode="&#x105;" horiz-adv-x="981" d="M687 5q-17 41 -21 113q-94 -138 -240 -138q-147 0 -229.5 82.5t-82.5 232.5q0 165 112 262t307 99h130v115q0 97 -43 138t-131 41q-80 0 -130 -47.5t-50 -120.5h-177q0 83 49 158.5t132 118.5t185 43q166 0 252.5 -82.5t88.5 -240.5v-546q1 -125 34 -217v-16h-33 q-79 -70 -110 -121.5t-31 -100.5q0 -72 63 -72q38 0 83 26l10 -121q-62 -44 -140 -44q-77 0 -122.5 51.5t-45.5 138.5q0 146 140 248zM453 141q65 0 124 36t86 90v258h-100q-126 -2 -199 -56.5t-73 -152.5q0 -92 37 -133.5t125 -41.5z" />
<glyph unicode="&#x106;" horiz-adv-x="1161" d="M1070 462q-12 -234 -131.5 -358t-337.5 -124q-219 0 -348 166.5t-129 451.5v264q0 284 132.5 449t361.5 165q211 0 326.5 -126.5t125.5 -361.5h-185q-12 178 -75 254t-192 76q-149 0 -229 -116.5t-80 -341.5v-267q0 -221 74.5 -339t217.5 -118t206 71t78 255h185z M682 1877h224l-268 -294h-149z" />
<glyph unicode="&#x107;" horiz-adv-x="946" d="M508 131q88 0 141 54.5t58 155.5h167q-6 -156 -110.5 -258.5t-255.5 -102.5q-201 0 -306.5 126.5t-105.5 376.5v119q0 245 105 372.5t306 127.5q166 0 263.5 -105t103.5 -287h-167q-6 120 -57.5 180t-142.5 60q-118 0 -175 -77.5t-59 -254.5v-138q0 -191 56.5 -270 t178.5 -79zM555 1534h224l-268 -294h-149z" />
<glyph unicode="&#x108;" horiz-adv-x="1161" d="M1070 462q-12 -234 -131.5 -358t-337.5 -124q-219 0 -348 166.5t-129 451.5v264q0 284 132.5 449t361.5 165q211 0 326.5 -126.5t125.5 -361.5h-185q-12 178 -75 254t-192 76q-149 0 -229 -116.5t-80 -341.5v-267q0 -221 74.5 -339t217.5 -118t206 71t78 255h185z M853 1605v-10h-142l-120 170l-120 -170h-142v12l209 272h105z" />
<glyph unicode="&#x109;" horiz-adv-x="946" d="M508 131q88 0 141 54.5t58 155.5h167q-6 -156 -110.5 -258.5t-255.5 -102.5q-201 0 -306.5 126.5t-105.5 376.5v119q0 245 105 372.5t306 127.5q166 0 263.5 -105t103.5 -287h-167q-6 120 -57.5 180t-142.5 60q-118 0 -175 -77.5t-59 -254.5v-138q0 -191 56.5 -270 t178.5 -79zM726 1262v-10h-142l-120 170l-120 -170h-142v12l209 272h105z" />
<glyph unicode="&#x10a;" horiz-adv-x="1161" d="M1070 462q-12 -234 -131.5 -358t-337.5 -124q-219 0 -348 166.5t-129 451.5v264q0 284 132.5 449t361.5 165q211 0 326.5 -126.5t125.5 -361.5h-185q-12 178 -75 254t-192 76q-149 0 -229 -116.5t-80 -341.5v-267q0 -221 74.5 -339t217.5 -118t206 71t78 255h185z M483 1710q0 45 27.5 76t81.5 31t82 -31t28 -76t-28 -75t-82 -30t-81.5 30t-27.5 75z" />
<glyph unicode="&#x10b;" horiz-adv-x="946" d="M508 131q88 0 141 54.5t58 155.5h167q-6 -156 -110.5 -258.5t-255.5 -102.5q-201 0 -306.5 126.5t-105.5 376.5v119q0 245 105 372.5t306 127.5q166 0 263.5 -105t103.5 -287h-167q-6 120 -57.5 180t-142.5 60q-118 0 -175 -77.5t-59 -254.5v-138q0 -191 56.5 -270 t178.5 -79zM356 1367q0 45 27.5 76t81.5 31t82 -31t28 -76t-28 -75t-82 -30t-81.5 30t-27.5 75z" />
<glyph unicode="&#x10c;" horiz-adv-x="1161" d="M1070 462q-12 -234 -131.5 -358t-337.5 -124q-219 0 -348 166.5t-129 451.5v264q0 284 132.5 449t361.5 165q211 0 326.5 -126.5t125.5 -361.5h-185q-12 178 -75 254t-192 76q-149 0 -229 -116.5t-80 -341.5v-267q0 -221 74.5 -339t217.5 -118t206 71t78 255h185z M590 1709l119 170h152v-10l-219 -274h-104l-216 274v10h148z" />
<glyph unicode="&#x10d;" horiz-adv-x="946" d="M508 131q88 0 141 54.5t58 155.5h167q-6 -156 -110.5 -258.5t-255.5 -102.5q-201 0 -306.5 126.5t-105.5 376.5v119q0 245 105 372.5t306 127.5q166 0 263.5 -105t103.5 -287h-167q-6 120 -57.5 180t-142.5 60q-118 0 -175 -77.5t-59 -254.5v-138q0 -191 56.5 -270 t178.5 -79zM463 1366l119 170h152v-10l-219 -274h-104l-216 274v10h148z" />
<glyph unicode="&#x10e;" horiz-adv-x="1169" d="M157 0v1456h347q255 0 396 -159.5t141 -448.5v-244q0 -289 -143 -446.5t-415 -157.5h-326zM340 1298v-1141h147q193 0 282 110.5t91 327.5v258q0 230 -88.5 337.5t-267.5 107.5h-164zM533 1688l119 170h152v-10l-219 -274h-104l-216 274v10h148z" />
<glyph unicode="&#x10f;" horiz-adv-x="1166" d="M95 590q0 250 93.5 381t268.5 131q155 0 242 -126v560h177v-1536h-162l-9 116q-87 -136 -249 -136q-168 0 -263.5 130.5t-97.5 368.5v111zM272 489q0 -182 54 -267.5t176 -85.5q132 0 197 133v546q-68 130 -196 130q-122 0 -176 -85.5t-55 -262.5v-108zM1020 1138l-99 72 q61 110 63 234v94h168v-76q0 -94 -36.5 -183t-95.5 -141z" />
<glyph unicode="&#x110;" horiz-adv-x="1199" d="M187 0v666h-169v151h169v639h347q255 0 396 -159.5t141 -448.5v-244q0 -289 -143 -446.5t-415 -157.5h-326zM560 666h-190v-509h147q193 0 282 110.5t91 327.5v258q0 230 -88.5 337.5t-267.5 107.5h-164v-481h190v-151z" />
<glyph unicode="&#x111;" horiz-adv-x="1046" d="M1038 1234h-162v-1234h-162l-9 116q-87 -136 -249 -136q-168 0 -263.5 130.5t-97.5 368.5v111q0 250 93.5 381t268.5 131q155 0 242 -126v258h-203v151h203v151h177v-151h162v-151zM272 489q0 -182 54 -267.5t176 -85.5q132 0 197 133v546q-68 130 -196 130 q-122 0 -176 -85.5t-55 -262.5v-108z" />
<glyph unicode="&#x112;" horiz-adv-x="1017" d="M855 673h-515v-516h600v-157h-783v1456h773v-158h-590v-468h515v-157zM852 1643h-614v143h614v-143z" />
<glyph unicode="&#x113;" horiz-adv-x="959" d="M519 -20q-202 0 -310 120.5t-110 353.5v131q0 242 105.5 379.5t294.5 137.5q190 0 284 -121t96 -377v-116h-604v-25q0 -174 65.5 -253t188.5 -79q78 0 137.5 29.5t111.5 93.5l92 -112q-115 -162 -351 -162zM499 950q-110 0 -163 -75.5t-60 -234.5h426v24 q-7 154 -55.5 220t-147.5 66zM806 1321h-614v143h614v-143z" />
<glyph unicode="&#x114;" horiz-adv-x="1017" d="M855 673h-515v-516h600v-157h-783v1456h773v-158h-590v-468h515v-157zM840 1818q0 -121 -82.5 -194.5t-216.5 -73.5t-217 74t-83 194h151q0 -70 38 -109.5t111 -39.5q70 0 109.5 39t39.5 110h150z" />
<glyph unicode="&#x115;" horiz-adv-x="959" d="M519 -20q-202 0 -310 120.5t-110 353.5v131q0 242 105.5 379.5t294.5 137.5q190 0 284 -121t96 -377v-116h-604v-25q0 -174 65.5 -253t188.5 -79q78 0 137.5 29.5t111.5 93.5l92 -112q-115 -162 -351 -162zM499 950q-110 0 -163 -75.5t-60 -234.5h426v24 q-7 154 -55.5 220t-147.5 66zM794 1496q0 -121 -82.5 -194.5t-216.5 -73.5t-217 74t-83 194h151q0 -70 38 -109.5t111 -39.5q70 0 109.5 39t39.5 110h150z" />
<glyph unicode="&#x116;" horiz-adv-x="1017" d="M855 673h-515v-516h600v-157h-783v1456h773v-158h-590v-468h515v-157zM432 1689q0 45 27.5 76t81.5 31t82 -31t28 -76t-28 -75t-82 -30t-81.5 30t-27.5 75z" />
<glyph unicode="&#x117;" horiz-adv-x="959" d="M519 -20q-202 0 -310 120.5t-110 353.5v131q0 242 105.5 379.5t294.5 137.5q190 0 284 -121t96 -377v-116h-604v-25q0 -174 65.5 -253t188.5 -79q78 0 137.5 29.5t111.5 93.5l92 -112q-115 -162 -351 -162zM499 950q-110 0 -163 -75.5t-60 -234.5h426v24 q-7 154 -55.5 220t-147.5 66zM386 1367q0 45 27.5 76t81.5 31t82 -31t28 -76t-28 -75t-82 -30t-81.5 30t-27.5 75z" />
<glyph unicode="&#x118;" horiz-adv-x="1017" d="M855 673h-515v-516h600v-157h-63q-79 -70 -110 -121.5t-31 -100.5q0 -72 63 -72q38 0 83 26l10 -121q-62 -44 -140 -44q-77 0 -122.5 51.5t-45.5 138.5q0 143 133 243h-560v1456h773v-158h-590v-468h515v-157z" />
<glyph unicode="&#x119;" horiz-adv-x="959" d="M870 142q-74 -103 -197 -141q-115 -105 -115 -198q0 -72 63 -72q38 0 83 26l10 -121q-62 -44 -140 -44q-77 0 -122.5 51.5t-45.5 138.5q0 112 83 199q-185 8 -286 127.5t-104 341.5v135q0 242 105.5 379.5t294.5 137.5q190 0 284 -121t96 -377v-116h-604v-25 q0 -174 65.5 -253t188.5 -79q78 0 137.5 29.5t111.5 93.5zM499 950q-110 0 -163 -75.5t-60 -234.5h426v24q-7 154 -55.5 220t-147.5 66z" />
<glyph unicode="&#x11a;" horiz-adv-x="1017" d="M855 673h-515v-516h600v-157h-783v1456h773v-158h-590v-468h515v-157zM539 1688l119 170h152v-10l-219 -274h-104l-216 274v10h148z" />
<glyph unicode="&#x11b;" horiz-adv-x="959" d="M519 -20q-202 0 -310 120.5t-110 353.5v131q0 242 105.5 379.5t294.5 137.5q190 0 284 -121t96 -377v-116h-604v-25q0 -174 65.5 -253t188.5 -79q78 0 137.5 29.5t111.5 93.5l92 -112q-115 -162 -351 -162zM499 950q-110 0 -163 -75.5t-60 -234.5h426v24 q-7 154 -55.5 220t-147.5 66zM493 1366l119 170h152v-10l-219 -274h-104l-216 274v10h148z" />
<glyph unicode="&#x11c;" horiz-adv-x="1210" d="M1068 181l-32 -40q-138 -161 -404 -161q-236 0 -370.5 156.5t-137.5 442.5v286q0 306 122.5 458.5t366.5 152.5q208 0 325.5 -116t129.5 -331h-183q-11 136 -75.5 212.5t-195.5 76.5q-157 0 -230 -102.5t-76 -327.5v-297q0 -220 84 -337.5t241 -117.5q148 0 225 72l27 25 v336h-266v156h449v-544zM841 1605v-10h-142l-120 170l-120 -170h-142v12l209 272h105z" />
<glyph unicode="&#x11d;" horiz-adv-x="1009" d="M97 590q0 253 92 382.5t269 129.5q165 0 251 -141l9 121h160v-1092q0 -201 -103 -308.5t-287 -107.5q-80 0 -179.5 39.5t-149.5 97.5l72 122q110 -108 243 -108q221 0 227 241v141q-86 -127 -244 -127q-168 0 -262 126.5t-98 363.5v120zM274 489q0 -182 53.5 -267.5 t175.5 -85.5q132 0 198 135v541q-69 133 -196 133q-122 0 -176 -85.5t-55 -262.5v-108zM747 1262v-10h-142l-120 170l-120 -170h-142v12l209 272h105z" />
<glyph unicode="&#x11e;" horiz-adv-x="1210" d="M1068 181l-32 -40q-138 -161 -404 -161q-236 0 -370.5 156.5t-137.5 442.5v286q0 306 122.5 458.5t366.5 152.5q208 0 325.5 -116t129.5 -331h-183q-11 136 -75.5 212.5t-195.5 76.5q-157 0 -230 -102.5t-76 -327.5v-297q0 -220 84 -337.5t241 -117.5q148 0 225 72l27 25 v336h-266v156h449v-544zM879 1839q0 -121 -82.5 -194.5t-216.5 -73.5t-217 74t-83 194h151q0 -70 38 -109.5t111 -39.5q70 0 109.5 39t39.5 110h150z" />
<glyph unicode="&#x11f;" horiz-adv-x="1009" d="M97 590q0 253 92 382.5t269 129.5q165 0 251 -141l9 121h160v-1092q0 -201 -103 -308.5t-287 -107.5q-80 0 -179.5 39.5t-149.5 97.5l72 122q110 -108 243 -108q221 0 227 241v141q-86 -127 -244 -127q-168 0 -262 126.5t-98 363.5v120zM274 489q0 -182 53.5 -267.5 t175.5 -85.5q132 0 198 135v541q-69 133 -196 133q-122 0 -176 -85.5t-55 -262.5v-108zM785 1496q0 -121 -82.5 -194.5t-216.5 -73.5t-217 74t-83 194h151q0 -70 38 -109.5t111 -39.5q70 0 109.5 39t39.5 110h150z" />
<glyph unicode="&#x120;" horiz-adv-x="1210" d="M1068 181l-32 -40q-138 -161 -404 -161q-236 0 -370.5 156.5t-137.5 442.5v286q0 306 122.5 458.5t366.5 152.5q208 0 325.5 -116t129.5 -331h-183q-11 136 -75.5 212.5t-195.5 76.5q-157 0 -230 -102.5t-76 -327.5v-297q0 -220 84 -337.5t241 -117.5q148 0 225 72l27 25 v336h-266v156h449v-544zM471 1710q0 45 27.5 76t81.5 31t82 -31t28 -76t-28 -75t-82 -30t-81.5 30t-27.5 75z" />
<glyph unicode="&#x121;" horiz-adv-x="1009" d="M97 590q0 253 92 382.5t269 129.5q165 0 251 -141l9 121h160v-1092q0 -201 -103 -308.5t-287 -107.5q-80 0 -179.5 39.5t-149.5 97.5l72 122q110 -108 243 -108q221 0 227 241v141q-86 -127 -244 -127q-168 0 -262 126.5t-98 363.5v120zM274 489q0 -182 53.5 -267.5 t175.5 -85.5q132 0 198 135v541q-69 133 -196 133q-122 0 -176 -85.5t-55 -262.5v-108zM377 1367q0 45 27.5 76t81.5 31t82 -31t28 -76t-28 -75t-82 -30t-81.5 30t-27.5 75z" />
<glyph unicode="&#x122;" horiz-adv-x="1210" d="M1068 181l-32 -40q-138 -161 -404 -161q-236 0 -370.5 156.5t-137.5 442.5v286q0 306 122.5 458.5t366.5 152.5q208 0 325.5 -116t129.5 -331h-183q-11 136 -75.5 212.5t-195.5 76.5q-157 0 -230 -102.5t-76 -327.5v-297q0 -220 84 -337.5t241 -117.5q148 0 225 72l27 25 v336h-266v156h449v-544zM528 -522l-99 72q61 110 63 234v94h168v-76q0 -94 -36.5 -183t-95.5 -141z" />
<glyph unicode="&#x123;" horiz-adv-x="1009" d="M97 590q0 253 92 382.5t269 129.5q165 0 251 -141l9 121h160v-1092q0 -201 -103 -308.5t-287 -107.5q-80 0 -179.5 39.5t-149.5 97.5l72 122q110 -108 243 -108q221 0 227 241v141q-86 -127 -244 -127q-168 0 -262 126.5t-98 363.5v120zM274 489q0 -182 53.5 -267.5 t175.5 -85.5q132 0 198 135v541q-69 133 -196 133q-122 0 -176 -85.5t-55 -262.5v-108zM522 1683l100 -83q-53 -97 -55 -213v-133h-176v130q0 74 38.5 160.5t92.5 138.5z" />
<glyph unicode="&#x124;" horiz-adv-x="1270" d="M1110 0h-184v673h-586v-673h-183v1456h183v-626h586v626h184v-1456zM879 1584v-10h-142l-120 170l-120 -170h-142v12l209 272h105z" />
<glyph unicode="&#x125;" horiz-adv-x="989" d="M309 971q101 131 258 131q287 0 291 -383v-719h-176v711q0 127 -42.5 180.5t-127.5 53.5q-66 0 -118.5 -44t-84.5 -115v-786h-177v1536h177v-565zM706 1583v-10h-142l-120 170l-120 -170h-142v12l209 272h105z" />
<glyph unicode="&#x126;" horiz-adv-x="1252" d="M1110 1166h110v-142h-110v-1024h-184v673h-584v-673h-184v1024h-112v142h112v290h184v-290h584v290h184v-290zM342 830h584v194h-584v-194z" />
<glyph unicode="&#x127;" horiz-adv-x="1019" d="M527 1234h-188v-263q101 131 258 131q287 0 291 -383v-719h-176v711q0 127 -42.5 180.5t-127.5 53.5q-66 0 -118.5 -44t-84.5 -115v-786h-177v1234h-177v151h177v151h177v-151h188v-151z" />
<glyph unicode="&#x128;" horiz-adv-x="512" d="M348 0h-183v1456h183v-1456zM558 1826q0 -105 -52 -173.5t-134 -68.5q-35 0 -60 10.5t-65 41t-58 37t-41 6.5q-34 0 -56.5 -32t-22.5 -80l-115 7q0 109 53 178t132 69q30 0 54 -11.5t60.5 -37.5t59.5 -36.5t50 -10.5q34 0 57 32.5t23 80.5z" />
<glyph unicode="&#x129;" horiz-adv-x="481" d="M323 0h-177v1082h177v-1082zM542 1502q0 -105 -52 -173.5t-134 -68.5q-35 0 -60 10.5t-65 41t-58 37t-41 6.5q-34 0 -56.5 -32t-22.5 -80l-115 7q0 109 53 178t132 69q30 0 54 -11.5t60.5 -37.5t59.5 -36.5t50 -10.5q34 0 57 32.5t23 80.5z" />
<glyph unicode="&#x12a;" horiz-adv-x="512" d="M348 0h-183v1456h183v-1456zM568 1643h-614v143h614v-143z" />
<glyph unicode="&#x12b;" horiz-adv-x="481" d="M323 0h-177v1082h177v-1082zM552 1319h-614v143h614v-143z" />
<glyph unicode="&#x12c;" horiz-adv-x="512" d="M348 0h-183v1456h183v-1456zM556 1818q0 -121 -82.5 -194.5t-216.5 -73.5t-217 74t-83 194h151q0 -70 38 -109.5t111 -39.5q70 0 109.5 39t39.5 110h150z" />
<glyph unicode="&#x12d;" horiz-adv-x="481" d="M323 0h-177v1082h177v-1082zM540 1495q0 -121 -82.5 -194.5t-216.5 -73.5t-217 74t-83 194h151q0 -70 38 -109.5t111 -39.5q70 0 109.5 39t39.5 110h150z" />
<glyph unicode="&#x12e;" horiz-adv-x="512" d="M348 0h-183v1456h183v-1456zM329 9q-79 -70 -110 -121.5t-31 -100.5q0 -72 63 -72q38 0 83 26l10 -121q-62 -44 -140 -44q-77 0 -122.5 51.5t-45.5 138.5q0 186 225 299z" />
<glyph unicode="&#x12f;" horiz-adv-x="469" d="M323 0h-177v1082h177v-1082zM337 1369q0 -45 -25 -75t-76 -30q-50 0 -75 30t-25 75t25 76t75 31t75.5 -31.5t25.5 -75.5zM309 0q-79 -70 -110 -121.5t-31 -100.5q0 -72 63 -72q38 0 83 26l10 -121q-62 -44 -140 -44q-77 0 -122.5 51.5t-45.5 138.5q0 186 225 299z" />
<glyph unicode="&#x130;" horiz-adv-x="512" d="M348 0h-183v1456h183v-1456zM147 1689q0 45 27.5 76t81.5 31t82 -31t28 -76t-28 -75t-82 -30t-81.5 30t-27.5 75z" />
<glyph unicode="&#x131;" horiz-adv-x="481" d="M323 0h-177v1082h177v-1082z" />
<glyph unicode="&#x132;" horiz-adv-x="1502" d="M348 0h-183v1456h183v-1456zM1171 1456h184v-1031q0 -209 -106.5 -327t-286.5 -118q-185 0 -288 112t-103 310h183q0 -125 55 -195t153 -70q95 0 152 76t57 213v1030z" />
<glyph unicode="&#x133;" horiz-adv-x="927" d="M323 0h-177v1082h177v-1082zM337 1369q0 -45 -25 -75t-76 -30q-50 0 -75 30t-25 75t25 76t75 31t75.5 -31.5t25.5 -75.5zM782 1082v-1218q-3 -301 -238 -301q-54 0 -97 18l-1 148q27 -8 69 -8q45 0 67.5 33.5t22.5 116.5v1211h177zM790 1369q0 -45 -25 -75t-76 -30 q-50 0 -74.5 30t-24.5 75t24.5 76t74.5 31t75.5 -31.5t25.5 -75.5z" />
<glyph unicode="&#x134;" horiz-adv-x="990" d="M659 1456h184v-1031q0 -209 -106.5 -327t-286.5 -118q-185 0 -288 112t-103 310h183q0 -125 55 -195t153 -70q95 0 152 76t57 213v1030zM989 1571v-10h-142l-120 170l-120 -170h-142v12l209 272h105z" />
<glyph unicode="&#x135;" horiz-adv-x="487" d="M339 1082v-1171q0 -170 -73 -259t-204 -89q-50 0 -93 18l12 147q10 -5 39.5 -9t41.5 -4q100 0 100 212v1155h177zM515 1222v-10h-142l-120 170l-120 -170h-142v12l209 272h105z" />
<glyph unicode="&#x136;" horiz-adv-x="1116" d="M483 671l-143 -173v-498h-183v1456h183v-703l120 159l392 544h220l-473 -641l510 -815h-219zM530 -424l-99 72q61 110 63 234v94h168v-76q0 -94 -36.5 -183t-95.5 -141z" />
<glyph unicode="&#x137;" horiz-adv-x="923" d="M404 495l-94 -108v-387h-177v1536h177v-919l337 465h212l-344 -452l389 -630h-206zM416 -443l-99 72q61 110 63 234v94h168v-76q0 -94 -36.5 -183t-95.5 -141z" />
<glyph unicode="&#x138;" horiz-adv-x="1006" d="M400 461h-76v-461h-177v1082h177v-458h62l319 458h212l-379 -522l405 -560h-222z" />
<glyph unicode="&#x139;" horiz-adv-x="973" d="M341 157h571v-157h-755v1456h184v-1299zM337 1839h224l-268 -294h-149z" />
<glyph unicode="&#x13a;" horiz-adv-x="469" d="M323 0h-177v1536h177v-1536zM326 1940h224l-268 -294h-149z" />
<glyph unicode="&#x13b;" horiz-adv-x="973" d="M341 157h571v-157h-755v1456h184v-1299zM490 -503l-99 72q61 110 63 234v94h168v-76q0 -94 -36.5 -183t-95.5 -141z" />
<glyph unicode="&#x13c;" horiz-adv-x="469" d="M323 0h-177v1536h177v-1536zM187 -503l-99 72q61 110 63 234v94h168v-76q0 -94 -36.5 -183t-95.5 -141z" />
<glyph unicode="&#x13d;" horiz-adv-x="973" d="M341 157h571v-157h-755v1456h184v-1299zM594 1057l-99 72q61 110 63 234v94h168v-76q0 -94 -36.5 -183t-95.5 -141z" />
<glyph unicode="&#x13e;" horiz-adv-x="619" d="M323 0h-177v1536h177v-1536zM491 1138l-99 72q61 110 63 234v94h168v-76q0 -94 -36.5 -183t-95.5 -141z" />
<glyph unicode="&#x13f;" horiz-adv-x="973" d="M341 157h571v-157h-755v1456h184v-1299zM509 796q0 45 27.5 76t81.5 31t82 -31t28 -76t-28 -75t-82 -30t-81.5 30t-27.5 75z" />
<glyph unicode="&#x140;" horiz-adv-x="689" d="M323 0h-177v1536h177v-1536zM409 781q0 45 27.5 76t81.5 31t82 -31t28 -76t-28 -75t-82 -30t-81.5 30t-27.5 75z" />
<glyph unicode="&#x141;" horiz-adv-x="973" d="M341 849l207 78v-125l-207 -78v-567h571v-157h-755v654l-104 -39v125l104 39v677h184v-607z" />
<glyph unicode="&#x142;" horiz-adv-x="512" d="M338 873l126 57v-123l-126 -57v-750h-177v670l-110 -50v123l110 50v743h177v-663z" />
<glyph unicode="&#x143;" horiz-adv-x="1268" d="M1108 0h-184l-583 1122v-1122h-184v1456h184l585 -1127v1127h182v-1456zM721 1844h224l-268 -294h-149z" />
<glyph unicode="&#x144;" horiz-adv-x="991" d="M299 1082l5 -117q103 137 263 137q287 0 291 -383v-719h-176v711q0 127 -42.5 180.5t-127.5 53.5q-66 0 -118.5 -44t-84.5 -115v-786h-177v1082h167zM591 1534h224l-268 -294h-149z" />
<glyph unicode="&#x145;" horiz-adv-x="1268" d="M1108 0h-184l-583 1122v-1122h-184v1456h184l585 -1127v1127h182v-1456zM574 -503l-99 72q61 110 63 234v94h168v-76q0 -94 -36.5 -183t-95.5 -141z" />
<glyph unicode="&#x146;" horiz-adv-x="991" d="M299 1082l5 -117q103 137 263 137q287 0 291 -383v-719h-176v711q0 127 -42.5 180.5t-127.5 53.5q-66 0 -118.5 -44t-84.5 -115v-786h-177v1082h167zM441 -503l-99 72q61 110 63 234v94h168v-76q0 -94 -36.5 -183t-95.5 -141z" />
<glyph unicode="&#x147;" horiz-adv-x="1268" d="M1108 0h-184l-583 1122v-1122h-184v1456h184l585 -1127v1127h182v-1456zM629 1676l119 170h152v-10l-219 -274h-104l-216 274v10h148z" />
<glyph unicode="&#x148;" horiz-adv-x="991" d="M299 1082l5 -117q103 137 263 137q287 0 291 -383v-719h-176v711q0 127 -42.5 180.5t-127.5 53.5q-66 0 -118.5 -44t-84.5 -115v-786h-177v1082h167zM499 1366l119 170h152v-10l-219 -274h-104l-216 274v10h148z" />
<glyph unicode="&#x149;" horiz-adv-x="991" d="M299 1082l5 -117q103 137 263 137q287 0 291 -383v-719h-176v711q0 127 -42.5 180.5t-127.5 53.5q-66 0 -118.5 -44t-84.5 -115v-786h-177v1082h167zM56 1140l-99 72q61 110 63 234v94h168v-76q0 -94 -36.5 -183t-95.5 -141z" />
<glyph unicode="&#x14a;" horiz-adv-x="1227" d="M1085 1456v-1540q0 -172 -74.5 -262.5t-206.5 -90.5q-52 0 -97 18l11 154q33 -14 83 -14q99 0 99 209v70l-567 1095v-1095h-183v1456h183l567 -1094v1094h185z" />
<glyph unicode="&#x14b;" horiz-adv-x="1021" d="M296 1082l12 -145q95 165 259 165q152 0 229.5 -106.5t78.5 -307.5v-777q0 -170 -73 -259t-203 -89q-49 0 -94 18l12 157q30 -13 82 -13q100 0 100 196v757q0 140 -43.5 203.5t-144.5 63.5q-128 0 -196 -118v-827h-177v1082h158z" />
<glyph unicode="&#x14c;" horiz-adv-x="1230" d="M1104 600q0 -298 -127 -459t-361 -161q-225 0 -355.5 156.5t-135.5 442.5v274q0 292 129 457.5t360 165.5q230 0 358.5 -158.5t131.5 -452.5v-265zM921 855q0 231 -75.5 343.5t-231.5 112.5q-151 0 -228.5 -114t-78.5 -336v-261q0 -223 77.5 -340t231.5 -117t228 108 t77 331v273zM930 1633h-614v143h614v-143z" />
<glyph unicode="&#x14d;" d="M95 591q0 236 114.5 373.5t302.5 137.5t302.5 -134t117.5 -365v-114q0 -235 -114 -372t-304 -137q-188 0 -301.5 133t-117.5 360v118zM272 489q0 -167 65.5 -262.5t176.5 -95.5q234 0 241 338v122q0 166 -66 262.5t-177 96.5q-109 0 -174.5 -96.5t-65.5 -261.5v-103z M816 1321h-614v143h614v-143z" />
<glyph unicode="&#x14e;" horiz-adv-x="1230" d="M1104 600q0 -298 -127 -459t-361 -161q-225 0 -355.5 156.5t-135.5 442.5v274q0 292 129 457.5t360 165.5q230 0 358.5 -158.5t131.5 -452.5v-265zM921 855q0 231 -75.5 343.5t-231.5 112.5q-151 0 -228.5 -114t-78.5 -336v-261q0 -223 77.5 -340t231.5 -117t228 108 t77 331v273zM918 1808q0 -121 -82.5 -194.5t-216.5 -73.5t-217 74t-83 194h151q0 -70 38 -109.5t111 -39.5q70 0 109.5 39t39.5 110h150z" />
<glyph unicode="&#x14f;" d="M95 591q0 236 114.5 373.5t302.5 137.5t302.5 -134t117.5 -365v-114q0 -235 -114 -372t-304 -137q-188 0 -301.5 133t-117.5 360v118zM272 489q0 -167 65.5 -262.5t176.5 -95.5q234 0 241 338v122q0 166 -66 262.5t-177 96.5q-109 0 -174.5 -96.5t-65.5 -261.5v-103z M804 1496q0 -121 -82.5 -194.5t-216.5 -73.5t-217 74t-83 194h151q0 -70 38 -109.5t111 -39.5q70 0 109.5 39t39.5 110h150z" />
<glyph unicode="&#x150;" horiz-adv-x="1230" d="M1104 600q0 -298 -127 -459t-361 -161q-225 0 -355.5 156.5t-135.5 442.5v274q0 292 129 457.5t360 165.5q230 0 358.5 -158.5t131.5 -452.5v-265zM921 855q0 231 -75.5 343.5t-231.5 112.5q-151 0 -228.5 -114t-78.5 -336v-261q0 -223 77.5 -340t231.5 -117t228 108 t77 331v273zM827 1847h194l-223 -303h-157zM532 1847h185l-179 -303h-139z" />
<glyph unicode="&#x151;" d="M95 591q0 236 114.5 373.5t302.5 137.5t302.5 -134t117.5 -365v-114q0 -235 -114 -372t-304 -137q-188 0 -301.5 133t-117.5 360v118zM272 489q0 -167 65.5 -262.5t176.5 -95.5q234 0 241 338v122q0 166 -66 262.5t-177 96.5q-109 0 -174.5 -96.5t-65.5 -261.5v-103z M713 1535h194l-223 -303h-157zM418 1535h185l-179 -303h-139z" />
<glyph unicode="&#x152;" horiz-adv-x="1693" d="M1533 0h-714q-147 -21 -239 -21q-138 0 -246.5 75.5t-168 212t-59.5 309.5v304q0 172 58 307.5t167 212t247 76.5q101 0 241 -20h704v-158h-590v-468h514v-157h-514v-516h600v-157zM580 130q83 0 170 13v1168q-82 14 -172 14q-139 0 -217 -115.5t-78 -329.5v-304 q0 -209 77.5 -327.5t219.5 -118.5z" />
<glyph unicode="&#x153;" horiz-adv-x="1592" d="M102 551q0 246 111 398.5t296 152.5q110 0 192.5 -53t134.5 -146q55 94 134.5 146.5t169.5 52.5q179 0 277 -125.5t98 -361.5v-118h-588q4 -171 68.5 -269t172.5 -98q155 0 253 108l70 -126l-12 -13q-113 -119 -311 -119q-219 0 -334 193q-114 -193 -324 -193 q-186 0 -297 151.5t-111 405.5v14zM279 529q0 -186 61 -292.5t170 -106.5t169.5 106.5t60.5 314.5q0 187 -61.5 293t-169.5 106q-107 0 -168.5 -105.5t-61.5 -315.5zM1140 950q-78 0 -136 -86.5t-72 -214.5h406v26q0 128 -52.5 201.5t-145.5 73.5z" />
<glyph unicode="&#x154;" horiz-adv-x="1087" d="M597 589h-256v-589h-184v1456h408q214 0 324 -111.5t110 -326.5q0 -135 -59.5 -235.5t-168.5 -151.5l282 -619v-12h-197zM341 746h222q115 0 183.5 74t68.5 198q0 280 -254 280h-220v-552zM623 1844h224l-268 -294h-149z" />
<glyph unicode="&#x155;" horiz-adv-x="623" d="M579 916q-37 7 -80 7q-136 0 -190 -149v-774h-177v1082h172l3 -110q71 130 201 130q42 0 70 -14zM452 1534h224l-268 -294h-149z" />
<glyph unicode="&#x156;" horiz-adv-x="1087" d="M597 589h-256v-589h-184v1456h408q214 0 324 -111.5t110 -326.5q0 -135 -59.5 -235.5t-168.5 -151.5l282 -619v-12h-197zM341 746h222q115 0 183.5 74t68.5 198q0 280 -254 280h-220v-552zM484 -503l-99 72q61 110 63 234v94h168v-76q0 -94 -36.5 -183t-95.5 -141z" />
<glyph unicode="&#x157;" horiz-adv-x="623" d="M579 916q-37 7 -80 7q-136 0 -190 -149v-774h-177v1082h172l3 -110q71 130 201 130q42 0 70 -14zM185 -503l-99 72q61 110 63 234v94h168v-76q0 -94 -36.5 -183t-95.5 -141z" />
<glyph unicode="&#x158;" horiz-adv-x="1087" d="M597 589h-256v-589h-184v1456h408q214 0 324 -111.5t110 -326.5q0 -135 -59.5 -235.5t-168.5 -151.5l282 -619v-12h-197zM341 746h222q115 0 183.5 74t68.5 198q0 280 -254 280h-220v-552zM531 1676l119 170h152v-10l-219 -274h-104l-216 274v10h148z" />
<glyph unicode="&#x159;" horiz-adv-x="623" d="M579 916q-37 7 -80 7q-136 0 -190 -149v-774h-177v1082h172l3 -110q71 130 201 130q42 0 70 -14zM361 1366l119 170h152v-10l-219 -274h-104l-216 274v10h148z" />
<glyph unicode="&#x15a;" horiz-adv-x="1061" d="M793 368q0 109 -59 167t-213 113t-235.5 115.5t-122 138t-40.5 177.5q0 173 115.5 285t302.5 112q128 0 228 -57.5t154 -159.5t54 -224h-184q0 135 -65 209t-187 74q-111 0 -172 -62t-61 -174q0 -92 66 -154t204 -111q215 -71 307.5 -175t92.5 -272q0 -177 -115 -283.5 t-313 -106.5q-127 0 -234.5 55.5t-169 156t-61.5 230.5h184q0 -135 75.5 -210t205.5 -75q121 0 182 62t61 169zM632 1846h224l-268 -294h-149z" />
<glyph unicode="&#x15b;" horiz-adv-x="933" d="M658 277q0 57 -43 98t-166 96q-143 59 -201.5 101t-87.5 95.5t-29 127.5q0 132 96.5 219.5t246.5 87.5q158 0 254 -92t96 -236h-176q0 73 -49 124.5t-125 51.5q-78 0 -122.5 -40.5t-44.5 -108.5q0 -54 32.5 -87t156.5 -87q197 -77 268 -150.5t71 -186.5 q0 -141 -97 -225.5t-260 -84.5q-169 0 -274 97t-105 246h178q3 -90 55 -141t146 -51q88 0 134 39.5t46 106.5zM591 1534h224l-268 -294h-149z" />
<glyph unicode="&#x15c;" horiz-adv-x="1061" d="M793 368q0 109 -59 167t-213 113t-235.5 115.5t-122 138t-40.5 177.5q0 173 115.5 285t302.5 112q128 0 228 -57.5t154 -159.5t54 -224h-184q0 135 -65 209t-187 74q-111 0 -172 -62t-61 -174q0 -92 66 -154t204 -111q215 -71 307.5 -175t92.5 -272q0 -177 -115 -283.5 t-313 -106.5q-127 0 -234.5 55.5t-169 156t-61.5 230.5h184q0 -135 75.5 -210t205.5 -75q121 0 182 62t61 169zM803 1574v-10h-142l-120 170l-120 -170h-142v12l209 272h105z" />
<glyph unicode="&#x15d;" horiz-adv-x="933" d="M658 277q0 57 -43 98t-166 96q-143 59 -201.5 101t-87.5 95.5t-29 127.5q0 132 96.5 219.5t246.5 87.5q158 0 254 -92t96 -236h-176q0 73 -49 124.5t-125 51.5q-78 0 -122.5 -40.5t-44.5 -108.5q0 -54 32.5 -87t156.5 -87q197 -77 268 -150.5t71 -186.5 q0 -141 -97 -225.5t-260 -84.5q-169 0 -274 97t-105 246h178q3 -90 55 -141t146 -51q88 0 134 39.5t46 106.5zM762 1262v-10h-142l-120 170l-120 -170h-142v12l209 272h105z" />
<glyph unicode="&#x15e;" horiz-adv-x="1061" d="M793 368q0 109 -59 167t-213 113t-235.5 115.5t-122 138t-40.5 177.5q0 173 115.5 285t302.5 112q128 0 228 -57.5t154 -159.5t54 -224h-184q0 135 -65 209t-187 74q-111 0 -172 -62t-61 -174q0 -92 66 -154t204 -111q215 -71 307.5 -175t92.5 -272q0 -177 -115 -283.5 t-313 -106.5q-127 0 -234.5 55.5t-169 156t-61.5 230.5h184q0 -135 75.5 -210t205.5 -75q121 0 182 62t61 169zM615 0l-10 -52q60 -13 92 -58t32 -115q0 -96 -66.5 -153t-190.5 -57l-6 107q128 0 128 99q0 45 -26.5 65.5t-105.5 29.5l28 134h125z" />
<glyph unicode="&#x15f;" horiz-adv-x="933" d="M658 277q0 57 -43 98t-166 96q-143 59 -201.5 101t-87.5 95.5t-29 127.5q0 132 96.5 219.5t246.5 87.5q158 0 254 -92t96 -236h-176q0 73 -49 124.5t-125 51.5q-78 0 -122.5 -40.5t-44.5 -108.5q0 -54 32.5 -87t156.5 -87q197 -77 268 -150.5t71 -186.5 q0 -141 -97 -225.5t-260 -84.5q-169 0 -274 97t-105 246h178q3 -90 55 -141t146 -51q88 0 134 39.5t46 106.5zM568 -8l-10 -52q60 -13 92 -58t32 -115q0 -96 -66.5 -153t-190.5 -57l-6 107q128 0 128 99q0 45 -26.5 65.5t-105.5 29.5l28 134h125z" />
<glyph unicode="&#x160;" horiz-adv-x="1061" d="M793 368q0 109 -59 167t-213 113t-235.5 115.5t-122 138t-40.5 177.5q0 173 115.5 285t302.5 112q128 0 228 -57.5t154 -159.5t54 -224h-184q0 135 -65 209t-187 74q-111 0 -172 -62t-61 -174q0 -92 66 -154t204 -111q215 -71 307.5 -175t92.5 -272q0 -177 -115 -283.5 t-313 -106.5q-127 0 -234.5 55.5t-169 156t-61.5 230.5h184q0 -135 75.5 -210t205.5 -75q121 0 182 62t61 169zM540 1678l119 170h152v-10l-219 -274h-104l-216 274v10h148z" />
<glyph unicode="&#x161;" horiz-adv-x="933" d="M658 277q0 57 -43 98t-166 96q-143 59 -201.5 101t-87.5 95.5t-29 127.5q0 132 96.5 219.5t246.5 87.5q158 0 254 -92t96 -236h-176q0 73 -49 124.5t-125 51.5q-78 0 -122.5 -40.5t-44.5 -108.5q0 -54 32.5 -87t156.5 -87q197 -77 268 -150.5t71 -186.5 q0 -141 -97 -225.5t-260 -84.5q-169 0 -274 97t-105 246h178q3 -90 55 -141t146 -51q88 0 134 39.5t46 106.5zM499 1366l119 170h152v-10l-219 -274h-104l-216 274v10h148z" />
<glyph unicode="&#x162;" horiz-adv-x="1066" d="M1008 1298h-383v-1298h-183v1298h-382v158h948v-158zM603 0l-10 -52q60 -13 92 -58t32 -115q0 -96 -66.5 -153t-190.5 -57l-6 107q128 0 128 99q0 45 -26.5 65.5t-105.5 29.5l28 134h125z" />
<glyph unicode="&#x163;" horiz-adv-x="605" d="M364 1344v-262h163v-143h-163v-671q0 -64 21 -97t72 -33q35 0 71 12l-2 -150q-60 -20 -123 -20q-105 0 -160 75t-55 212v672h-165v143h165v262h176zM474 0l-10 -52q60 -13 92 -58t32 -115q0 -96 -66.5 -153t-190.5 -57l-6 107q128 0 128 99q0 45 -26.5 65.5t-105.5 29.5 l28 134h125z" />
<glyph unicode="&#x164;" horiz-adv-x="1066" d="M1008 1298h-383v-1298h-183v1298h-382v158h948v-158zM533 1676l119 170h152v-10l-219 -274h-104l-216 274v10h148z" />
<glyph unicode="&#x165;" horiz-adv-x="645" d="M364 1344v-262h163v-143h-163v-671q0 -64 21 -97t72 -33q35 0 71 12l-2 -150q-60 -20 -123 -20q-105 0 -160 75t-55 212v672h-165v143h165v262h176zM544 1257l-99 72q61 110 63 234v94h168v-76q0 -94 -36.5 -183t-95.5 -141z" />
<glyph unicode="&#x166;" horiz-adv-x="1066" d="M816 823h-191v-823h-183v823h-168v151h168v324h-382v158h948v-158h-383v-324h191v-151z" />
<glyph unicode="&#x167;" horiz-adv-x="605" d="M364 1344v-262h163v-143h-163v-186h180v-151h-180v-334q0 -64 21 -97t72 -33q35 0 71 12l-2 -150q-60 -20 -123 -20q-105 0 -160 75t-55 212v335h-186v151h186v186h-165v143h165v262h176z" />
<glyph unicode="&#x168;" horiz-adv-x="1150" d="M1025 1456v-1035q-2 -207 -120 -324t-329 -117q-216 0 -330 114.5t-116 326.5v1035h182v-1028q0 -147 62.5 -219.5t201.5 -72.5q140 0 202.5 72.5t62.5 219.5v1028h184zM877 1814q0 -105 -52 -173.5t-134 -68.5q-35 0 -60 10.5t-65 41t-58 37t-41 6.5q-34 0 -56.5 -32 t-22.5 -80l-115 7q0 109 53 178t132 69q30 0 54 -11.5t60.5 -37.5t59.5 -36.5t50 -10.5q34 0 57 32.5t23 80.5z" />
<glyph unicode="&#x169;" horiz-adv-x="990" d="M684 95q-88 -115 -257 -115q-147 0 -222 101.5t-76 295.5v705h176v-692q0 -253 152 -253q161 0 222 144v801h177v-1082h-168zM796 1504q0 -105 -52 -173.5t-134 -68.5q-35 0 -60 10.5t-65 41t-58 37t-41 6.5q-34 0 -56.5 -32t-22.5 -80l-115 7q0 109 53 178t132 69 q30 0 54 -11.5t60.5 -37.5t59.5 -36.5t50 -10.5q34 0 57 32.5t23 80.5z" />
<glyph unicode="&#x16a;" horiz-adv-x="1150" d="M1025 1456v-1035q-2 -207 -120 -324t-329 -117q-216 0 -330 114.5t-116 326.5v1035h182v-1028q0 -147 62.5 -219.5t201.5 -72.5q140 0 202.5 72.5t62.5 219.5v1028h184zM887 1631h-614v143h614v-143z" />
<glyph unicode="&#x16b;" horiz-adv-x="990" d="M684 95q-88 -115 -257 -115q-147 0 -222 101.5t-76 295.5v705h176v-692q0 -253 152 -253q161 0 222 144v801h177v-1082h-168zM806 1321h-614v143h614v-143z" />
<glyph unicode="&#x16c;" horiz-adv-x="1150" d="M1025 1456v-1035q-2 -207 -120 -324t-329 -117q-216 0 -330 114.5t-116 326.5v1035h182v-1028q0 -147 62.5 -219.5t201.5 -72.5q140 0 202.5 72.5t62.5 219.5v1028h184zM875 1806q0 -121 -82.5 -194.5t-216.5 -73.5t-217 74t-83 194h151q0 -70 38 -109.5t111 -39.5 q70 0 109.5 39t39.5 110h150z" />
<glyph unicode="&#x16d;" horiz-adv-x="990" d="M684 95q-88 -115 -257 -115q-147 0 -222 101.5t-76 295.5v705h176v-692q0 -253 152 -253q161 0 222 144v801h177v-1082h-168zM794 1496q0 -121 -82.5 -194.5t-216.5 -73.5t-217 74t-83 194h151q0 -70 38 -109.5t111 -39.5q70 0 109.5 39t39.5 110h150z" />
<glyph unicode="&#x16e;" horiz-adv-x="1150" d="M1025 1456v-1035q-2 -207 -120 -324t-329 -117q-216 0 -330 114.5t-116 326.5v1035h182v-1028q0 -147 62.5 -219.5t201.5 -72.5q140 0 202.5 72.5t62.5 219.5v1028h184zM790 1729q0 -87 -62 -145.5t-153 -58.5q-92 0 -153.5 59t-61.5 145t61.5 147t153.5 61t153.5 -61 t61.5 -147zM459 1729q0 -47 33.5 -81t82.5 -34q48 0 82 33t34 82t-33.5 83.5t-82.5 34.5q-50 0 -83 -35t-33 -83z" />
<glyph unicode="&#x16f;" horiz-adv-x="990" d="M684 95q-88 -115 -257 -115q-147 0 -222 101.5t-76 295.5v705h176v-692q0 -253 152 -253q161 0 222 144v801h177v-1082h-168zM709 1419q0 -87 -62 -145.5t-153 -58.5q-92 0 -153.5 59t-61.5 145t61.5 147t153.5 61t153.5 -61t61.5 -147zM378 1419q0 -47 33.5 -81 t82.5 -34q48 0 82 33t34 82t-33.5 83.5t-82.5 34.5q-50 0 -83 -35t-33 -83z" />
<glyph unicode="&#x170;" horiz-adv-x="1150" d="M1025 1456v-1035q-2 -207 -120 -324t-329 -117q-216 0 -330 114.5t-116 326.5v1035h182v-1028q0 -147 62.5 -219.5t201.5 -72.5q140 0 202.5 72.5t62.5 219.5v1028h184zM784 1845h194l-223 -303h-157zM489 1845h185l-179 -303h-139z" />
<glyph unicode="&#x171;" horiz-adv-x="990" d="M684 95q-88 -115 -257 -115q-147 0 -222 101.5t-76 295.5v705h176v-692q0 -253 152 -253q161 0 222 144v801h177v-1082h-168zM703 1535h194l-223 -303h-157zM408 1535h185l-179 -303h-139z" />
<glyph unicode="&#x172;" horiz-adv-x="1150" d="M1025 1456v-1027q0 -153 -63 -260t-183 -154q-110 -105 -110 -193q0 -72 63 -72q38 0 83 26l10 -121q-62 -44 -140 -44q-77 0 -122.5 51.5t-45.5 138.5q0 98 66 179q-223 0 -336.5 114t-116.5 323v1039h182v-1028q0 -147 62.5 -219.5t201.5 -72.5q140 0 202.5 72.5 t62.5 219.5v1028h184z" />
<glyph unicode="&#x173;" horiz-adv-x="990" d="M846 0q-79 -70 -110 -121.5t-31 -100.5q0 -72 63 -72q38 0 83 26l10 -121q-62 -44 -140 -44q-77 0 -122.5 51.5t-45.5 138.5q0 144 135 244l-4 94q-88 -115 -257 -115q-147 0 -222 101.5t-76 295.5v705h176v-692q0 -253 152 -253q161 0 222 144v801h177v-1082h-10z" />
<glyph unicode="&#x174;" horiz-adv-x="1560" d="M435 459l19 -163l29 144l233 1016h153l226 -1016l29 -148l21 168l178 996h183l-290 -1456h-165l-243 1061l-15 86l-15 -86l-252 -1061h-166l-289 1456h183zM1058 1572v-10h-142l-120 170l-120 -170h-142v12l209 272h105z" />
<glyph unicode="&#x175;" horiz-adv-x="1331" d="M939 311l164 771h175l-265 -1082h-141l-211 774l-206 -774h-142l-263 1082h174l168 -752l201 752h140zM922 1262v-10h-142l-120 170l-120 -170h-142v12l209 272h105z" />
<glyph unicode="&#x176;" horiz-adv-x="1074" d="M536 725l298 731h207l-414 -913v-543h-183v543l-414 913h208zM802 1572v-10h-142l-120 170l-120 -170h-142v12l209 272h105z" />
<glyph unicode="&#x177;" horiz-adv-x="853" d="M428 294l197 788h188l-354 -1235q-40 -139 -113 -211.5t-166 -72.5q-36 0 -92 16v150l39 -4q77 0 120.5 36.5t70.5 126.5l35 121l-318 1073h193zM707 1262v-10h-142l-120 170l-120 -170h-142v12l209 272h105z" />
<glyph unicode="&#x178;" horiz-adv-x="1074" d="M536 725l298 731h207l-414 -913v-543h-183v543l-414 913h208zM219 1681q0 45 27.5 75.5t81.5 30.5t82 -30.5t28 -75.5t-28 -75t-82 -30t-81.5 30t-27.5 75zM649 1679q0 45 27.5 76t81.5 31t82 -31t28 -76t-28 -75t-82 -30t-81.5 30t-27.5 75z" />
<glyph unicode="&#x179;" horiz-adv-x="1070" d="M294 157h691v-157h-894v144l663 1154h-656v158h860v-141zM630 1844h224l-268 -294h-149z" />
<glyph unicode="&#x17a;" horiz-adv-x="899" d="M296 151h522v-151h-724v136l496 793h-492v153h700v-131zM543 1534h224l-268 -294h-149z" />
<glyph unicode="&#x17b;" horiz-adv-x="1070" d="M294 157h691v-157h-894v144l663 1154h-656v158h860v-141zM431 1677q0 45 27.5 76t81.5 31t82 -31t28 -76t-28 -75t-82 -30t-81.5 30t-27.5 75z" />
<glyph unicode="&#x17c;" horiz-adv-x="899" d="M296 151h522v-151h-724v136l496 793h-492v153h700v-131zM344 1367q0 45 27.5 76t81.5 31t82 -31t28 -76t-28 -75t-82 -30t-81.5 30t-27.5 75z" />
<glyph unicode="&#x17d;" horiz-adv-x="1070" d="M294 157h691v-157h-894v144l663 1154h-656v158h860v-141zM538 1676l119 170h152v-10l-219 -274h-104l-216 274v10h148z" />
<glyph unicode="&#x17e;" horiz-adv-x="899" d="M296 151h522v-151h-724v136l496 793h-492v153h700v-131zM451 1366l119 170h152v-10l-219 -274h-104l-216 274v10h148z" />
<glyph unicode="&#x17f;" horiz-adv-x="480" d="M152 0v1199q1 171 78 264.5t216 93.5q48 0 123 -21l-22 -142q-31 11 -72 11q-146 0 -146 -221v-1184h-177z" />
<glyph unicode="&#x18f;" horiz-adv-x="1223" d="M596 -20q-243 0 -375.5 172.5t-132.5 497.5v117h833v7q0 258 -98.5 400t-278.5 142q-133 0 -243 -57l-50 -27l-42 143q41 41 135.5 71t199.5 30q259 0 410.5 -189.5t151.5 -522.5v-84q0 -196 -66 -356.5t-184.5 -252t-259.5 -91.5zM596 138q135 0 222.5 129t100.5 351 h-647v-34q0 -223 81.5 -334.5t242.5 -111.5z" />
<glyph unicode="&#x192;" horiz-adv-x="634" d="M533 939h-157v-1028q0 -169 -73.5 -258.5t-203.5 -89.5q-51 0 -94 18l12 147q15 -7 66 -12l16 -1q100 0 100 212v1012h-141v143h141v119q1 173 78.5 264.5t213.5 91.5q48 0 123 -21l-21 -147q-28 10 -79 10q-136 0 -138 -196v-121h157v-143z" />
<glyph unicode="&#x1a0;" horiz-adv-x="1214" d="M1090 681q0 -323 -134 -512t-362 -189q-146 0 -259.5 85.5t-176.5 245t-63 367.5v95q0 208 62 368.5t175.5 247.5t259.5 87q203 0 334 -153q75 13 107 82.5t32 185.5h159q0 -158 -55 -257.5t-164 -132.5q82 -167 85 -412v-108zM909 775q0 256 -82.5 396t-234.5 140 q-148 0 -231.5 -144.5t-83.5 -393.5v-92q0 -250 85 -394t232 -144q151 0 233 138.5t82 399.5v94z" />
<glyph unicode="&#x1a1;" horiz-adv-x="1030" d="M97 551q0 245 115 398t300 153q176 0 290 -137q55 12 78.5 61.5t23.5 173.5h141q0 -146 -43 -229.5t-133 -111.5q61 -134 62 -303v-27q0 -243 -115 -396t-302 -153t-302 151.5t-115 405.5v14zM273 529q0 -181 65 -289.5t176 -108.5t175 108.5t64 311.5q0 183 -66 291 t-175 108q-108 0 -173.5 -108t-65.5 -313z" />
<glyph unicode="&#x1af;" horiz-adv-x="1246" d="M1025 1456v-213q93 11 134 78.5t41 216.5h150q0 -210 -78.5 -314.5t-246.5 -116.5v-650q-4 -217 -128.5 -347t-320.5 -130q-201 0 -321.5 127t-124.5 349v1000h182v-991q1 -156 69 -242t195 -86q128 0 196 86t69 243v990h184z" />
<glyph unicode="&#x1b0;" horiz-adv-x="1126" d="M1125 1168q0 -177 -62 -252t-207 -79v-837h-168l-4 95q-88 -115 -257 -115q-147 0 -222 101.5t-76 295.5v705h176v-692q0 -253 152 -253q161 0 222 144v801h177v-131q69 1 99.5 29.5t34.5 97.5l2 90h133z" />
<glyph unicode="&#x1f0;" horiz-adv-x="487" d="M339 1082v-1171q0 -170 -73 -259t-204 -89q-50 0 -93 18l12 147q10 -5 39.5 -9t41.5 -4q100 0 100 212v1155h177zM252 1326l119 170h152v-10l-219 -274h-104l-216 274v10h148z" />
<glyph unicode="&#x1fa;" horiz-adv-x="1180" d="M836 380h-492l-113 -380h-188l469 1456h157l470 -1456h-188zM392 538h397l-199 662zM678 1940h176l-191 -184h-103zM448 1541q0 71 44 119t106 48q61 0 103 -48t42 -119q0 -69 -41.5 -116t-103.5 -47t-106 46.5t-44 116.5zM525 1541q0 -36 21.5 -60.5t51.5 -24.5 q29 0 49 24.5t20 60.5q0 38 -20 63t-49 25q-30 0 -51.5 -25t-21.5 -63z" />
<glyph unicode="&#x1fb;" horiz-adv-x="981" d="M689 0q-16 35 -23 118q-94 -138 -240 -138q-147 0 -229.5 82.5t-82.5 232.5q0 165 112 262t307 99h130v115q0 97 -43 138t-131 41q-80 0 -130 -47.5t-50 -120.5h-177q0 83 49 158.5t132 118.5t185 43q166 0 252.5 -82.5t88.5 -240.5v-546q1 -125 34 -217v-16h-184z M453 141q65 0 124 36t86 90v258h-100q-126 -2 -199 -56.5t-73 -152.5q0 -92 37 -133.5t125 -41.5zM593 1631h176l-191 -184h-103zM363 1232q0 71 44 119t106 48q61 0 103 -48t42 -119q0 -69 -41.5 -116t-103.5 -47t-106 46.5t-44 116.5zM440 1232q0 -36 21.5 -60.5 t51.5 -24.5q29 0 49 24.5t20 60.5q0 38 -20 63t-49 25q-30 0 -51.5 -25t-21.5 -63z" />
<glyph unicode="&#x1fc;" horiz-adv-x="1663" d="M1616 0h-763l-13 353h-458l-168 -353h-216l739 1456h827v-152h-580l17 -471h495v-151h-490l19 -531h591v-151zM465 527h369l-25 723zM894 1856h224l-268 -294h-149z" />
<glyph unicode="&#x1fd;" horiz-adv-x="1491" d="M1079 -20q-220 0 -335 172q-56 -82 -152 -127t-211 -45q-139 0 -218.5 85.5t-79.5 238.5q0 157 96 244t283 87h177v85q0 107 -43.5 168.5t-123.5 61.5q-81 0 -135.5 -54.5t-54.5 -136.5l-175 19q0 142 102.5 233t262.5 91q198 0 285 -153q111 153 281 153 q180 0 278.5 -129t98.5 -362v-114h-602q5 -174 74.5 -270.5t191.5 -96.5q126 0 224 76l39 31l59 -136q-51 -55 -137.5 -88t-184.5 -33zM417 130q94 0 192 88l30 30v247h-177q-91 -1 -146.5 -55t-55.5 -140q0 -81 41.5 -125.5t115.5 -44.5zM1038 950q-91 0 -150.5 -87 t-71.5 -223h423v31q0 135 -52 207t-149 72zM833 1535h224l-268 -294h-149z" />
<glyph unicode="&#x1fe;" horiz-adv-x="1230" d="M1112 681q0 -323 -134 -512t-362 -189q-140 0 -250 78l-79 -151h-131l122 233q-161 193 -161 549v84q0 208 61 368t174.5 247.5t261.5 87.5q179 0 302 -119l84 159h131l-136 -258q113 -181 117 -466v-111zM299 681q0 -228 70 -368l463 882q-82 116 -218 116 q-148 0 -231.5 -144.5t-83.5 -393.5v-92zM930 775q0 167 -37 288l-448 -854q72 -66 171 -66q150 0 232 138.5t82 399.5v94zM711 1918h224l-268 -294h-149z" />
<glyph unicode="&#x1ff;" horiz-adv-x="1021" d="M97 551q0 245 115 398t300 153q90 0 168 -39l60 145h114l-86 -206q163 -155 163 -473q0 -243 -115 -396t-302 -153q-81 0 -156 32l-61 -146h-114l85 205q-171 148 -171 480zM273 529q0 -180 65 -290l281 678q-47 33 -107 33q-108 0 -173.5 -108t-65.5 -313zM753 551 q0 168 -57 276l-278 -671q44 -25 96 -25q111 0 175 108.5t64 311.5zM565 1534h224l-268 -294h-149z" />
<glyph unicode="&#x218;" horiz-adv-x="1061" d="M793 368q0 109 -59 167t-213 113t-235.5 115.5t-122 138t-40.5 177.5q0 173 115.5 285t302.5 112q128 0 228 -57.5t154 -159.5t54 -224h-184q0 135 -65 209t-187 74q-111 0 -172 -62t-61 -174q0 -92 66 -154t204 -111q215 -71 307.5 -175t92.5 -272q0 -177 -115 -283.5 t-313 -106.5q-127 0 -234.5 55.5t-169 156t-61.5 230.5h184q0 -135 75.5 -210t205.5 -75q121 0 182 62t61 169zM498 -513l-99 72q61 110 63 234v94h168v-76q0 -94 -36.5 -183t-95.5 -141z" />
<glyph unicode="&#x219;" horiz-adv-x="933" d="M658 277q0 57 -43 98t-166 96q-143 59 -201.5 101t-87.5 95.5t-29 127.5q0 132 96.5 219.5t246.5 87.5q158 0 254 -92t96 -236h-176q0 73 -49 124.5t-125 51.5q-78 0 -122.5 -40.5t-44.5 -108.5q0 -54 32.5 -87t156.5 -87q197 -77 268 -150.5t71 -186.5 q0 -141 -97 -225.5t-260 -84.5q-169 0 -274 97t-105 246h178q3 -90 55 -141t146 -51q88 0 134 39.5t46 106.5zM451 -522l-99 72q61 110 63 234v94h168v-76q0 -94 -36.5 -183t-95.5 -141z" />
<glyph unicode="&#x21a;" horiz-adv-x="1066" d="M1008 1298h-383v-1298h-183v1298h-382v158h948v-158zM486 -513l-99 72q61 110 63 234v94h168v-76q0 -94 -36.5 -183t-95.5 -141z" />
<glyph unicode="&#x21b;" horiz-adv-x="605" d="M364 1344v-262h163v-143h-163v-671q0 -64 21 -97t72 -33q35 0 71 12l-2 -150q-60 -20 -123 -20q-105 0 -160 75t-55 212v672h-165v143h165v262h176zM357 -513l-99 72q61 110 63 234v94h168v-76q0 -94 -36.5 -183t-95.5 -141z" />
<glyph unicode="&#x237;" horiz-adv-x="487" d="M339 1082v-1171q0 -170 -73 -259t-204 -89q-50 0 -93 18l12 147q10 -5 39.5 -9t41.5 -4q100 0 100 212v1155h177z" />
<glyph unicode="&#x259;" horiz-adv-x="954" d="M451 1103q190 0 304 -148.5t114 -399.5v-37q0 -151 -54 -276t-146 -194t-190 -67q-180 0 -277.5 125t-97.5 362v116h588q-4 171 -68 269.5t-173 98.5q-153 0 -254 -108l-68 125q112 134 322 134zM479 132q76 0 133.5 81t74.5 220h-406v-26q0 -128 52.5 -201.5 t145.5 -73.5z" />
<glyph unicode="&#x2bc;" horiz-adv-x="398" d="M155 1046l-99 72q78 131 81 272v146h175v-135q-2 -96 -44.5 -194.5t-112.5 -160.5z" />
<glyph unicode="&#x2c6;" horiz-adv-x="877" d="M689 1262v-10h-142l-120 170l-120 -170h-142v12l209 272h105z" />
<glyph unicode="&#x2c7;" horiz-adv-x="827" d="M406 1365l119 170h152v-10l-219 -274h-104l-216 274v10h148z" />
<glyph unicode="&#x2c9;" horiz-adv-x="849" d="M739 1313h-614v143h614v-143z" />
<glyph unicode="&#x2d8;" horiz-adv-x="874" d="M728 1495q0 -121 -82.5 -194.5t-216.5 -73.5t-217 74t-83 194h151q0 -70 38 -109.5t111 -39.5q70 0 109.5 39t39.5 110h150z" />
<glyph unicode="&#x2d9;" horiz-adv-x="497" d="M141 1367q0 45 27.5 76t81.5 31t82 -31t28 -76t-28 -75t-82 -30t-81.5 30t-27.5 75z" />
<glyph unicode="&#x2da;" horiz-adv-x="685" d="M551 1408q0 -87 -62 -145.5t-153 -58.5q-92 0 -153.5 59t-61.5 145t61.5 147t153.5 61t153.5 -61t61.5 -147zM220 1408q0 -47 33.5 -81t82.5 -34q48 0 82 33t34 82t-33.5 83.5t-82.5 34.5q-50 0 -83 -35t-33 -83z" />
<glyph unicode="&#x2db;" horiz-adv-x="519" d="M352 0q-79 -70 -110 -121.5t-31 -100.5q0 -72 63 -72q38 0 83 26l10 -121q-62 -44 -140 -44q-77 0 -122.5 51.5t-45.5 138.5q0 186 225 299z" />
<glyph unicode="&#x2dc;" horiz-adv-x="875" d="M733 1500q0 -105 -52 -173.5t-134 -68.5q-35 0 -60 10.5t-65 41t-58 37t-41 6.5q-34 0 -56.5 -32t-22.5 -80l-115 7q0 109 53 178t132 69q30 0 54 -11.5t60.5 -37.5t59.5 -36.5t50 -10.5q34 0 57 32.5t23 80.5z" />
<glyph unicode="&#x2dd;" horiz-adv-x="679" d="M519 1535h194l-223 -303h-157zM224 1535h185l-179 -303h-139z" />
<glyph unicode="&#x2f3;" horiz-adv-x="539" d="M116 -242q0 73 45 120t107 47t105 -47t43 -120q0 -71 -42 -117t-106 -46q-65 0 -108.5 46.5t-43.5 116.5zM193 -242q0 -35 22.5 -59t52.5 -24q29 0 50 24t21 59q0 36 -21 61t-50 25q-30 0 -52.5 -25t-22.5 -61z" />
<glyph unicode="&#x300;" horiz-adv-x="40" d="M-342 1240h-149l-227 294h213z" />
<glyph unicode="&#x301;" horiz-adv-x="40" d="M-382 1534h213l-237 -294h-139z" />
<glyph unicode="&#x303;" horiz-adv-x="40" d="M-129 1500q0 -105 -52 -173.5t-134 -68.5q-35 0 -60 10.5t-65 41t-58 37t-41 6.5q-34 0 -56.5 -32t-22.5 -80l-115 7q0 109 53 178t132 69q30 0 54 -11.5t60.5 -37.5t59.5 -36.5t50 -10.5q34 0 57 32.5t23 80.5z" />
<glyph unicode="&#x309;" horiz-adv-x="40" d="M-536 1241l-1 153q59 4 86.5 19.5t27.5 54.5q0 78 -128 78l6 106q129 0 193 -51.5t64 -136.5q0 -64 -32.5 -103t-90.5 -49l-1 -71h-124z" />
<glyph unicode="&#x30f;" horiz-adv-x="40" d="M-394 1252h-158l-258 266h212zM-169 1252h-139l-206 266h194z" />
<glyph unicode="&#x323;" horiz-adv-x="0" d="M-712 -245q0 45 27.5 76t81.5 31t82 -31t28 -76t-28 -75t-82 -30t-81.5 30t-27.5 75z" />
<glyph unicode="&#x384;" horiz-adv-x="525" d="M237 1599h174l-116 -337h-112z" />
<glyph unicode="&#x385;" horiz-adv-x="927" d="M426 1672h176l-94 -264h-126zM202 1477q51 0 76 -30.5t25 -75.5t-25 -75t-76 -30q-50 0 -75 30t-25 75t25 75.5t75 30.5zM598 1369q0 44 25 75.5t75 31.5t75.5 -31t25.5 -76t-25.5 -75t-75.5 -30q-51 0 -75.5 30t-24.5 75z" />
<glyph unicode="&#x386;" horiz-adv-x="1180" d="M836 380h-492l-113 -380h-188l469 1456h157l470 -1456h-188zM392 538h397l-199 662zM217 1599h174l-116 -337h-112z" />
<glyph unicode="&#x387;" horiz-adv-x="499" d="M138 729q0 48 26.5 80t79.5 32t80 -32t27 -80q0 -47 -27 -78.5t-80 -31.5t-79.5 31.5t-26.5 78.5z" />
<glyph unicode="&#x388;" horiz-adv-x="1117" d="M955 673h-515v-516h600v-157h-783v1456h773v-158h-590v-468h515v-157zM-47 1599h174l-116 -337h-112z" />
<glyph unicode="&#x389;" horiz-adv-x="1370" d="M1210 0h-184v673h-586v-673h-183v1456h183v-626h586v626h184v-1456zM-35 1601h174l-116 -337h-112z" />
<glyph unicode="&#x38a;" horiz-adv-x="612" d="M448 0h-183v1456h183v-1456zM-33 1600h174l-116 -337h-112z" />
<glyph unicode="&#x38c;" horiz-adv-x="1250" d="M1124 600q0 -298 -127 -459t-361 -161q-225 0 -355.5 156.5t-135.5 442.5v274q0 292 129 457.5t360 165.5q230 0 358.5 -158.5t131.5 -452.5v-265zM941 855q0 231 -75.5 343.5t-231.5 112.5q-151 0 -228.5 -114t-78.5 -336v-261q0 -223 77.5 -340t231.5 -117t228 108 t77 331v273zM27 1599h174l-116 -337h-112z" />
<glyph unicode="&#x38e;" horiz-adv-x="1174" d="M636 725l298 731h207l-414 -913v-543h-183v543l-414 913h208zM-150 1599h174l-116 -337h-112z" />
<glyph unicode="&#x38f;" horiz-adv-x="1211" d="M655 162q113 27 174.5 164.5t63.5 383.5v131q0 229 -76.5 353t-212.5 124q-134 0 -210.5 -124t-76.5 -354v-114q0 -257 64 -397.5t180 -166.5v-162h-423v157h185q-87 97 -139.5 248.5t-52.5 319.5v114q0 186 59 331t167.5 225.5t246.5 80.5q137 0 245.5 -79t169 -225 t60.5 -332v-114q0 -168 -52.5 -320t-139.5 -249h183v-157h-415v162zM27 1599h174l-116 -337h-112z" />
<glyph unicode="&#x390;" horiz-adv-x="613" d="M364 1082v-819q3 -117 93 -117q46 0 70 12l-1 -151q-57 -19 -125 -19q-103 0 -158 73t-55 214v807h176zM257 1652h176l-94 -264h-126zM33 1457q51 0 76 -30.5t25 -75.5t-25 -75t-76 -30q-50 0 -75 30t-25 75t25 75.5t75 30.5zM429 1349q0 44 25 75.5t75 31.5t75.5 -31 t25.5 -76t-25.5 -75t-75.5 -30q-51 0 -75.5 30t-24.5 75z" />
<glyph unicode="&#x391;" horiz-adv-x="1180" d="M836 380h-492l-113 -380h-188l469 1456h157l470 -1456h-188zM392 538h397l-199 662z" />
<glyph unicode="&#x392;" horiz-adv-x="1117" d="M157 0v1456h415q199 0 299.5 -97t100.5 -291q0 -102 -51 -180t-138 -121q100 -30 158.5 -123t58.5 -224q0 -196 -107.5 -308t-306.5 -112h-429zM340 681v-524h250q104 0 165 68.5t61 192.5q0 263 -222 263h-254zM340 835h235q95 0 153.5 64t58.5 170q0 120 -53 174.5 t-162 54.5h-232v-463z" />
<glyph unicode="&#x393;" horiz-adv-x="999" d="M923 1298h-573v-1298h-184v1456h757v-158z" />
<glyph unicode="&#x394;" horiz-adv-x="1258" d="M558 1456h160l480 -1456h-1156zM283 157h677l-325 1028z" />
<glyph unicode="&#x2206;" horiz-adv-x="1258" d="M558 1456h160l480 -1456h-1156zM283 157h677l-325 1028z" />
<glyph unicode="&#x395;" horiz-adv-x="1017" d="M855 673h-515v-516h600v-157h-783v1456h773v-158h-590v-468h515v-157z" />
<glyph unicode="&#x396;" horiz-adv-x="1070" d="M294 157h691v-157h-894v144l663 1154h-656v158h860v-141z" />
<glyph unicode="&#x397;" horiz-adv-x="1270" d="M1110 0h-184v673h-586v-673h-183v1456h183v-626h586v626h184v-1456z" />
<glyph unicode="&#x398;" horiz-adv-x="1215" d="M825 659h-423v152h423v-152zM1097 681q0 -214 -62 -374.5t-174 -243.5t-260 -83q-146 0 -258.5 84t-176 242.5t-64.5 365.5v101q0 208 61 368t174.5 247.5t261.5 87.5t261 -84.5t174.5 -242.5t62.5 -368v-100zM915 775q0 256 -82.5 396t-233.5 140q-144 0 -228.5 -138.5 t-86.5 -385.5v-106q0 -249 84 -393.5t233 -144.5q150 0 232 138.5t82 399.5v94z" />
<glyph unicode="&#x399;" horiz-adv-x="512" d="M348 0h-183v1456h183v-1456z" />
<glyph unicode="&#x39a;" horiz-adv-x="1116" d="M483 671l-143 -173v-498h-183v1456h183v-703l120 159l392 544h220l-473 -641l510 -815h-219z" />
<glyph unicode="&#x39b;" horiz-adv-x="1172" d="M581 1135l-328 -1135h-197l445 1456h161l446 -1456h-198z" />
<glyph unicode="&#x39c;" horiz-adv-x="1547" d="M393 1456l380 -1188l380 1188h236v-1456h-183v567l17 568l-381 -1135h-140l-379 1131l17 -564v-567h-183v1456h236z" />
<glyph unicode="&#x39d;" horiz-adv-x="1268" d="M1108 0h-184l-583 1122v-1122h-184v1456h184l585 -1127v1127h182v-1456z" />
<glyph unicode="&#x39e;" horiz-adv-x="1030" d="M122 157h792v-157h-792v157zM192 831h645v-157h-645v157zM123 1456h781v-158h-781v158z" />
<glyph unicode="&#x39f;" horiz-adv-x="1230" d="M1104 600q0 -298 -127 -459t-361 -161q-225 0 -355.5 156.5t-135.5 442.5v274q0 292 129 457.5t360 165.5q230 0 358.5 -158.5t131.5 -452.5v-265zM921 855q0 231 -75.5 343.5t-231.5 112.5q-151 0 -228.5 -114t-78.5 -336v-261q0 -223 77.5 -340t231.5 -117t228 108 t77 331v273z" />
<glyph unicode="&#x3a0;" horiz-adv-x="1271" d="M1103 0h-184v1298h-570v-1298h-183v1456h937v-1456z" />
<glyph unicode="&#x3a1;" horiz-adv-x="1135" d="M340 570v-570h-183v1456h464q203 0 319 -121.5t116 -323.5q0 -210 -110.5 -323.5t-311.5 -117.5h-294zM340 727h281q122 0 187 73t65 209q0 131 -67 210t-184 79h-282v-571z" />
<glyph unicode="&#x3a3;" horiz-adv-x="1030" d="M669 718l-375 -561h650v-157h-864v143l393 586l-393 583v144h825v-158h-609l373 -556v-24z" />
<glyph unicode="&#x3a4;" horiz-adv-x="1066" d="M1008 1298h-383v-1298h-183v1298h-382v158h948v-158z" />
<glyph unicode="&#x3a5;" horiz-adv-x="1074" d="M536 725l298 731h207l-414 -913v-543h-183v543l-414 913h208z" />
<glyph unicode="&#x3a6;" horiz-adv-x="1273" d="M733 1271q130 0 237 -70t167.5 -196t60.5 -281q0 -156 -61 -282.5t-167 -196.5t-237 -70v-175h-185v175q-203 0 -335 154t-132 393q0 238 131.5 393.5t335.5 155.5v185h185v-185zM548 334v778h-6q-132 0 -205.5 -105t-73.5 -285q0 -179 73 -283.5t212 -104.5zM733 1112 v-778h4q132 0 205.5 105t73.5 285q0 178 -73.5 283t-209.5 105z" />
<glyph unicode="&#x3a7;" horiz-adv-x="1128" d="M566 898l274 558h215l-379 -722l387 -734h-217l-280 568l-281 -568h-217l389 734l-381 722h214z" />
<glyph unicode="&#x3a8;" horiz-adv-x="1229" d="M691 525q119 27 186 132t68 269v530h184v-529q0 -156 -54.5 -279t-154 -196t-229.5 -89v-363h-184v363q-197 28 -309.5 179t-112.5 387v527h183v-526q0 -163 63.5 -268.5t175.5 -134.5v929h184v-931z" />
<glyph unicode="&#x3a9;" horiz-adv-x="1191" d="M635 162q113 27 174.5 164.5t63.5 383.5v131q0 229 -76.5 353t-212.5 124q-134 0 -210.5 -124t-76.5 -354v-114q0 -257 64 -397.5t180 -166.5v-162h-423v157h185q-87 97 -139.5 248.5t-52.5 319.5v114q0 186 59 331t167.5 225.5t246.5 80.5q137 0 245.5 -79t169 -225 t60.5 -332v-114q0 -168 -52.5 -320t-139.5 -249h183v-157h-415v162z" />
<glyph unicode="&#x2126;" horiz-adv-x="1191" d="M635 162q113 27 174.5 164.5t63.5 383.5v131q0 229 -76.5 353t-212.5 124q-134 0 -210.5 -124t-76.5 -354v-114q0 -257 64 -397.5t180 -166.5v-162h-423v157h185q-87 97 -139.5 248.5t-52.5 319.5v114q0 186 59 331t167.5 225.5t246.5 80.5q137 0 245.5 -79t169 -225 t60.5 -332v-114q0 -168 -52.5 -320t-139.5 -249h183v-157h-415v162z" />
<glyph unicode="&#x3aa;" horiz-adv-x="512" d="M348 0h-183v1456h183v-1456zM-65 1693q0 45 27.5 75.5t81.5 30.5t82 -30.5t28 -75.5t-28 -75t-82 -30t-81.5 30t-27.5 75zM365 1691q0 45 27.5 76t81.5 31t82 -31t28 -76t-28 -75t-82 -30t-81.5 30t-27.5 75z" />
<glyph unicode="&#x3ab;" horiz-adv-x="1074" d="M536 725l298 731h207l-414 -913v-543h-183v543l-414 913h208zM219 1681q0 45 27.5 75.5t81.5 30.5t82 -30.5t28 -75.5t-28 -75t-82 -30t-81.5 30t-27.5 75zM649 1679q0 45 27.5 76t81.5 31t82 -31t28 -76t-28 -75t-82 -30t-81.5 30t-27.5 75z" />
<glyph unicode="&#x3ac;" horiz-adv-x="1013" d="M874 1082v-793q1 -144 60 -144q14 0 24 5l21 -137q-43 -34 -110 -34q-120 0 -155 149q-91 -149 -258 -149q-163 0 -259.5 140.5t-96.5 401.5q0 267 96.5 424t260.5 157q163 0 254 -143l14 123h149zM277 500q0 -181 59 -275.5t166 -94.5q130 0 196 164v489 q-69 167 -195 167q-108 0 -167 -111t-59 -339zM530 1594h174l-116 -337h-112z" />
<glyph unicode="&#x3ad;" horiz-adv-x="964" d="M279 304q0 -76 56 -125.5t148 -49.5q86 0 145.5 55t59.5 136h176q0 -156 -107.5 -248t-273.5 -92q-171 0 -277 87.5t-106 236.5q0 186 173 252q-74 36 -115.5 97t-41.5 134q0 149 98 231.5t269 82.5q157 0 261.5 -89.5t104.5 -231.5h-176q0 71 -54 121t-136 50 q-88 0 -139 -46.5t-51 -118.5q0 -160 185 -160h171v-148h-186q-184 -3 -184 -174zM468 1593h174l-116 -337h-112z" />
<glyph unicode="&#x3ae;" horiz-adv-x="1021" d="M296 1082l10 -126q102 146 261 146q160 0 233 -98.5t75 -298.5v-1120h-176v1106q0 136 -42.5 197.5t-145.5 61.5q-134 0 -196 -150v-800h-178v1082h159zM491 1594h174l-116 -337h-112z" />
<glyph unicode="&#x3af;" horiz-adv-x="613" d="M364 1082v-819q3 -117 93 -117q46 0 70 12l-1 -151q-57 -19 -125 -19q-103 0 -158 73t-55 214v807h176zM268 1573h174l-116 -337h-112z" />
<glyph unicode="&#x3b0;" horiz-adv-x="985" d="M313 1082v-643q0 -309 157 -309q102 0 170.5 127.5t68.5 304.5q-5 229 -105 520h184q97 -234 97 -520q0 -265 -110 -423.5t-297 -158.5q-168 0 -254.5 112t-87.5 330v660h177zM452 1652h176l-94 -264h-126zM228 1457q51 0 76 -30.5t25 -75.5t-25 -75t-76 -30 q-50 0 -75 30t-25 75t25 75.5t75 30.5zM624 1349q0 44 25 75.5t75 31.5t75.5 -31t25.5 -76t-25.5 -75t-75.5 -30q-51 0 -75.5 30t-24.5 75z" />
<glyph unicode="&#x3b1;" horiz-adv-x="1013" d="M874 1082v-793q1 -144 60 -144q14 0 24 5l21 -137q-43 -34 -110 -34q-120 0 -155 149q-91 -149 -258 -149q-163 0 -259.5 140.5t-96.5 401.5q0 267 96.5 424t260.5 157q163 0 254 -143l14 123h149zM277 500q0 -181 59 -275.5t166 -94.5q130 0 196 164v489 q-69 167 -195 167q-108 0 -167 -111t-59 -339z" />
<glyph unicode="&#x3b2;" horiz-adv-x="1059" d="M532 1476q164 0 264.5 -109t100.5 -284q0 -91 -42.5 -167t-117.5 -123q101 -45 156 -142.5t55 -226.5q0 -203 -105 -323.5t-277 -120.5q-142 0 -240 83v-447h-177v1458q0 106 52 200t141.5 148t189.5 54zM721 1087q0 103 -53.5 170t-135.5 67q-86 0 -146 -70.5 t-60 -184.5v-835q75 -103 221 -103q102 0 163.5 78.5t61.5 210.5q0 118 -53 201.5t-136 84.5h-122v152h74q91 2 138.5 61.5t47.5 167.5z" />
<glyph unicode="&#x3b3;" horiz-adv-x="910" d="M464 311l218 771h179l-312 -1017v-481h-177v493l-313 1005h180z" />
<glyph unicode="&#x3b4;" horiz-adv-x="1021" d="M207 1269q0 138 86 216.5t235 78.5q112 0 224 -55l1 -160q-49 26 -114.5 42.5t-114.5 16.5q-66 0 -102.5 -36t-36.5 -98q0 -113 178.5 -187.5t264.5 -208.5t90 -331v-38q0 -236 -110.5 -382.5t-296.5 -146.5q-188 0 -298.5 146.5t-110.5 403.5q0 169 77 299.5t196 164.5 l-1 5q-77 39 -122 109t-45 161zM280 509q0 -176 61.5 -277.5t169.5 -101.5q106 0 167.5 99.5t61.5 300.5q0 139 -64.5 247.5t-165.5 132.5q-105 0 -167.5 -102t-62.5 -299z" />
<glyph unicode="&#x3b5;" horiz-adv-x="964" d="M279 304q0 -76 56 -125.5t148 -49.5q86 0 145.5 55t59.5 136h176q0 -156 -107.5 -248t-273.5 -92q-171 0 -277 87.5t-106 236.5q0 186 173 252q-74 36 -115.5 97t-41.5 134q0 149 98 231.5t269 82.5q157 0 261.5 -89.5t104.5 -231.5h-176q0 71 -54 121t-136 50 q-88 0 -139 -46.5t-51 -118.5q0 -160 185 -160h171v-148h-186q-184 -3 -184 -174z" />
<glyph unicode="&#x3b6;" horiz-adv-x="948" d="M841 1456v-120l-279 -427q-126 -181 -165.5 -290.5t-39.5 -232.5q0 -96 23 -143t81 -72l202 -67q75 -25 107 -69.5t32 -122.5q-2 -70 -48 -154.5t-105 -140.5l-92 84q76 98 76 183q0 68 -127 107l-71 22q-140 43 -197.5 124t-57.5 244q0 129 66 293t176 314l231 316h-530 v152h718z" />
<glyph unicode="&#x3b7;" horiz-adv-x="1021" d="M296 1082l10 -126q102 146 261 146q160 0 233 -98.5t75 -298.5v-1120h-176v1106q0 136 -42.5 197.5t-145.5 61.5q-134 0 -196 -150v-800h-178v1082h159z" />
<glyph unicode="&#x3b8;" horiz-adv-x="1017" d="M898 640q0 -321 -101.5 -490.5t-288.5 -169.5q-185 0 -287.5 168.5t-103.5 484.5v192q0 315 100.5 483t289.5 168q187 0 287 -162t104 -466v-208zM294 801h426v55q0 227 -54.5 347.5t-158.5 120.5q-103 0 -158 -120.5t-55 -347.5v-55zM720 649h-426v-39 q0 -222 55.5 -350.5t158.5 -128.5t157.5 125t54.5 355v38z" />
<glyph unicode="&#x3b9;" horiz-adv-x="613" d="M364 1082v-819q3 -117 93 -117q46 0 70 12l-1 -151q-57 -19 -125 -19q-103 0 -158 73t-55 214v807h176z" />
<glyph unicode="&#x3ba;" horiz-adv-x="1006" d="M400 461h-76v-461h-177v1082h177v-458h62l319 458h212l-379 -522l405 -560h-222z" />
<glyph unicode="&#x3bb;" horiz-adv-x="995" d="M242 1518q81 0 132 -41t79 -134l367 -1109q15 -51 31.5 -70.5t42.5 -19.5q21 0 31 3l4 -152q-33 -12 -69 -12q-85 0 -127.5 42t-77.5 140l-196 591l-215 -756h-197l324 1020l-86 244q-18 57 -38 79.5t-52 22.5l-40 -2l1 142q31 12 86 12z" />
<glyph unicode="&#x3bc;" horiz-adv-x="1021" d="M323 1082v-642q2 -159 41 -234.5t130 -75.5q147 0 202 134v818h178v-1082h-159l-8 102q-74 -122 -206 -122q-115 0 -178 67v-463h-176v1498h176z" />
<glyph unicode="&#x3bd;" horiz-adv-x="876" d="M439 269l205 813h180l-321 -1082h-132l-325 1082h180z" />
<glyph unicode="&#x3be;" horiz-adv-x="883" d="M754 1288q-108 36 -185 36q-112 0 -176.5 -51.5t-64.5 -136.5q0 -219 267 -219h115v-152h-125q-154 -1 -231.5 -78.5t-77.5 -242.5q0 -110 55 -189t157 -113l80 -22q117 -32 159.5 -58t63 -64.5t20.5 -98.5q0 -65 -44.5 -149t-106.5 -143l-102 84q54 67 69.5 103t15.5 83 q0 39 -30 61t-131 50.5t-166 59.5q-217 103 -217 400q0 151 72 250.5t195 143.5q-101 42 -158 118t-57 172q0 159 110.5 251.5t305.5 92.5q128 0 213 -39z" />
<glyph unicode="&#x3bf;" d="M95 591q0 236 114.5 373.5t302.5 137.5t302.5 -134t117.5 -365v-114q0 -235 -114 -372t-304 -137q-188 0 -301.5 133t-117.5 360v118zM272 489q0 -167 65.5 -262.5t176.5 -95.5q234 0 241 338v122q0 166 -66 262.5t-177 96.5q-109 0 -174.5 -96.5t-65.5 -261.5v-103z" />
<glyph unicode="&#x3c0;" horiz-adv-x="1065" d="M976 929h-121v-654q0 -66 21 -97.5t72 -31.5q45 0 69 12v-151q-57 -19 -125 -19q-105 0 -159 74t-55 208v659h-313v-929h-176v929h-138v153h925v-153z" />
<glyph unicode="&#x3c1;" horiz-adv-x="1021" d="M517 1102q188 0 293 -153t105 -449q0 -237 -93 -378.5t-257 -141.5q-155 0 -250 107v-503h-178v997q0 156 48.5 274.5t135.5 182.5t196 64zM315 265q65 -134 195 -134q108 0 168.5 96.5t60.5 293.5q0 208 -58 318.5t-164 110.5q-90 0 -146 -109t-56 -276v-300z" />
<glyph unicode="&#x3c2;" horiz-adv-x="967" d="M501 1102q162 0 259.5 -106t97.5 -287h-166q0 114 -51 177.5t-140 63.5q-103 0 -163 -108.5t-60 -289.5v-32q0 -262 256 -359l121 -41q79 -28 114.5 -76t35.5 -126q-2 -66 -47 -150t-106 -142l-92 85q50 65 63 100.5t13 83.5q0 45 -31.5 66.5t-99.5 39.5 q-383 99 -403 474l-1 87q0 152 50 277t141 194t209 69z" />
<glyph unicode="&#x3c3;" horiz-adv-x="1021" d="M988 929h-232q162 -150 162 -420v-18q0 -140 -52.5 -259.5t-145 -185.5t-210.5 -66q-185 0 -296.5 151.5t-111.5 404.5v15q0 236 111 383.5t298 147.5h477v-153zM279 529q0 -182 61 -290t170 -108t170 107t61 313q0 172 -61 275t-172 103q-109 0 -169 -103t-60 -297z" />
<glyph unicode="&#x3c4;" horiz-adv-x="944" d="M852 932h-301v-663q0 -133 76 -133q39 0 74 26l41 -130q-68 -52 -164 -52q-198 0 -204 279v673h-285v150h763v-150z" />
<glyph unicode="&#x3c5;" horiz-adv-x="985" d="M313 1082v-643q0 -309 157 -309q102 0 170.5 127.5t68.5 304.5q-5 229 -105 520h184q97 -234 97 -520q0 -265 -110 -423.5t-297 -158.5q-168 0 -254.5 112t-87.5 330v660h177z" />
<glyph unicode="&#x3c6;" horiz-adv-x="1265" d="M536 -16q-215 24 -333 175t-118 405q0 349 214 518l97 -133q-124 -131 -134 -385q0 -171 74 -284.5t200 -140.5v714q0 106 60 167.5t163 61.5q112 0 209 -70.5t154 -195t57 -272.5q0 -242 -121 -388.5t-346 -171.5v-462h-176v462zM712 138q135 25 212.5 133.5t77.5 272.5 q-5 172 -71 278.5t-172 106.5q-47 0 -47 -78v-713z" />
<glyph unicode="&#x3c7;" horiz-adv-x="899" d="M445 687l185 395h205l-294 -535l301 -547h-203l-191 405l-192 -405h-204l301 547l-293 535h203z" />
<glyph unicode="&#x3c8;" horiz-adv-x="1255" d="M703 1082v-944q134 27 212 142.5t78 286.5q-5 231 -102 515h183q96 -232 96 -515q0 -258 -120.5 -409t-346.5 -174v-456h-176v458q-216 28 -326 182t-110 427v487h178v-483q0 -400 258 -460v943h176z" />
<glyph unicode="&#x3c9;" horiz-adv-x="1457" d="M415 1082q-114 -279 -121 -522q0 -206 44 -318t126 -112q81 0 126 82t47 245v313h178v-307q1 -165 46 -249t127 -84t126 111.5t44 318.5q-7 243 -121 522h185q112 -239 112 -522q0 -281 -87.5 -430.5t-248.5 -149.5q-201 0 -272 233q-71 -233 -272 -233 q-161 0 -248.5 149.5t-87.5 430.5q0 288 112 522h185z" />
<glyph unicode="&#x3ca;" horiz-adv-x="613" d="M364 1082v-819q3 -117 93 -117q46 0 70 12l-1 -151q-57 -19 -125 -19q-103 0 -158 73t-55 214v807h176zM-37 1351q0 45 27.5 75.5t81.5 30.5t82 -30.5t28 -75.5t-28 -75t-82 -30t-81.5 30t-27.5 75zM393 1349q0 45 27.5 76t81.5 31t82 -31t28 -76t-28 -75t-82 -30 t-81.5 30t-27.5 75z" />
<glyph unicode="&#x3cb;" horiz-adv-x="985" d="M313 1082v-643q0 -309 157 -309q102 0 170.5 127.5t68.5 304.5q-5 229 -105 520h184q97 -234 97 -520q0 -265 -110 -423.5t-297 -158.5q-168 0 -254.5 112t-87.5 330v660h177zM158 1351q0 45 27.5 75.5t81.5 30.5t82 -30.5t28 -75.5t-28 -75t-82 -30t-81.5 30t-27.5 75z M588 1349q0 45 27.5 76t81.5 31t82 -31t28 -76t-28 -75t-82 -30t-81.5 30t-27.5 75z" />
<glyph unicode="&#x3cc;" d="M95 591q0 236 114.5 373.5t302.5 137.5t302.5 -134t117.5 -365v-114q0 -235 -114 -372t-304 -137q-188 0 -301.5 133t-117.5 360v118zM272 489q0 -167 65.5 -262.5t176.5 -95.5q234 0 241 338v122q0 166 -66 262.5t-177 96.5q-109 0 -174.5 -96.5t-65.5 -261.5v-103z M489 1594h174l-116 -337h-112z" />
<glyph unicode="&#x3cd;" horiz-adv-x="985" d="M313 1082v-643q0 -309 157 -309q102 0 170.5 127.5t68.5 304.5q-5 229 -105 520h184q97 -234 97 -520q0 -265 -110 -423.5t-297 -158.5q-168 0 -254.5 112t-87.5 330v660h177zM464 1573h174l-116 -337h-112z" />
<glyph unicode="&#x3ce;" horiz-adv-x="1457" d="M415 1082q-114 -279 -121 -522q0 -206 44 -318t126 -112q81 0 126 82t47 245v313h178v-307q1 -165 46 -249t127 -84t126 111.5t44 318.5q-7 243 -121 522h185q112 -239 112 -522q0 -281 -87.5 -430.5t-248.5 -149.5q-201 0 -272 233q-71 -233 -272 -233 q-161 0 -248.5 149.5t-87.5 430.5q0 288 112 522h185zM713 1570h174l-116 -337h-112z" />
<glyph unicode="&#x3d1;" horiz-adv-x="1039" d="M983 627q-53 -24 -113 -31v-172q-3 -208 -100 -326t-267 -118q-172 0 -277 120.5t-108 324.5v344l177 2v-336q0 -143 55 -220.5t153 -77.5q90 0 140.5 72.5t50.5 225.5v168q-185 39 -294 180.5t-109 347.5q0 160 79.5 253.5t211.5 93.5q135 0 211.5 -98t76.5 -277v-350 q60 9 107 23zM469 1114q0 -122 60.5 -216.5t164.5 -129.5v356q-4 196 -112 196q-110 0 -113 -180v-26z" />
<glyph unicode="&#x3d2;" horiz-adv-x="953" d="M478 799l193 503q35 90 77 128t110 38q59 0 108 -27l-33 -151q-11 8 -38 8q-51 0 -72 -79l-254 -644v-575h-183v577l-252 642q-22 79 -72 79q-29 0 -40 -8l-31 150q49 28 107 28q74 0 120 -46t79 -140z" />
<glyph unicode="&#x3d6;" horiz-adv-x="1390" d="M1330 929h-112q53 -180 53 -369q0 -279 -78.5 -429.5t-222.5 -150.5q-200 0 -271 233q-69 -233 -270 -233q-146 0 -223.5 151t-77.5 429q0 189 53 369h-93v153h1242v-153zM1093 560q-4 172 -65 369h-658q-61 -197 -65 -369q0 -208 35 -319t98 -111q81 0 126 82t47 245 v265h178v-241q0 -351 173 -351q63 0 97 112t34 318z" />
<glyph unicode="&#x400;" horiz-adv-x="1017" d="M855 673h-515v-516h600v-157h-783v1456h773v-158h-590v-468h515v-157zM646 1562h-159l-258 294h223z" />
<glyph unicode="&#x401;" horiz-adv-x="1017" d="M855 673h-515v-516h600v-157h-783v1456h773v-158h-590v-468h515v-157zM219 1693q0 45 27.5 75.5t81.5 30.5t82 -30.5t28 -75.5t-28 -75t-82 -30t-81.5 30t-27.5 75zM649 1691q0 45 27.5 76t81.5 31t82 -31t28 -76t-28 -75t-82 -30t-81.5 30t-27.5 75z" />
<glyph unicode="&#x402;" horiz-adv-x="1333" d="M1003 1298h-424v-452q133 45 229 45q209 0 325.5 -119t116.5 -339q0 -215 -111 -329.5t-313 -114.5l-2 150q123 0 182.5 69.5t59.5 223.5q-4 292 -259 292q-115 0 -228 -42v-682h-185v1298h-343v158h952v-158z" />
<glyph unicode="&#x403;" horiz-adv-x="999" d="M923 1298h-573v-1298h-184v1456h757v-158zM638 1856h224l-268 -294h-149z" />
<glyph unicode="&#x404;" horiz-adv-x="1208" d="M1074 462q-23 -234 -144 -358t-325 -124q-217 0 -350.5 183t-134.5 488v148q0 201 61 355.5t175.5 238t265.5 83.5q195 0 312.5 -126t139.5 -362h-184q-21 179 -86 254.5t-182 75.5q-150 0 -233 -132.5t-85 -372.5h467v-157h-467v-2q0 -243 78.5 -380t222.5 -137 q128 0 194 70t90 255h185z" />
<glyph unicode="&#x405;" horiz-adv-x="1061" d="M793 368q0 109 -59 167t-213 113t-235.5 115.5t-122 138t-40.5 177.5q0 173 115.5 285t302.5 112q128 0 228 -57.5t154 -159.5t54 -224h-184q0 135 -65 209t-187 74q-111 0 -172 -62t-61 -174q0 -92 66 -154t204 -111q215 -71 307.5 -175t92.5 -272q0 -177 -115 -283.5 t-313 -106.5q-127 0 -234.5 55.5t-169 156t-61.5 230.5h184q0 -135 75.5 -210t205.5 -75q121 0 182 62t61 169z" />
<glyph unicode="&#x406;" horiz-adv-x="512" d="M348 0h-183v1456h183v-1456z" />
<glyph unicode="&#x407;" horiz-adv-x="512" d="M348 0h-183v1456h183v-1456zM-65 1693q0 45 27.5 75.5t81.5 30.5t82 -30.5t28 -75.5t-28 -75t-82 -30t-81.5 30t-27.5 75zM365 1691q0 45 27.5 76t81.5 31t82 -31t28 -76t-28 -75t-82 -30t-81.5 30t-27.5 75z" />
<glyph unicode="&#x408;" horiz-adv-x="990" d="M659 1456h184v-1031q0 -209 -106.5 -327t-286.5 -118q-185 0 -288 112t-103 310h183q0 -125 55 -195t153 -70q95 0 152 76t57 213v1030z" />
<glyph unicode="&#x409;" horiz-adv-x="1892" d="M1098 891h293q126 0 221 -55.5t145.5 -156.5t50.5 -234q0 -202 -113 -323t-304 -122h-477v1298h-413l-22 -612q-12 -268 -51 -409t-114 -208t-197 -69h-57v157l35 2q72 6 112 53.5t61.5 151t30.5 323.5l26 769h773v-565zM1098 733v-576h291q110 0 173 80t63 210 q0 127 -61.5 205.5t-167.5 80.5h-298z" />
<glyph unicode="&#x40a;" horiz-adv-x="1899" d="M350 825h569v631h184v-610h289q198 0 309.5 -113t111.5 -305q0 -194 -112 -311t-310 -117h-472v668h-569v-668h-184v1456h184v-631zM1103 689v-523h292q111 0 173 72t62 192q0 115 -60 186t-168 73h-299z" />
<glyph unicode="&#x40b;" horiz-adv-x="1445" d="M1024 1298h-433v-428q121 36 269 36q209 0 312 -107.5t107 -325.5v-473h-185v463q-1 153 -54 219t-180 66q-128 0 -269 -38v-710h-184v1298h-332v158h949v-158z" />
<glyph unicode="&#x40c;" horiz-adv-x="1116" d="M483 671l-143 -173v-498h-183v1456h183v-703l120 159l392 544h220l-473 -641l510 -815h-219zM619 1838h224l-268 -294h-149z" />
<glyph unicode="&#x40d;" horiz-adv-x="1268" d="M916 1456h183v-1456h-183v1122l-567 -1122h-184v1456h184v-1122zM741 1562h-159l-258 294h223z" />
<glyph unicode="&#x40e;" horiz-adv-x="1122" d="M578 640l260 816h212l-419 -1213q-46 -117 -82.5 -164.5t-87.5 -73.5t-128 -26q-69 0 -87 9l4 152l79 -4q80 0 115 97l48 143l-400 1080h204zM863 1818q0 -121 -82.5 -194.5t-216.5 -73.5t-217 74t-83 194h151q0 -70 38 -109.5t111 -39.5q70 0 109.5 39t39.5 110h150z " />
<glyph unicode="&#x40f;" horiz-adv-x="1272" d="M165 1456h184v-1299h569v1299h184v-1456h-370v-359h-185v359h-382v1456z" />
<glyph unicode="&#x410;" horiz-adv-x="1180" d="M836 380h-492l-113 -380h-188l469 1456h157l470 -1456h-188zM392 538h397l-199 662z" />
<glyph unicode="&#x411;" horiz-adv-x="1126" d="M908 1298h-573v-436h294q196 -1 307 -114.5t111 -312.5q0 -200 -112.5 -317.5t-311.5 -117.5h-472v1456h757v-158zM335 704v-547h292q112 0 174 77t62 203q0 124 -61.5 195.5t-173.5 71.5h-293z" />
<glyph unicode="&#x412;" horiz-adv-x="1117" d="M157 0v1456h415q199 0 299.5 -97t100.5 -291q0 -102 -51 -180t-138 -121q100 -30 158.5 -123t58.5 -224q0 -196 -107.5 -308t-306.5 -112h-429zM340 681v-524h250q104 0 165 68.5t61 192.5q0 263 -222 263h-254zM340 835h235q95 0 153.5 64t58.5 170q0 120 -53 174.5 t-162 54.5h-232v-463z" />
<glyph unicode="&#x413;" horiz-adv-x="999" d="M923 1298h-573v-1298h-184v1456h757v-158z" />
<glyph unicode="&#x414;" horiz-adv-x="1352" d="M1114 157h171l-2 -514h-183v357h-860v-358h-184l-1 515h107q70 89 114.5 268t56.5 400l28 631h753v-1299zM357 157h573v1141h-391l-21 -470q-12 -231 -55 -398.5t-106 -272.5z" />
<glyph unicode="&#x415;" horiz-adv-x="1017" d="M855 673h-515v-516h600v-157h-783v1456h773v-158h-590v-468h515v-157z" />
<glyph unicode="&#x416;" horiz-adv-x="1620" d="M1040 664h-127v-664h-184v664h-135l-322 -664h-228l403 773l-371 683h216l302 -632h135v632h184v-632h128l302 632h215l-370 -682l402 -774h-227z" />
<glyph unicode="&#x417;" horiz-adv-x="1060" d="M769 1065q0 117 -66.5 185t-184.5 68q-100 0 -166.5 -70t-66.5 -175h-183q0 179 119 291t297 112q207 0 321 -110t114 -304q0 -101 -53 -184t-146 -131q217 -87 217 -341q0 -198 -124.5 -312t-328.5 -114q-88 0 -169.5 28.5t-142.5 86.5q-122 115 -122 309h183 q0 -114 70.5 -191t180.5 -77q123 0 196.5 72.5t73.5 193.5q0 254 -243 261h-150v158h137q116 0 176.5 63t60.5 181z" />
<glyph unicode="&#x418;" horiz-adv-x="1268" d="M916 1456h183v-1456h-183v1122l-567 -1122h-184v1456h184v-1122z" />
<glyph unicode="&#x419;" horiz-adv-x="1268" d="M916 1456h183v-1456h-183v1122l-567 -1122h-184v1456h184v-1122zM935 1818q0 -121 -82.5 -194.5t-216.5 -73.5t-217 74t-83 194h151q0 -70 38 -109.5t111 -39.5q70 0 109.5 39t39.5 110h150z" />
<glyph unicode="&#x41a;" horiz-adv-x="1148" d="M487 654h-138v-654h-183v1456h183v-642h112l410 642h228l-462 -704l496 -752h-224z" />
<glyph unicode="&#x41b;" horiz-adv-x="1261" d="M1093 1456v-1456h-184v1298h-407l-22 -612q-12 -268 -51 -409t-114 -208t-197 -69h-56v157l34 2q73 6 114 56.5t62 160.5t30 336l24 744h767z" />
<glyph unicode="&#x41c;" horiz-adv-x="1547" d="M393 1456l380 -1188l380 1188h236v-1456h-183v567l17 568l-381 -1135h-140l-379 1131l17 -564v-567h-183v1456h236z" />
<glyph unicode="&#x41d;" horiz-adv-x="1270" d="M1110 0h-184v673h-586v-673h-183v1456h183v-626h586v626h184v-1456z" />
<glyph unicode="&#x41e;" horiz-adv-x="1230" d="M1104 600q0 -298 -127 -459t-361 -161q-225 0 -355.5 156.5t-135.5 442.5v274q0 292 129 457.5t360 165.5q230 0 358.5 -158.5t131.5 -452.5v-265zM921 855q0 231 -75.5 343.5t-231.5 112.5q-151 0 -228.5 -114t-78.5 -336v-261q0 -223 77.5 -340t231.5 -117t228 108 t77 331v273z" />
<glyph unicode="&#x41f;" horiz-adv-x="1271" d="M1103 0h-184v1298h-570v-1298h-183v1456h937v-1456z" />
<glyph unicode="&#x420;" horiz-adv-x="1135" d="M340 570v-570h-183v1456h464q203 0 319 -121.5t116 -323.5q0 -210 -110.5 -323.5t-311.5 -117.5h-294zM340 727h281q122 0 187 73t65 209q0 131 -67 210t-184 79h-282v-571z" />
<glyph unicode="&#x421;" horiz-adv-x="1161" d="M1070 462q-12 -234 -131.5 -358t-337.5 -124q-219 0 -348 166.5t-129 451.5v264q0 284 132.5 449t361.5 165q211 0 326.5 -126.5t125.5 -361.5h-185q-12 178 -75 254t-192 76q-149 0 -229 -116.5t-80 -341.5v-267q0 -221 74.5 -339t217.5 -118t206 71t78 255h185z" />
<glyph unicode="&#x422;" horiz-adv-x="1066" d="M1008 1298h-383v-1298h-183v1298h-382v158h948v-158z" />
<glyph unicode="&#x423;" horiz-adv-x="1122" d="M578 640l260 816h212l-419 -1213q-46 -117 -82.5 -164.5t-87.5 -73.5t-128 -26q-69 0 -87 9l4 152l79 -4q80 0 115 97l48 143l-400 1080h204z" />
<glyph unicode="&#x424;" horiz-adv-x="1386" d="M787 1310h25q135 -1 249.5 -77t178.5 -209.5t64 -298.5q0 -166 -64 -300.5t-178 -211t-251 -77.5h-24v-196h-177v196h-24q-138 0 -252 76t-178 211t-64 300q0 166 64.5 301t178 210.5t252.5 75.5h23v206h177v-206zM586 1159q-148 0 -233.5 -115t-85.5 -321 q0 -205 84 -319.5t233 -115.5h26v871h-24zM787 1159v-871h23q149 0 233.5 117t84.5 320q0 198 -82.5 314.5t-228.5 119.5h-30z" />
<glyph unicode="&#x425;" horiz-adv-x="1128" d="M566 898l274 558h215l-379 -722l387 -734h-217l-280 568l-281 -568h-217l389 734l-381 722h214z" />
<glyph unicode="&#x426;" horiz-adv-x="1309" d="M166 1456h184v-1299h569v1299h183v-1295h132l-18 -512h-164v351h-886v1456z" />
<glyph unicode="&#x427;" horiz-adv-x="1230" d="M1063 1456v-1456h-184v602q-152 -52 -323 -52q-209 0 -311 107t-106 326v473h184v-463q1 -153 54 -219t179 -66q157 0 323 53v695h184z" />
<glyph unicode="&#x428;" horiz-adv-x="1668" d="M350 1456v-1299h395v1299h182v-1299h392v1299h184v-1456h-1337v1456h184z" />
<glyph unicode="&#x429;" horiz-adv-x="1724" d="M350 1456v-1299h395v1299h182v-1299h392v1299h184v-1305h126l-18 -502h-156v351h-1289v1456h184z" />
<glyph unicode="&#x42a;" horiz-adv-x="1335" d="M42 1456h504v-594h290q198 0 309 -114t111 -313t-111.5 -317t-310.5 -118h-473v1304h-319v152zM546 704v-547h292q110 0 172 75.5t62 204.5q0 125 -60.5 195.5t-170.5 71.5h-295z" />
<glyph unicode="&#x42b;" horiz-adv-x="1547" d="M350 862h294q196 -1 307 -114.5t111 -312.5q0 -200 -112.5 -317.5t-311.5 -117.5h-471v1456h183v-594zM1373 0h-183v1456h183v-1456zM350 704v-547h292q112 0 174 77t62 203q0 124 -61.5 195.5t-173.5 71.5h-293z" />
<glyph unicode="&#x42c;" horiz-adv-x="1129" d="M335 862h294q196 -1 307 -114.5t111 -312.5q0 -200 -112.5 -317.5t-311.5 -117.5h-471v1456h183v-594zM335 704v-547h292q112 0 174 77t62 203q0 124 -61.5 195.5t-173.5 71.5h-293z" />
<glyph unicode="&#x42d;" horiz-adv-x="1208" d="M330 462q24 -188 90.5 -256.5t193.5 -68.5q140 0 219.5 131.5t81.5 378.5h-471v158h471q0 242 -84 377.5t-234 135.5q-118 0 -182 -76t-85 -254h-185q22 236 139.5 362t312.5 126q229 0 365.5 -184t136.5 -501v-137q0 -200 -59.5 -352.5t-170.5 -237t-255 -84.5 q-204 0 -325 124t-144 358h185z" />
<glyph unicode="&#x42e;" horiz-adv-x="1568" d="M1492 600q0 -298 -127 -459t-361 -161q-225 0 -355.5 156.5t-135.5 442.5v58h-164v-637h-183v1456h183v-668h164v74q1 191 60 330t168.5 211.5t260.5 72.5q230 0 358.5 -158.5t131.5 -452.5v-265zM1309 855q0 231 -75.5 343.5t-231.5 112.5q-151 0 -228.5 -114 t-78.5 -336v-261q0 -223 77.5 -340t231.5 -117t228 108t77 331v273z" />
<glyph unicode="&#x42f;" horiz-adv-x="1152" d="M792 0v567h-252l-251 -567h-195l285 623q-238 111 -238 394q0 205 114.5 321.5t320.5 117.5h400v-1456h-184zM325 1017q0 -132 66 -211.5t185 -81.5h216v574h-214q-124 0 -188.5 -75t-64.5 -206z" />
<glyph unicode="&#x430;" horiz-adv-x="981" d="M689 0q-16 35 -23 118q-94 -138 -240 -138q-147 0 -229.5 82.5t-82.5 232.5q0 165 112 262t307 99h130v115q0 97 -43 138t-131 41q-80 0 -130 -47.5t-50 -120.5h-177q0 83 49 158.5t132 118.5t185 43q166 0 252.5 -82.5t88.5 -240.5v-546q1 -125 34 -217v-16h-184z M453 141q65 0 124 36t86 90v258h-100q-126 -2 -199 -56.5t-73 -152.5q0 -92 37 -133.5t125 -41.5z" />
<glyph unicode="&#x431;" horiz-adv-x="992" d="M544 1020q171 0 272 -135.5t101 -362.5v-15q0 -240 -112 -383.5t-296 -143.5t-296 145t-112 390v91q0 335 105 536.5t308 248.5q117 27 158.5 64t41.5 98h143l-1 -39q-12 -198 -190 -251l-122 -34q-132 -36 -202.5 -127t-91.5 -238q122 156 294 156zM508 868 q-106 0 -167.5 -90t-61.5 -271q0 -176 61 -276.5t169 -100.5t170 101t62 299q0 156 -62.5 247t-170.5 91z" />
<glyph unicode="&#x432;" horiz-adv-x="1031" d="M148 0v1082h363q186 0 284 -76t98 -221q0 -75 -39 -135t-114 -92q83 -22 133.5 -89t50.5 -162q0 -150 -93.5 -228.5t-264.5 -78.5h-418zM324 475v-326h244q179 0 179 164q0 162 -181 162h-242zM324 623h185q207 0 207 152q0 153 -195 157h-197v-309z" />
<glyph unicode="&#x433;" horiz-adv-x="760" d="M727 929h-403v-929h-178v1082h581v-153z" />
<glyph unicode="&#x434;" horiz-adv-x="1098" d="M130 151l53 76q86 132 99 389l15 466h604v-931h126v-469h-177v318h-615v-318h-178l1 469h72zM327 151h398v760h-256l-9 -264q-14 -316 -133 -496z" />
<glyph unicode="&#x435;" horiz-adv-x="959" d="M519 -20q-202 0 -310 120.5t-110 353.5v131q0 242 105.5 379.5t294.5 137.5q190 0 284 -121t96 -377v-116h-604v-25q0 -174 65.5 -253t188.5 -79q78 0 137.5 29.5t111.5 93.5l92 -112q-115 -162 -351 -162zM499 950q-110 0 -163 -75.5t-60 -234.5h426v24 q-7 154 -55.5 220t-147.5 66z" />
<glyph unicode="&#x436;" horiz-adv-x="1356" d="M867 470h-103v-470h-176v470h-103l-226 -470h-222l311 564l-284 518h213l210 -448h101v448h176v-448h99l213 448h213l-285 -519l311 -563h-223z" />
<glyph unicode="&#x437;" horiz-adv-x="914" d="M796 787q0 -73 -37 -134t-105 -97q159 -65 159 -252q0 -151 -98.5 -237t-259.5 -86q-159 0 -261.5 91.5t-102.5 247.5h175q0 -80 54 -136t135 -56q82 0 131.5 49t49.5 127q0 91 -40.5 130.5t-127.5 39.5h-162v156h174q140 5 140 156q0 76 -43.5 120.5t-120.5 44.5 q-75 0 -125.5 -50t-50.5 -121h-175q0 141 100 231t251 90q161 0 250.5 -82t89.5 -232z" />
<glyph unicode="&#x438;" horiz-adv-x="1043" d="M717 1082h176v-1082h-176v789l-392 -789h-177v1082h177v-790z" />
<glyph unicode="&#x439;" horiz-adv-x="1043" d="M717 1082h176v-1082h-176v789l-392 -789h-177v1082h177v-790zM821 1476q0 -121 -82.5 -194.5t-216.5 -73.5t-217 74t-83 194h151q0 -70 38 -109.5t111 -39.5q70 0 109.5 39t39.5 110h150z" />
<glyph unicode="&#x43a;" horiz-adv-x="983" d="M426 461h-100v-461h-177v1082h177v-458h88l295 458h211l-361 -515l387 -567h-222z" />
<glyph unicode="&#x43b;" horiz-adv-x="1044" d="M895 1082v-1082h-177v929h-285l-17 -367q-14 -305 -82 -432.5t-218 -129.5h-59v163l45 4q74 10 104.5 99.5t40.5 352.5l17 463h631z" />
<glyph unicode="&#x43c;" horiz-adv-x="1323" d="M663 245l290 837h220v-1082h-176v746l-273 -746h-121l-279 764v-764h-176v1082h228z" />
<glyph unicode="&#x43d;" horiz-adv-x="1042" d="M892 0h-176v462h-390v-462h-178v1082h178v-469h390v469h176v-1082z" />
<glyph unicode="&#x43e;" d="M95 591q0 236 114.5 373.5t302.5 137.5t302.5 -134t117.5 -365v-114q0 -235 -114 -372t-304 -137q-188 0 -301.5 133t-117.5 360v118zM272 489q0 -167 65.5 -262.5t176.5 -95.5q234 0 241 338v122q0 166 -66 262.5t-177 96.5q-109 0 -174.5 -96.5t-65.5 -261.5v-103z" />
<glyph unicode="&#x43f;" horiz-adv-x="1043" d="M893 0h-176v929h-391v-929h-178v1082h745v-1082z" />
<glyph unicode="&#x440;" horiz-adv-x="1010" d="M914 489q0 -257 -92.5 -383t-261.5 -126q-163 0 -251 123v-519h-176v1498h160l9 -120q89 140 255 140q178 0 266 -124t91 -371v-118zM738 590q0 182 -56 268.5t-180 86.5q-127 0 -193 -127v-563q65 -124 195 -124q120 0 176.5 86.5t57.5 264.5v108z" />
<glyph unicode="&#x441;" horiz-adv-x="946" d="M508 131q88 0 141 54.5t58 155.5h167q-6 -156 -110.5 -258.5t-255.5 -102.5q-201 0 -306.5 126.5t-105.5 376.5v119q0 245 105 372.5t306 127.5q166 0 263.5 -105t103.5 -287h-167q-6 120 -57.5 180t-142.5 60q-118 0 -175 -77.5t-59 -254.5v-138q0 -191 56.5 -270 t178.5 -79z" />
<glyph unicode="&#x442;" horiz-adv-x="870" d="M816 932h-295v-932h-176v932h-291v150h762v-150z" />
<glyph unicode="&#x443;" horiz-adv-x="853" d="M428 294l197 788h188l-354 -1235q-40 -139 -113 -211.5t-166 -72.5q-36 0 -92 16v150l39 -4q77 0 120.5 36.5t70.5 126.5l35 121l-318 1073h193z" />
<glyph unicode="&#x444;" horiz-adv-x="1288" d="M100 521q0 270 88 425.5t243 155.5q64 0 116 -22v456h177v-462q56 28 131 28q156 0 244 -155t88 -447q0 -243 -88 -382t-242 -139q-76 0 -133 26v-421h-177v416q-55 -21 -117 -21q-154 0 -242 140.5t-88 401.5zM1011 521q0 204 -55 316.5t-155 112.5q-43 0 -77 -15v-793 q31 -12 79 -12q99 0 153.5 96t54.5 295zM277 500q0 -184 50.5 -277t148.5 -93q40 0 71 11v797q-36 12 -69 12q-99 0 -150 -108.5t-51 -341.5z" />
<glyph unicode="&#x445;" horiz-adv-x="899" d="M445 687l185 395h205l-294 -535l301 -547h-203l-191 405l-192 -405h-204l301 547l-293 535h203z" />
<glyph unicode="&#x446;" horiz-adv-x="1074" d="M148 1082h178v-931h391v931h176v-931h114l-18 -472h-157v321h-684v1082z" />
<glyph unicode="&#x447;" horiz-adv-x="982" d="M834 0h-178v388q-97 -28 -199 -28q-166 0 -258 102.5t-95 292.5v328h177v-333q6 -238 176 -238q100 0 199 30v540h178v-1082z" />
<glyph unicode="&#x448;" horiz-adv-x="1441" d="M326 1082v-931h305v931h176v-931h306v931h177v-1082h-1142v1082h178z" />
<glyph unicode="&#x449;" horiz-adv-x="1479" d="M315 1082v-931h305v931h176v-931h306v931h177v-931h135l-18 -472h-157v321h-1102v1082h178z" />
<glyph unicode="&#x44a;" horiz-adv-x="1102" d="M44 1082h438v-373h223q155 -1 247 -95t92 -256t-93 -259.5t-246 -98.5h-399v930h-262v152zM482 558v-407h220q79 0 121.5 53.5t42.5 146.5q0 90 -41.5 147.5t-116.5 59.5h-226z" />
<glyph unicode="&#x44b;" horiz-adv-x="1392" d="M324 709h223q155 -1 247 -95t92 -256t-93 -259.5t-246 -98.5h-399v1082h176v-373zM1216 0h-177v1082h177v-1082zM324 558v-407h220q78 0 121.5 53t43.5 147q0 92 -43 149t-118 58h-224z" />
<glyph unicode="&#x44c;" horiz-adv-x="979" d="M324 709h223q155 -1 247 -95t92 -256t-93 -259.5t-246 -98.5h-399v1082h176v-373zM324 558v-407h220q78 0 121.5 53t43.5 147q0 92 -43 149t-118 58h-224z" />
<glyph unicode="&#x44d;" horiz-adv-x="967" d="M458 950q-78 0 -134 -62.5t-56 -149.5h-168q0 93 49.5 178t133.5 135.5t175 50.5q178 0 288.5 -150.5t110.5 -401.5v-30q0 -152 -50 -277t-141 -194t-209 -69q-153 0 -255 111t-102 280h168q0 -104 55.5 -172.5t133.5 -68.5q94 0 153.5 91.5t69.5 253.5h-315v152h313 q-12 150 -69.5 236.5t-150.5 86.5z" />
<glyph unicode="&#x44e;" horiz-adv-x="1446" d="M324 623h202q19 220 131.5 349.5t281.5 129.5q180 0 294 -141.5t124 -370.5l1 -61q0 -243 -115 -396t-302 -153q-178 0 -290 136.5t-126 354.5h-201v-471h-176v1082h176v-459zM700 529q0 -181 65 -289.5t176 -108.5q109 0 174 108t65 312q0 183 -66 291t-175 108 q-108 0 -173.5 -108t-65.5 -313z" />
<glyph unicode="&#x44f;" horiz-adv-x="988" d="M839 1082v-1082h-177v421h-209l-218 -421h-190l234 452q-88 38 -134 117t-46 183q0 149 96 239.5t258 90.5h386zM276 750q0 -80 43 -128.5t116 -48.5h227v359h-211q-79 0 -127 -50.5t-48 -131.5z" />
<glyph unicode="&#x450;" horiz-adv-x="959" d="M519 -20q-202 0 -310 120.5t-110 353.5v131q0 242 105.5 379.5t294.5 137.5q190 0 284 -121t96 -377v-116h-604v-25q0 -174 65.5 -253t188.5 -79q78 0 137.5 29.5t111.5 93.5l92 -112q-115 -162 -351 -162zM499 950q-110 0 -163 -75.5t-60 -234.5h426v24 q-7 154 -55.5 220t-147.5 66zM600 1240h-159l-258 294h223z" />
<glyph unicode="&#x451;" horiz-adv-x="959" d="M519 -20q-202 0 -310 120.5t-110 353.5v131q0 242 105.5 379.5t294.5 137.5q190 0 284 -121t96 -377v-116h-604v-25q0 -174 65.5 -253t188.5 -79q78 0 137.5 29.5t111.5 93.5l92 -112q-115 -162 -351 -162zM499 950q-110 0 -163 -75.5t-60 -234.5h426v24 q-7 154 -55.5 220t-147.5 66zM173 1371q0 45 27.5 75.5t81.5 30.5t82 -30.5t28 -75.5t-28 -75t-82 -30t-81.5 30t-27.5 75zM603 1369q0 45 27.5 76t81.5 31t82 -31t28 -76t-28 -75t-82 -30t-81.5 30t-27.5 75z" />
<glyph unicode="&#x452;" horiz-adv-x="989" d="M542 1209h-233v-238q101 131 258 131q287 0 291 -383v-808q0 -170 -72.5 -259t-203.5 -89q-49 0 -94 18l13 147q14 -7 66 -12l15 -1q47 0 73.5 52t26.5 144v800q0 127 -42.5 180.5t-127.5 53.5q-66 0 -118.5 -44t-84.5 -115v-786h-177v1209h-132v152h132v175h177v-175 h233v-152z" />
<glyph unicode="&#x453;" horiz-adv-x="760" d="M727 929h-403v-929h-178v1082h581v-153zM473 1514h224l-268 -294h-149z" />
<glyph unicode="&#x454;" horiz-adv-x="967" d="M515 131q78 0 136 60t64 150h167q-4 -94 -54 -177.5t-135 -133.5t-178 -50q-190 0 -300 146.5t-110 404.5v31q0 248 111 394t300 146q159 0 259.5 -110t106.5 -282h-167q-6 105 -61 172.5t-138 67.5q-104 0 -165 -86t-69 -248h312v-152h-312q8 -166 68 -249.5t165 -83.5z " />
<glyph unicode="&#x455;" horiz-adv-x="933" d="M658 277q0 57 -43 98t-166 96q-143 59 -201.5 101t-87.5 95.5t-29 127.5q0 132 96.5 219.5t246.5 87.5q158 0 254 -92t96 -236h-176q0 73 -49 124.5t-125 51.5q-78 0 -122.5 -40.5t-44.5 -108.5q0 -54 32.5 -87t156.5 -87q197 -77 268 -150.5t71 -186.5 q0 -141 -97 -225.5t-260 -84.5q-169 0 -274 97t-105 246h178q3 -90 55 -141t146 -51q88 0 134 39.5t46 106.5z" />
<glyph unicode="&#x456;" horiz-adv-x="469" d="M323 0h-177v1082h177v-1082zM337 1369q0 -45 -25 -75t-76 -30q-50 0 -75 30t-25 75t25 76t75 31t75.5 -31.5t25.5 -75.5z" />
<glyph unicode="&#x457;" horiz-adv-x="481" d="M323 0h-177v1082h177v-1082zM-81 1370q0 45 27.5 75.5t81.5 30.5t82 -30.5t28 -75.5t-28 -75t-82 -30t-81.5 30t-27.5 75zM349 1368q0 45 27.5 76t81.5 31t82 -31t28 -76t-28 -75t-82 -30t-81.5 30t-27.5 75z" />
<glyph unicode="&#x458;" horiz-adv-x="458" d="M313 1082v-1218q-3 -301 -238 -301q-54 0 -97 18l-1 148q27 -8 69 -8q45 0 67.5 33.5t22.5 116.5v1211h177zM321 1369q0 -45 -25 -75t-76 -30q-50 0 -74.5 30t-24.5 75t24.5 76t74.5 31t75.5 -31.5t25.5 -75.5z" />
<glyph unicode="&#x459;" horiz-adv-x="1495" d="M859 670h225q168 -2 260 -106q77 -88 77 -226q0 -151 -91.5 -244t-248.5 -94h-399v929h-253l-19 -412q-17 -281 -85 -398.5t-215 -118.5h-56v163l34 3q76 5 109 83.5t44 291.5l20 541h598v-412zM859 518v-369h220q77 0 121 52t44 139q0 83 -44 130.5t-120 47.5h-221z" />
<glyph unicode="&#x45a;" horiz-adv-x="1522" d="M326 673h390v409h176v-413h226q154 -2 245 -90.5t91 -240.5q0 -150 -90.5 -243t-245.5 -95h-402v522h-390v-522h-178v1082h178v-409zM892 518v-369h220q77 0 121 52t44 139q0 83 -44 130.5t-120 47.5h-221z" />
<glyph unicode="&#x45b;" horiz-adv-x="1022" d="M564 1214h-255v-243q101 131 258 131q287 0 291 -383v-719h-176v711q0 127 -42.5 180.5t-127.5 53.5q-66 0 -118.5 -44t-84.5 -115v-786h-177v1214h-110v151h110v171h177v-171h255v-151z" />
<glyph unicode="&#x45c;" horiz-adv-x="983" d="M426 461h-100v-461h-177v1082h177v-458h88l295 458h211l-361 -515l387 -567h-222zM565 1513h224l-268 -294h-149z" />
<glyph unicode="&#x45d;" horiz-adv-x="1043" d="M717 1082h176v-1082h-176v789l-392 -789h-177v1082h177v-790zM627 1220h-159l-258 294h223z" />
<glyph unicode="&#x45e;" horiz-adv-x="853" d="M428 294l197 788h188l-354 -1235q-40 -139 -113 -211.5t-166 -72.5q-36 0 -92 16v150l39 -4q77 0 120.5 36.5t70.5 126.5l35 121l-318 1073h193zM745 1496q0 -121 -82.5 -194.5t-216.5 -73.5t-217 74t-83 194h151q0 -70 38 -109.5t111 -39.5q70 0 109.5 39t39.5 110h150z " />
<glyph unicode="&#x45f;" horiz-adv-x="1043" d="M326 1082v-931h391v931h176v-1082h-282v-356h-176v356h-287v1082h178z" />
<glyph unicode="&#x460;" horiz-adv-x="1546" d="M1410 1456v-1062q-1 -194 -96 -304t-263 -110q-191 0 -274 166q-89 -166 -286 -166q-161 0 -253 110.5t-92 307.5v1058h185v-1059q0 -132 45.5 -196.5t114.5 -64.5q90 0 141 69.5t51 191.5v1059h191v-1059q0 -121 47 -191t130 -70q82 0 129 70t47 191v1059h183z" />
<glyph unicode="&#x461;" horiz-adv-x="1332" d="M1223 1082v-737q-2 -173 -87.5 -269.5t-231.5 -96.5q-159 0 -234 138q-79 -138 -248 -138q-140 0 -221 97t-82 273v733h177v-729q0 -113 35 -168t91 -55q76 0 118.5 60.5t42.5 162.5v729h177v-729q0 -113 40.5 -168t103.5 -55q67 0 104.5 59t38.5 160v733h176z" />
<glyph unicode="&#x462;" horiz-adv-x="1129" d="M512 1104h-177v-242h294q196 -1 307 -114.5t111 -312.5q0 -200 -112.5 -317.5t-311.5 -117.5h-471v1104h-182v151h182v201h183v-201h177v-151zM335 704v-547h292q112 0 174 77t62 203q0 124 -61.5 195.5t-173.5 71.5h-293z" />
<glyph unicode="&#x463;" horiz-adv-x="977" d="M592 1082h-269v-336h218q160 0 252 -99.5t92 -269.5q0 -168 -90.5 -271t-244.5 -106h-404v1082h-158v151h158v325h177v-325h269v-151zM323 594v-443h219q79 0 122 58.5t43 160.5q0 99 -43 161t-118 63h-223z" />
<glyph unicode="&#x464;" horiz-adv-x="1583" d="M349 832h148q5 193 68 340.5t175 226t259 78.5q197 0 315 -128t137 -360h-183q-24 183 -88 256.5t-181 73.5q-146 0 -228 -125t-89 -362h458v-151h-458v-26q0 -243 78 -380t222 -137q89 0 145.5 31.5t89 96.5t51.5 197h183q-23 -234 -144 -358t-325 -124 q-209 0 -341.5 171t-142.5 458l-1 71h-148v-681h-184v1456h184v-624z" />
<glyph unicode="&#x465;" horiz-adv-x="1325" d="M322 615h142q14 226 122 356.5t287 130.5q158 0 259.5 -109.5t107.5 -282.5h-167q-6 105 -61 172.5t-139 67.5q-106 0 -165.5 -87t-67.5 -248h357v-151h-357q8 -166 68 -249.5t165 -83.5q78 0 136 60t64 150h167q-4 -94 -55.5 -178.5t-135 -133.5t-176.5 -49 q-120 0 -208.5 58.5t-140 168t-60.5 257.5h-142v-464h-178v1082h178v-467z" />
<glyph unicode="&#x466;" horiz-adv-x="1078" d="M770 438h-116v-438h-179v438h-107l-126 -438h-187l438 1456h160l429 -1456h-188zM415 602h309l-153 543z" />
<glyph unicode="&#x467;" horiz-adv-x="963" d="M641 297h-78v-297h-176v297h-82l-96 -297h-180l368 1082h151l371 -1082h-180zM354 449h237l-104 315l-16 67l-15 -67z" />
<glyph unicode="&#x468;" horiz-adv-x="1556" d="M365 601h315l257 855h160l429 -1456h-187l-124 438h-117v-438h-179v438h-107l-126 -438h-187l132 440h-266v-440h-185v1456h185v-855zM859 602h310l-153 545z" />
<glyph unicode="&#x469;" horiz-adv-x="1341" d="M351 449h206l216 633h151l371 -1082h-181l-98 297h-77v-297h-177v297h-82l-96 -297h-179l100 296h-154v-296h-177v1082h177v-633zM730 449h236l-104 315l-15 66l-15 -66z" />
<glyph unicode="&#x46a;" horiz-adv-x="1530" d="M959 810q156 0 247 -46.5t137.5 -142.5t47.5 -243v-378h-184v378q-1 143 -51 207t-170 67h-107l-18 -35v-617h-184v634l-9 18h-109q-129 0 -181.5 -64t-54.5 -206v-382h-183v384q3 213 103 318.5t308 107.5h36l-330 646h1032zM773 825l230 473h-460z" />
<glyph unicode="&#x46b;" horiz-adv-x="1323" d="M836 603q174 -11 257 -116.5t86 -306.5v-180h-177v180q-2 144 -46.5 207.5t-150.5 64.5h-45l-8 -17v-435h-176v447l-3 5h-50q-110 0 -155 -62.5t-48 -203.5v-186h-177v171q1 213 89 319.5t266 112.5l-239 479h816zM667 624l141 306h-282z" />
<glyph unicode="&#x46c;" horiz-adv-x="2009" d="M618 0v371q0 184 69 289h-338v-660h-185v1456h185v-644h715l-329 644h1033l-330 -646q156 0 247 -46.5t137.5 -142.5t47.5 -243v-378h-184v378q-1 143 -51 207t-171 67h-106l-19 -37v-615h-183v632l-10 20h-108q-129 0 -181.5 -64t-54.5 -206v-382h-184zM1252 825 l230 473h-460z" />
<glyph unicode="&#x46d;" horiz-adv-x="1754" d="M574 0v172q1 178 62 280h-313v-452h-177v1082h177v-478h605l-238 478h816l-239 -479q175 -11 258 -116.5t86 -306.5v-180h-178v180q-2 144 -46.5 207.5t-150.5 64.5h-44l-9 -19v-433h-176v447l-3 5h-60q-102 -2 -146 -64t-46 -208v-180h-178zM1098 624l141 306h-282z" />
<glyph unicode="&#x46e;" horiz-adv-x="931" d="M601 1066q0 109 -59.5 172.5t-159.5 65.5h-258v152h246q186 0 296.5 -108t110.5 -286q0 -103 -54.5 -185t-151.5 -127q225 -85 225 -344q0 -195 -108 -310t-293 -115h-38q-114 -2 -114 -112q0 -113 132 -186l-71 -125q-108 53 -168 137t-60 183q0 121 74 187.5 t236.5 66.5t213.5 148q19 55 19 122q0 265 -252 269h-129v152h115q248 0 248 243zM467 1756l120 170h151v-10l-219 -274h-104l-215 274v10h148z" />
<glyph unicode="&#x46f;" horiz-adv-x="868" d="M573 777q0 66 -50 108.5t-138 43.5h-260v153h250q172 0 273 -85.5t101 -223.5q0 -73 -43.5 -132.5t-121.5 -95.5q183 -66 183 -241q0 -148 -99.5 -235.5t-268.5 -87.5h-41q-112 -3 -112 -112q0 -113 132 -186l-73 -125q-104 51 -165.5 135.5t-61.5 184.5 q0 121 74.5 187.5t220.5 66.5h32q86 0 136 46.5t50 121.5q0 162 -218 165h-131v152h119q212 0 212 160zM412 1414l120 170h151v-10l-219 -274h-105l-214 274v10h147z" />
<glyph unicode="&#x470;" horiz-adv-x="1229" d="M691 525q119 27 186 132t68 269v530h184v-529q0 -156 -54.5 -279t-154 -196t-229.5 -89v-363h-184v363q-197 28 -309.5 179t-112.5 387v527h183v-526q0 -163 63.5 -268.5t175.5 -134.5v929h184v-931z" />
<glyph unicode="&#x471;" horiz-adv-x="1255" d="M703 1082v-944q134 27 212 142.5t78 286.5q-5 231 -102 515h183q96 -232 96 -515q0 -258 -120.5 -409t-346.5 -174v-456h-176v458q-216 28 -326 182t-110 427v487h178v-483q0 -400 258 -460v943h176z" />
<glyph unicode="&#x472;" horiz-adv-x="1215" d="M1097 681q0 -214 -62 -374.5t-174 -243.5t-260 -83q-146 0 -258.5 84t-176 242.5t-64.5 365.5v101q0 208 61 368t174.5 247.5t261.5 87.5t261 -84.5t174.5 -242.5t62.5 -368v-100zM599 1311q-146 0 -229.5 -139.5t-85.5 -377.5h631q-4 249 -86.5 383t-229.5 134zM601 143 q145 0 226 128t87 372h-630q6 -231 90 -365.5t227 -134.5z" />
<glyph unicode="&#x473;" horiz-adv-x="1019" d="M97 551q0 245 115 398t300 153q180 0 294 -141.5t124 -370.5l1 -61q0 -243 -115 -396t-302 -153t-302 151.5t-115 405.5v14zM751 470h-476q11 -160 75.5 -249.5t163.5 -89.5t162.5 90t74.5 249zM276 622h474q-14 154 -77 241t-161 87t-160.5 -88.5t-75.5 -239.5z" />
<glyph unicode="&#x474;" horiz-adv-x="1133" d="M517 374l29 -123l226 911q42 168 99 240.5t154 72.5l45 -1l-1 -171h-15q-38 -1 -60.5 -32t-42.5 -112l-326 -1159h-159l-430 1456h199z" />
<glyph unicode="&#x475;" horiz-adv-x="908" d="M432 316l15 -78l135 621q70 242 218 242q61 0 93 -24l-19 -148q-11 8 -30 8q-26 0 -50 -24t-34 -69l-248 -844h-133l-320 1082h180z" />
<glyph unicode="&#x476;" horiz-adv-x="1133" d="M517 374l29 -123l226 911q42 168 99 240.5t154 72.5l45 -1l-1 -171h-15q-38 -1 -60.5 -32t-42.5 -112l-326 -1159h-159l-430 1456h199zM513 1502h-158l-258 266h212zM738 1502h-139l-206 266h194z" />
<glyph unicode="&#x477;" horiz-adv-x="908" d="M432 316l15 -78l135 621q70 242 218 242q61 0 93 -24l-19 -148q-11 8 -30 8q-26 0 -50 -24t-34 -69l-248 -844h-133l-320 1082h180zM427 1207h-158l-258 266h212zM652 1207h-139l-206 266h194z" />
<glyph unicode="&#x478;" horiz-adv-x="2083" d="M1104 600q0 -298 -127 -459t-361 -161q-225 0 -355.5 156.5t-135.5 442.5v274q0 292 129 457.5t360 165.5q230 0 358.5 -158.5t131.5 -452.5v-265zM921 855q0 231 -75.5 343.5t-231.5 112.5q-151 0 -228.5 -114t-78.5 -336v-261q0 -223 77.5 -340t231.5 -117t228 108 t77 331v273zM1658 294l197 788h188l-354 -1235q-40 -139 -113 -211.5t-166 -72.5q-36 0 -92 16v150l39 -4q77 0 120.5 36.5t70.5 126.5l35 121l-318 1073h193z" />
<glyph unicode="&#x479;" horiz-adv-x="1881" d="M95 591q0 236 114.5 373.5t302.5 137.5t302.5 -134t117.5 -365v-114q0 -235 -114 -372t-304 -137q-188 0 -301.5 133t-117.5 360v118zM272 489q0 -167 65.5 -262.5t176.5 -95.5q234 0 241 338v122q0 166 -66 262.5t-177 96.5q-109 0 -174.5 -96.5t-65.5 -261.5v-103z M1456 294l197 788h188l-354 -1235q-40 -139 -113 -211.5t-166 -72.5q-36 0 -92 16v150l39 -4q77 0 120.5 36.5t70.5 126.5l35 121l-318 1073h193z" />
<glyph unicode="&#x47a;" horiz-adv-x="1215" d="M1097 681q0 -285 -106 -468.5t-295 -222.5v-131h-177v129q-190 35 -301.5 216t-115.5 457v112q0 290 113 475.5t304 220.5v119h177v-122q188 -41 294.5 -225t106.5 -470v-90zM915 775q0 216 -57 347t-162 172v-92h-177v96q-108 -35 -171.5 -168.5t-63.5 -354.5v-94 q0 -216 63 -352.5t172 -172.5v98h177v-95q106 40 162.5 172t56.5 350v94z" />
<glyph unicode="&#x47b;" horiz-adv-x="1021" d="M97 551q0 214 88.5 359.5t237.5 180.5v114h176v-113q152 -35 242 -181t90 -366v-16q0 -210 -89.5 -358.5t-242.5 -181.5v-108h-176v109q-150 35 -238 181t-88 362v18zM599 151q74 38 114 138.5t40 261.5q0 137 -40.5 239t-113.5 139v-91h-176v89q-69 -38 -109.5 -136.5 t-40.5 -261.5q0 -139 40 -237.5t110 -137.5v94h176v-97z" />
<glyph unicode="&#x47c;" horiz-adv-x="1541" d="M1061 1455q160 0 251 -120t92 -329v-575q0 -210 -91 -331t-252 -121q-93 0 -167 40.5t-119 122.5q-45 -82 -118.5 -122.5t-165.5 -40.5q-159 0 -251 118t-94 325v580q0 212 92 332.5t253 120.5v-158q-69 0 -114.5 -73t-45.5 -222v-571q0 -150 45.5 -222.5t114.5 -72.5 q90 0 141 69.5t51 191.5v428h185v-428q0 -121 50.5 -191t142.5 -70q69 0 114 72.5t45 222.5v571q0 149 -45 222t-114 73v158zM1146 1747v-127h-41q-69 0 -126 18t-137 58t-99 45t-37 5q-84 0 -84 -115v-12h-119v40q1 109 54 161.5t145 52.5q33 0 63 -8.5t110 -48.5 t127 -54.5t144 -14.5zM673 1379q57 81 58 145v100h148v-106q-2 -52 -42.5 -109t-90.5 -86z" />
<glyph unicode="&#x47d;" horiz-adv-x="1340" d="M922 1092q140 0 221 -107.5t82 -300.5v-294q0 -196 -81.5 -303.5t-221.5 -107.5q-171 0 -250 139q-79 -139 -248 -139q-138 0 -219.5 105t-83.5 296v300q0 195 81 303.5t222 108.5v-152q-56 0 -91.5 -64t-35.5 -196v-290q0 -132 35.5 -196t91.5 -64q74 0 116.5 58 t43.5 161v239h177v-240q1 -99 43.5 -158.5t117.5 -59.5q55 0 90.5 64t35.5 196v290q0 132 -35.5 196t-90.5 64v152zM1071 1395v-127h-41q-74 0 -135 20.5t-187 83.5q-42 21 -77 21q-36 0 -60 -26t-24 -100h-119v30q0 224 200 224q33 0 61.5 -8t110.5 -49t128 -55t143 -14z M601 1017q55 78 57 142v103h149v-106q-2 -52 -42.5 -109t-90.5 -86z" />
<glyph unicode="&#x47e;" horiz-adv-x="1546" d="M1410 1456v-1062q-1 -194 -96 -304t-263 -110q-191 0 -274 166q-89 -166 -286 -166q-161 0 -253 110.5t-92 307.5v1058h185v-1059q0 -132 45.5 -196.5t114.5 -64.5q90 0 141 69.5t51 191.5v1059h191v-1059q0 -121 47 -191t130 -70q82 0 129 70t47 191v1059h183zM433 1688 v107h700v-107h-277v-125h-160v125h-263z" />
<glyph unicode="&#x47f;" horiz-adv-x="1332" d="M1223 1082v-737q-2 -173 -87.5 -269.5t-231.5 -96.5q-159 0 -234 138q-79 -138 -248 -138q-140 0 -221 97t-82 273v733h177v-729q0 -113 35 -168t91 -55q76 0 118.5 60.5t42.5 162.5v729h177v-729q0 -113 40.5 -168t103.5 -55q67 0 104.5 59t38.5 160v733h176zM327 1349 v107h700l3 -107h-280v-128h-160v128h-263z" />
<glyph unicode="&#x480;" horiz-adv-x="1168" d="M693 -380h-182v366q-178 32 -287 201t-110 413v253q0 178 60.5 321.5t168 223t241.5 79.5q212 0 335.5 -132t123.5 -356h-184q2 157 -71 243.5t-204 86.5q-127 0 -206.5 -130.5t-79.5 -341.5v-244q0 -205 79 -335.5t208 -131.5h108v-516z" />
<glyph unicode="&#x481;" horiz-adv-x="967" d="M595 -382h-177v371q-146 34 -232 178.5t-86 359.5v35q0 154 50.5 278.5t141.5 193t209 68.5q153 0 254.5 -111t101.5 -282h-166q0 102 -55.5 171.5t-134.5 69.5q-103 0 -163.5 -107.5t-60.5 -292.5v-30q0 -171 59 -279.5t160 -110.5h99v-512z" />
<glyph unicode="&#x482;" horiz-adv-x="1122" d="M531 446l243 -172l-62 -123l-244 170l-152 -321h-151l189 398l-243 171l62 123l246 -171l167 365l-243 171l63 125l245 -171l153 331h149l-191 -408l246 -171l-65 -122l-242 170z" />
<glyph unicode="&#x483;" horiz-adv-x="40" d="M-616 1315v-125l-157 1l1 233h462l-1 108l157 -1v-216h-462z" />
<glyph unicode="&#x484;" horiz-adv-x="40" d="M-307 1557q94 0 147.5 -53.5t53.5 -164.5v-36h-120v11q0 115 -84 115q-35 0 -75 -20t-86 -42.5t-103.5 -42t-125.5 -20.5h-50v126q95 0 139.5 13t128.5 55t113.5 50.5t61.5 8.5z" />
<glyph unicode="&#x485;" horiz-adv-x="40" d="M-544 1500v123h164v-140l48 -116l-71 -65z" />
<glyph unicode="&#x486;" horiz-adv-x="40" d="M-417 1302l-71 65l48 116l-1 140h166v-123z" />
<glyph unicode="&#x488;" horiz-adv-x="0" d="M-760 1267q0 84 57.5 136t152.5 52t153 -52t58 -136h-112q0 46 -25.5 73.5t-73.5 27.5q-46 0 -71.5 -26.5t-25.5 -74.5h-113zM-169 990q0 84 58 136t151 52q95 0 153.5 -51.5t58.5 -136.5h-113q0 49 -26.5 75t-72.5 26q-44 0 -69.5 -26.5t-25.5 -74.5h-114zM17 487 q0 85 58.5 136.5t151.5 51.5q95 0 153 -52t58 -136h-112q0 49 -26.5 75t-72.5 26t-71.5 -27.5t-25.5 -73.5h-113zM-179 -32q0 84 58 136t151 52q95 0 153 -52t58 -136h-112q0 49 -26.5 75t-72.5 26q-45 0 -70.5 -27.5t-25.5 -73.5h-113zM-755 -316q0 84 57.5 136t152.5 52 t153 -52t58 -136h-112q0 46 -25.5 73.5t-73.5 27.5q-46 0 -71.5 -27.5t-25.5 -73.5h-113zM-1333 990q0 84 58 136t153 52t153 -52t58 -136h-112q0 46 -25.5 73.5t-73.5 27.5q-46 0 -71.5 -26.5t-25.5 -74.5h-114zM-1509 487q0 85 58.5 136.5t151.5 51.5q95 0 153 -52 t58 -136h-112q0 49 -26.5 75t-72.5 26t-71.5 -27.5t-25.5 -73.5h-113zM-1343 -32q0 85 58.5 136.5t151.5 51.5q95 0 153.5 -51.5t58.5 -136.5h-113q0 49 -26.5 75t-72.5 26q-45 0 -70.5 -26.5t-25.5 -74.5h-114z" />
<glyph unicode="&#x489;" horiz-adv-x="0" d="M-465 -60l11 -14l-122 -339h-96l70 353h137zM-660 1126l-12 14l122 338h96l-70 -352h-136zM17 631l13 12l333 -124v-98l-346 71v139zM-1146 433l-13 -12l-333 124v98l346 -71v-139zM-222 1002l2 16l320 153l68 -68l-293 -200zM-906 21l-2 -17l-320 -153l-69 69l294 200z M-1046 860l-17 2l-148 326l65 69l198 -299zM-84 161l17 -2l148 -325l-66 -71l-196 299z" />
<glyph unicode="&#x48a;" horiz-adv-x="1268" d="M916 1456h183v-1456h-183v1122l-567 -1122h-184v1456h184v-1122zM935 1818q0 -121 -82.5 -194.5t-216.5 -73.5t-217 74t-83 194h151q0 -70 38 -109.5t111 -39.5q70 0 109.5 39t39.5 110h150zM1104 -357l-105 72q94 131 98 270v167h181v-145q0 -101 -49.5 -202 t-124.5 -162z" />
<glyph unicode="&#x48b;" horiz-adv-x="1043" d="M717 1082h176v-1082h-176v789l-392 -789h-177v1082h177v-790zM821 1476q0 -121 -82.5 -194.5t-216.5 -73.5t-217 74t-83 194h151q0 -70 38 -109.5t111 -39.5q70 0 109.5 39t39.5 110h150zM899 -357l-105 72q94 131 98 270v167h181v-145q0 -101 -49.5 -202t-124.5 -162z " />
<glyph unicode="&#x48c;" horiz-adv-x="1129" d="M512 1104h-177v-242h294q196 -1 307 -114.5t111 -312.5q0 -200 -112.5 -317.5t-311.5 -117.5h-471v1104h-182v151h182v201h183v-201h177v-151zM335 704v-547h292q112 0 174 77t62 203q0 124 -61.5 195.5t-173.5 71.5h-293z" />
<glyph unicode="&#x48d;" horiz-adv-x="977" d="M592 1304h-269v-558h218q160 0 252 -99.5t92 -269.5q0 -168 -90.5 -271t-244.5 -106h-404v1304h-158v152h158v193h177v-193h269v-152zM323 594v-443h219q79 0 122 58.5t43 160.5q0 99 -43 161t-118 63h-223z" />
<glyph unicode="&#x48e;" horiz-adv-x="1142" d="M341 570v-570h-184v1456h464q202 0 319 -121t117 -324q0 -182 -85 -293l113 -143l-102 -103l-120 152q-99 -54 -242 -54h-280zM851 872q22 59 22 137q0 133 -66.5 210.5t-181.5 78.5h-284v-571h280q80 0 136 31l-94 119l104 102z" />
<glyph unicode="&#x48f;" horiz-adv-x="1017" d="M914 529q0 -238 -88 -387l99 -127l-103 -102l-94 120q-73 -53 -168 -53q-157 0 -251 108v-504h-176v1498h160l8 -103q94 123 256 123q168 0 262.5 -148.5t94.5 -424.5zM738 550q0 180 -62 287.5t-174 107.5q-126 0 -193 -138v-542q65 -134 195 -134q67 0 116 40l-88 114 l103 103l69 -89q34 100 34 251z" />
<glyph unicode="&#x490;" horiz-adv-x="983" d="M910 1304h-3v-6h-573v-1298h-183v1456h583v336h176v-488z" />
<glyph unicode="&#x491;" horiz-adv-x="811" d="M722 929h-407v-929h-178v1082h409v316h176v-469z" />
<glyph unicode="&#x492;" horiz-adv-x="999" d="M552 684h-202v-684h-184v684h-156v151h156v621h757v-158h-573v-463h202v-151z" />
<glyph unicode="&#x493;" horiz-adv-x="760" d="M558 479h-234v-479h-178v479h-130v151h130v452h581v-153h-403v-299h234v-151z" />
<glyph unicode="&#x494;" horiz-adv-x="1104" d="M923 1298h-573v-465h141q242 0 375.5 -151t133.5 -426q0 -261 -104.5 -403t-297.5 -142l-2 147q114 0 170.5 94t56.5 304q-1 200 -78.5 306.5t-245.5 108.5h-149v-671h-184v1456h757v-158z" />
<glyph unicode="&#x495;" horiz-adv-x="908" d="M718 929h-403v-284h80q202 0 319 -129.5t117 -345.5q-2 -101 -43 -198.5t-113 -165.5t-171 -89l-45 146q196 64 196 307q-2 145 -69.5 229t-185.5 84h-85v-483h-178v1082h581v-153z" />
<glyph unicode="&#x496;" horiz-adv-x="1620" d="M1040 664h-127v-664h-184v664h-135l-322 -664h-228l403 773l-371 683h216l302 -632h135v632h184v-632h128l302 632h215l-370 -682l402 -774h-227zM1665 -359h-177v512h177v-512z" />
<glyph unicode="&#x497;" horiz-adv-x="1356" d="M867 470h-103v-470h-176v470h-103l-226 -470h-222l311 564l-284 518h213l210 -448h101v448h176v-448h99l213 448h213l-285 -519l311 -563h-223zM1372 -359h-177v512h177v-512z" />
<glyph unicode="&#x498;" horiz-adv-x="1060" d="M769 1065q0 117 -66.5 185t-184.5 68q-100 0 -166.5 -70t-66.5 -175h-183q0 179 119 291t297 112q207 0 321 -110t114 -304q0 -101 -53 -184t-146 -131q217 -87 217 -341q0 -198 -124.5 -312t-328.5 -114q-88 0 -169.5 28.5t-142.5 86.5q-122 115 -122 309h183 q0 -114 70.5 -191t180.5 -77q123 0 196.5 72.5t73.5 193.5q0 254 -243 261h-150v158h137q116 0 176.5 63t60.5 181zM616 -431h-177v512h177v-512z" />
<glyph unicode="&#x499;" horiz-adv-x="914" d="M796 787q0 -73 -37 -134t-105 -97q159 -65 159 -252q0 -151 -98.5 -237t-259.5 -86q-159 0 -261.5 91.5t-102.5 247.5h175q0 -80 54 -136t135 -56q82 0 131.5 49t49.5 127q0 91 -40.5 130.5t-127.5 39.5h-162v156h174q140 5 140 156q0 76 -43.5 120.5t-120.5 44.5 q-75 0 -125.5 -50t-50.5 -121h-175q0 141 100 231t251 90q161 0 250.5 -82t89.5 -232zM546 -430h-177v512h177v-512z" />
<glyph unicode="&#x49a;" horiz-adv-x="1148" d="M487 654h-138v-654h-183v1456h183v-642h112l410 642h228l-462 -704l496 -752h-224zM1170 -360h-177v512h177v-512z" />
<glyph unicode="&#x49b;" horiz-adv-x="983" d="M426 461h-100v-461h-177v1082h177v-458h88l295 458h211l-361 -515l387 -567h-222zM1012 -359h-177v512h177v-512z" />
<glyph unicode="&#x49c;" horiz-adv-x="1133" d="M1075 1456l-332 -685l365 -771h-230l-267 654h-61v-244h-140v244h-74v-654h-184v1456h184v-641h74v256h140v-256h58l253 641h214z" />
<glyph unicode="&#x49d;" horiz-adv-x="1020" d="M980 1082l-286 -509l313 -573h-222l-218 461h-30v-194h-140v194h-73v-461h-177v1082h177v-458h73v213h140v-213h24l208 458h211z" />
<glyph unicode="&#x49e;" horiz-adv-x="1168" d="M507 654h-138v-654h-183v1079h-172v151h172v226h183v-226h187v-151h-187v-265h112l410 642h228l-462 -704l496 -752h-224z" />
<glyph unicode="&#x49f;" horiz-adv-x="948" d="M442 501h-106v-501h-178v1217h-210v151h210v168h178v-168h154v-151h-154v-563h106l236 428h207l-304 -493l351 -589h-208z" />
<glyph unicode="&#x4a0;" horiz-adv-x="1455" d="M789 654h-137v-654h-184v1304h-395v152h579v-642h112l409 642h228l-462 -704l496 -752h-224z" />
<glyph unicode="&#x4a1;" horiz-adv-x="1244" d="M702 461h-100v-461h-178v929h-348v153h526v-458h88l295 458h212l-362 -516l388 -566h-222z" />
<glyph unicode="&#x4a2;" horiz-adv-x="1270" d="M1110 0h-184v673h-586v-673h-183v1456h183v-626h586v626h184v-1456zM1262 -359h-177v512h177v-512z" />
<glyph unicode="&#x4a3;" horiz-adv-x="1042" d="M892 0h-176v462h-390v-462h-178v1082h178v-469h390v469h176v-1082zM1045 -359h-177v512h177v-512z" />
<glyph unicode="&#x4a4;" horiz-adv-x="1699" d="M341 830h585v626h691v-152h-507v-1304h-184v673h-585v-673h-184v1456h184v-626z" />
<glyph unicode="&#x4a5;" horiz-adv-x="1259" d="M315 613h390v469h470v-153h-294v-929h-176v462h-390v-462h-178v1082h178v-469z" />
<glyph unicode="&#x4a6;" horiz-adv-x="1804" d="M1104 833h85q242 0 375.5 -151t133.5 -426q0 -261 -104.5 -403t-297.5 -142l-2 147q114 0 170.5 94t56.5 304q-1 200 -78.5 306.5t-245.5 108.5h-93v-671h-184v1298h-570v-1298h-183v1456h937v-623z" />
<glyph unicode="&#x4a7;" horiz-adv-x="1547" d="M882 645h135q210 0 332 -130t122 -345q-2 -99 -43.5 -198t-113 -166.5t-170.5 -88.5l-45 146q199 66 194 307q-2 149 -74.5 231t-196.5 82h-140v-483h-176v929h-391v-929h-178v1082h745v-437z" />
<glyph unicode="&#x4a8;" horiz-adv-x="1314" d="M1234 -28q-182 0 -334 73q-122 -66 -266 -66q-148 0 -267 89t-186.5 248t-68.5 353v178q0 176 49.5 322t137.5 227t199 81v-165q-89 0 -144.5 -125.5t-56.5 -331.5v-180q0 -235 93 -384t244 -149q61 0 105 14q-215 202 -215 554v216q0 153 44.5 279.5t125 197.5t180.5 71 q154 0 252 -154t98 -406v-236q0 -158 -47 -290t-132 -227q86 -28 189 -28v-161zM707 697q0 -147 46 -262.5t136 -189.5q152 148 152 446v236q0 175 -45.5 279t-121.5 104q-73 0 -120 -105t-47 -282v-226z" />
<glyph unicode="&#x4a9;" horiz-adv-x="1083" d="M1020 -12q-151 0 -273 57q-99 -66 -222 -66q-119 0 -213.5 74.5t-148 209.5t-54.5 300v64q0 207 84 341t215 134v-158q-56 0 -89 -85.5t-33 -233.5v-56q0 -190 65 -311.5t174 -121.5q39 0 74 12q-164 162 -164 433v95q0 194 74 310.5t196 116.5q120 0 196 -123.5 t76 -331.5v-98q0 -227 -108 -383q66 -22 151 -22v-157zM612 570q0 -202 114 -316q75 117 75 301v103q0 131 -26 210q-26 78 -70 78q-43 0 -67.5 -70t-25.5 -189v-117z" />
<glyph unicode="&#x4aa;" horiz-adv-x="1161" d="M1070 462q-12 -234 -131.5 -358t-337.5 -124q-219 0 -348 166.5t-129 451.5v264q0 284 132.5 449t361.5 165q211 0 326.5 -126.5t125.5 -361.5h-185q-12 178 -75 254t-192 76q-149 0 -229 -116.5t-80 -341.5v-267q0 -221 74.5 -339t217.5 -118t206 71t78 255h185z M681 -431h-177v512h177v-512z" />
<glyph unicode="&#x4ab;" horiz-adv-x="946" d="M508 131q88 0 141 54.5t58 155.5h167q-6 -156 -110.5 -258.5t-255.5 -102.5q-201 0 -306.5 126.5t-105.5 376.5v119q0 245 105 372.5t306 127.5q166 0 263.5 -105t103.5 -287h-167q-6 120 -57.5 180t-142.5 60q-118 0 -175 -77.5t-59 -254.5v-138q0 -191 56.5 -270 t178.5 -79zM554 -431h-177v512h177v-512z" />
<glyph unicode="&#x4ac;" horiz-adv-x="1066" d="M1008 1298h-383v-1298h-183v1298h-382v158h948v-158zM773 -359h-177v512h177v-512z" />
<glyph unicode="&#x4ad;" horiz-adv-x="870" d="M816 932h-295v-932h-176v932h-291v150h762v-150zM674 -359h-177v512h177v-512z" />
<glyph unicode="&#x4ae;" horiz-adv-x="1074" d="M536 725l298 731h207l-414 -913v-543h-183v543l-414 913h208z" />
<glyph unicode="&#x4af;" horiz-adv-x="910" d="M464 311l218 771h179l-312 -1017v-481h-177v493l-313 1005h180z" />
<glyph unicode="&#x4b0;" horiz-adv-x="1074" d="M811 521h-184v-521h-183v521h-175v151h116l-355 784h208l298 -731l298 731h207l-356 -784h126v-151z" />
<glyph unicode="&#x4b1;" horiz-adv-x="910" d="M738 -11h-189v-405h-177v405h-176v151h156l-293 942h180l225 -771l218 771h179l-289 -942h166v-151z" />
<glyph unicode="&#x4b2;" horiz-adv-x="1128" d="M566 898l274 558h215l-379 -722l387 -734h-217l-280 568l-281 -568h-217l389 734l-381 722h214zM1104 -359h-177v512h177v-512z" />
<glyph unicode="&#x4b3;" horiz-adv-x="899" d="M445 687l185 395h205l-294 -535l301 -547h-203l-191 405l-192 -405h-204l301 547l-293 535h203zM899 -359h-177v512h177v-512z" />
<glyph unicode="&#x4b4;" horiz-adv-x="1601" d="M377 1304h-308v151h308v1h184v-1h310v-151h-310v-1147h569v1299h185v-1295h130l-18 -512h-163v351h-887v1304z" />
<glyph unicode="&#x4b5;" horiz-adv-x="1203" d="M269 931h-222v151h595v-151h-197v-780h391v931h177v-931h113l-18 -472h-156v321h-683v931z" />
<glyph unicode="&#x4b6;" horiz-adv-x="1230" d="M1063 1456v-1456h-184v602q-152 -52 -323 -52q-209 0 -311 107t-106 326v473h184v-463q1 -153 54 -219t179 -66q157 0 323 53v695h184zM1212 -359h-177v512h177v-512z" />
<glyph unicode="&#x4b7;" horiz-adv-x="982" d="M834 0h-178v388q-97 -28 -199 -28q-166 0 -258 102.5t-95 292.5v328h177v-333q6 -238 176 -238q100 0 199 30v540h178v-1082zM986 -359h-177v512h177v-512z" />
<glyph unicode="&#x4b8;" horiz-adv-x="1219" d="M323 1456v-463q1 -153 54 -219t179 -66v310h140v-300q84 12 183 43v695h184v-1456h-184v602q-101 -34 -183 -44v-240h-140v232q-209 0 -311 107t-106 326v473h184z" />
<glyph unicode="&#x4b9;" horiz-adv-x="990" d="M853 0h-177v388q-49 -14 -113 -23v-136h-141v134q-144 17 -221 120.5t-78 279.5v320h177v-333q4 -197 122 -231v276h141v-277q54 7 113 24v540h177v-1082z" />
<glyph unicode="&#x4ba;" horiz-adv-x="1220" d="M87 0v1456h184v-602q82 28 154 40t169 12q209 0 311 -107t106 -326v-473h-184v463q-1 153 -54 219t-179 66q-161 0 -323 -54v-694h-184z" />
<glyph unicode="&#x4bb;" horiz-adv-x="989" d="M309 971q101 131 258 131q287 0 291 -383v-719h-176v711q0 127 -42.5 180.5t-127.5 53.5q-66 0 -118.5 -44t-84.5 -115v-786h-177v1536h177v-565z" />
<glyph unicode="&#x4bc;" horiz-adv-x="1382" d="M879 -22q-244 0 -385 169t-141 465v91q-132 21 -202 119.5t-70 258.5h144q0 -192 128 -233q0 178 60 321.5t166.5 224.5t232.5 81q218 0 337 -173.5t119 -496.5v-109h-731v-93q0 -222 89.5 -344.5t252.5 -122.5q151 0 275 83l43 -143q-42 -42 -130 -70t-188 -28zM537 836 h548v33q0 228 -69.5 337t-203.5 109q-124 0 -199.5 -128.5t-75.5 -350.5z" />
<glyph unicode="&#x4bd;" horiz-adv-x="1061" d="M609 -20q-189 0 -304.5 144t-115.5 396q-103 29 -154 116t-51 220h138q0 -140 75 -190q29 199 138.5 317.5t253.5 118.5q183 0 281 -136.5t98 -399.5v-78h-603q2 -160 72.5 -258.5t181.5 -98.5q147 0 233 146l107 -88q-115 -209 -350 -209zM589 950q-87 0 -146 -79.5 t-74 -230.5h423v14q-16 296 -203 296z" />
<glyph unicode="&#x4be;" horiz-adv-x="1382" d="M879 -22q-244 0 -385 169t-141 465v91q-132 21 -202 119.5t-70 258.5h144q0 -192 128 -233q0 178 60 321.5t166.5 224.5t232.5 81q218 0 337 -173.5t119 -496.5v-109h-731v-93q0 -222 89.5 -344.5t252.5 -122.5q151 0 275 83l43 -143q-42 -42 -130 -70t-188 -28zM537 836 h548v33q0 228 -69.5 337t-203.5 109q-124 0 -199.5 -128.5t-75.5 -350.5zM936 -427h-177v512h177v-512z" />
<glyph unicode="&#x4bf;" horiz-adv-x="1061" d="M609 -20q-189 0 -304.5 144t-115.5 396q-103 29 -154 116t-51 220h138q0 -140 75 -190q29 199 138.5 317.5t253.5 118.5q183 0 281 -136.5t98 -399.5v-78h-603q2 -160 72.5 -258.5t181.5 -98.5q147 0 233 146l107 -88q-115 -209 -350 -209zM589 950q-87 0 -146 -79.5 t-74 -230.5h423v14q-16 296 -203 296zM707 -423h-177v512h177v-512z" />
<glyph unicode="&#x4c0;" horiz-adv-x="512" d="M348 0h-183v1456h183v-1456z" />
<glyph unicode="&#x4c1;" horiz-adv-x="1620" d="M1040 664h-127v-664h-184v664h-135l-322 -664h-228l403 773l-371 683h216l302 -632h135v632h184v-632h128l302 632h215l-370 -682l402 -774h-227zM1113 1818q0 -121 -82.5 -194.5t-216.5 -73.5t-217 74t-83 194h151q0 -70 38 -109.5t111 -39.5q70 0 109.5 39t39.5 110 h150z" />
<glyph unicode="&#x4c2;" horiz-adv-x="1356" d="M867 470h-103v-470h-176v470h-103l-226 -470h-222l311 564l-284 518h213l210 -448h101v448h176v-448h99l213 448h213l-285 -519l311 -563h-223zM975 1476q0 -121 -82.5 -194.5t-216.5 -73.5t-217 74t-83 194h151q0 -70 38 -109.5t111 -39.5q70 0 109.5 39t39.5 110h150z " />
<glyph unicode="&#x4c3;" horiz-adv-x="1133" d="M336 0h-184v1456h184v-625h98l421 625h214l-442 -633q207 -24 319.5 -173t112.5 -400q0 -260 -107 -404t-302 -144l-2 152q114 0 170 93t56 301q-2 202 -79.5 307.5t-243.5 105.5h-215v-661z" />
<glyph unicode="&#x4c4;" horiz-adv-x="987" d="M570 612q166 -31 251.5 -145.5t85.5 -291.5q-4 -157 -94.5 -280.5t-231.5 -152.5l-45 146q196 57 196 287q-4 286 -276 286h-132v-461h-177v1082h177v-458h62l321 458h211z" />
<glyph unicode="&#x4c5;" horiz-adv-x="1261" d="M1093 1456v-1456h-184v1298h-407l-22 -612q-12 -268 -51 -409t-114 -208t-197 -69h-56v157l34 2q73 6 114 56.5t62 160.5t30 336l24 744h767zM1097 -357l-105 72q94 131 98 270v167h181v-145q0 -101 -49.5 -202t-124.5 -162z" />
<glyph unicode="&#x4c6;" horiz-adv-x="1044" d="M895 1082v-1082h-177v929h-285l-17 -367q-14 -305 -82 -432.5t-218 -129.5h-59v163l45 4q74 10 104.5 99.5t40.5 352.5l17 463h631zM901 -357l-105 72q94 131 98 270v167h181v-145q0 -101 -49.5 -202t-124.5 -162z" />
<glyph unicode="&#x4c7;" horiz-adv-x="1270" d="M350 1456v-658h567v658h184v-1540q0 -172 -74.5 -262.5t-207.5 -90.5q-49 0 -96 18l12 154q33 -14 82 -14q100 0 100 210v710h-567v-641h-184v1456h184z" />
<glyph unicode="&#x4c8;" horiz-adv-x="1021" d="M315 1082v-469h390v469h176v-1171q0 -169 -73.5 -258.5t-203.5 -89.5q-51 0 -94 18l13 147q12 -6 42 -9.5t39 -3.5q101 0 101 213v534h-390v-462h-178v1082h178z" />
<glyph unicode="&#x4c9;" horiz-adv-x="1270" d="M1110 0h-184v673h-586v-673h-183v1456h183v-626h586v626h184v-1456zM1115 -357l-105 72q94 131 98 270v167h181v-145q0 -101 -49.5 -202t-124.5 -162z" />
<glyph unicode="&#x4ca;" horiz-adv-x="1042" d="M892 0h-176v462h-390v-462h-178v1082h178v-469h390v469h176v-1082zM898 -357l-105 72q94 131 98 270v167h181v-145q0 -101 -49.5 -202t-124.5 -162z" />
<glyph unicode="&#x4cb;" horiz-adv-x="1230" d="M1063 1456v-1456h-184v602q-152 -52 -323 -52q-209 0 -311 107t-106 326v473h184v-463q1 -153 54 -219t179 -66q157 0 323 53v695h184zM903 -359h-177v512h177v-512z" />
<glyph unicode="&#x4cc;" horiz-adv-x="982" d="M834 0h-178v388q-97 -28 -199 -28q-166 0 -258 102.5t-95 292.5v328h177v-333q6 -238 176 -238q100 0 199 30v540h178v-1082zM675 -359h-177v512h177v-512z" />
<glyph unicode="&#x4cd;" horiz-adv-x="1547" d="M393 1456l380 -1188l380 1188h236v-1456h-183v567l17 568l-381 -1135h-140l-379 1131l17 -564v-567h-183v1456h236zM1381 -357l-105 72q94 131 98 270v167h181v-145q0 -101 -49.5 -202t-124.5 -162z" />
<glyph unicode="&#x4ce;" horiz-adv-x="1323" d="M663 245l290 837h220v-1082h-176v746l-273 -746h-121l-279 764v-764h-176v1082h228zM1179 -357l-105 72q94 131 98 270v167h181v-145q0 -101 -49.5 -202t-124.5 -162z" />
<glyph unicode="&#x4cf;" horiz-adv-x="512" d="M348 0h-183v1456h183v-1456z" />
<glyph unicode="&#x4d0;" horiz-adv-x="1180" d="M836 380h-492l-113 -380h-188l469 1456h157l470 -1456h-188zM392 538h397l-199 662zM894 1806q0 -121 -82.5 -194.5t-216.5 -73.5t-217 74t-83 194h151q0 -70 38 -109.5t111 -39.5q70 0 109.5 39t39.5 110h150z" />
<glyph unicode="&#x4d1;" horiz-adv-x="981" d="M689 0q-16 35 -23 118q-94 -138 -240 -138q-147 0 -229.5 82.5t-82.5 232.5q0 165 112 262t307 99h130v115q0 97 -43 138t-131 41q-80 0 -130 -47.5t-50 -120.5h-177q0 83 49 158.5t132 118.5t185 43q166 0 252.5 -82.5t88.5 -240.5v-546q1 -125 34 -217v-16h-184z M453 141q65 0 124 36t86 90v258h-100q-126 -2 -199 -56.5t-73 -152.5q0 -92 37 -133.5t125 -41.5zM809 1496q0 -121 -82.5 -194.5t-216.5 -73.5t-217 74t-83 194h151q0 -70 38 -109.5t111 -39.5q70 0 109.5 39t39.5 110h150z" />
<glyph unicode="&#x4d2;" horiz-adv-x="1180" d="M836 380h-492l-113 -380h-188l469 1456h157l470 -1456h-188zM392 538h397l-199 662zM273 1681q0 45 27.5 75.5t81.5 30.5t82 -30.5t28 -75.5t-28 -75t-82 -30t-81.5 30t-27.5 75zM703 1679q0 45 27.5 76t81.5 31t82 -31t28 -76t-28 -75t-82 -30t-81.5 30t-27.5 75z" />
<glyph unicode="&#x4d3;" horiz-adv-x="981" d="M689 0q-16 35 -23 118q-94 -138 -240 -138q-147 0 -229.5 82.5t-82.5 232.5q0 165 112 262t307 99h130v115q0 97 -43 138t-131 41q-80 0 -130 -47.5t-50 -120.5h-177q0 83 49 158.5t132 118.5t185 43q166 0 252.5 -82.5t88.5 -240.5v-546q1 -125 34 -217v-16h-184z M453 141q65 0 124 36t86 90v258h-100q-126 -2 -199 -56.5t-73 -152.5q0 -92 37 -133.5t125 -41.5zM188 1371q0 45 27.5 75.5t81.5 30.5t82 -30.5t28 -75.5t-28 -75t-82 -30t-81.5 30t-27.5 75zM618 1369q0 45 27.5 76t81.5 31t82 -31t28 -76t-28 -75t-82 -30t-81.5 30 t-27.5 75z" />
<glyph unicode="&#x4d4;" horiz-adv-x="1663" d="M1616 0h-763l-13 353h-458l-168 -353h-216l739 1456h827v-152h-580l17 -471h495v-151h-490l19 -531h591v-151zM465 527h369l-25 723z" />
<glyph unicode="&#x4d5;" horiz-adv-x="1491" d="M1079 -20q-220 0 -335 172q-56 -82 -152 -127t-211 -45q-139 0 -218.5 85.5t-79.5 238.5q0 157 96 244t283 87h177v85q0 107 -43.5 168.5t-123.5 61.5q-81 0 -135.5 -54.5t-54.5 -136.5l-175 19q0 142 102.5 233t262.5 91q198 0 285 -153q111 153 281 153 q180 0 278.5 -129t98.5 -362v-114h-602q5 -174 74.5 -270.5t191.5 -96.5q126 0 224 76l39 31l59 -136q-51 -55 -137.5 -88t-184.5 -33zM417 130q94 0 192 88l30 30v247h-177q-91 -1 -146.5 -55t-55.5 -140q0 -81 41.5 -125.5t115.5 -44.5zM1038 950q-91 0 -150.5 -87 t-71.5 -223h423v31q0 135 -52 207t-149 72z" />
<glyph unicode="&#x4d6;" horiz-adv-x="1017" d="M855 673h-515v-516h600v-157h-783v1456h773v-158h-590v-468h515v-157zM840 1818q0 -121 -82.5 -194.5t-216.5 -73.5t-217 74t-83 194h151q0 -70 38 -109.5t111 -39.5q70 0 109.5 39t39.5 110h150z" />
<glyph unicode="&#x4d7;" horiz-adv-x="959" d="M519 -20q-202 0 -310 120.5t-110 353.5v131q0 242 105.5 379.5t294.5 137.5q190 0 284 -121t96 -377v-116h-604v-25q0 -174 65.5 -253t188.5 -79q78 0 137.5 29.5t111.5 93.5l92 -112q-115 -162 -351 -162zM499 950q-110 0 -163 -75.5t-60 -234.5h426v24 q-7 154 -55.5 220t-147.5 66zM794 1496q0 -121 -82.5 -194.5t-216.5 -73.5t-217 74t-83 194h151q0 -70 38 -109.5t111 -39.5q70 0 109.5 39t39.5 110h150z" />
<glyph unicode="&#x4d8;" horiz-adv-x="1223" d="M544 1476q259 0 410.5 -189.5t151.5 -522.5v-84q0 -196 -66 -356.5t-184.5 -252t-259.5 -91.5q-243 0 -375.5 172.5t-132.5 497.5v117h833v7q0 258 -98.5 400t-278.5 142q-133 0 -243 -57l-50 -27l-42 143q41 41 135.5 71t199.5 30zM596 138q135 0 222.5 129t100.5 351 h-647v-34q0 -223 81.5 -334.5t242.5 -111.5z" />
<glyph unicode="&#x4d9;" horiz-adv-x="954" d="M451 1103q190 0 304 -148.5t114 -399.5v-37q0 -151 -54 -276t-146 -194t-190 -67q-180 0 -277.5 125t-97.5 362v116h588q-4 171 -68 269.5t-173 98.5q-153 0 -254 -108l-68 125q112 134 322 134zM479 132q76 0 133.5 81t74.5 220h-406v-26q0 -128 52.5 -201.5 t145.5 -73.5z" />
<glyph unicode="&#x4da;" horiz-adv-x="1223" d="M544 1476q259 0 410.5 -189.5t151.5 -522.5v-84q0 -196 -66 -356.5t-184.5 -252t-259.5 -91.5q-243 0 -375.5 172.5t-132.5 497.5v117h833v7q0 258 -98.5 400t-278.5 142q-133 0 -243 -57l-50 -27l-42 143q41 41 135.5 71t199.5 30zM596 138q135 0 222.5 129t100.5 351 h-647v-34q0 -223 81.5 -334.5t242.5 -111.5zM222 1647q0 45 27.5 75.5t81.5 30.5t82 -30.5t28 -75.5t-28 -75t-82 -30t-81.5 30t-27.5 75zM652 1645q0 45 27.5 76t81.5 31t82 -31t28 -76t-28 -75t-82 -30t-81.5 30t-27.5 75z" />
<glyph unicode="&#x4db;" horiz-adv-x="954" d="M451 1103q190 0 304 -148.5t114 -399.5v-37q0 -151 -54 -276t-146 -194t-190 -67q-180 0 -277.5 125t-97.5 362v116h588q-4 171 -68 269.5t-173 98.5q-153 0 -254 -108l-68 125q112 134 322 134zM479 132q76 0 133.5 81t74.5 220h-406v-26q0 -128 52.5 -201.5 t145.5 -73.5zM166 1372q0 45 27.5 75.5t81.5 30.5t82 -30.5t28 -75.5t-28 -75t-82 -30t-81.5 30t-27.5 75zM596 1370q0 45 27.5 76t81.5 31t82 -31t28 -76t-28 -75t-82 -30t-81.5 30t-27.5 75z" />
<glyph unicode="&#x4dc;" horiz-adv-x="1620" d="M1040 664h-127v-664h-184v664h-135l-322 -664h-228l403 773l-371 683h216l302 -632h135v632h184v-632h128l302 632h215l-370 -682l402 -774h-227zM492 1693q0 45 27.5 75.5t81.5 30.5t82 -30.5t28 -75.5t-28 -75t-82 -30t-81.5 30t-27.5 75zM922 1691q0 45 27.5 76 t81.5 31t82 -31t28 -76t-28 -75t-82 -30t-81.5 30t-27.5 75z" />
<glyph unicode="&#x4dd;" horiz-adv-x="1356" d="M867 470h-103v-470h-176v470h-103l-226 -470h-222l311 564l-284 518h213l210 -448h101v448h176v-448h99l213 448h213l-285 -519l311 -563h-223zM354 1351q0 45 27.5 75.5t81.5 30.5t82 -30.5t28 -75.5t-28 -75t-82 -30t-81.5 30t-27.5 75zM784 1349q0 45 27.5 76t81.5 31 t82 -31t28 -76t-28 -75t-82 -30t-81.5 30t-27.5 75z" />
<glyph unicode="&#x4de;" horiz-adv-x="1060" d="M769 1065q0 117 -66.5 185t-184.5 68q-100 0 -166.5 -70t-66.5 -175h-183q0 179 119 291t297 112q207 0 321 -110t114 -304q0 -101 -53 -184t-146 -131q217 -87 217 -341q0 -198 -124.5 -312t-328.5 -114q-88 0 -169.5 28.5t-142.5 86.5q-122 115 -122 309h183 q0 -114 70.5 -191t180.5 -77q123 0 196.5 72.5t73.5 193.5q0 254 -243 261h-150v158h137q116 0 176.5 63t60.5 181zM205 1714q0 45 27.5 75.5t81.5 30.5t82 -30.5t28 -75.5t-28 -75t-82 -30t-81.5 30t-27.5 75zM635 1712q0 45 27.5 76t81.5 31t82 -31t28 -76t-28 -75 t-82 -30t-81.5 30t-27.5 75z" />
<glyph unicode="&#x4df;" horiz-adv-x="914" d="M796 787q0 -73 -37 -134t-105 -97q159 -65 159 -252q0 -151 -98.5 -237t-259.5 -86q-159 0 -261.5 91.5t-102.5 247.5h175q0 -80 54 -136t135 -56q82 0 131.5 49t49.5 127q0 91 -40.5 130.5t-127.5 39.5h-162v156h174q140 5 140 156q0 76 -43.5 120.5t-120.5 44.5 q-75 0 -125.5 -50t-50.5 -121h-175q0 141 100 231t251 90q161 0 250.5 -82t89.5 -232zM135 1371q0 45 27.5 75.5t81.5 30.5t82 -30.5t28 -75.5t-28 -75t-82 -30t-81.5 30t-27.5 75zM565 1369q0 45 27.5 76t81.5 31t82 -31t28 -76t-28 -75t-82 -30t-81.5 30t-27.5 75z" />
<glyph unicode="&#x4e0;" horiz-adv-x="1045" d="M880 1456l1 -125l-342 -482q184 -14 286 -130t102 -313t-116 -312t-308 -115q-80 0 -155.5 28.5t-131.5 87.5q-112 115 -112 309h184q0 -114 60.5 -191t154.5 -77q110 0 175 73t65 193q0 157 -67.5 228t-195.5 71h-125v151l309 446h-520v158h736z" />
<glyph unicode="&#x4e1;" horiz-adv-x="1045" d="M647 929h-502v153h730l1 -118l-334 -494q182 -16 281.5 -129.5t99.5 -309.5q0 -195 -115 -310.5t-306 -115.5q-112 0 -203 51.5t-142.5 147t-51.5 225.5h178q0 -116 62 -194t157 -78q114 0 179.5 74.5t65.5 195.5q0 159 -67.5 228.5t-196.5 69.5h-130v151z" />
<glyph unicode="&#x4e2;" horiz-adv-x="1268" d="M916 1456h183v-1456h-183v1122l-567 -1122h-184v1456h184v-1122zM947 1643h-614v143h614v-143z" />
<glyph unicode="&#x4e3;" horiz-adv-x="1043" d="M717 1082h176v-1082h-176v789l-392 -789h-177v1082h177v-790zM833 1301h-614v143h614v-143z" />
<glyph unicode="&#x4e4;" horiz-adv-x="1268" d="M916 1456h183v-1456h-183v1122l-567 -1122h-184v1456h184v-1122zM314 1693q0 45 27.5 75.5t81.5 30.5t82 -30.5t28 -75.5t-28 -75t-82 -30t-81.5 30t-27.5 75zM744 1691q0 45 27.5 76t81.5 31t82 -31t28 -76t-28 -75t-82 -30t-81.5 30t-27.5 75z" />
<glyph unicode="&#x4e5;" horiz-adv-x="1043" d="M717 1082h176v-1082h-176v789l-392 -789h-177v1082h177v-790zM200 1351q0 45 27.5 75.5t81.5 30.5t82 -30.5t28 -75.5t-28 -75t-82 -30t-81.5 30t-27.5 75zM630 1349q0 45 27.5 76t81.5 31t82 -31t28 -76t-28 -75t-82 -30t-81.5 30t-27.5 75z" />
<glyph unicode="&#x4e6;" horiz-adv-x="1230" d="M1104 600q0 -298 -127 -459t-361 -161q-225 0 -355.5 156.5t-135.5 442.5v274q0 292 129 457.5t360 165.5q230 0 358.5 -158.5t131.5 -452.5v-265zM921 855q0 231 -75.5 343.5t-231.5 112.5q-151 0 -228.5 -114t-78.5 -336v-261q0 -223 77.5 -340t231.5 -117t228 108 t77 331v273zM297 1683q0 45 27.5 75.5t81.5 30.5t82 -30.5t28 -75.5t-28 -75t-82 -30t-81.5 30t-27.5 75zM727 1681q0 45 27.5 76t81.5 31t82 -31t28 -76t-28 -75t-82 -30t-81.5 30t-27.5 75z" />
<glyph unicode="&#x4e7;" d="M95 591q0 236 114.5 373.5t302.5 137.5t302.5 -134t117.5 -365v-114q0 -235 -114 -372t-304 -137q-188 0 -301.5 133t-117.5 360v118zM272 489q0 -167 65.5 -262.5t176.5 -95.5q234 0 241 338v122q0 166 -66 262.5t-177 96.5q-109 0 -174.5 -96.5t-65.5 -261.5v-103z M183 1371q0 45 27.5 75.5t81.5 30.5t82 -30.5t28 -75.5t-28 -75t-82 -30t-81.5 30t-27.5 75zM613 1369q0 45 27.5 76t81.5 31t82 -31t28 -76t-28 -75t-82 -30t-81.5 30t-27.5 75z" />
<glyph unicode="&#x4e8;" horiz-adv-x="1215" d="M1097 681q0 -214 -62 -374.5t-174 -243.5t-260 -83q-146 0 -258.5 84t-176 242.5t-64.5 365.5v101q0 208 61 368t174.5 247.5t261.5 87.5t261 -84.5t174.5 -242.5t62.5 -368v-100zM599 1311q-146 0 -229.5 -139.5t-85.5 -377.5h631q-4 249 -86.5 383t-229.5 134zM601 143 q145 0 226 128t87 372h-630q6 -231 90 -365.5t227 -134.5z" />
<glyph unicode="&#x4e9;" horiz-adv-x="1019" d="M97 551q0 245 115 398t300 153q180 0 294 -141.5t124 -370.5l1 -61q0 -243 -115 -396t-302 -153t-302 151.5t-115 405.5v14zM751 470h-476q11 -160 75.5 -249.5t163.5 -89.5t162.5 90t74.5 249zM276 622h474q-14 154 -77 241t-161 87t-160.5 -88.5t-75.5 -239.5z" />
<glyph unicode="&#x4ea;" horiz-adv-x="1215" d="M1097 681q0 -214 -62 -374.5t-174 -243.5t-260 -83q-146 0 -258.5 84t-176 242.5t-64.5 365.5v101q0 208 61 368t174.5 247.5t261.5 87.5t261 -84.5t174.5 -242.5t62.5 -368v-100zM599 1311q-146 0 -229.5 -139.5t-85.5 -377.5h631q-4 249 -86.5 383t-229.5 134zM601 143 q145 0 226 128t87 372h-630q6 -231 90 -365.5t227 -134.5zM303 1688q0 45 27.5 75.5t81.5 30.5t82 -30.5t28 -75.5t-28 -75t-82 -30t-81.5 30t-27.5 75zM733 1686q0 45 27.5 76t81.5 31t82 -31t28 -76t-28 -75t-82 -30t-81.5 30t-27.5 75z" />
<glyph unicode="&#x4eb;" horiz-adv-x="1019" d="M97 551q0 245 115 398t300 153q180 0 294 -141.5t124 -370.5l1 -61q0 -243 -115 -396t-302 -153t-302 151.5t-115 405.5v14zM751 470h-476q11 -160 75.5 -249.5t163.5 -89.5t162.5 90t74.5 249zM276 622h474q-14 154 -77 241t-161 87t-160.5 -88.5t-75.5 -239.5z M169 1373q0 45 27.5 75.5t81.5 30.5t82 -30.5t28 -75.5t-28 -75t-82 -30t-81.5 30t-27.5 75zM599 1371q0 45 27.5 76t81.5 31t82 -31t28 -76t-28 -75t-82 -30t-81.5 30t-27.5 75z" />
<glyph unicode="&#x4ec;" horiz-adv-x="1208" d="M330 462q24 -188 90.5 -256.5t193.5 -68.5q140 0 219.5 131.5t81.5 378.5h-471v158h471q0 242 -84 377.5t-234 135.5q-118 0 -182 -76t-85 -254h-185q22 236 139.5 362t312.5 126q229 0 365.5 -184t136.5 -501v-137q0 -200 -59.5 -352.5t-170.5 -237t-255 -84.5 q-204 0 -325 124t-144 358h185zM280 1715q0 45 27.5 75.5t81.5 30.5t82 -30.5t28 -75.5t-28 -75t-82 -30t-81.5 30t-27.5 75zM710 1713q0 45 27.5 76t81.5 31t82 -31t28 -76t-28 -75t-82 -30t-81.5 30t-27.5 75z" />
<glyph unicode="&#x4ed;" horiz-adv-x="967" d="M458 950q-78 0 -134 -62.5t-56 -149.5h-168q0 93 49.5 178t133.5 135.5t175 50.5q178 0 288.5 -150.5t110.5 -401.5v-30q0 -152 -50 -277t-141 -194t-209 -69q-153 0 -255 111t-102 280h168q0 -104 55.5 -172.5t133.5 -68.5q94 0 153.5 91.5t69.5 253.5h-315v152h313 q-12 150 -69.5 236.5t-150.5 86.5zM158 1371q0 45 27.5 75.5t81.5 30.5t82 -30.5t28 -75.5t-28 -75t-82 -30t-81.5 30t-27.5 75zM588 1369q0 45 27.5 76t81.5 31t82 -31t28 -76t-28 -75t-82 -30t-81.5 30t-27.5 75z" />
<glyph unicode="&#x4ee;" horiz-adv-x="1122" d="M578 640l260 816h212l-419 -1213q-46 -117 -82.5 -164.5t-87.5 -73.5t-128 -26q-69 0 -87 9l4 152l79 -4q80 0 115 97l48 143l-400 1080h204zM875 1643h-614v143h614v-143z" />
<glyph unicode="&#x4ef;" horiz-adv-x="853" d="M428 294l197 788h188l-354 -1235q-40 -139 -113 -211.5t-166 -72.5q-36 0 -92 16v150l39 -4q77 0 120.5 36.5t70.5 126.5l35 121l-318 1073h193zM757 1321h-614v143h614v-143z" />
<glyph unicode="&#x4f0;" horiz-adv-x="1122" d="M578 640l260 816h212l-419 -1213q-46 -117 -82.5 -164.5t-87.5 -73.5t-128 -26q-69 0 -87 9l4 152l79 -4q80 0 115 97l48 143l-400 1080h204zM242 1693q0 45 27.5 75.5t81.5 30.5t82 -30.5t28 -75.5t-28 -75t-82 -30t-81.5 30t-27.5 75zM672 1691q0 45 27.5 76t81.5 31 t82 -31t28 -76t-28 -75t-82 -30t-81.5 30t-27.5 75z" />
<glyph unicode="&#x4f1;" horiz-adv-x="853" d="M428 294l197 788h188l-354 -1235q-40 -139 -113 -211.5t-166 -72.5q-36 0 -92 16v150l39 -4q77 0 120.5 36.5t70.5 126.5l35 121l-318 1073h193zM124 1371q0 45 27.5 75.5t81.5 30.5t82 -30.5t28 -75.5t-28 -75t-82 -30t-81.5 30t-27.5 75zM554 1369q0 45 27.5 76 t81.5 31t82 -31t28 -76t-28 -75t-82 -30t-81.5 30t-27.5 75z" />
<glyph unicode="&#x4f2;" horiz-adv-x="1122" d="M578 640l260 816h212l-419 -1213q-46 -117 -82.5 -164.5t-87.5 -73.5t-128 -26q-69 0 -87 9l4 152l79 -4q80 0 115 97l48 143l-400 1080h204zM772 1857h194l-223 -303h-157zM477 1857h185l-179 -303h-139z" />
<glyph unicode="&#x4f3;" horiz-adv-x="853" d="M428 294l197 788h188l-354 -1235q-40 -139 -113 -211.5t-166 -72.5q-36 0 -92 16v150l39 -4q77 0 120.5 36.5t70.5 126.5l35 121l-318 1073h193zM654 1535h194l-223 -303h-157zM359 1535h185l-179 -303h-139z" />
<glyph unicode="&#x4f4;" horiz-adv-x="1230" d="M1063 1456v-1456h-184v602q-152 -52 -323 -52q-209 0 -311 107t-106 326v473h184v-463q1 -153 54 -219t179 -66q157 0 323 53v695h184zM277 1693q0 45 27.5 75.5t81.5 30.5t82 -30.5t28 -75.5t-28 -75t-82 -30t-81.5 30t-27.5 75zM707 1691q0 45 27.5 76t81.5 31t82 -31 t28 -76t-28 -75t-82 -30t-81.5 30t-27.5 75z" />
<glyph unicode="&#x4f5;" horiz-adv-x="982" d="M834 0h-178v388q-97 -28 -199 -28q-166 0 -258 102.5t-95 292.5v328h177v-333q6 -238 176 -238q100 0 199 30v540h178v-1082zM142 1351q0 45 27.5 75.5t81.5 30.5t82 -30.5t28 -75.5t-28 -75t-82 -30t-81.5 30t-27.5 75zM572 1349q0 45 27.5 76t81.5 31t82 -31t28 -76 t-28 -75t-82 -30t-81.5 30t-27.5 75z" />
<glyph unicode="&#x4f6;" horiz-adv-x="999" d="M923 1298h-573v-1298h-184v1456h757v-158zM499 -359h-177v512h177v-512z" />
<glyph unicode="&#x4f7;" horiz-adv-x="760" d="M727 929h-403v-929h-178v1082h581v-153zM477 -359h-177v512h177v-512z" />
<glyph unicode="&#x4f8;" horiz-adv-x="1547" d="M350 862h294q196 -1 307 -114.5t111 -312.5q0 -200 -112.5 -317.5t-311.5 -117.5h-471v1456h183v-594zM350 704v-547h292q112 0 174 77t62 203q0 124 -61.5 195.5t-173.5 71.5h-293zM1373 0h-183v1456h183v-1456zM449 1693q0 45 27.5 75.5t81.5 30.5t82 -30.5t28 -75.5 t-28 -75t-82 -30t-81.5 30t-27.5 75zM879 1691q0 45 27.5 76t81.5 31t82 -31t28 -76t-28 -75t-82 -30t-81.5 30t-27.5 75z" />
<glyph unicode="&#x4f9;" horiz-adv-x="1392" d="M324 709h223q155 -1 247 -95t92 -256t-93 -259.5t-246 -98.5h-399v1082h176v-373zM324 558v-407h220q78 0 121.5 53t43.5 147q0 92 -43 149t-118 58h-224zM1216 0h-177v1082h177v-1082zM358 1351q0 45 27.5 75.5t81.5 30.5t82 -30.5t28 -75.5t-28 -75t-82 -30t-81.5 30 t-27.5 75zM788 1349q0 45 27.5 76t81.5 31t82 -31t28 -76t-28 -75t-82 -30t-81.5 30t-27.5 75z" />
<glyph unicode="&#x4fa;" horiz-adv-x="1067" d="M991 1298h-573v-1298h-184v1456h757v-158zM622 715h-542v151h542v-151zM573 152v-250q-2 -165 -74.5 -252t-202.5 -87q-52 0 -93 18l12 157q10 -5 39.5 -9t41.5 -4q100 0 100 193v234h177z" />
<glyph unicode="&#x4fb;" horiz-adv-x="746" d="M806 929h-403v-929h-178v1082h581v-153zM621 537h-542v151h542v-151zM560 152v-250q-2 -165 -74.5 -252t-202.5 -87q-52 0 -93 18l12 157q10 -5 39.5 -9t41.5 -4q100 0 100 193v234h177z" />
<glyph unicode="&#x4fc;" horiz-adv-x="1128" d="M566 898l274 558h215l-379 -722l387 -734h-217l-280 568l-281 -568h-217l389 734l-381 722h214zM1127 152v-250q-2 -165 -74.5 -252t-202.5 -87q-52 0 -93 18l12 157q10 -5 39.5 -9t41.5 -4q100 0 100 193v234h177z" />
<glyph unicode="&#x4fd;" horiz-adv-x="899" d="M445 687l185 395h205l-294 -535l301 -547h-203l-191 405l-192 -405h-204l301 547l-293 535h203zM922 152v-250q-2 -165 -74.5 -252t-202.5 -87q-52 0 -93 18l12 157q10 -5 39.5 -9t41.5 -4q100 0 100 193v234h177z" />
<glyph unicode="&#x4fe;" horiz-adv-x="1128" d="M840 670h-131l354 -670h-217l-280 568l-281 -568h-217l355 670h-125v151h113l-335 635h214l276 -558l274 558h215l-334 -635h119v-151z" />
<glyph unicode="&#x4ff;" horiz-adv-x="899" d="M722 481h-145l265 -481h-203l-191 405l-192 -405h-204l264 481h-136v151h126l-246 450h203l182 -395l185 395h205l-248 -450h135v-151z" />
<glyph unicode="&#x500;" horiz-adv-x="1138" d="M806 883v573h186v-1456h-477q-193 0 -305.5 121.5t-112.5 323.5q0 197 108 315.5t298 122.5h303zM806 157v568h-291q-110 0 -172.5 -74.5t-62.5 -203.5q0 -131 61.5 -209.5t167.5 -80.5h297z" />
<glyph unicode="&#x501;" horiz-adv-x="1016" d="M95 590q0 250 93.5 381t268.5 131q155 0 242 -126v560h177v-1536h-162l-9 116q-87 -136 -249 -136q-168 0 -263.5 130.5t-97.5 368.5v111zM272 489q0 -182 54 -267.5t176 -85.5q132 0 197 133v546q-68 130 -196 130q-122 0 -176 -85.5t-55 -262.5v-108z" />
<glyph unicode="&#x502;" horiz-adv-x="1482" d="M518 0q-194 0 -306.5 121.5t-112.5 323.5q0 197 108 315.5t299 122.5h304v573h185v-1301l62 1q89 2 134.5 75t48.5 196q2 169 -51 329h178q59 -209 56 -329q-4 -198 -104 -312.5t-269 -114.5h-532zM810 157v568h-292q-109 0 -171.5 -74.5t-62.5 -203.5 q0 -131 61.5 -209.5t165.5 -80.5h299z" />
<glyph unicode="&#x503;" horiz-adv-x="1523" d="M100 521q0 267 96.5 424t260.5 157q145 0 231 -111v569h176v-1215q-2 -92 34.5 -153.5t100.5 -61.5q112 2 173 108t63 291q4 195 -50 402l170 1q23 -98 40.5 -199t15.5 -204q-2 -168 -54.5 -292.5t-146.5 -191t-211 -66.5q-204 -4 -274 168q-91 -168 -269 -168 q-163 0 -259.5 140.5t-96.5 401.5zM688 824q-67 121 -185 121q-108 0 -167 -108.5t-59 -336.5q0 -179 58.5 -271.5t166.5 -92.5q126 0 192 134l-6 75v479z" />
<glyph unicode="&#x504;" horiz-adv-x="1404" d="M233 633v158h118q130 1 189.5 61t59.5 195q0 251 -236 251h-298v158h305q202 -1 307.5 -105.5t105.5 -305.5q0 -232 -197 -329q197 -71 198 -339v-77q1 -75 31.5 -119.5t80.5 -44.5q90 2 141 107t53 286q4 192 -49 403h177q25 -112 41.5 -209t15.5 -194 q-4 -252 -109 -401t-272 -149q-140 -4 -213.5 78t-79.5 247v69q-1 117 -56.5 188.5t-150.5 71.5h-162z" />
<glyph unicode="&#x505;" horiz-adv-x="1153" d="M654 213q-2 -88 63 -88q88 2 134.5 79.5t49.5 214.5q2 157 -50 319h170q34 -122 46.5 -188t10.5 -131q-4 -206 -103.5 -325.5t-257.5 -119.5q-116 -3 -175 53t-65 187v70q0 158 -169 158h-173l-2 150h160q181 4 181 162q0 178 -193 178h-214l-5 150h224q173 0 270 -84 t97 -238q0 -156 -160 -230q159 -49 161 -235v-82z" />
<glyph unicode="&#x506;" horiz-adv-x="963" d="M159 633v151h137q131 0 193 63t62 196q0 259 -234 261h-233v151h237q198 -2 301.5 -107t103.5 -307q0 -227 -193 -327q184 -69 190 -325v-177h157v-148q0 -95 -43 -195.5t-114 -165.5l-100 72q69 116 81 225h-107q-49 49 -51 209v157q0 124 -55.5 195.5t-148.5 71.5h-183 z" />
<glyph unicode="&#x507;" horiz-adv-x="908" d="M181 440v151h185q176 4 176 163q0 178 -189 178h-229v150h238q172 -2 265 -85.5t93 -235.5q0 -160 -162 -234q160 -53 162 -252v-79h146v-148q0 -96 -43 -196.5t-115 -164.5l-99 72q71 119 82 241h-97q-49 33 -50 169v91q0 180 -169 180h-194z" />
<glyph unicode="&#x508;" horiz-adv-x="1709" d="M899 1298h-381l-22 -612q-12 -270 -51.5 -411t-115.5 -208t-202 -67h-49v157l34 2q73 6 114 56.5t62 160.5t30 336l24 744h742v-1108q0 -97 35.5 -154.5t96.5 -57.5q105 0 166 104t63 289q2 201 -50 402l177 1q23 -98 40.5 -199t15.5 -204q-2 -168 -54.5 -292.5 t-146.5 -191t-211 -66.5q-317 0 -317 371v948z" />
<glyph unicode="&#x509;" horiz-adv-x="1430" d="M699 929h-247l-19 -412q-17 -281 -85 -398.5t-214 -118.5h-57v163l34 3q76 5 109 83.5t44 291.5l20 541h591v-736q0 -96 36.5 -156t99.5 -60q84 0 132 94.5t50 259.5q4 186 -50 381h170q23 -93 40.5 -188.5t16.5 -192.5q-4 -233 -103 -369t-256 -136q-154 0 -233 93 t-79 272v585z" />
<glyph unicode="&#x50a;" horiz-adv-x="1771" d="M1097 1456v-1109q0 -100 36 -155.5t95 -55.5q109 2 168.5 106.5t61.5 286.5q4 191 -51 402l178 1q23 -98 41.5 -199t16.5 -204q-2 -167 -54.5 -291t-147 -191.5t-213.5 -67.5q-300 -8 -315 367v295h-573v-641h-185v1456h185v-658h573v658h184z" />
<glyph unicode="&#x50b;" horiz-adv-x="1467" d="M717 461h-402v-461h-176v1082h176v-470h402v470h176v-736q0 -101 37.5 -158.5t98.5 -57.5q86 2 133.5 96.5t49.5 257.5q4 179 -50 381h169l25 -106q35 -158 33 -275q-2 -154 -48 -268t-127.5 -175.5t-184.5 -61.5q-149 -4 -227.5 88.5t-84.5 277.5v116z" />
<glyph unicode="&#x50c;" horiz-adv-x="1108" d="M606 -21q-141 0 -253.5 79t-175.5 219.5t-64 313.5v268q0 174 62.5 316t175.5 222t255 80q188 0 305 -88l-56 -138q-111 68 -249 68q-137 0 -223 -128.5t-86 -339.5v-254q0 -202 85.5 -331.5t223.5 -129.5q109 2 167.5 78.5t61.5 210.5q2 156 -42 361h176l33 -179 q17 -91 16 -182q-4 -206 -117.5 -326t-294.5 -120z" />
<glyph unicode="&#x50d;" horiz-adv-x="926" d="M519 130q71 2 103 42t34 129q0 122 -16 236h170q23 -151 22 -236q-4 -154 -86.5 -238t-226.5 -84q-186 0 -302.5 152t-116.5 401v30q0 236 112 388t289 152q157 0 240 -66l-41 -144q-82 58 -199 58q-104 0 -164.5 -110.5t-60.5 -288.5v-31q0 -173 65 -281.5t178 -108.5z " />
<glyph unicode="&#x50e;" horiz-adv-x="1262" d="M437 1298h-387v158h968v-158h-397v-952q0 -96 36 -153t96 -57q107 2 166.5 104.5t63.5 288.5q4 191 -51 402l177 1q23 -98 41 -199t15 -204q-2 -168 -54.5 -292.5t-146.5 -191t-211 -66.5q-301 -8 -316 367v952z" />
<glyph unicode="&#x50f;" horiz-adv-x="1144" d="M371 932h-291v150h761v-150h-293v-587q0 -99 36.5 -157t98.5 -58q88 2 134 80.5t48 215.5q4 158 -49 325h169l24 -87q36 -138 34 -238q-4 -206 -103 -326.5t-257 -120.5q-147 -4 -225.5 87.5t-86.5 278.5v587z" />
<glyph unicode="&#x510;" horiz-adv-x="1208" d="M333 402q0 -120 81.5 -193t221.5 -73q123 0 202.5 76.5t79.5 191.5h185q0 -132 -60 -227t-167.5 -146t-239.5 -51q-222 0 -355 115t-133 311q0 254 233 341q-101 48 -158 131t-57 184q0 195 123.5 305t346.5 110q125 0 229.5 -51.5t162.5 -144t58 -208.5h-184 q0 103 -76.5 174.5t-189.5 71.5q-133 0 -208.5 -68t-75.5 -186q0 -119 69 -181.5t199 -62.5h157v-158h-166q-278 -4 -278 -261z" />
<glyph unicode="&#x511;" horiz-adv-x="964" d="M279 304q0 -76 56 -125.5t148 -49.5q86 0 145.5 55t59.5 136h176q0 -156 -107.5 -248t-273.5 -92q-171 0 -277 87.5t-106 236.5q0 186 173 252q-74 36 -115.5 97t-41.5 134q0 149 98 231.5t269 82.5q157 0 261.5 -89.5t104.5 -231.5h-176q0 71 -54 121t-136 50 q-88 0 -139 -46.5t-51 -118.5q0 -160 185 -160h171v-148h-186q-184 -3 -184 -174z" />
<glyph unicode="&#x512;" horiz-adv-x="1261" d="M1093 1456v-1456h-184v1298h-407l-22 -612q-12 -268 -51 -409t-114 -208t-197 -69h-56v157l34 2q73 6 114 56.5t62 160.5t30 336l24 744h767zM1267 152v-250q-2 -165 -74.5 -252t-202.5 -87q-52 0 -93 18l12 157q10 -5 39.5 -9t41.5 -4q100 0 100 193v234h177z" />
<glyph unicode="&#x513;" horiz-adv-x="1044" d="M895 1082v-1082h-177v929h-285l-17 -367q-14 -305 -82 -432.5t-218 -129.5h-59v163l45 4q74 10 104.5 99.5t40.5 352.5l17 463h631zM1071 152v-250q-2 -165 -74.5 -252t-202.5 -87q-52 0 -93 18l12 157q10 -5 39.5 -9t41.5 -4q100 0 100 193v234h177z" />
<glyph unicode="&#x1e00;" horiz-adv-x="1180" d="M836 380h-492l-113 -380h-188l469 1456h157l470 -1456h-188zM392 538h397l-199 662zM449 -242q0 73 45 120t107 47t105 -47t43 -120q0 -71 -42 -117t-106 -46q-65 0 -108.5 46.5t-43.5 116.5zM526 -242q0 -35 22.5 -59t52.5 -24q29 0 50 24t21 59q0 36 -21 61t-50 25 q-30 0 -52.5 -25t-22.5 -61z" />
<glyph unicode="&#x1e01;" horiz-adv-x="981" d="M689 0q-16 35 -23 118q-94 -138 -240 -138q-147 0 -229.5 82.5t-82.5 232.5q0 165 112 262t307 99h130v115q0 97 -43 138t-131 41q-80 0 -130 -47.5t-50 -120.5h-177q0 83 49 158.5t132 118.5t185 43q166 0 252.5 -82.5t88.5 -240.5v-546q1 -125 34 -217v-16h-184z M453 141q65 0 124 36t86 90v258h-100q-126 -2 -199 -56.5t-73 -152.5q0 -92 37 -133.5t125 -41.5zM286 -242q0 73 45 120t107 47t105 -47t43 -120q0 -71 -42 -117t-106 -46q-65 0 -108.5 46.5t-43.5 116.5zM363 -242q0 -35 22.5 -59t52.5 -24q29 0 50 24t21 59q0 36 -21 61 t-50 25q-30 0 -52.5 -25t-22.5 -61z" />
<glyph unicode="&#x1e3e;" horiz-adv-x="1547" d="M393 1456l380 -1188l380 1188h236v-1456h-183v567l17 568l-381 -1135h-140l-379 1131l17 -564v-567h-183v1456h236zM859 1844h224l-268 -294h-149z" />
<glyph unicode="&#x1e3f;" horiz-adv-x="1541" d="M299 1082l4 -100q99 120 261 120q181 0 253 -157q102 157 284 157q299 0 306 -373v-729h-176v712q0 118 -42 175.5t-142 57.5q-80 0 -130 -62t-58 -158v-725h-178v720q-3 225 -183 225q-134 0 -189 -134v-811h-176v1082h166zM874 1534h224l-268 -294h-149z" />
<glyph unicode="&#x1e80;" horiz-adv-x="1560" d="M435 459l19 -163l29 144l233 1016h153l226 -1016l29 -148l21 168l178 996h183l-290 -1456h-165l-243 1061l-15 86l-15 -86l-252 -1061h-166l-289 1456h183zM902 1550h-159l-258 294h223z" />
<glyph unicode="&#x1e81;" horiz-adv-x="1331" d="M939 311l164 771h175l-265 -1082h-141l-211 774l-206 -774h-142l-263 1082h174l168 -752l201 752h140zM766 1240h-159l-258 294h223z" />
<glyph unicode="&#x1e82;" horiz-adv-x="1560" d="M435 459l19 -163l29 144l233 1016h153l226 -1016l29 -148l21 168l178 996h183l-290 -1456h-165l-243 1061l-15 86l-15 -86l-252 -1061h-166l-289 1456h183zM887 1844h224l-268 -294h-149z" />
<glyph unicode="&#x1e83;" horiz-adv-x="1331" d="M939 311l164 771h175l-265 -1082h-141l-211 774l-206 -774h-142l-263 1082h174l168 -752l201 752h140zM751 1534h224l-268 -294h-149z" />
<glyph unicode="&#x1e84;" horiz-adv-x="1560" d="M435 459l19 -163l29 144l233 1016h153l226 -1016l29 -148l21 168l178 996h183l-290 -1456h-165l-243 1061l-15 86l-15 -86l-252 -1061h-166l-289 1456h183zM475 1681q0 45 27.5 75.5t81.5 30.5t82 -30.5t28 -75.5t-28 -75t-82 -30t-81.5 30t-27.5 75zM905 1679 q0 45 27.5 76t81.5 31t82 -31t28 -76t-28 -75t-82 -30t-81.5 30t-27.5 75z" />
<glyph unicode="&#x1e85;" horiz-adv-x="1331" d="M939 311l164 771h175l-265 -1082h-141l-211 774l-206 -774h-142l-263 1082h174l168 -752l201 752h140zM339 1371q0 45 27.5 75.5t81.5 30.5t82 -30.5t28 -75.5t-28 -75t-82 -30t-81.5 30t-27.5 75zM769 1369q0 45 27.5 76t81.5 31t82 -31t28 -76t-28 -75t-82 -30 t-81.5 30t-27.5 75z" />
<glyph unicode="&#x1ea0;" horiz-adv-x="1180" d="M836 380h-492l-113 -380h-188l469 1456h157l470 -1456h-188zM392 538h397l-199 662zM488 -245q0 45 27.5 76t81.5 31t82 -31t28 -76t-28 -75t-82 -30t-81.5 30t-27.5 75z" />
<glyph unicode="&#x1ea1;" horiz-adv-x="981" d="M689 0q-16 35 -23 118q-94 -138 -240 -138q-147 0 -229.5 82.5t-82.5 232.5q0 165 112 262t307 99h130v115q0 97 -43 138t-131 41q-80 0 -130 -47.5t-50 -120.5h-177q0 83 49 158.5t132 118.5t185 43q166 0 252.5 -82.5t88.5 -240.5v-546q1 -125 34 -217v-16h-184z M453 141q65 0 124 36t86 90v258h-100q-126 -2 -199 -56.5t-73 -152.5q0 -92 37 -133.5t125 -41.5zM325 -245q0 45 27.5 76t81.5 31t82 -31t28 -76t-28 -75t-82 -30t-81.5 30t-27.5 75z" />
<glyph unicode="&#x1ea2;" horiz-adv-x="1180" d="M836 380h-492l-113 -380h-188l469 1456h157l470 -1456h-188zM392 538h397l-199 662zM536 1567l-1 153q59 4 86.5 19.5t27.5 54.5q0 78 -128 78l6 106q129 0 193 -51.5t64 -136.5q0 -64 -32.5 -103t-90.5 -49l-1 -71h-124z" />
<glyph unicode="&#x1ea3;" horiz-adv-x="981" d="M689 0q-16 35 -23 118q-94 -138 -240 -138q-147 0 -229.5 82.5t-82.5 232.5q0 165 112 262t307 99h130v115q0 97 -43 138t-131 41q-80 0 -130 -47.5t-50 -120.5h-177q0 83 49 158.5t132 118.5t185 43q166 0 252.5 -82.5t88.5 -240.5v-546q1 -125 34 -217v-16h-184z M453 141q65 0 124 36t86 90v258h-100q-126 -2 -199 -56.5t-73 -152.5q0 -92 37 -133.5t125 -41.5zM451 1257l-1 153q59 4 86.5 19.5t27.5 54.5q0 78 -128 78l6 106q129 0 193 -51.5t64 -136.5q0 -64 -32.5 -103t-90.5 -49l-1 -71h-124z" />
<glyph unicode="&#x1ea4;" horiz-adv-x="1180" d="M836 380h-492l-113 -380h-188l469 1456h157l470 -1456h-188zM392 538h397l-199 662zM526 1814h140l250 -263h-184l-136 159l-137 -159h-185zM968 1987h188l-175 -259h-131z" />
<glyph unicode="&#x1ea5;" horiz-adv-x="981" d="M689 0q-16 35 -23 118q-94 -138 -240 -138q-147 0 -229.5 82.5t-82.5 232.5q0 165 112 262t307 99h130v115q0 97 -43 138t-131 41q-80 0 -130 -47.5t-50 -120.5h-177q0 83 49 158.5t132 118.5t185 43q166 0 252.5 -82.5t88.5 -240.5v-546q1 -125 34 -217v-16h-184z M453 141q65 0 124 36t86 90v258h-100q-126 -2 -199 -56.5t-73 -152.5q0 -92 37 -133.5t125 -41.5zM441 1505h140l250 -263h-184l-136 159l-137 -159h-185zM883 1678h188l-175 -259h-131z" />
<glyph unicode="&#x1ea6;" horiz-adv-x="1180" d="M836 380h-492l-113 -380h-188l469 1456h157l470 -1456h-188zM392 538h397l-199 662zM914 1548h-184l-137 158l-138 -158h-182l250 262h139zM338 1725h-130l-174 258h187z" />
<glyph unicode="&#x1ea7;" horiz-adv-x="981" d="M689 0q-16 35 -23 118q-94 -138 -240 -138q-147 0 -229.5 82.5t-82.5 232.5q0 165 112 262t307 99h130v115q0 97 -43 138t-131 41q-80 0 -130 -47.5t-50 -120.5h-177q0 83 49 158.5t132 118.5t185 43q166 0 252.5 -82.5t88.5 -240.5v-546q1 -125 34 -217v-16h-184z M453 141q65 0 124 36t86 90v258h-100q-126 -2 -199 -56.5t-73 -152.5q0 -92 37 -133.5t125 -41.5zM829 1238h-184l-137 158l-138 -158h-182l250 262h139zM253 1415h-130l-174 258h187z" />
<glyph unicode="&#x1ea8;" horiz-adv-x="1180" d="M836 380h-492l-113 -380h-188l469 1456h157l470 -1456h-188zM392 538h397l-199 662zM914 1535h-157l-164 186l-165 -186h-155l232 262h175zM831 1673l-1 131q52 5 76.5 17.5t24.5 45.5q0 67 -112 67l5 92q111 0 167 -44t56 -117q0 -54 -28.5 -89t-79.5 -43l-1 -60h-107z " />
<glyph unicode="&#x1ea9;" horiz-adv-x="981" d="M689 0q-16 35 -23 118q-94 -138 -240 -138q-147 0 -229.5 82.5t-82.5 232.5q0 165 112 262t307 99h130v115q0 97 -43 138t-131 41q-80 0 -130 -47.5t-50 -120.5h-177q0 83 49 158.5t132 118.5t185 43q166 0 252.5 -82.5t88.5 -240.5v-546q1 -125 34 -217v-16h-184z M453 141q65 0 124 36t86 90v258h-100q-126 -2 -199 -56.5t-73 -152.5q0 -92 37 -133.5t125 -41.5zM829 1226h-157l-164 186l-165 -186h-155l232 262h175zM746 1364l-1 131q52 5 76.5 17.5t24.5 45.5q0 67 -112 67l5 92q111 0 167 -44t56 -117q0 -54 -28.5 -89t-79.5 -43 l-1 -60h-107z" />
<glyph unicode="&#x1eaa;" horiz-adv-x="1180" d="M836 380h-492l-113 -380h-188l469 1456h157l470 -1456h-188zM392 538h397l-199 662zM914 1514h-157l-164 158l-165 -158h-155l259 244h122zM812 1987q0 -61 -41.5 -108.5t-98.5 -47.5q-44 0 -90 35.5t-80 35.5q-24 0 -47 -24t-23 -51l-69 19q0 65 42.5 113t96.5 48 q33 0 85.5 -35t84.5 -35q26 0 48 23.5t22 49.5z" />
<glyph unicode="&#x1eab;" horiz-adv-x="981" d="M689 0q-16 35 -23 118q-94 -138 -240 -138q-147 0 -229.5 82.5t-82.5 232.5q0 165 112 262t307 99h130v115q0 97 -43 138t-131 41q-80 0 -130 -47.5t-50 -120.5h-177q0 83 49 158.5t132 118.5t185 43q166 0 252.5 -82.5t88.5 -240.5v-546q1 -125 34 -217v-16h-184z M453 141q65 0 124 36t86 90v258h-100q-126 -2 -199 -56.5t-73 -152.5q0 -92 37 -133.5t125 -41.5zM829 1205h-157l-164 158l-165 -158h-155l259 244h122zM727 1678q0 -61 -41.5 -108.5t-98.5 -47.5q-44 0 -90 35.5t-80 35.5q-24 0 -47 -24t-23 -51l-69 19q0 65 42.5 113 t96.5 48q33 0 85.5 -35t84.5 -35q26 0 48 23.5t22 49.5z" />
<glyph unicode="&#x1eac;" horiz-adv-x="1180" d="M836 380h-492l-113 -380h-188l469 1456h157l470 -1456h-188zM392 538h397l-199 662zM856 1572v-10h-142l-120 170l-120 -170h-142v12l209 272h105zM488 -245q0 45 27.5 76t81.5 31t82 -31t28 -76t-28 -75t-82 -30t-81.5 30t-27.5 75z" />
<glyph unicode="&#x1ead;" horiz-adv-x="981" d="M689 0q-16 35 -23 118q-94 -138 -240 -138q-147 0 -229.5 82.5t-82.5 232.5q0 165 112 262t307 99h130v115q0 97 -43 138t-131 41q-80 0 -130 -47.5t-50 -120.5h-177q0 83 49 158.5t132 118.5t185 43q166 0 252.5 -82.5t88.5 -240.5v-546q1 -125 34 -217v-16h-184z M453 141q65 0 124 36t86 90v258h-100q-126 -2 -199 -56.5t-73 -152.5q0 -92 37 -133.5t125 -41.5zM771 1262v-10h-142l-120 170l-120 -170h-142v12l209 272h105zM325 -245q0 45 27.5 76t81.5 31t82 -31t28 -76t-28 -75t-82 -30t-81.5 30t-27.5 75z" />
<glyph unicode="&#x1eae;" horiz-adv-x="1180" d="M836 380h-492l-113 -380h-188l469 1456h157l470 -1456h-188zM392 538h397l-199 662zM848 1757q0 -94 -71 -151.5t-187 -57.5q-115 0 -187 57t-72 152h144q0 -56 30.5 -86t84.5 -30t84 30t30 86h144zM628 1975h143l-136 -198h-93z" />
<glyph unicode="&#x1eaf;" horiz-adv-x="981" d="M689 0q-16 35 -23 118q-94 -138 -240 -138q-147 0 -229.5 82.5t-82.5 232.5q0 165 112 262t307 99h130v115q0 97 -43 138t-131 41q-80 0 -130 -47.5t-50 -120.5h-177q0 83 49 158.5t132 118.5t185 43q166 0 252.5 -82.5t88.5 -240.5v-546q1 -125 34 -217v-16h-184z M453 141q65 0 124 36t86 90v258h-100q-126 -2 -199 -56.5t-73 -152.5q0 -92 37 -133.5t125 -41.5zM763 1448q0 -94 -71 -151.5t-187 -57.5q-115 0 -187 57t-72 152h144q0 -56 30.5 -86t84.5 -30t84 30t30 86h144zM543 1666h143l-136 -198h-93z" />
<glyph unicode="&#x1eb0;" horiz-adv-x="1180" d="M836 380h-492l-113 -380h-188l469 1456h157l470 -1456h-188zM392 538h397l-199 662zM848 1757q0 -94 -71 -151.5t-187 -57.5q-115 0 -187 57t-72 152h144q0 -56 30.5 -86t84.5 -30t84 30t30 86h144zM422 1975h144l85 -198h-92z" />
<glyph unicode="&#x1eb1;" horiz-adv-x="981" d="M689 0q-16 35 -23 118q-94 -138 -240 -138q-147 0 -229.5 82.5t-82.5 232.5q0 165 112 262t307 99h130v115q0 97 -43 138t-131 41q-80 0 -130 -47.5t-50 -120.5h-177q0 83 49 158.5t132 118.5t185 43q166 0 252.5 -82.5t88.5 -240.5v-546q1 -125 34 -217v-16h-184z M453 141q65 0 124 36t86 90v258h-100q-126 -2 -199 -56.5t-73 -152.5q0 -92 37 -133.5t125 -41.5zM763 1448q0 -94 -71 -151.5t-187 -57.5q-115 0 -187 57t-72 152h144q0 -56 30.5 -86t84.5 -30t84 30t30 86h144zM337 1666h144l85 -198h-92z" />
<glyph unicode="&#x1eb2;" horiz-adv-x="1180" d="M836 380h-492l-113 -380h-188l469 1456h157l470 -1456h-188zM392 538h397l-199 662zM832 1773q0 -95 -69 -151.5t-179 -56.5q-112 0 -181 57.5t-69 150.5h138q0 -55 29 -85t83 -30q52 0 81 30t29 85h138zM531 1790l-1 124q59 4 85 16t26 41q0 59 -124 59l6 82 q125 0 186.5 -39t61.5 -105q0 -48 -31 -78t-87 -38l-1 -62h-121z" />
<glyph unicode="&#x1eb3;" horiz-adv-x="981" d="M689 0q-16 35 -23 118q-94 -138 -240 -138q-147 0 -229.5 82.5t-82.5 232.5q0 165 112 262t307 99h130v115q0 97 -43 138t-131 41q-80 0 -130 -47.5t-50 -120.5h-177q0 83 49 158.5t132 118.5t185 43q166 0 252.5 -82.5t88.5 -240.5v-546q1 -125 34 -217v-16h-184z M453 141q65 0 124 36t86 90v258h-100q-126 -2 -199 -56.5t-73 -152.5q0 -92 37 -133.5t125 -41.5zM747 1463q0 -95 -69 -151.5t-179 -56.5q-112 0 -181 57.5t-69 150.5h138q0 -55 29 -85t83 -30q52 0 81 30t29 85h138zM446 1480l-1 124q59 4 85 16t26 41q0 59 -124 59l6 82 q125 0 186.5 -39t61.5 -105q0 -48 -31 -78t-87 -38l-1 -62h-121z" />
<glyph unicode="&#x1eb4;" horiz-adv-x="1180" d="M836 380h-492l-113 -380h-188l469 1456h157l470 -1456h-188zM392 538h397l-199 662zM840 1779q0 -95 -69 -154t-184 -59q-116 0 -185 59.5t-69 153.5h142q0 -55 29 -86.5t83 -31.5t83 31.5t29 86.5h141zM831 2045q0 -74 -40.5 -126.5t-100.5 -52.5q-49 0 -99.5 37.5 t-87.5 37.5q-27 0 -46 -25.5t-19 -63.5l-75 21q0 75 40 128.5t100 53.5q41 0 95 -37.5t92 -37.5q27 0 46.5 25.5t19.5 63.5z" />
<glyph unicode="&#x1eb5;" horiz-adv-x="981" d="M689 0q-16 35 -23 118q-94 -138 -240 -138q-147 0 -229.5 82.5t-82.5 232.5q0 165 112 262t307 99h130v115q0 97 -43 138t-131 41q-80 0 -130 -47.5t-50 -120.5h-177q0 83 49 158.5t132 118.5t185 43q166 0 252.5 -82.5t88.5 -240.5v-546q1 -125 34 -217v-16h-184z M453 141q65 0 124 36t86 90v258h-100q-126 -2 -199 -56.5t-73 -152.5q0 -92 37 -133.5t125 -41.5zM755 1469q0 -95 -69 -154t-184 -59q-116 0 -185 59.5t-69 153.5h142q0 -55 29 -86.5t83 -31.5t83 31.5t29 86.5h141zM746 1735q0 -74 -40.5 -126.5t-100.5 -52.5 q-49 0 -99.5 37.5t-87.5 37.5q-27 0 -46 -25.5t-19 -63.5l-75 21q0 75 40 128.5t100 53.5q41 0 95 -37.5t92 -37.5q27 0 46.5 25.5t19.5 63.5z" />
<glyph unicode="&#x1eb6;" horiz-adv-x="1180" d="M836 380h-492l-113 -380h-188l469 1456h157l470 -1456h-188zM392 538h397l-199 662zM894 1806q0 -121 -82.5 -194.5t-216.5 -73.5t-217 74t-83 194h151q0 -70 38 -109.5t111 -39.5q70 0 109.5 39t39.5 110h150zM488 -245q0 45 27.5 76t81.5 31t82 -31t28 -76t-28 -75 t-82 -30t-81.5 30t-27.5 75z" />
<glyph unicode="&#x1eb7;" horiz-adv-x="981" d="M689 0q-16 35 -23 118q-94 -138 -240 -138q-147 0 -229.5 82.5t-82.5 232.5q0 165 112 262t307 99h130v115q0 97 -43 138t-131 41q-80 0 -130 -47.5t-50 -120.5h-177q0 83 49 158.5t132 118.5t185 43q166 0 252.5 -82.5t88.5 -240.5v-546q1 -125 34 -217v-16h-184z M453 141q65 0 124 36t86 90v258h-100q-126 -2 -199 -56.5t-73 -152.5q0 -92 37 -133.5t125 -41.5zM809 1496q0 -121 -82.5 -194.5t-216.5 -73.5t-217 74t-83 194h151q0 -70 38 -109.5t111 -39.5q70 0 109.5 39t39.5 110h150zM325 -245q0 45 27.5 76t81.5 31t82 -31t28 -76 t-28 -75t-82 -30t-81.5 30t-27.5 75z" />
<glyph unicode="&#x1eb8;" horiz-adv-x="1017" d="M855 673h-515v-516h600v-157h-783v1456h773v-158h-590v-468h515v-157zM425 -235q0 45 27.5 76t81.5 31t82 -31t28 -76t-28 -75t-82 -30t-81.5 30t-27.5 75z" />
<glyph unicode="&#x1eb9;" horiz-adv-x="959" d="M519 -20q-202 0 -310 120.5t-110 353.5v131q0 242 105.5 379.5t294.5 137.5q190 0 284 -121t96 -377v-116h-604v-25q0 -174 65.5 -253t188.5 -79q78 0 137.5 29.5t111.5 93.5l92 -112q-115 -162 -351 -162zM499 950q-110 0 -163 -75.5t-60 -234.5h426v24 q-7 154 -55.5 220t-147.5 66zM382 -245q0 45 27.5 76t81.5 31t82 -31t28 -76t-28 -75t-82 -30t-81.5 30t-27.5 75z" />
<glyph unicode="&#x1eba;" horiz-adv-x="1017" d="M855 673h-515v-516h600v-157h-783v1456h773v-158h-590v-468h515v-157zM482 1579l-1 153q59 4 86.5 19.5t27.5 54.5q0 78 -128 78l6 106q129 0 193 -51.5t64 -136.5q0 -64 -32.5 -103t-90.5 -49l-1 -71h-124z" />
<glyph unicode="&#x1ebb;" horiz-adv-x="959" d="M519 -20q-202 0 -310 120.5t-110 353.5v131q0 242 105.5 379.5t294.5 137.5q190 0 284 -121t96 -377v-116h-604v-25q0 -174 65.5 -253t188.5 -79q78 0 137.5 29.5t111.5 93.5l92 -112q-115 -162 -351 -162zM499 950q-110 0 -163 -75.5t-60 -234.5h426v24 q-7 154 -55.5 220t-147.5 66zM436 1257l-1 153q59 4 86.5 19.5t27.5 54.5q0 78 -128 78l6 106q129 0 193 -51.5t64 -136.5q0 -64 -32.5 -103t-90.5 -49l-1 -71h-124z" />
<glyph unicode="&#x1ebc;" horiz-adv-x="1017" d="M855 673h-515v-516h600v-157h-783v1456h773v-158h-590v-468h515v-157zM842 1826q0 -105 -52 -173.5t-134 -68.5q-35 0 -60 10.5t-65 41t-58 37t-41 6.5q-34 0 -56.5 -32t-22.5 -80l-115 7q0 109 53 178t132 69q30 0 54 -11.5t60.5 -37.5t59.5 -36.5t50 -10.5 q34 0 57 32.5t23 80.5z" />
<glyph unicode="&#x1ebd;" horiz-adv-x="959" d="M519 -20q-202 0 -310 120.5t-110 353.5v131q0 242 105.5 379.5t294.5 137.5q190 0 284 -121t96 -377v-116h-604v-25q0 -174 65.5 -253t188.5 -79q78 0 137.5 29.5t111.5 93.5l92 -112q-115 -162 -351 -162zM499 950q-110 0 -163 -75.5t-60 -234.5h426v24 q-7 154 -55.5 220t-147.5 66zM796 1504q0 -105 -52 -173.5t-134 -68.5q-35 0 -60 10.5t-65 41t-58 37t-41 6.5q-34 0 -56.5 -32t-22.5 -80l-115 7q0 109 53 178t132 69q30 0 54 -11.5t60.5 -37.5t59.5 -36.5t50 -10.5q34 0 57 32.5t23 80.5z" />
<glyph unicode="&#x1ebe;" horiz-adv-x="1017" d="M855 673h-515v-516h600v-157h-783v1456h773v-158h-590v-468h515v-157zM472 1826h140l250 -263h-184l-136 159l-137 -159h-185zM914 1999h188l-175 -259h-131z" />
<glyph unicode="&#x1ebf;" horiz-adv-x="959" d="M519 -20q-202 0 -310 120.5t-110 353.5v131q0 242 105.5 379.5t294.5 137.5q190 0 284 -121t96 -377v-116h-604v-25q0 -174 65.5 -253t188.5 -79q78 0 137.5 29.5t111.5 93.5l92 -112q-115 -162 -351 -162zM499 950q-110 0 -163 -75.5t-60 -234.5h426v24 q-7 154 -55.5 220t-147.5 66zM426 1505h140l250 -263h-184l-136 159l-137 -159h-185zM868 1678h188l-175 -259h-131z" />
<glyph unicode="&#x1ec0;" horiz-adv-x="1017" d="M855 673h-515v-516h600v-157h-783v1456h773v-158h-590v-468h515v-157zM860 1560h-184l-137 158l-138 -158h-182l250 262h139zM284 1737h-130l-174 258h187z" />
<glyph unicode="&#x1ec1;" horiz-adv-x="959" d="M519 -20q-202 0 -310 120.5t-110 353.5v131q0 242 105.5 379.5t294.5 137.5q190 0 284 -121t96 -377v-116h-604v-25q0 -174 65.5 -253t188.5 -79q78 0 137.5 29.5t111.5 93.5l92 -112q-115 -162 -351 -162zM499 950q-110 0 -163 -75.5t-60 -234.5h426v24 q-7 154 -55.5 220t-147.5 66zM814 1238h-184l-137 158l-138 -158h-182l250 262h139zM238 1415h-130l-174 258h187z" />
<glyph unicode="&#x1ec2;" horiz-adv-x="1017" d="M855 673h-515v-516h600v-157h-783v1456h773v-158h-590v-468h515v-157zM860 1547h-157l-164 186l-165 -186h-155l232 262h175zM777 1685l-1 131q52 5 76.5 17.5t24.5 45.5q0 67 -112 67l5 92q111 0 167 -44t56 -117q0 -54 -28.5 -89t-79.5 -43l-1 -60h-107z" />
<glyph unicode="&#x1ec3;" horiz-adv-x="959" d="M519 -20q-202 0 -310 120.5t-110 353.5v131q0 242 105.5 379.5t294.5 137.5q190 0 284 -121t96 -377v-116h-604v-25q0 -174 65.5 -253t188.5 -79q78 0 137.5 29.5t111.5 93.5l92 -112q-115 -162 -351 -162zM499 950q-110 0 -163 -75.5t-60 -234.5h426v24 q-7 154 -55.5 220t-147.5 66zM814 1226h-157l-164 186l-165 -186h-155l232 262h175zM731 1364l-1 131q52 5 76.5 17.5t24.5 45.5q0 67 -112 67l5 92q111 0 167 -44t56 -117q0 -54 -28.5 -89t-79.5 -43l-1 -60h-107z" />
<glyph unicode="&#x1ec4;" horiz-adv-x="1017" d="M855 673h-515v-516h600v-157h-783v1456h773v-158h-590v-468h515v-157zM860 1526h-157l-164 158l-165 -158h-155l259 244h122zM758 1999q0 -61 -41.5 -108.5t-98.5 -47.5q-44 0 -90 35.5t-80 35.5q-24 0 -47 -24t-23 -51l-69 19q0 65 42.5 113t96.5 48q33 0 85.5 -35 t84.5 -35q26 0 48 23.5t22 49.5z" />
</font>
</defs>
</svg>
