<?xml version="1.0" standalone="no"?>
<!DOCTYPE svg PUBLIC "-//W3C//DTD SVG 1.1//EN" "http://www.w3.org/Graphics/SVG/1.1/DTD/svg11.dtd" >
<svg xmlns="http://www.w3.org/2000/svg">
<metadata></metadata>
<defs>
<font id="roboto_slabbold" horiz-adv-x="1471" >
<font-face units-per-em="2048" ascent="1638" descent="-410" />
<missing-glyph horiz-adv-x="502" />
<glyph unicode="fi" horiz-adv-x="1337" d="M34 877v205h161v74q0 204 124.5 314.5t350.5 110.5q78 0 154 -15.5t176 -44.5l-42 -230q-73 22 -132.5 34t-136.5 12q-101 0 -151.5 -46t-50.5 -135v-74h656v-877l155 -30v-175h-588v175l141 30v672h-364v-672l141 -30v-175h-589v175l156 30v672h-161z" />
<glyph unicode="&#xfb02;" horiz-adv-x="1421" d="M940 1324q-55 12 -109 19t-117 7q-113 0 -170 -56t-57 -165v-47h240v-205h-240v-672l141 -30v-175h-589v175l156 30v672h-136v205h136v47q0 217 131 334.5t369 117.5q86 0 170 -15.5t195 -44.5h172v-1316l141 -30v-175h-574v175l141 30v1119v0z" />
<glyph horiz-adv-x="225" />
<glyph unicode="&#x9;" horiz-adv-x="0" />
<glyph unicode=" "  horiz-adv-x="502" />
<glyph unicode="&#x09;" horiz-adv-x="502" />
<glyph unicode="&#xa0;" horiz-adv-x="502" />
<glyph unicode="!" horiz-adv-x="507" d="M411 502h-292v954h292v-954zM411 0h-292v256h292v-256z" />
<glyph unicode="&#x22;" horiz-adv-x="782" d="M346 1288l-77 -249h-129v521h206v-272zM672 1288l-77 -249h-128v521h205v-272z" />
<glyph unicode="#" horiz-adv-x="1198" d="M642 410h-192l-72 -410h-184l72 410h-227v169h256l51 290h-231v171h261l74 416h183l-73 -416h192l73 416h184l-74 -416h220v-171h-250l-51 -290h226v-169h-255l-72 -410h-183zM479 579h192l51 290h-192z" />
<glyph unicode="$" horiz-adv-x="1107" d="M749 383q0 81 -46.5 132t-159.5 95q-222 81 -329 180.5t-107 280.5q0 168 107.5 275.5t289.5 126.5v215h159v-218q175 -26 275.5 -146.5t98.5 -313.5l-3 -5h-284q0 118 -49 182t-132 64q-86 0 -128.5 -49.5t-42.5 -131.5q0 -78 44.5 -126.5t163.5 -95.5q221 -87 328 -186 t107 -277q0 -173 -107.5 -277.5t-290.5 -123.5v-198h-159v197q-187 19 -309 132.5t-118 333.5l2 5h284q0 -134 62 -192t156 -58q91 0 139.5 48.5t48.5 130.5z" />
<glyph unicode="%" horiz-adv-x="1429" d="M49 1176q0 129 83.5 215t232.5 86q151 0 234 -85.5t83 -215.5v-77q0 -129 -83 -214t-232 -85q-150 0 -234 85t-84 214v77zM243 1099q0 -58 32 -97.5t92 -39.5q58 0 90 39.5t32 97.5v77q0 58 -32.5 98.5t-91.5 40.5t-90.5 -40.5t-31.5 -98.5v-77zM745 357q0 128 84 214 t233 86q150 0 233.5 -85.5t83.5 -214.5v-77q0 -130 -83 -215t-232 -85q-150 0 -234.5 85.5t-84.5 214.5v77zM939 280q0 -57 34.5 -97.5t90.5 -40.5q65 0 93 37.5t28 100.5v77q0 57 -32 97.5t-91 40.5q-60 0 -91.5 -40.5t-31.5 -97.5v-77zM450 109l-142 75l711 1138l142 -75z " />
<glyph unicode="&#x26;" horiz-adv-x="1278" d="M45 392q0 118 65 203.5t198 178.5q-68 92 -101.5 168t-33.5 155q0 173 108 276.5t289 103.5q159 0 258.5 -98.5t99.5 -238.5q0 -98 -49 -179t-134 -142l-93 -66l276 -322q36 60 56 130t20 148h218q0 -138 -34 -254t-104 -206l208 -244l-2 -5h-324l-77 89 q-85 -55 -175 -82.5t-193 -27.5q-218 0 -347 114.5t-129 298.5zM536 203q53 0 106 13.5t102 40.5l-300 348l-19 -13q-51 -48 -69.5 -93.5t-18.5 -91.5q0 -89 55 -146.5t144 -57.5zM434 1100q0 -43 21.5 -88.5t64.5 -100.5l86 56q56 36 75.5 74t19.5 83q0 50 -36.5 89 t-95.5 39q-65 0 -100 -43.5t-35 -108.5z" />
<glyph unicode="'" horiz-adv-x="449" d="M338 1291l-70 -283h-129v552h199v-269z" />
<glyph unicode="(" horiz-adv-x="685" d="M89 592q0 392 152 665.5t344 354.5h6l53 -146q-131 -98 -220 -316t-89 -556v-26q0 -339 89 -556.5t220 -318.5l-53 -143h-6q-192 81 -344 354t-152 666v22z" />
<glyph unicode=")" horiz-adv-x="712" d="M631 570q0 -383 -158 -661.5t-352 -358.5h-6l-54 143q129 98 219 317t90 558v26q0 336 -91 556.5t-218 319.5l54 142h6q194 -80 352 -359t158 -661v-22z" />
<glyph unicode="*" horiz-adv-x="914" d="M336 966l-302 89l57 177l297 -123l-18 347h188l-20 -353l291 120l56 -180l-306 -89l200 -265l-151 -110l-175 290l-173 -281l-152 106z" />
<glyph unicode="+" horiz-adv-x="1098" d="M688 812h359v-252h-359v-414h-277v414h-362v252h362v394h277v-394z" />
<glyph unicode="," horiz-adv-x="503" d="M400 39q0 -102 -57.5 -216t-140.5 -187l-144 78q39 70 60 144.5t21 166.5v218h262z" />
<glyph unicode="-" horiz-adv-x="815" d="M695 510h-564v225h564v-225z" />
<glyph unicode="." horiz-adv-x="522" d="M420 0h-291v256h291v-256z" />
<glyph unicode="/" horiz-adv-x="748" d="M193 -125h-216l534 1581h216z" />
<glyph unicode="0" horiz-adv-x="1170" d="M1082 567q0 -289 -132.5 -438.5t-358.5 -149.5q-228 0 -361 149.5t-133 438.5v321q0 288 132.5 438.5t359.5 150.5q226 0 359.5 -150.5t133.5 -438.5v-321zM791 918q0 173 -52 253.5t-150 80.5q-99 0 -150 -80t-51 -254v-379q0 -176 51.5 -256t151.5 -80q98 0 149 80 t51 256v379z" />
<glyph unicode="1" horiz-adv-x="905" d="M65 175l246 30v986h-249v167l540 98v-1251l246 -30v-175h-783v175z" />
<glyph unicode="2" horiz-adv-x="1132" d="M73 0v191l471 505q102 117 145 197.5t43 149.5q0 92 -49.5 150.5t-140.5 58.5q-101 0 -153.5 -68.5t-52.5 -182.5h-284l-2 6q-5 197 129.5 333.5t362.5 136.5q225 0 354 -117t129 -312q0 -132 -72.5 -244t-240.5 -292l-259 -283l2 -5h378l12 144h222v-368h-994z" />
<glyph unicode="3" horiz-adv-x="1112" d="M381 852h164q104 0 154 54.5t50 151.5q0 88 -50 141t-145 53q-82 0 -138 -48t-56 -126h-283l-2 6q-6 171 131 282t340 111q226 0 360.5 -108t134.5 -308q0 -95 -60 -180.5t-165 -133.5q121 -43 184.5 -132t63.5 -207q0 -200 -145.5 -314.5t-372.5 -114.5 q-203 0 -348.5 107.5t-140.5 303.5l2 6h283q0 -84 60 -138.5t152 -54.5q101 0 159.5 56t58.5 152q0 115 -57.5 168.5t-169.5 53.5h-164v219z" />
<glyph unicode="4" horiz-adv-x="1154" d="M935 542h165v-194h-165v-143l155 -30v-175h-602v175l156 30v143h-594l-14 143l605 965h294v-914zM309 542h335v525l-6 2l-24 -42z" />
<glyph unicode="5" horiz-adv-x="1092" d="M834 1124l-26 98h-392l-41 -336q41 30 98 49.5t126 20.5q210 3 325 -127t115 -362q0 -210 -126.5 -349t-364.5 -139q-200 0 -343 109.5t-138 301.5l2 5l280 14q0 -97 55 -151.5t144 -54.5q102 0 151 73t49 189q0 126 -52 202t-155 76q-83 0 -127.5 -31t-63.5 -84l-258 17 l84 811h838v-332h-180z" />
<glyph unicode="6" horiz-adv-x="1144" d="M675 1477q82 0 151.5 -15.5t139.5 -45.5l-51 -213q-63 22 -116 33.5t-122 11.5q-130 0 -208.5 -95t-79.5 -280l3 -5q49 51 124.5 80t168.5 29q195 0 306 -138.5t111 -353.5q0 -220 -137 -363t-354 -143q-230 0 -375 156.5t-145 433.5v256q0 309 163.5 480.5t420.5 171.5z M608 756q-81 0 -138 -26t-88 -71v-97q0 -173 62.5 -266t166.5 -93q90 0 144.5 82.5t54.5 199.5q0 121 -55 196t-147 75z" />
<glyph unicode="7" horiz-adv-x="1107" d="M1078 1231q-234 -274 -319.5 -511t-122.5 -572l-14 -148h-292l14 148q34 321 146 589.5t307 493.5h-513l-11 -144h-224v369h1029v-225z" />
<glyph unicode="8" horiz-adv-x="1115" d="M1026 1070q0 -109 -58 -193t-159 -131q116 -49 183 -140t67 -208q0 -202 -137 -310.5t-358 -108.5q-222 0 -359.5 108.5t-137.5 310.5q0 118 66.5 208.5t182.5 139.5q-102 47 -159 131t-57 193q0 194 127 300.5t335 106.5t336 -106.5t128 -300.5zM768 418q0 98 -57.5 157 t-148.5 59t-147 -59t-56 -157q0 -100 56 -157.5t149 -57.5q91 0 147.5 58t56.5 157zM734 1057q0 88 -46.5 141.5t-125.5 53.5q-80 0 -124.5 -52.5t-44.5 -142.5q0 -91 45 -144.5t126 -53.5q79 0 124.5 53.5t45.5 144.5z" />
<glyph unicode="9" horiz-adv-x="1141" d="M501 203q117 0 189 89.5t72 268.5v22q-49 -63 -117 -95.5t-146 -32.5q-204 0 -320 133.5t-116 368.5q0 221 138.5 370.5t350.5 149.5q223 0 362 -153.5t139 -431.5v-316q0 -283 -154.5 -440t-397.5 -157q-76 0 -156.5 15.5t-148.5 45.5l33 211q67 -25 130 -36.5 t142 -11.5zM548 669q73 0 127.5 27.5t86.5 73.5v156q0 160 -56 243t-152 83q-88 0 -143.5 -86.5t-55.5 -208.5q0 -132 49.5 -210t143.5 -78z" />
<glyph unicode=":" horiz-adv-x="455" d="M91 0zM382 0h-291v256h291v-256zM382 825h-291v256h291v-256z" />
<glyph unicode=";" horiz-adv-x="453" d="M28 0zM381 825h-291v256h291v-256zM370 39q0 -102 -57.5 -216t-140.5 -187l-144 78q39 70 60 144.5t21 166.5v218h262z" />
<glyph unicode="&#x3c;" horiz-adv-x="1012" d="M343 550v-6l576 -203v-272l-861 367v227l861 366v-272z" />
<glyph unicode="=" horiz-adv-x="1123" d="M1019 763h-896v229h896v-229zM1019 332h-896v229h896v-229z" />
<glyph unicode="&#x3e;" horiz-adv-x="1031" d="M689 539v6l-585 206v269l871 -366v-227l-871 -367v270z" />
<glyph unicode="?" horiz-adv-x="985" d="M326 414q1 140 41.5 205t161.5 158q71 58 113.5 125t42.5 150q0 92 -48.5 144t-138.5 52q-74 0 -125.5 -44t-52.5 -129h-284l-2 6q-3 192 126.5 294t337.5 102q224 0 351.5 -113.5t127.5 -308.5q0 -127 -74.5 -235t-186.5 -181q-61 -47 -80 -94.5t-19 -130.5h-291zM619 0 h-294v250h294v-250z" />
<glyph unicode="@" horiz-adv-x="1806" d="M1731 513q-9 -218 -128 -376t-356 -158q-78 0 -135 44t-81 123q-44 -82 -109.5 -123t-153.5 -41q-141 0 -216.5 119t-56.5 315q25 254 144 407t288 153q116 0 186 -26t155 -80l-3 -4h5l-51 -573q-7 -94 14 -129.5t57 -35.5q115 0 184.5 109t77.5 276q16 354 -136.5 551.5 t-471.5 197.5q-304 0 -484.5 -213t-195.5 -571q-18 -355 145.5 -560t469.5 -205q85 0 175.5 20t155.5 50l38 -147q-67 -42 -170.5 -65.5t-202.5 -23.5q-396 0 -610.5 249t-197.5 682q18 427 255 683.5t626 256.5q387 0 593 -242.5t190 -662.5zM721 416q-10 -127 18.5 -192.5 t92.5 -65.5q56 0 101.5 26.5t81.5 96.5q0 2 0.5 6t0.5 6l44 496q-23 7 -46.5 11t-47.5 4q-111 0 -169 -96.5t-76 -291.5z" />
<glyph unicode="A" d="M41 175l104 15l443 1266h299l440 -1266l104 -15v-175h-496v175l101 18l-64 200h-472l-64 -200l101 -18v-175h-496v175zM569 608h334l-164 513h-6z" />
<glyph unicode="B" horiz-adv-x="1354" d="M703 1456q257 0 401 -100t144 -299q0 -101 -53.5 -180.5t-155.5 -119.5q131 -28 196.5 -120t65.5 -213q0 -209 -138 -316.5t-391 -107.5h-716v175l155 30v1045l-155 30v176h155h492zM503 644v-420h269q116 0 177 50.5t61 149.5q0 107 -52 163.5t-164 56.5h-291zM503 846 h210q117 0 180 48t63 140q0 101 -63.5 149t-189.5 48h-200v-385z" />
<glyph unicode="C" horiz-adv-x="1327" d="M1249 965h-217l-30 194q-43 43 -108.5 68t-154.5 25q-190 0 -292.5 -138t-102.5 -360v-51q0 -222 102 -361t288 -139q86 0 157.5 25t110.5 68l30 194h217v-288q-88 -102 -224.5 -162.5t-305.5 -60.5q-293 0 -480 203t-187 521v49q0 317 186 521t481 204q169 0 305 -61.5 t225 -162.5v-288z" />
<glyph unicode="D" horiz-adv-x="1411" d="M711 1456q267 0 440 -170.5t173 -437.5v-241q0 -268 -173 -437.5t-440 -169.5h-655v175l155 30v1045l-155 30v176h155h500zM503 1231v-1007h193q157 0 246 106t89 277v243q0 169 -89 275t-246 106h-193z" />
<glyph unicode="E" horiz-adv-x="1308" d="M996 640h-493v-416h470l13 174h222v-398h-1152v175l155 30v1045l-155 30v176h155h995v-399h-224l-13 174h-466v-366h493v-225z" />
<glyph unicode="F" horiz-adv-x="1265" d="M56 175l155 30v1045l-155 30v176h1159v-399h-224l-13 174h-475v-401h510v-225h-510v-400l156 -30v-175h-603v175z" />
<glyph unicode="G" horiz-adv-x="1353" d="M1263 162q-71 -70 -207 -126.5t-344 -56.5q-295 0 -480 197.5t-185 513.5v50q0 327 182.5 532t476.5 205q171 0 312.5 -54.5t235.5 -147.5v-293h-216l-41 195q-40 34 -105.5 54.5t-150.5 20.5q-191 0 -297 -141t-106 -369v-52q0 -222 104 -354.5t300 -132.5 q88 0 142.5 15t85.5 35v247l-208 16v205h501v-559z" />
<glyph unicode="H" horiz-adv-x="1601" d="M56 1280v176h603v-176l-156 -30v-420h594v420l-156 30v176h156h291h156v-176l-156 -30v-1045l156 -30v-175h-603v175l156 30v400h-594v-400l156 -30v-175h-603v175l155 30v1045z" />
<glyph unicode="I" horiz-adv-x="713" d="M55 1280v176h603v-176l-156 -30v-1045l156 -30v-175h-603v175l156 30v1045z" />
<glyph unicode="J" horiz-adv-x="1192" d="M1165 1456v-176l-156 -30v-813q0 -211 -137.5 -334.5t-347.5 -123.5q-228 0 -361 111t-128 327l2 6h284q0 -115 55 -167.5t148 -52.5q81 0 137.5 62.5t56.5 171.5v813l-156 30v176h447h156z" />
<glyph unicode="K" horiz-adv-x="1464" d="M56 175l155 30v1045l-155 30v176h595v-176l-148 -30v-389h127l280 407l-86 12v176h577v-176l-158 -27l-358 -478l402 -575l146 -25v-175h-577v175l90 12l-280 421h-163v-403l148 -30v-175h-595v175z" />
<glyph unicode="L" horiz-adv-x="1200" d="M56 0v175l155 30v1045l-155 30v176h155h292h156v-176l-156 -30v-1026h411l14 183h223v-407h-1095z" />
<glyph unicode="M" horiz-adv-x="1929" d="M1461 1077l-6 1l-390 -1078h-196l-388 1074l-6 -1l28 -639v-229l156 -30v-175h-603v175l155 30v1045l-155 30v176h155h381l371 -1073h6l374 1073h538v-176l-156 -30v-1045l156 -30v-175h-603v175l155 30v229z" />
<glyph unicode="N" horiz-adv-x="1582" d="M1544 1456v-176l-156 -30v-1250h-291l-588 980l-6 -1v-774l156 -30v-175h-603v175l155 30v1045l-155 30v176h155h292l588 -980l6 1v773l-156 30v176h447h156z" />
<glyph unicode="O" horiz-adv-x="1448" d="M1387 717q0 -320 -183 -529t-479 -209q-295 0 -476.5 209t-181.5 529v22q0 318 181 528t476 210q296 0 479.5 -210t183.5 -528v-22zM1096 741q0 226 -94 367t-278 141t-274.5 -140t-90.5 -368v-24q0 -230 91.5 -370.5t274.5 -140.5q185 0 278 140.5t93 370.5v24z" />
<glyph unicode="P" horiz-adv-x="1325" d="M749 1456q250 0 394.5 -128.5t144.5 -336.5q0 -209 -144.5 -336t-394.5 -127h-246v-323l156 -30v-175h-603v175l155 30v1045l-155 30v176h155h538zM503 753h246q122 0 184.5 66.5t62.5 169.5q0 105 -62.5 173.5t-184.5 68.5h-246v-478z" />
<glyph unicode="Q" horiz-adv-x="1449" d="M1387 717q0 -190 -68.5 -347t-191.5 -256l310 -193l-206 -159l-349 235q-39 -8 -78.5 -13t-78.5 -5q-295 0 -476.5 209t-181.5 529v22q0 318 181 528t476 210q296 0 479.5 -210t183.5 -528v-22zM1096 741q0 226 -94 367t-278 141t-274.5 -140t-90.5 -368v-24 q0 -230 91.5 -370.5t274.5 -140.5q185 0 278 140.5t93 370.5v24z" />
<glyph unicode="R" horiz-adv-x="1408" d="M710 1456q248 0 389 -113.5t141 -313.5q0 -110 -59 -191t-173 -131q129 -38 185.5 -126.5t56.5 -219.5v-74q0 -48 19 -74.5t63 -31.5l36 -5v-176h-151q-143 0 -201 77t-58 199v83q0 106 -56.5 166.5t-159.5 63.5h-239v-384l156 -30v-175h-603v175l155 30v1045l-155 30 v176h155h499zM503 814h202q122 0 183 52t61 150t-60.5 156.5t-178.5 58.5h-207v-417z" />
<glyph unicode="S" horiz-adv-x="1242" d="M1162 991h-219l-38 200q-38 24 -111 42t-155 18q-120 0 -185.5 -50.5t-65.5 -130.5q0 -74 68.5 -121.5t236.5 -100.5q241 -67 365.5 -177t124.5 -289q0 -187 -148 -295t-390 -108q-173 0 -312.5 55t-232.5 152v304h226l31 -207q44 -36 119.5 -59.5t168.5 -23.5 q120 0 182.5 49t62.5 131q0 84 -59.5 135t-208.5 96q-259 75 -392 178t-133 282q0 177 150 289.5t377 115.5q168 0 306 -51t232 -136v-298z" />
<glyph unicode="T" horiz-adv-x="1377" d="M1338 1456v-388h-224l-12 163h-268v-1026l156 -30v-175h-604v175l156 30v1026h-267l-12 -163h-223v388h1298z" />
<glyph unicode="U" horiz-adv-x="1547" d="M642 1456v-176l-156 -30v-760q0 -144 77.5 -215.5t212.5 -71.5q137 0 215 71t78 216v760l-155 30v176h603v-176l-156 -30v-760q0 -245 -161.5 -378t-423.5 -133q-261 0 -421.5 133t-160.5 378v760l-155 30v176h155h292h156z" />
<glyph unicode="V" horiz-adv-x="1468" d="M566 1280l-111 -20l258 -873l18 -80h6l17 78l259 875l-110 20v176h532v-176l-122 -16l-429 -1264h-300l-430 1264l-120 16v176h532v-176z" />
<glyph unicode="W" horiz-adv-x="1972" d="M1942 1280l-120 -15l-295 -1265h-271l-267 961h-6l-267 -961h-271l-297 1265l-119 15v176h536v-176l-133 -23l167 -798l6 -1l273 998h215l275 -998l6 1l166 798l-133 23v176h535v-176z" />
<glyph unicode="X" horiz-adv-x="1438" d="M33 175l123 24l385 535l-375 521l-122 25v176h559v-176l-119 -13l225 -357l226 357l-117 13v176h561v-176l-122 -25l-375 -521l393 -534l129 -25v-175h-573v175l116 12l-234 368l-235 -368l117 -12v-175h-562v175z" />
<glyph unicode="Y" horiz-adv-x="1398" d="M587 1280l-119 -17l226 -478h6l226 478l-118 17v176h551v-176l-124 -20l-396 -748v-307l156 -30v-175h-603v175l156 30v322l-389 733l-123 20v176h551v-176z" />
<glyph unicode="Z" horiz-adv-x="1226" d="M1143 1456v-146l-713 -1086h507l24 176h222l-22 -400h-1087v152l710 1079h-463l-23 -176h-223l22 401h1046z" />
<glyph unicode="[" horiz-adv-x="578" d="M572 1475h-141v-1595h141v-216h-433v2027h433v-216z" />
<glyph unicode="\" horiz-adv-x="854" d="M12 1456h288l608 -1581h-288z" />
<glyph unicode="]" horiz-adv-x="569" d="M11 1691h434v-2027h-434v216h143v1595h-143v216z" />
<glyph unicode="^" horiz-adv-x="884" d="M276 729h-231l299 727h212l299 -727h-231l-165 413l-8 34h-6l-7 -34z" />
<glyph unicode="_" horiz-adv-x="1094" d="M1002 -186h-910v186h910v-186z" />
<glyph unicode="`" horiz-adv-x="622" d="M572 1212h-236l-272 260l2 6h310z" />
<glyph unicode="a" horiz-adv-x="1125" d="M752 0q-12 27 -21 55.5t-14 57.5q-52 -60 -126.5 -97t-170.5 -37q-159 0 -252.5 86.5t-93.5 235.5q0 152 122 235t358 83h149v106q0 78 -45 121t-133 43q-50 0 -89 -11.5t-63 -27.5l-19 -116h-220l1 240q80 54 183.5 91t225.5 37q201 0 326.5 -98.5t125.5 -280.5v-447 q0 -25 0.5 -47t3.5 -42l89 -12v-175h-337zM499 195q66 0 120 28.5t84 71.5v165h-149q-93 0 -141 -43.5t-48 -104.5q0 -55 35.5 -86t98.5 -31z" />
<glyph unicode="b" horiz-adv-x="1181" d="M1109 511q0 -242 -108 -387t-312 -145q-95 0 -165 39.5t-118 114.5l-21 -133h-252v1354l-155 30v176h446v-593q47 65 112.5 100t150.5 35q206 0 314 -155.5t108 -414.5v-21zM818 532q0 158 -46.5 250.5t-158.5 92.5q-68 0 -115 -28.5t-74 -81.5v-457q27 -50 74.5 -76 t116.5 -26q113 0 158 79.5t45 225.5v21z" />
<glyph unicode="c" horiz-adv-x="1079" d="M571 203q78 0 125 45.5t47 121.5h264l3 -6q4 -164 -123 -274.5t-316 -110.5q-242 0 -373 153t-131 393v30q0 239 134.5 393t383.5 154q131 0 235 -39t173 -110l4 -289h-237l-48 169q-22 19 -54 31.5t-73 12.5q-124 0 -175 -90t-51 -232v-30q0 -145 47 -233.5t165 -88.5z " />
<glyph unicode="d" horiz-adv-x="1212" d="M767 132q-51 -75 -120.5 -114t-158.5 -39q-200 0 -310.5 146t-110.5 386v21q0 256 111 413t312 157q81 0 146 -35.5t114 -100.5v388l-156 30v176h156h292v-1355l140 -30v-175h-393zM359 511q0 -142 47.5 -223.5t155.5 -81.5q64 0 111 26t77 75v459q-30 52 -76.5 80.5 t-109.5 28.5q-107 0 -156 -95t-49 -248v-21z" />
<glyph unicode="e" horiz-adv-x="1091" d="M581 -21q-234 0 -374 150t-140 381v40q0 241 132.5 397t355.5 155q219 0 340 -132t121 -357v-159h-646l-2 -6q8 -107 71.5 -176t172.5 -69q97 0 161 19.5t140 61.5l79 -180q-67 -53 -173.5 -89t-237.5 -36zM555 877q-81 0 -128 -62t-58 -163l3 -5h358v26 q0 93 -43.5 148.5t-131.5 55.5z" />
<glyph unicode="f" horiz-adv-x="762" d="M79 175l141 30v672h-161v205h161v120q0 182 105 280.5t295 98.5q37 0 75.5 -5.5t84.5 -15.5l-25 -217q-24 4 -46.5 7t-52.5 3q-71 0 -107.5 -39t-36.5 -112v-120h215v-205h-215v-672l141 -30v-175h-574v175z" />
<glyph unicode="g" horiz-adv-x="1170" d="M81 532q0 256 111.5 413t312.5 157q91 0 160 -40.5t118 -115.5l21 136h254v-1050q0 -214 -134.5 -341.5t-369.5 -127.5q-82 0 -174 22.5t-170 61.5l54 205q70 -30 140 -47.5t148 -17.5q107 0 160 65t53 181v71q-48 -61 -113 -93t-149 -32q-199 0 -310.5 146.5 t-111.5 385.5v21zM373 511q0 -142 48 -223.5t156 -81.5q67 0 113.5 24.5t74.5 71.5v470q-28 49 -74.5 76t-111.5 27q-107 0 -156.5 -95t-49.5 -248v-21z" />
<glyph unicode="h" horiz-adv-x="1302" d="M47 175l141 30v1149l-156 30v176h447v-616q51 75 125 116.5t164 41.5q170 0 266.5 -112.5t96.5 -347.5v-437l140 -30v-175h-558v175l126 30v439q0 126 -44.5 178.5t-132.5 52.5q-61 0 -106.5 -22t-76.5 -62v-586l126 -30v-175h-558v175z" />
<glyph unicode="i" horiz-adv-x="660" d="M54 175l141 30v671l-156 30v176h448v-877l140 -30v-175h-573v175zM487 1341h-292v219h292v-219z" />
<glyph unicode="j" horiz-adv-x="599" d="M492 -40q0 -190 -101 -293.5t-280 -103.5q-41 0 -74.5 4t-69.5 13l14 223q22 -6 45 -9t50 -3q59 0 91.5 41.5t32.5 127.5v916l-156 30v176h448v-1122zM486 1343h-292v217h292v-217z" />
<glyph unicode="k" horiz-adv-x="1249" d="M32 1384v176h447v-904h65l168 237l-95 13v176h532v-176l-128 -29l-195 -268l273 -411l111 -23v-175h-500v175l60 10l-166 268h-125v-248l126 -30v-175h-558v175l141 30v1149z" />
<glyph unicode="l" horiz-adv-x="653" d="M32 1384v176h448v-1355l141 -30v-175h-574v175l141 30v1149z" />
<glyph unicode="m" horiz-adv-x="1905" d="M29 906v176h427l12 -143q52 78 130.5 120.5t181.5 42.5q104 0 178 -46t112 -139q50 87 130 136t188 49q160 0 252.5 -110.5t92.5 -336.5v-450l141 -30v-175h-559v175l126 30v451q0 123 -40 171t-119 48q-62 0 -107.5 -27.5t-72.5 -76.5q0 -19 1 -32.5t1 -27.5v-506 l118 -30v-175h-527v175l118 30v451q0 120 -40 169.5t-120 49.5q-59 0 -103.5 -22.5t-73.5 -63.5v-584l126 -30v-175h-558v175l141 30v671z" />
<glyph unicode="n" horiz-adv-x="1300" d="M47 175l140 30v671l-155 30v176h427l13 -155q54 83 133 129t177 46q164 0 256 -103t92 -323v-471l140 -30v-175h-558v175l125 30v470q0 109 -44 154.5t-133 45.5q-58 0 -104 -23.5t-77 -66.5v-580l118 -30v-175h-550v175z" />
<glyph unicode="o" horiz-adv-x="1148" d="M63 551q0 242 135.5 396.5t374.5 154.5q240 0 375.5 -154t135.5 -397v-21q0 -244 -135.5 -397.5t-373.5 -153.5q-241 0 -376.5 153.5t-135.5 397.5v21zM355 530q0 -148 52 -237.5t168 -89.5q113 0 165.5 90t52.5 237v21q0 144 -53 235t-167 91t-166 -91t-52 -235v-21z " />
<glyph unicode="p" horiz-adv-x="1240" d="M41 906v176h424l14 -126q48 70 115 108t156 38q201 0 312 -157t111 -413v-21q0 -240 -111 -386t-310 -146q-85 0 -151 31.5t-113 92.5v-313l141 -30v-176h-573v176l141 30v1086zM881 532q0 153 -51 248t-156 95q-66 0 -112.5 -27t-73.5 -77v-474q27 -46 73.5 -70 t114.5 -24q106 0 155.5 83t49.5 225v21z" />
<glyph unicode="q" horiz-adv-x="1154" d="M67 532q0 256 111 413t312 157q88 0 156 -39t117 -111l23 130h253v-1292l141 -30v-176h-574v176l141 30v310q-48 -60 -112.5 -90.5t-146.5 -30.5q-200 0 -310.5 146t-110.5 386v21zM359 511q0 -143 47.5 -225.5t155.5 -82.5q64 0 110 23.5t75 69.5v481q-29 48 -74.5 74 t-108.5 26q-107 0 -156 -95.5t-49 -249.5v-21z" />
<glyph unicode="r" horiz-adv-x="862" d="M85 175l140 30v671l-155 30v176h427l13 -158q38 84 98 131t139 47q23 0 48.5 -3.5t42.5 -8.5l-31 -266l-120 3q-64 0 -106 -25t-64 -71v-526l140 -30v-175h-572v175z" />
<glyph unicode="s" horiz-adv-x="1054" d="M946 710h-196l-31 135q-30 24 -75.5 40t-100.5 16q-77 0 -122 -34.5t-45 -86.5q0 -49 43 -81.5t172 -57.5q201 -40 298 -117.5t97 -213.5q0 -146 -125.5 -238.5t-330.5 -92.5q-125 0 -229.5 36.5t-185.5 104.5l-3 243h204l40 -141q26 -22 71 -32.5t94 -10.5 q89 0 135.5 32t46.5 87q0 48 -47 83t-173 62q-191 39 -288.5 115.5t-97.5 208.5q0 136 112 234.5t319 98.5q126 0 238.5 -34t176.5 -87z" />
<glyph unicode="t" horiz-adv-x="764" d="M494 1347v-265h190v-205h-190v-551q0 -63 26 -90t70 -27q30 0 52.5 2.5t50.5 8.5l25 -211q-49 -15 -97 -22.5t-104 -7.5q-151 0 -232.5 83t-81.5 263v552h-159v205h159v265h291z" />
<glyph unicode="u" horiz-adv-x="1278" d="M820 137q-52 -76 -128.5 -117t-174.5 -41q-171 0 -268 109.5t-97 340.5v447l-119 30v176h119h292v-655q0 -118 39.5 -169.5t117.5 -51.5q69 0 119.5 22.5t82.5 64.5v583l-128 30v176h128h292v-877l131 -30v-175h-387z" />
<glyph unicode="v" horiz-adv-x="1167" d="M522 906l-102 -19l143 -484l19 -102h6l21 102l141 483l-104 20v176h491v-176l-94 -15l-319 -891h-279l-320 891l-94 15v176h491v-176z" />
<glyph unicode="w" horiz-adv-x="1642" d="M1605 906l-109 -14l-226 -892h-244l-201 644h-6l-201 -644h-243l-227 892l-109 14v176h490v-176l-115 -22l102 -495h6l202 693h196l204 -695h6l101 496l-116 23v176h490v-176z" />
<glyph unicode="x" horiz-adv-x="1191" d="M32 175l101 16l294 356l-284 342l-101 17v176h487v-169l-99 -12l164 -208l161 208l-101 12v169h489v-176l-98 -17l-278 -342l293 -356l102 -16v-175h-495v168l99 12l-168 218l-171 -219l87 -11v-168h-482v175z" />
<glyph unicode="y" horiz-adv-x="1212" d="M1183 906l-101 -15l-398 -1053q-47 -117 -125.5 -196t-236.5 -79q-37 0 -69.5 6t-76.5 17l34 213q14 -2 29 -4t26 -2q73 0 112 35.5t60 88.5l33 82l-343 891l-101 16v176h530v-176l-121 -20l148 -432l15 -78l6 -1l171 511l-122 20v176h530v-176z" />
<glyph unicode="z" horiz-adv-x="1070" d="M450 224h302l12 144h223v-368h-899v172l515 684h-265l-11 -143h-224v369h866v-167z" />
<glyph unicode="{" horiz-adv-x="654" d="M577 -360q-195 55 -277.5 175t-82.5 291v203q0 99 -43.5 154t-134.5 55v201q91 0 134.5 54.5t43.5 155.5v203q0 171 82.5 290.5t277.5 174.5l56 -157q-86 -31 -120.5 -110.5t-34.5 -197.5v-203q0 -104 -45 -184.5t-135 -125.5q90 -47 135 -127.5t45 -182.5v-203 q0 -118 34.5 -197.5t120.5 -110.5z" />
<glyph unicode="|" horiz-adv-x="428" d="M307 -270h-175v1726h175v-1726z" />
<glyph unicode="}" horiz-adv-x="651" d="M11 -202q84 31 119 110.5t35 197.5v203q0 104 46 184t140 125q-94 45 -140 125.5t-46 185.5v203q0 118 -35 197.5t-119 110.5l56 157q194 -55 277 -174.5t83 -290.5v-203q0 -101 43 -155.5t134 -54.5v-201q-91 0 -134 -55t-43 -154v-203q0 -171 -83 -291t-277 -175z" />
<glyph unicode="~" horiz-adv-x="1323" d="M1214 758q0 -161 -88.5 -270.5t-223.5 -109.5q-85 0 -157 31.5t-150 101.5q-50 44 -88 64t-82 20q-52 0 -88 -51t-36 -122l-201 26q0 162 86.5 269.5t223.5 107.5q83 0 158.5 -33.5t150.5 -99.5q49 -45 87 -64.5t81 -19.5q51 0 88 52t37 125z" />
<glyph unicode="&#xa1;" horiz-adv-x="524" d="M423 -374h-293v953h293v-953zM423 825h-293v257h293v-257z" />
<glyph unicode="&#xa2;" horiz-adv-x="1092" d="M584 203q78 0 125 45.5t47 121.5h265l3 -6q3 -144 -98 -249.5t-259 -128.5v-231h-200v235q-188 36 -287.5 181.5t-99.5 353.5v30q0 203 100 348.5t287 185.5v229h200v-219q107 -10 193 -47.5t146 -98.5l4 -289h-237l-48 169q-22 19 -54 31.5t-73 12.5q-124 0 -175 -90 t-51 -232v-30q0 -145 47 -233.5t165 -88.5z" />
<glyph unicode="&#xa3;" horiz-adv-x="1177" d="M515 588l4 -85q0 -78 -30 -150t-86 -129h479l12 144h223v-368h-997v224h10q47 12 70.5 94.5t23.5 171.5l-4 98h-163v225h155l-8 214q0 210 120.5 330t322.5 120q215 0 333.5 -111.5t114.5 -294.5l-2 -6h-285q0 96 -46 141.5t-116 45.5q-71 0 -111 -59t-40 -166l10 -214 h356v-225h-346z" />
<glyph unicode="&#xa4;" horiz-adv-x="1432" d="M1074 107q-77 -61 -169.5 -94t-192.5 -33q-101 0 -193 32.5t-167 93.5l-129 -132l-141 144l135 137q-49 76 -74.5 165.5t-25.5 187.5q0 101 28 193.5t81 171.5l-144 147l141 144l142 -145q74 55 162 85t185 30q96 0 185 -30.5t164 -86.5l145 148l142 -145l-148 -151 q51 -78 79 -169.5t28 -191.5q0 -97 -25.5 -185.5t-72.5 -163.5l139 -141l-142 -145zM302 608q0 -184 119.5 -311.5t290.5 -127.5q170 0 289.5 127t119.5 312q0 183 -119.5 310t-289.5 127q-171 0 -290.5 -127t-119.5 -310z" />
<glyph unicode="&#xa5;" horiz-adv-x="1401" d="M1369 1280l-166 -22l-276 -516h244v-165h-324v-125h324v-164h-324v-83l140 -30v-175h-587v175l155 30v83h-339v164h339v125h-339v165h267l-276 516l-166 22v176h536v-176l-68 -13l193 -418h6l193 418l-68 13v176h536v-176z" />
<glyph unicode="&#xa6;" horiz-adv-x="513" d="M134 -270v795h261v-795h-261zM395 698h-261v758h261v-758z" />
<glyph unicode="&#xa7;" horiz-adv-x="1243" d="M1172 475q0 -91 -42 -159t-121 -111q68 -51 102.5 -121.5t34.5 -167.5q0 -177 -140.5 -277t-377.5 -100q-232 0 -387 99.5t-150 317.5l2 6l282 1q0 -106 72.5 -152t180.5 -46q107 0 166.5 41.5t59.5 108.5t-60.5 107.5t-229.5 90.5q-245 64 -362 157.5t-117 265.5 q0 88 42 157t122 114q-69 50 -103.5 120.5t-34.5 168.5q0 172 141.5 276.5t378.5 104.5q244 0 381 -111t132 -311l-2 -6h-282q0 88 -60.5 145.5t-168.5 57.5q-114 0 -170.5 -43.5t-56.5 -110.5q0 -75 55.5 -113.5t231.5 -86.5q247 -64 364 -157.5t117 -265.5zM591 663 q-40 10 -74 21t-65 22q-38 -22 -56.5 -59t-18.5 -85q0 -81 55 -122t232 -93q34 -10 68.5 -20t69.5 -21q39 22 60.5 59t21.5 85q0 71 -62 116t-231 97z" />
<glyph unicode="&#xa8;" horiz-adv-x="1031" d="M911 1252h-267v204h267v-204zM411 1252h-267v204h267v-204z" />
<glyph unicode="&#xa9;" horiz-adv-x="1566" d="M1097 596l2 -6q4 -151 -84 -229.5t-245 -78.5q-160 0 -254.5 106t-94.5 281v119q0 173 94.5 280t254.5 107q157 0 245.5 -79.5t84.5 -228.5l-2 -6h-148q0 94 -45 136.5t-135 42.5q-94 0 -144 -69t-50 -182v-120q0 -115 50 -183.5t144 -68.5q90 0 134.5 41.5t44.5 137.5 h148zM196 729q0 -264 171.5 -444.5t416.5 -180.5q244 0 415.5 180.5t171.5 444.5q0 263 -171.5 442.5t-415.5 179.5q-246 0 -417 -179.5t-171 -442.5zM74 729q0 315 207 531t503 216q295 0 502.5 -216t207.5 -531q0 -316 -208 -533t-502 -217q-296 0 -503 217t-207 533z" />
<glyph unicode="&#xaa;" horiz-adv-x="867" d="M586 706q-8 21 -13 44.5t-8 49.5q-33 -47 -88.5 -77.5t-133.5 -30.5q-119 0 -184 61t-65 167q0 111 84.5 171t246.5 60h137v51q0 62 -29.5 94.5t-86.5 32.5q-66 0 -102 -26t-36 -73l-165 13l-1 6q-6 98 79 163t225 65q134 0 212.5 -71t78.5 -205v-314q0 -51 6 -95t20 -86 h-177zM386 836q51 0 105 30t71 65v103h-136q-74 0 -115.5 -32t-41.5 -78q0 -43 29 -65.5t88 -22.5z" />
<glyph unicode="&#xab;" horiz-adv-x="953" d="M4 116zM231 515l240 -399h-187l-280 390v19l280 390h187zM626 515l240 -399h-187l-280 390v19l280 390h187z" />
<glyph unicode="&#xac;" horiz-adv-x="1098" d="M949 374h-200v260h-635v171h835v-431z" />
<glyph unicode="&#xad;" horiz-adv-x="815" d="M131 510zM695 510h-564v225h564v-225z" />
<glyph unicode="&#xae;" horiz-adv-x="1566" d="M74 729q0 315 207 531t503 216q295 0 502.5 -216t207.5 -531q0 -316 -208 -533t-502 -217q-296 0 -503 217t-207 533zM196 729q0 -264 171.5 -444.5t416.5 -180.5q244 0 415.5 180.5t171.5 444.5q0 263 -171.5 442.5t-415.5 179.5q-246 0 -417 -179.5t-171 -442.5z M640 653v-337h-151v850h281q151 0 238 -68t87 -194q0 -58 -29 -101.5t-85 -74.5q58 -30 84.5 -84.5t26.5 -128.5v-56q0 -41 3.5 -73.5t13.5 -53.5v-16h-155q-9 21 -11 61.5t-2 82.5v54q0 71 -33.5 105t-109.5 34h-158zM640 787h136q71 0 120 30t49 86q0 72 -39 101t-136 29 h-130v-246z" />
<glyph unicode="&#xaf;" horiz-adv-x="1008" d="M877 1292h-731v165h731v-165z" />
<glyph unicode="&#xb0;" horiz-adv-x="745" d="M106 1203q0 112 80 193t192 81q110 0 189 -81t79 -193q0 -114 -78.5 -192.5t-189.5 -78.5q-113 0 -192.5 79t-79.5 192zM253 1203q0 -53 36.5 -88.5t88.5 -35.5t87 35t35 89t-35.5 91t-86.5 37q-52 0 -88.5 -37t-36.5 -91z" />
<glyph unicode="&#xb1;" horiz-adv-x="1040" d="M655 947h327v-232h-327v-383h-256v383h-333v232h333v363h256v-363zM953 1h-834v228h834v-228z" />
<glyph unicode="&#xb2;" horiz-adv-x="823" d="M729 667h-623v155l310 252q60 50 77.5 83.5t17.5 74.5q0 39 -23.5 65.5t-72.5 26.5q-55 0 -83 -30t-28 -77h-201l-2 6q-6 106 82.5 181t236.5 75q144 0 222.5 -65t78.5 -183q0 -82 -53.5 -144.5t-177.5 -165.5l-109 -93l2 -6h346v-155z" />
<glyph unicode="&#xb3;" horiz-adv-x="833" d="M401 1139q62 0 91.5 24.5t29.5 70.5q0 38 -28 63.5t-84 25.5q-51 0 -79 -22t-28 -53h-200l-2 6q-6 101 82 162.5t222 61.5q151 0 239.5 -59.5t88.5 -169.5q0 -55 -35.5 -100.5t-96.5 -70.5q71 -24 108.5 -71.5t37.5 -115.5q0 -112 -89.5 -174t-242.5 -62 q-145 0 -239 62.5t-88 175.5l2 6h200q0 -42 31.5 -65.5t91.5 -23.5q56 0 90 24t34 68q0 50 -35 77t-101 27h-112v133h112z" />
<glyph unicode="&#xb4;" horiz-adv-x="644" d="M281 1478h309l2 -6l-276 -260h-234z" />
<glyph unicode="&#xb5;" horiz-adv-x="1347" d="M899 68q-44 -44 -100.5 -66.5t-124.5 -22.5q-51 0 -94 10.5t-78 32.5v-438h-291v1292l-156 30v176h156h291v-620q0 -149 44.5 -202.5t134.5 -53.5q76 0 126 27.5t78 80.5v562l-156 30v176h447v-877l141 -30v-175h-412z" />
<glyph unicode="&#xb6;" horiz-adv-x="1127" d="M473 175l156 30v315h-83q-233 0 -362.5 129.5t-129.5 338.5q0 207 129.5 337.5t362.5 130.5h375v-1251l155 -30v-175h-603v175zM1076 1456v-176l-155 -30v206h155z" />
<glyph unicode="&#xb7;" horiz-adv-x="553" d="M437 568h-292v260h292v-260z" />
<glyph unicode="&#xb8;" horiz-adv-x="500" d="M333 6l-11 -57q64 -11 107 -52t43 -121q0 -107 -91.5 -171t-259.5 -64l-7 161q51 0 81 20.5t30 62.5q0 41 -32 57.5t-110 21.5l31 142h219z" />
<glyph unicode="&#xb9;" horiz-adv-x="536" d="M439 665h-210v630h-127v159l337 23v-812z" />
<glyph unicode="&#xba;" horiz-adv-x="914" d="M109 1142q0 148 94 241.5t252 93.5t252.5 -93.5t94.5 -241.5v-117q0 -149 -94 -241.5t-251 -92.5q-159 0 -253.5 92.5t-94.5 241.5v117zM284 1025q0 -85 44 -136.5t129 -51.5q82 0 126 51.5t44 136.5v117q0 83 -44.5 135t-127.5 52q-84 0 -127.5 -52t-43.5 -135v-117z " />
<glyph unicode="&#xbb;" horiz-adv-x="973" d="M64 151zM251 950l280 -390v-19l-280 -390h-187l239 399l-239 400h187zM657 950l280 -390v-19l-280 -390h-187l239 399l-239 400h187z" />
<glyph unicode="&#xbc;" horiz-adv-x="1413" d="M117 0zM454 664h-210v630h-127v159l337 23v-812zM382 117l-142 75l711 1138l142 -75zM1338 296h101v-157h-101v-139h-211v139h-410l-13 126l423 534v2h211v-505zM919 296h208v257l-6 2l-13 -20z" />
<glyph unicode="&#xbd;" horiz-adv-x="1457" d="M102 0zM380 117l-142 75l711 1138l142 -75zM439 664h-210v630h-127v159l337 23v-812zM1452 0h-623v155l310 252q60 50 77.5 83.5t17.5 74.5q0 39 -23.5 65.5t-72.5 26.5q-55 0 -83 -30t-28 -77h-201l-2 6q-6 106 82.5 181t236.5 75q144 0 222.5 -65t78.5 -183 q0 -82 -53.5 -144.5t-177.5 -165.5l-109 -93l2 -6h346v-155z" />
<glyph unicode="&#xbe;" horiz-adv-x="1635" d="M73 0zM598 117l-142 75l711 1138l142 -75zM1525 296h101v-157h-101v-139h-211v139h-410l-13 126l423 534v2h211v-505zM1106 296h208v257l-6 2l-13 -20zM392 1140q62 0 91.5 24.5t29.5 70.5q0 38 -28 63.5t-84 25.5q-51 0 -79 -22t-28 -53h-200l-2 6q-6 101 82 162.5 t222 61.5q151 0 239.5 -59.5t88.5 -169.5q0 -55 -35.5 -100.5t-96.5 -70.5q71 -24 108.5 -71.5t37.5 -115.5q0 -112 -89.5 -174t-242.5 -62q-145 0 -239 62.5t-88 175.5l2 6h200q0 -42 31.5 -65.5t91.5 -23.5q56 0 90 24t34 68q0 50 -35 77t-101 27h-112v133h112z" />
<glyph unicode="&#xbf;" horiz-adv-x="945" d="M696 668q-2 -141 -42.5 -206.5t-159.5 -157.5q-72 -58 -114.5 -125.5t-42.5 -149.5q0 -90 48.5 -142t139.5 -52q73 0 124 43t54 128h283l2 -6q2 -191 -127.5 -292.5t-335.5 -101.5q-226 0 -353 113t-127 308q0 125 74 233t187 183q60 45 79.5 92.5t19.5 132.5h291z M403 1082h294v-251h-294v251z" />
<glyph unicode="&#xc0;" d="M41 0zM41 175l104 15l443 1266h299l440 -1266l104 -15v-175h-496v175l101 18l-64 200h-472l-64 -200l101 -18v-175h-496v175zM569 608h334l-164 513h-6zM884 1568h-236l-272 260l2 6h310z" />
<glyph unicode="&#xc1;" d="M41 0zM41 175l104 15l443 1266h299l440 -1266l104 -15v-175h-496v175l101 18l-64 200h-472l-64 -200l101 -18v-175h-496v175zM569 608h334l-164 513h-6zM754 1826h309l2 -6l-276 -260h-234z" />
<glyph unicode="&#xc2;" d="M41 0zM41 175l104 15l443 1266h299l440 -1266l104 -15v-175h-496v175l101 18l-64 200h-472l-64 -200l101 -18v-175h-496v175zM569 608h334l-164 513h-6zM1102 1604v-23h-217l-155 146l-154 -146h-212v26l282 240h169z" />
<glyph unicode="&#xc3;" d="M41 0zM41 175l104 15l443 1266h299l440 -1266l104 -15v-175h-496v175l101 18l-64 200h-472l-64 -200l101 -18v-175h-496v175zM569 608h334l-164 513h-6zM1095 1836q0 -96 -59.5 -163.5t-150.5 -67.5q-70 0 -158.5 43.5t-140.5 43.5q-36 0 -60.5 -32.5t-24.5 -77.5 l-155 42q0 94 59.5 163.5t149.5 69.5q56 0 151.5 -43.5t147.5 -43.5q35 0 60.5 32t25.5 79z" />
<glyph unicode="&#xc4;" d="M41 0zM41 175l104 15l443 1266h299l440 -1266l104 -15v-175h-496v175l101 18l-64 200h-472l-64 -200l101 -18v-175h-496v175zM569 608h334l-164 513h-6zM1101 1601h-267v204h267v-204zM601 1601h-267v204h267v-204z" />
<glyph unicode="&#xc5;" d="M41 0zM41 175l104 15l443 1266h299l440 -1266l104 -15v-175h-496v175l101 18l-64 200h-472l-64 -200l101 -18v-175h-496v175zM569 608h334l-164 513h-6zM519 1745q0 83 61.5 139.5t151.5 56.5q88 0 148.5 -56.5t60.5 -139.5q0 -84 -60.5 -138t-148.5 -54q-91 0 -152 54 t-61 138zM634 1745q0 -43 28 -70.5t70 -27.5q41 0 67 27.5t26 70.5q0 44 -26 72t-67 28q-42 0 -70 -28.5t-28 -71.5z" />
<glyph unicode="&#xc6;" horiz-adv-x="2047" d="M66 175l136 20l678 1261h1017v-369h-223l-11 141h-362l16 -366h499v-227h-490l17 -408h381l12 141h222v-368h-1052v175l146 28l-6 151h-430l-83 -165l84 -14v-175h-551v175zM730 582h306l-23 554l-5 1z" />
<glyph unicode="&#xc7;" horiz-adv-x="1327" d="M52 0zM1249 965h-217l-30 194q-43 43 -108.5 68t-154.5 25q-190 0 -292.5 -138t-102.5 -360v-51q0 -222 102 -361t288 -139q86 0 157.5 25t110.5 68l30 194h217v-288q-88 -102 -224.5 -162.5t-305.5 -60.5q-293 0 -480 203t-187 521v49q0 317 186 521t481 204 q169 0 305 -61.5t225 -162.5v-288zM809 4l-11 -57q64 -11 107 -52t43 -121q0 -107 -91.5 -171t-259.5 -64l-7 161q51 0 81 20.5t30 62.5q0 41 -32 57.5t-110 21.5l31 142h219z" />
<glyph unicode="&#xc8;" horiz-adv-x="1308" d="M56 0zM996 640h-493v-416h470l13 174h222v-398h-1152v175l155 30v1045l-155 30v176h155h995v-399h-224l-13 174h-466v-366h493v-225zM795 1568h-236l-272 260l2 6h310z" />
<glyph unicode="&#xc9;" horiz-adv-x="1308" d="M56 0zM996 640h-493v-416h470l13 174h222v-398h-1152v175l155 30v1045l-155 30v176h155h995v-399h-224l-13 174h-466v-366h493v-225zM665 1826h309l2 -6l-276 -260h-234z" />
<glyph unicode="&#xca;" horiz-adv-x="1308" d="M56 0zM996 640h-493v-416h470l13 174h222v-398h-1152v175l155 30v1045l-155 30v176h155h995v-399h-224l-13 174h-466v-366h493v-225zM1013 1604v-23h-217l-155 146l-154 -146h-212v26l282 240h169z" />
<glyph unicode="&#xcb;" horiz-adv-x="1308" d="M56 0zM996 640h-493v-416h470l13 174h222v-398h-1152v175l155 30v1045l-155 30v176h155h995v-399h-224l-13 174h-466v-366h493v-225zM1012 1601h-267v204h267v-204zM512 1601h-267v204h267v-204z" />
<glyph unicode="&#xcc;" horiz-adv-x="713" d="M0 0zM55 1280v176h603v-176l-156 -30v-1045l156 -30v-175h-603v175l156 30v1045zM494 1567h-236l-272 260l2 6h310z" />
<glyph unicode="&#xcd;" horiz-adv-x="713" d="M55 0zM55 1280v176h603v-176l-156 -30v-1045l156 -30v-175h-603v175l156 30v1045zM363 1825h309l2 -6l-276 -260h-234z" />
<glyph unicode="&#xce;" horiz-adv-x="713" d="M0 0zM55 1280v176h603v-176l-156 -30v-1045l156 -30v-175h-603v175l156 30v1045zM712 1603v-23h-217l-155 146l-154 -146h-212v26l282 240h169z" />
<glyph unicode="&#xcf;" horiz-adv-x="713" d="M0 0zM55 1280v176h603v-176l-156 -30v-1045l156 -30v-175h-603v175l156 30v1045zM711 1600h-267v204h267v-204zM211 1600h-267v204h267v-204z" />
<glyph unicode="&#xd0;" horiz-adv-x="1441" d="M741 1456q267 0 440 -170.5t173 -437.5v-241q0 -268 -173 -437.5t-440 -169.5h-655v175l155 30v460h-195v155h195v430l-155 30v176h655zM747 665h-214v-441h193q157 0 246 106t89 277v243q0 169 -89 275t-246 106h-193v-411h214v-155z" />
<glyph unicode="&#xd1;" horiz-adv-x="1582" d="M56 0zM1544 1456v-176l-156 -30v-1250h-291l-588 980l-6 -1v-774l156 -30v-175h-603v175l155 30v1045l-155 30v176h155h292l588 -980l6 1v773l-156 30v176h447h156zM1150 1836q0 -96 -59.5 -163.5t-150.5 -67.5q-70 0 -158.5 43.5t-140.5 43.5q-36 0 -60.5 -32.5 t-24.5 -77.5l-155 42q0 94 59.5 163.5t149.5 69.5q56 0 151.5 -43.5t147.5 -43.5q35 0 60.5 32t25.5 79z" />
<glyph unicode="&#xd2;" horiz-adv-x="1448" d="M67 0zM1387 717q0 -320 -183 -529t-479 -209q-295 0 -476.5 209t-181.5 529v22q0 318 181 528t476 210q296 0 479.5 -210t183.5 -528v-22zM1096 741q0 226 -94 367t-278 141t-274.5 -140t-90.5 -368v-24q0 -230 91.5 -370.5t274.5 -140.5q185 0 278 140.5t93 370.5v24z M880 1567h-236l-272 260l2 6h310z" />
<glyph unicode="&#xd3;" horiz-adv-x="1448" d="M67 0zM1387 717q0 -320 -183 -529t-479 -209q-295 0 -476.5 209t-181.5 529v22q0 318 181 528t476 210q296 0 479.5 -210t183.5 -528v-22zM1096 741q0 226 -94 367t-278 141t-274.5 -140t-90.5 -368v-24q0 -230 91.5 -370.5t274.5 -140.5q185 0 278 140.5t93 370.5v24z M750 1825h309l2 -6l-276 -260h-234z" />
<glyph unicode="&#xd4;" horiz-adv-x="1448" d="M67 0zM1387 717q0 -320 -183 -529t-479 -209q-295 0 -476.5 209t-181.5 529v22q0 318 181 528t476 210q296 0 479.5 -210t183.5 -528v-22zM1096 741q0 226 -94 367t-278 141t-274.5 -140t-90.5 -368v-24q0 -230 91.5 -370.5t274.5 -140.5q185 0 278 140.5t93 370.5v24z M1098 1603v-23h-217l-155 146l-154 -146h-212v26l282 240h169z" />
<glyph unicode="&#xd5;" horiz-adv-x="1448" d="M67 0zM1387 717q0 -320 -183 -529t-479 -209q-295 0 -476.5 209t-181.5 529v22q0 318 181 528t476 210q296 0 479.5 -210t183.5 -528v-22zM1096 741q0 226 -94 367t-278 141t-274.5 -140t-90.5 -368v-24q0 -230 91.5 -370.5t274.5 -140.5q185 0 278 140.5t93 370.5v24z M1091 1835q0 -96 -59.5 -163.5t-150.5 -67.5q-70 0 -158.5 43.5t-140.5 43.5q-36 0 -60.5 -32.5t-24.5 -77.5l-155 42q0 94 59.5 163.5t149.5 69.5q56 0 151.5 -43.5t147.5 -43.5q35 0 60.5 32t25.5 79z" />
<glyph unicode="&#xd6;" horiz-adv-x="1448" d="M67 0zM1387 717q0 -320 -183 -529t-479 -209q-295 0 -476.5 209t-181.5 529v22q0 318 181 528t476 210q296 0 479.5 -210t183.5 -528v-22zM1096 741q0 226 -94 367t-278 141t-274.5 -140t-90.5 -368v-24q0 -230 91.5 -370.5t274.5 -140.5q185 0 278 140.5t93 370.5v24z M1097 1600h-267v204h267v-204zM597 1600h-267v204h267v-204z" />
<glyph unicode="&#xd7;" horiz-adv-x="1068" d="M61 371l309 315l-309 315l171 164l304 -310l304 310l171 -164l-309 -315l309 -315l-171 -164l-304 310l-304 -310z" />
<glyph unicode="&#xd8;" horiz-adv-x="1400" d="M1392 717q0 -320 -183 -529t-479 -209q-94 0 -178 22.5t-155 66.5l-95 -163h-144l139 239q-108 100 -166.5 248t-58.5 325v22q0 318 181 528t476 210q83 0 159 -18.5t144 -53.5l66 113h144l-106 -181q122 -101 189 -256.5t67 -341.5v-22zM1101 741q0 112 -24 206t-70 156 l-6 1l-482 -827q41 -35 93.5 -53t117.5 -18q185 0 278 140.5t93 370.5v24zM364 717q0 -100 17 -184.5t52 -143.5l6 -1l473 812q-39 23 -85 36t-98 13q-184 0 -274.5 -140t-90.5 -368v-24z" />
<glyph unicode="&#xd9;" horiz-adv-x="1547" d="M39 0zM642 1456v-176l-156 -30v-760q0 -144 77.5 -215.5t212.5 -71.5q137 0 215 71t78 216v760l-155 30v176h603v-176l-156 -30v-760q0 -245 -161.5 -378t-423.5 -133q-261 0 -421.5 133t-160.5 378v760l-155 30v176h155h292h156zM931 1568h-236l-272 260l2 6h310z" />
<glyph unicode="&#xda;" horiz-adv-x="1547" d="M39 0zM642 1456v-176l-156 -30v-760q0 -144 77.5 -215.5t212.5 -71.5q137 0 215 71t78 216v760l-155 30v176h603v-176l-156 -30v-760q0 -245 -161.5 -378t-423.5 -133q-261 0 -421.5 133t-160.5 378v760l-155 30v176h155h292h156zM801 1826h309l2 -6l-276 -260h-234z" />
<glyph unicode="&#xdb;" horiz-adv-x="1547" d="M39 0zM642 1456v-176l-156 -30v-760q0 -144 77.5 -215.5t212.5 -71.5q137 0 215 71t78 216v760l-155 30v176h603v-176l-156 -30v-760q0 -245 -161.5 -378t-423.5 -133q-261 0 -421.5 133t-160.5 378v760l-155 30v176h155h292h156zM1149 1604v-23h-217l-155 146l-154 -146 h-212v26l282 240h169z" />
<glyph unicode="&#xdc;" horiz-adv-x="1547" d="M39 0zM642 1456v-176l-156 -30v-760q0 -144 77.5 -215.5t212.5 -71.5q137 0 215 71t78 216v760l-155 30v176h603v-176l-156 -30v-760q0 -245 -161.5 -378t-423.5 -133q-261 0 -421.5 133t-160.5 378v760l-155 30v176h155h292h156zM1148 1601h-267v204h267v-204zM648 1601 h-267v204h267v-204z" />
<glyph unicode="&#xdd;" horiz-adv-x="1398" d="M36 0zM587 1280l-119 -17l226 -478h6l226 478l-118 17v176h551v-176l-124 -20l-396 -748v-307l156 -30v-175h-603v175l156 30v322l-389 733l-123 20v176h551v-176zM736 1826h309l2 -6l-276 -260h-234z" />
<glyph unicode="&#xde;" horiz-adv-x="1306" d="M67 175l156 30v1045l-156 30v176h448h156v-176l-156 -30v-64h221q254 0 396 -124t142 -324q0 -201 -142 -325t-396 -124h-221v-84l156 -30v-175h-604v175zM515 961v-447h221q123 0 184.5 63.5t61.5 158.5t-61.5 160t-184.5 65h-221z" />
<glyph unicode="&#xdf;" horiz-adv-x="1321" d="M486 0h-447v175l155 30v896q0 226 129 349t352 123q181 0 299.5 -95.5t118.5 -271.5q0 -108 -53 -205.5t-53 -165.5q0 -56 149.5 -197.5t149.5 -281.5q0 -189 -115 -283t-332 -94q-77 0 -151.5 15t-111.5 41l54 223q36 -22 89.5 -38.5t113.5 -16.5q76 0 119 38t43 103 q0 71 -150 205.5t-150 276.5q0 90 55 190t55 175q0 71 -39.5 114.5t-109.5 43.5q-76 0 -123 -67.5t-47 -184.5v-1097z" />
<glyph unicode="&#xe0;" horiz-adv-x="1125" d="M74 0zM752 0q-12 27 -21 55.5t-14 57.5q-52 -60 -126.5 -97t-170.5 -37q-159 0 -252.5 86.5t-93.5 235.5q0 152 122 235t358 83h149v106q0 78 -45 121t-133 43q-50 0 -89 -11.5t-63 -27.5l-19 -116h-220l1 240q80 54 183.5 91t225.5 37q201 0 326.5 -98.5t125.5 -280.5 v-447q0 -25 0.5 -47t3.5 -42l89 -12v-175h-337zM499 195q66 0 120 28.5t84 71.5v165h-149q-93 0 -141 -43.5t-48 -104.5q0 -55 35.5 -86t98.5 -31zM727 1244h-236l-272 260l2 6h310z" />
<glyph unicode="&#xe1;" horiz-adv-x="1125" d="M74 0zM752 0q-12 27 -21 55.5t-14 57.5q-52 -60 -126.5 -97t-170.5 -37q-159 0 -252.5 86.5t-93.5 235.5q0 152 122 235t358 83h149v106q0 78 -45 121t-133 43q-50 0 -89 -11.5t-63 -27.5l-19 -116h-220l1 240q80 54 183.5 91t225.5 37q201 0 326.5 -98.5t125.5 -280.5 v-447q0 -25 0.5 -47t3.5 -42l89 -12v-175h-337zM499 195q66 0 120 28.5t84 71.5v165h-149q-93 0 -141 -43.5t-48 -104.5q0 -55 35.5 -86t98.5 -31zM597 1502h309l2 -6l-276 -260h-234z" />
<glyph unicode="&#xe2;" horiz-adv-x="1125" d="M74 0zM752 0q-12 27 -21 55.5t-14 57.5q-52 -60 -126.5 -97t-170.5 -37q-159 0 -252.5 86.5t-93.5 235.5q0 152 122 235t358 83h149v106q0 78 -45 121t-133 43q-50 0 -89 -11.5t-63 -27.5l-19 -116h-220l1 240q80 54 183.5 91t225.5 37q201 0 326.5 -98.5t125.5 -280.5 v-447q0 -25 0.5 -47t3.5 -42l89 -12v-175h-337zM499 195q66 0 120 28.5t84 71.5v165h-149q-93 0 -141 -43.5t-48 -104.5q0 -55 35.5 -86t98.5 -31zM945 1280v-23h-217l-155 146l-154 -146h-212v26l282 240h169z" />
<glyph unicode="&#xe3;" horiz-adv-x="1125" d="M74 0zM752 0q-12 27 -21 55.5t-14 57.5q-52 -60 -126.5 -97t-170.5 -37q-159 0 -252.5 86.5t-93.5 235.5q0 152 122 235t358 83h149v106q0 78 -45 121t-133 43q-50 0 -89 -11.5t-63 -27.5l-19 -116h-220l1 240q80 54 183.5 91t225.5 37q201 0 326.5 -98.5t125.5 -280.5 v-447q0 -25 0.5 -47t3.5 -42l89 -12v-175h-337zM499 195q66 0 120 28.5t84 71.5v165h-149q-93 0 -141 -43.5t-48 -104.5q0 -55 35.5 -86t98.5 -31zM938 1512q0 -96 -59.5 -163.5t-150.5 -67.5q-70 0 -158.5 43.5t-140.5 43.5q-36 0 -60.5 -32.5t-24.5 -77.5l-155 42 q0 94 59.5 163.5t149.5 69.5q56 0 151.5 -43.5t147.5 -43.5q35 0 60.5 32t25.5 79z" />
<glyph unicode="&#xe4;" horiz-adv-x="1125" d="M74 0zM752 0q-12 27 -21 55.5t-14 57.5q-52 -60 -126.5 -97t-170.5 -37q-159 0 -252.5 86.5t-93.5 235.5q0 152 122 235t358 83h149v106q0 78 -45 121t-133 43q-50 0 -89 -11.5t-63 -27.5l-19 -116h-220l1 240q80 54 183.5 91t225.5 37q201 0 326.5 -98.5t125.5 -280.5 v-447q0 -25 0.5 -47t3.5 -42l89 -12v-175h-337zM499 195q66 0 120 28.5t84 71.5v165h-149q-93 0 -141 -43.5t-48 -104.5q0 -55 35.5 -86t98.5 -31zM944 1277h-267v204h267v-204zM444 1277h-267v204h267v-204z" />
<glyph unicode="&#xe5;" horiz-adv-x="1125" d="M74 0zM752 0q-12 27 -21 55.5t-14 57.5q-52 -60 -126.5 -97t-170.5 -37q-159 0 -252.5 86.5t-93.5 235.5q0 152 122 235t358 83h149v106q0 78 -45 121t-133 43q-50 0 -89 -11.5t-63 -27.5l-19 -116h-220l1 240q80 54 183.5 91t225.5 37q201 0 326.5 -98.5t125.5 -280.5 v-447q0 -25 0.5 -47t3.5 -42l89 -12v-175h-337zM499 195q66 0 120 28.5t84 71.5v165h-149q-93 0 -141 -43.5t-48 -104.5q0 -55 35.5 -86t98.5 -31zM362 1421q0 83 61.5 139.5t151.5 56.5q88 0 148.5 -56.5t60.5 -139.5q0 -84 -60.5 -138t-148.5 -54q-91 0 -152 54t-61 138z M477 1421q0 -43 28 -70.5t70 -27.5q41 0 67 27.5t26 70.5q0 44 -26 72t-67 28q-42 0 -70 -28.5t-28 -71.5z" />
<glyph unicode="&#xe6;" horiz-adv-x="1784" d="M1273 -21q-129 0 -229.5 40.5t-167.5 116.5q-60 -68 -161.5 -112.5t-240.5 -44.5q-192 0 -296.5 90.5t-104.5 247.5q0 159 127 245t370 86h181v59q0 79 -41 124.5t-115 45.5q-81 0 -127 -37.5t-46 -93.5l-283 18l-2 6q-6 144 121.5 238t339.5 94q102 0 186 -27.5 t143 -79.5q61 52 142.5 79.5t180.5 27.5q212 0 333 -132t121 -358v-158h-650l-2 -6q4 -112 66 -178.5t186 -66.5q92 0 154 20t140 61l77 -184q-62 -48 -169 -84.5t-233 -36.5zM530 185q58 0 121 30.5t100 72.5v176h-179q-98 0 -152.5 -44t-54.5 -107q0 -59 41.5 -93.5 t123.5 -34.5zM1250 877q-95 0 -142 -61.5t-54 -166.5l2 -5h362v28q0 94 -42.5 149.5t-125.5 55.5z" />
<glyph unicode="&#xe7;" horiz-adv-x="1079" d="M67 0zM571 203q78 0 125 45.5t47 121.5h264l3 -6q4 -164 -123 -274.5t-316 -110.5q-242 0 -373 153t-131 393v30q0 239 134.5 393t383.5 154q131 0 235 -39t173 -110l4 -289h-237l-48 169q-22 19 -54 31.5t-73 12.5q-124 0 -175 -90t-51 -232v-30q0 -145 47 -233.5 t165 -88.5zM656 4l-11 -57q64 -11 107 -52t43 -121q0 -107 -91.5 -171t-259.5 -64l-7 161q51 0 81 20.5t30 62.5q0 41 -32 57.5t-110 21.5l31 142h219z" />
<glyph unicode="&#xe8;" horiz-adv-x="1091" d="M67 0zM581 -21q-234 0 -374 150t-140 381v40q0 241 132.5 397t355.5 155q219 0 340 -132t121 -357v-159h-646l-2 -6q8 -107 71.5 -176t172.5 -69q97 0 161 19.5t140 61.5l79 -180q-67 -53 -173.5 -89t-237.5 -36zM555 877q-81 0 -128 -62t-58 -163l3 -5h358v26 q0 93 -43.5 148.5t-131.5 55.5zM693 1245h-236l-272 260l2 6h310z" />
<glyph unicode="&#xe9;" horiz-adv-x="1091" d="M67 0zM581 -21q-234 0 -374 150t-140 381v40q0 241 132.5 397t355.5 155q219 0 340 -132t121 -357v-159h-646l-2 -6q8 -107 71.5 -176t172.5 -69q97 0 161 19.5t140 61.5l79 -180q-67 -53 -173.5 -89t-237.5 -36zM555 877q-81 0 -128 -62t-58 -163l3 -5h358v26 q0 93 -43.5 148.5t-131.5 55.5zM563 1503h309l2 -6l-276 -260h-234z" />
<glyph unicode="&#xea;" horiz-adv-x="1091" d="M67 0zM581 -21q-234 0 -374 150t-140 381v40q0 241 132.5 397t355.5 155q219 0 340 -132t121 -357v-159h-646l-2 -6q8 -107 71.5 -176t172.5 -69q97 0 161 19.5t140 61.5l79 -180q-67 -53 -173.5 -89t-237.5 -36zM555 877q-81 0 -128 -62t-58 -163l3 -5h358v26 q0 93 -43.5 148.5t-131.5 55.5zM911 1281v-23h-217l-155 146l-154 -146h-212v26l282 240h169z" />
<glyph unicode="&#xeb;" horiz-adv-x="1091" d="M67 0zM581 -21q-234 0 -374 150t-140 381v40q0 241 132.5 397t355.5 155q219 0 340 -132t121 -357v-159h-646l-2 -6q8 -107 71.5 -176t172.5 -69q97 0 161 19.5t140 61.5l79 -180q-67 -53 -173.5 -89t-237.5 -36zM555 877q-81 0 -128 -62t-58 -163l3 -5h358v26 q0 93 -43.5 148.5t-131.5 55.5zM911 1278h-267v204h267v-204zM411 1278h-267v204h267v-204z" />
<glyph unicode="&#xec;" horiz-adv-x="686" d="M7 0zM70 906v176h448v-877l140 -30v-175h-573v175l141 30v671zM515 1246h-236l-272 260l2 6h310z" />
<glyph unicode="&#xed;" horiz-adv-x="686" d="M70 0zM70 906v176h448v-877l140 -30v-175h-573v175l141 30v671zM384 1504h309l2 -6l-276 -260h-234z" />
<glyph unicode="&#xee;" horiz-adv-x="686" d="M0 0zM70 906v176h448v-877l140 -30v-175h-573v175l141 30v671zM733 1282v-23h-217l-155 146l-154 -146h-212v26l282 240h169z" />
<glyph unicode="&#xef;" horiz-adv-x="686" d="M0 0zM70 906v176h448v-877l140 -30v-175h-573v175l141 30v671zM732 1279h-267v204h267v-204zM232 1279h-267v204h267v-204z" />
<glyph unicode="&#xf0;" horiz-adv-x="1217" d="M918 1282q110 -117 170 -274.5t60 -346.5v-76q0 -267 -157.5 -436.5t-392.5 -169.5q-238 0 -388 140.5t-150 348.5q0 226 134 362.5t365 136.5q75 0 143 -22t118 -61l4 4q-20 75 -59 140t-92 118l-231 -128l-78 113l190 105q-35 19 -71.5 34.5t-73.5 28.5l92 218 q85 -21 163 -56t146 -84l208 116l77 -113zM856 663q-34 40 -98.5 66t-152.5 26q-121 0 -187.5 -79t-66.5 -208q0 -111 68.5 -188t182.5 -77q117 0 185.5 107.5t68.5 274.5v78z" />
<glyph unicode="&#xf1;" horiz-adv-x="1300" d="M32 0zM47 175l140 30v671l-155 30v176h427l13 -155q54 83 133 129t177 46q164 0 256 -103t92 -323v-471l140 -30v-175h-558v175l125 30v470q0 109 -44 154.5t-133 45.5q-58 0 -104 -23.5t-77 -66.5v-580l118 -30v-175h-550v175zM985 1512q0 -96 -59.5 -163.5 t-150.5 -67.5q-70 0 -158.5 43.5t-140.5 43.5q-36 0 -60.5 -32.5t-24.5 -77.5l-155 42q0 94 59.5 163.5t149.5 69.5q56 0 151.5 -43.5t147.5 -43.5q35 0 60.5 32t25.5 79z" />
<glyph unicode="&#xf2;" horiz-adv-x="1148" d="M63 0zM63 551q0 242 135.5 396.5t374.5 154.5q240 0 375.5 -154t135.5 -397v-21q0 -244 -135.5 -397.5t-373.5 -153.5q-241 0 -376.5 153.5t-135.5 397.5v21zM355 530q0 -148 52 -237.5t168 -89.5q113 0 165.5 90t52.5 237v21q0 144 -53 235t-167 91t-166 -91t-52 -235 v-21zM727 1246h-236l-272 260l2 6h310z" />
<glyph unicode="&#xf3;" horiz-adv-x="1148" d="M63 0zM63 551q0 242 135.5 396.5t374.5 154.5q240 0 375.5 -154t135.5 -397v-21q0 -244 -135.5 -397.5t-373.5 -153.5q-241 0 -376.5 153.5t-135.5 397.5v21zM355 530q0 -148 52 -237.5t168 -89.5q113 0 165.5 90t52.5 237v21q0 144 -53 235t-167 91t-166 -91t-52 -235 v-21zM597 1504h309l2 -6l-276 -260h-234z" />
<glyph unicode="&#xf4;" horiz-adv-x="1148" d="M63 0zM63 551q0 242 135.5 396.5t374.5 154.5q240 0 375.5 -154t135.5 -397v-21q0 -244 -135.5 -397.5t-373.5 -153.5q-241 0 -376.5 153.5t-135.5 397.5v21zM355 530q0 -148 52 -237.5t168 -89.5q113 0 165.5 90t52.5 237v21q0 144 -53 235t-167 91t-166 -91t-52 -235 v-21zM945 1282v-23h-217l-155 146l-154 -146h-212v26l282 240h169z" />
<glyph unicode="&#xf5;" horiz-adv-x="1148" d="M63 0zM63 551q0 242 135.5 396.5t374.5 154.5q240 0 375.5 -154t135.5 -397v-21q0 -244 -135.5 -397.5t-373.5 -153.5q-241 0 -376.5 153.5t-135.5 397.5v21zM355 530q0 -148 52 -237.5t168 -89.5q113 0 165.5 90t52.5 237v21q0 144 -53 235t-167 91t-166 -91t-52 -235 v-21zM938 1514q0 -96 -59.5 -163.5t-150.5 -67.5q-70 0 -158.5 43.5t-140.5 43.5q-36 0 -60.5 -32.5t-24.5 -77.5l-155 42q0 94 59.5 163.5t149.5 69.5q56 0 151.5 -43.5t147.5 -43.5q35 0 60.5 32t25.5 79z" />
<glyph unicode="&#xf6;" horiz-adv-x="1148" d="M63 0zM63 551q0 242 135.5 396.5t374.5 154.5q240 0 375.5 -154t135.5 -397v-21q0 -244 -135.5 -397.5t-373.5 -153.5q-241 0 -376.5 153.5t-135.5 397.5v21zM355 530q0 -148 52 -237.5t168 -89.5q113 0 165.5 90t52.5 237v21q0 144 -53 235t-167 91t-166 -91t-52 -235 v-21zM944 1279h-267v204h267v-204zM444 1279h-267v204h267v-204z" />
<glyph unicode="&#xf7;" horiz-adv-x="1133" d="M1084 573h-1028v227h1028v-227zM717 973h-292v233h292v-233zM717 164h-292v233h292v-233z" />
<glyph unicode="&#xf8;" horiz-adv-x="1178" d="M76 551q0 242 135.5 396.5t374.5 154.5q45 0 87 -6.5t83 -17.5l67 137h162l-98 -201q101 -72 155.5 -192.5t54.5 -270.5v-21q0 -244 -135.5 -397.5t-373.5 -153.5q-53 0 -101 8t-91 23l-74 -151h-162l108 221q-94 72 -143 188.5t-49 261.5v21zM806 551q0 62 -10 115.5 t-29 89.5h-6l-262 -535q18 -9 40.5 -13.5t48.5 -4.5q113 0 165.5 90t52.5 237v21zM368 530q0 -55 6.5 -101t20.5 -77l5 -1l253 516q-16 4 -33 7t-34 3q-114 0 -166 -91t-52 -235v-21z" />
<glyph unicode="&#xf9;" horiz-adv-x="1278" d="M33 0zM820 137q-52 -76 -128.5 -117t-174.5 -41q-171 0 -268 109.5t-97 340.5v447l-119 30v176h119h292v-655q0 -118 39.5 -169.5t117.5 -51.5q69 0 119.5 22.5t82.5 64.5v583l-128 30v176h128h292v-877l131 -30v-175h-387zM760 1246h-236l-272 260l2 6h310z" />
<glyph unicode="&#xfa;" horiz-adv-x="1278" d="M33 0zM820 137q-52 -76 -128.5 -117t-174.5 -41q-171 0 -268 109.5t-97 340.5v447l-119 30v176h119h292v-655q0 -118 39.5 -169.5t117.5 -51.5q69 0 119.5 22.5t82.5 64.5v583l-128 30v176h128h292v-877l131 -30v-175h-387zM630 1504h309l2 -6l-276 -260h-234z" />
<glyph unicode="&#xfb;" horiz-adv-x="1278" d="M33 0zM820 137q-52 -76 -128.5 -117t-174.5 -41q-171 0 -268 109.5t-97 340.5v447l-119 30v176h119h292v-655q0 -118 39.5 -169.5t117.5 -51.5q69 0 119.5 22.5t82.5 64.5v583l-128 30v176h128h292v-877l131 -30v-175h-387zM978 1282v-23h-217l-155 146l-154 -146h-212 v26l282 240h169z" />
<glyph unicode="&#xfc;" horiz-adv-x="1278" d="M33 0zM820 137q-52 -76 -128.5 -117t-174.5 -41q-171 0 -268 109.5t-97 340.5v447l-119 30v176h119h292v-655q0 -118 39.5 -169.5t117.5 -51.5q69 0 119.5 22.5t82.5 64.5v583l-128 30v176h128h292v-877l131 -30v-175h-387zM977 1279h-267v204h267v-204zM477 1279h-267 v204h267v-204z" />
<glyph unicode="&#xfd;" horiz-adv-x="1212" d="M26 0zM1183 906l-101 -15l-398 -1053q-47 -117 -125.5 -196t-236.5 -79q-37 0 -69.5 6t-76.5 17l34 213q14 -2 29 -4t26 -2q73 0 112 35.5t60 88.5l33 82l-343 891l-101 16v176h530v-176l-121 -20l148 -432l15 -78l6 -1l171 511l-122 20v176h530v-176zM613 1489h309l2 -6 l-276 -260h-234z" />
<glyph unicode="&#xfe;" horiz-adv-x="1246" d="M34 1384v176h447v-591q47 64 112 98.5t150 34.5q201 0 312 -157t111 -413v-21q0 -240 -111 -386t-310 -146q-85 0 -151 31.5t-113 92.5v-313l141 -30v-176h-573v176l141 30v1564zM874 532q0 153 -51 248t-156 95q-66 0 -112.5 -27t-73.5 -77v-474q27 -46 73.5 -70 t114.5 -24q106 0 155.5 83t49.5 225v21z" />
<glyph unicode="&#xff;" horiz-adv-x="1212" d="M26 0zM1183 906l-101 -15l-398 -1053q-47 -117 -125.5 -196t-236.5 -79q-37 0 -69.5 6t-76.5 17l34 213q14 -2 29 -4t26 -2q73 0 112 35.5t60 88.5l33 82l-343 891l-101 16v176h530v-176l-121 -20l148 -432l15 -78l6 -1l171 511l-122 20v176h530v-176zM960 1264h-267v204 h267v-204zM460 1264h-267v204h267v-204z" />
<glyph unicode="&#x100;" d="M41 0zM41 175l104 15l443 1266h299l440 -1266l104 -15v-175h-496v175l101 18l-64 200h-472l-64 -200l101 -18v-175h-496v175zM569 608h334l-164 513h-6zM1084 1617h-731v165h731v-165z" />
<glyph unicode="&#x101;" horiz-adv-x="1125" d="M74 0zM752 0q-12 27 -21 55.5t-14 57.5q-52 -60 -126.5 -97t-170.5 -37q-159 0 -252.5 86.5t-93.5 235.5q0 152 122 235t358 83h149v106q0 78 -45 121t-133 43q-50 0 -89 -11.5t-63 -27.5l-19 -116h-220l1 240q80 54 183.5 91t225.5 37q201 0 326.5 -98.5t125.5 -280.5 v-447q0 -25 0.5 -47t3.5 -42l89 -12v-175h-337zM499 195q66 0 120 28.5t84 71.5v165h-149q-93 0 -141 -43.5t-48 -104.5q0 -55 35.5 -86t98.5 -31zM927 1293h-731v165h731v-165z" />
<glyph unicode="&#x102;" d="M41 0zM41 175l104 15l443 1266h299l440 -1266l104 -15v-175h-496v175l101 18l-64 200h-472l-64 -200l101 -18v-175h-496v175zM569 608h334l-164 513h-6zM1062 1883l2 -6q5 -127 -88.5 -207.5t-251.5 -80.5q-159 0 -253 80.5t-88 207.5l2 6h198q0 -58 34 -96t107 -38 q71 0 105 37.5t34 96.5h199z" />
<glyph unicode="&#x103;" horiz-adv-x="1125" d="M74 0zM752 0q-12 27 -21 55.5t-14 57.5q-52 -60 -126.5 -97t-170.5 -37q-159 0 -252.5 86.5t-93.5 235.5q0 152 122 235t358 83h149v106q0 78 -45 121t-133 43q-50 0 -89 -11.5t-63 -27.5l-19 -116h-220l1 240q80 54 183.5 91t225.5 37q201 0 326.5 -98.5t125.5 -280.5 v-447q0 -25 0.5 -47t3.5 -42l89 -12v-175h-337zM499 195q66 0 120 28.5t84 71.5v165h-149q-93 0 -141 -43.5t-48 -104.5q0 -55 35.5 -86t98.5 -31zM905 1559l2 -6q5 -127 -88.5 -207.5t-251.5 -80.5q-159 0 -253 80.5t-88 207.5l2 6h198q0 -58 34 -96t107 -38q71 0 105 37.5 t34 96.5h199z" />
<glyph unicode="&#x104;" d="M41 0zM41 175l104 15l443 1266h299l440 -1266l104 -15v-175h-496v175l101 18l-64 200h-472l-64 -200l101 -18v-175h-496v175zM569 608h334l-164 513h-6zM1432 0q-53 -53 -78 -90t-25 -86q0 -27 16.5 -48.5t68.5 -21.5q28 0 49.5 6t44.5 14l35 -154q-36 -19 -80 -31.5 t-105 -12.5q-109 0 -178.5 56.5t-69.5 157.5q0 77 46 146.5t144 123.5z" />
<glyph unicode="&#x105;" horiz-adv-x="1125" d="M74 0zM752 0q-12 27 -21 55.5t-14 57.5q-52 -60 -126.5 -97t-170.5 -37q-159 0 -252.5 86.5t-93.5 235.5q0 152 122 235t358 83h149v106q0 78 -45 121t-133 43q-50 0 -89 -11.5t-63 -27.5l-19 -116h-220l1 240q80 54 183.5 91t225.5 37q201 0 326.5 -98.5t125.5 -280.5 v-447q0 -25 0.5 -47t3.5 -42l89 -12v-175h-337zM499 195q66 0 120 28.5t84 71.5v165h-149q-93 0 -141 -43.5t-48 -104.5q0 -55 35.5 -86t98.5 -31zM1089 0q-53 -53 -78 -90t-25 -86q0 -27 16.5 -48.5t68.5 -21.5q28 0 49.5 6t44.5 14l35 -154q-36 -19 -80 -31.5t-105 -12.5 q-109 0 -178.5 56.5t-69.5 157.5q0 77 46 146.5t144 123.5z" />
<glyph unicode="&#x106;" horiz-adv-x="1327" d="M52 0zM1249 965h-217l-30 194q-43 43 -108.5 68t-154.5 25q-190 0 -292.5 -138t-102.5 -360v-51q0 -222 102 -361t288 -139q86 0 157.5 25t110.5 68l30 194h217v-288q-88 -102 -224.5 -162.5t-305.5 -60.5q-293 0 -480 203t-187 521v49q0 317 186 521t481 204 q169 0 305 -61.5t225 -162.5v-288zM741 1833h309l2 -6l-276 -260h-234z" />
<glyph unicode="&#x107;" horiz-adv-x="1079" d="M67 0zM571 203q78 0 125 45.5t47 121.5h264l3 -6q4 -164 -123 -274.5t-316 -110.5q-242 0 -373 153t-131 393v30q0 239 134.5 393t383.5 154q131 0 235 -39t173 -110l4 -289h-237l-48 169q-22 19 -54 31.5t-73 12.5q-124 0 -175 -90t-51 -232v-30q0 -145 47 -233.5 t165 -88.5zM598 1502h309l2 -6l-276 -260h-234z" />
<glyph unicode="&#x108;" horiz-adv-x="1327" d="M52 0zM1249 965h-217l-30 194q-43 43 -108.5 68t-154.5 25q-190 0 -292.5 -138t-102.5 -360v-51q0 -222 102 -361t288 -139q86 0 157.5 25t110.5 68l30 194h217v-288q-88 -102 -224.5 -162.5t-305.5 -60.5q-293 0 -480 203t-187 521v49q0 317 186 521t481 204 q169 0 305 -61.5t225 -162.5v-288zM1089 1611v-23h-217l-155 146l-154 -146h-212v26l282 240h169z" />
<glyph unicode="&#x109;" horiz-adv-x="1079" d="M67 0zM571 203q78 0 125 45.5t47 121.5h264l3 -6q4 -164 -123 -274.5t-316 -110.5q-242 0 -373 153t-131 393v30q0 239 134.5 393t383.5 154q131 0 235 -39t173 -110l4 -289h-237l-48 169q-22 19 -54 31.5t-73 12.5q-124 0 -175 -90t-51 -232v-30q0 -145 47 -233.5 t165 -88.5zM946 1280v-23h-217l-155 146l-154 -146h-212v26l282 240h169z" />
<glyph unicode="&#x10a;" horiz-adv-x="1327" d="M52 0zM1249 965h-217l-30 194q-43 43 -108.5 68t-154.5 25q-190 0 -292.5 -138t-102.5 -360v-51q0 -222 102 -361t288 -139q86 0 157.5 25t110.5 68l30 194h217v-288q-88 -102 -224.5 -162.5t-305.5 -60.5q-293 0 -480 203t-187 521v49q0 317 186 521t481 204 q169 0 305 -61.5t225 -162.5v-288zM857 1608h-305v241h305v-241z" />
<glyph unicode="&#x10b;" horiz-adv-x="1079" d="M67 0zM571 203q78 0 125 45.5t47 121.5h264l3 -6q4 -164 -123 -274.5t-316 -110.5q-242 0 -373 153t-131 393v30q0 239 134.5 393t383.5 154q131 0 235 -39t173 -110l4 -289h-237l-48 169q-22 19 -54 31.5t-73 12.5q-124 0 -175 -90t-51 -232v-30q0 -145 47 -233.5 t165 -88.5zM714 1277h-305v241h305v-241z" />
<glyph unicode="&#x10c;" horiz-adv-x="1327" d="M52 0zM1249 965h-217l-30 194q-43 43 -108.5 68t-154.5 25q-190 0 -292.5 -138t-102.5 -360v-51q0 -222 102 -361t288 -139q86 0 157.5 25t110.5 68l30 194h217v-288q-88 -102 -224.5 -162.5t-305.5 -60.5q-293 0 -480 203t-187 521v49q0 317 186 521t481 204 q169 0 305 -61.5t225 -162.5v-288zM699 1734l132 140h248v-17l-280 -255h-200l-281 256v16h249z" />
<glyph unicode="&#x10d;" horiz-adv-x="1079" d="M67 0zM571 203q78 0 125 45.5t47 121.5h264l3 -6q4 -164 -123 -274.5t-316 -110.5q-242 0 -373 153t-131 393v30q0 239 134.5 393t383.5 154q131 0 235 -39t173 -110l4 -289h-237l-48 169q-22 19 -54 31.5t-73 12.5q-124 0 -175 -90t-51 -232v-30q0 -145 47 -233.5 t165 -88.5zM556 1403l132 140h248v-17l-280 -255h-200l-281 256v16h249z" />
<glyph unicode="&#x10e;" horiz-adv-x="1411" d="M56 0zM711 1456q267 0 440 -170.5t173 -437.5v-241q0 -268 -173 -437.5t-440 -169.5h-655v175l155 30v1045l-155 30v176h155h500zM503 1231v-1007h193q157 0 246 106t89 277v243q0 169 -89 275t-246 106h-193zM610 1727l132 140h248v-17l-280 -255h-200l-281 256v16h249z " />
<glyph unicode="&#x10f;" horiz-adv-x="1362" d="M67 0zM767 132q-51 -75 -120.5 -114t-158.5 -39q-200 0 -310.5 146t-110.5 386v21q0 256 111 413t312 157q81 0 146 -35.5t114 -100.5v388l-156 30v176h156h292v-1355l140 -30v-175h-393zM359 511q0 -142 47.5 -223.5t155.5 -81.5q64 0 111 26t77 75v459 q-30 52 -76.5 80.5t-109.5 28.5q-107 0 -156 -95t-49 -248v-21zM1398 1439q0 -105 -42.5 -214.5t-107.5 -181.5l-144 78q40 71 60.5 141.5t20.5 163.5v133h213v-120z" />
<glyph unicode="&#x110;" horiz-adv-x="1441" d="M741 1456q267 0 440 -170.5t173 -437.5v-241q0 -268 -173 -437.5t-440 -169.5h-655v175l155 30v460h-195v155h195v430l-155 30v176h655zM747 665h-214v-441h193q157 0 246 106t89 277v243q0 169 -89 275t-246 106h-193v-411h214v-155z" />
<glyph unicode="&#x111;" horiz-adv-x="1242" d="M767 132q-51 -75 -120.5 -114t-158.5 -39q-200 0 -310.5 146t-110.5 386v21q0 256 111 413t312 157q81 0 146 -35.5t114 -100.5v166h-211v155h211v67l-156 30v176h448v-273h198v-155h-198v-927l140 -30v-175h-393zM359 511q0 -142 47.5 -223.5t155.5 -81.5q64 0 111 26 t77 75v459q-30 52 -76.5 80.5t-109.5 28.5q-107 0 -156 -95t-49 -248v-21z" />
<glyph unicode="&#x112;" horiz-adv-x="1308" d="M56 0zM996 640h-493v-416h470l13 174h222v-398h-1152v175l155 30v1045l-155 30v176h155h995v-399h-224l-13 174h-466v-366h493v-225zM995 1617h-731v165h731v-165z" />
<glyph unicode="&#x113;" horiz-adv-x="1091" d="M67 0zM581 -21q-234 0 -374 150t-140 381v40q0 241 132.5 397t355.5 155q219 0 340 -132t121 -357v-159h-646l-2 -6q8 -107 71.5 -176t172.5 -69q97 0 161 19.5t140 61.5l79 -180q-67 -53 -173.5 -89t-237.5 -36zM555 877q-81 0 -128 -62t-58 -163l3 -5h358v26 q0 93 -43.5 148.5t-131.5 55.5zM893 1294h-731v165h731v-165z" />
<glyph unicode="&#x114;" horiz-adv-x="1308" d="M56 0zM996 640h-493v-416h470l13 174h222v-398h-1152v175l155 30v1045l-155 30v176h155h995v-399h-224l-13 174h-466v-366h493v-225zM973 1883l2 -6q5 -127 -88.5 -207.5t-251.5 -80.5q-159 0 -253 80.5t-88 207.5l2 6h198q0 -58 34 -96t107 -38q71 0 105 37.5t34 96.5 h199z" />
<glyph unicode="&#x115;" horiz-adv-x="1091" d="M67 0zM581 -21q-234 0 -374 150t-140 381v40q0 241 132.5 397t355.5 155q219 0 340 -132t121 -357v-159h-646l-2 -6q8 -107 71.5 -176t172.5 -69q97 0 161 19.5t140 61.5l79 -180q-67 -53 -173.5 -89t-237.5 -36zM555 877q-81 0 -128 -62t-58 -163l3 -5h358v26 q0 93 -43.5 148.5t-131.5 55.5zM871 1560l2 -6q5 -127 -88.5 -207.5t-251.5 -80.5q-159 0 -253 80.5t-88 207.5l2 6h198q0 -58 34 -96t107 -38q71 0 105 37.5t34 96.5h199z" />
<glyph unicode="&#x116;" horiz-adv-x="1308" d="M56 0zM996 640h-493v-416h470l13 174h222v-398h-1152v175l155 30v1045l-155 30v176h155h995v-399h-224l-13 174h-466v-366h493v-225zM781 1601h-305v241h305v-241z" />
<glyph unicode="&#x117;" horiz-adv-x="1091" d="M67 0zM581 -21q-234 0 -374 150t-140 381v40q0 241 132.5 397t355.5 155q219 0 340 -132t121 -357v-159h-646l-2 -6q8 -107 71.5 -176t172.5 -69q97 0 161 19.5t140 61.5l79 -180q-67 -53 -173.5 -89t-237.5 -36zM555 877q-81 0 -128 -62t-58 -163l3 -5h358v26 q0 93 -43.5 148.5t-131.5 55.5zM679 1278h-305v241h305v-241z" />
<glyph unicode="&#x118;" horiz-adv-x="1308" d="M56 0zM996 640h-493v-416h470l13 174h222v-398h-1152v175l155 30v1045l-155 30v176h155h995v-399h-224l-13 174h-466v-366h493v-225zM744 10q-53 -53 -78 -90t-25 -86q0 -27 16.5 -48.5t68.5 -21.5q28 0 49.5 6t44.5 14l35 -154q-36 -19 -80 -31.5t-105 -12.5 q-109 0 -178.5 56.5t-69.5 157.5q0 77 46 146.5t144 123.5z" />
<glyph unicode="&#x119;" horiz-adv-x="1091" d="M67 0zM581 -21q-234 0 -374 150t-140 381v40q0 241 132.5 397t355.5 155q219 0 340 -132t121 -357v-159h-646l-2 -6q8 -107 71.5 -176t172.5 -69q97 0 161 19.5t140 61.5l79 -180q-67 -53 -173.5 -89t-237.5 -36zM555 877q-81 0 -128 -62t-58 -163l3 -5h358v26 q0 93 -43.5 148.5t-131.5 55.5zM881 58q-53 -53 -78 -90t-25 -86q0 -27 16.5 -48.5t68.5 -21.5q28 0 49.5 6t44.5 14l35 -154q-36 -19 -80 -31.5t-105 -12.5q-109 0 -178.5 56.5t-69.5 157.5q0 77 46 146.5t144 123.5z" />
<glyph unicode="&#x11a;" horiz-adv-x="1308" d="M56 0zM996 640h-493v-416h470l13 174h222v-398h-1152v175l155 30v1045l-155 30v176h155h995v-399h-224l-13 174h-466v-366h493v-225zM623 1727l132 140h248v-17l-280 -255h-200l-281 256v16h249z" />
<glyph unicode="&#x11b;" horiz-adv-x="1091" d="M67 0zM581 -21q-234 0 -374 150t-140 381v40q0 241 132.5 397t355.5 155q219 0 340 -132t121 -357v-159h-646l-2 -6q8 -107 71.5 -176t172.5 -69q97 0 161 19.5t140 61.5l79 -180q-67 -53 -173.5 -89t-237.5 -36zM555 877q-81 0 -128 -62t-58 -163l3 -5h358v26 q0 93 -43.5 148.5t-131.5 55.5zM521 1404l132 140h248v-17l-280 -255h-200l-281 256v16h249z" />
<glyph unicode="&#x11c;" horiz-adv-x="1353" d="M47 0zM1263 162q-71 -70 -207 -126.5t-344 -56.5q-295 0 -480 197.5t-185 513.5v50q0 327 182.5 532t476.5 205q171 0 312.5 -54.5t235.5 -147.5v-293h-216l-41 195q-40 34 -105.5 54.5t-150.5 20.5q-191 0 -297 -141t-106 -369v-52q0 -222 104 -354.5t300 -132.5 q88 0 142.5 15t85.5 35v247l-208 16v205h501v-559zM1080 1603v-23h-217l-155 146l-154 -146h-212v26l282 240h169z" />
<glyph unicode="&#x11d;" horiz-adv-x="1170" d="M81 0zM81 532q0 256 111.5 413t312.5 157q91 0 160 -40.5t118 -115.5l21 136h254v-1050q0 -214 -134.5 -341.5t-369.5 -127.5q-82 0 -174 22.5t-170 61.5l54 205q70 -30 140 -47.5t148 -17.5q107 0 160 65t53 181v71q-48 -61 -113 -93t-149 -32q-199 0 -310.5 146.5 t-111.5 385.5v21zM373 511q0 -142 48 -223.5t156 -81.5q67 0 113.5 24.5t74.5 71.5v470q-28 49 -74.5 76t-111.5 27q-107 0 -156.5 -95t-49.5 -248v-21zM935 1282v-23h-217l-155 146l-154 -146h-212v26l282 240h169z" />
<glyph unicode="&#x11e;" horiz-adv-x="1353" d="M47 0zM1263 162q-71 -70 -207 -126.5t-344 -56.5q-295 0 -480 197.5t-185 513.5v50q0 327 182.5 532t476.5 205q171 0 312.5 -54.5t235.5 -147.5v-293h-216l-41 195q-40 34 -105.5 54.5t-150.5 20.5q-191 0 -297 -141t-106 -369v-52q0 -222 104 -354.5t300 -132.5 q88 0 142.5 15t85.5 35v247l-208 16v205h501v-559zM1040 1882l2 -6q5 -127 -88.5 -207.5t-251.5 -80.5q-159 0 -253 80.5t-88 207.5l2 6h198q0 -58 34 -96t107 -38q71 0 105 37.5t34 96.5h199z" />
<glyph unicode="&#x11f;" horiz-adv-x="1170" d="M81 0zM81 532q0 256 111.5 413t312.5 157q91 0 160 -40.5t118 -115.5l21 136h254v-1050q0 -214 -134.5 -341.5t-369.5 -127.5q-82 0 -174 22.5t-170 61.5l54 205q70 -30 140 -47.5t148 -17.5q107 0 160 65t53 181v71q-48 -61 -113 -93t-149 -32q-199 0 -310.5 146.5 t-111.5 385.5v21zM373 511q0 -142 48 -223.5t156 -81.5q67 0 113.5 24.5t74.5 71.5v470q-28 49 -74.5 76t-111.5 27q-107 0 -156.5 -95t-49.5 -248v-21zM895 1561l2 -6q5 -127 -88.5 -207.5t-251.5 -80.5q-159 0 -253 80.5t-88 207.5l2 6h198q0 -58 34 -96t107 -38 q71 0 105 37.5t34 96.5h199z" />
<glyph unicode="&#x120;" horiz-adv-x="1353" d="M47 0zM1263 162q-71 -70 -207 -126.5t-344 -56.5q-295 0 -480 197.5t-185 513.5v50q0 327 182.5 532t476.5 205q171 0 312.5 -54.5t235.5 -147.5v-293h-216l-41 195q-40 34 -105.5 54.5t-150.5 20.5q-191 0 -297 -141t-106 -369v-52q0 -222 104 -354.5t300 -132.5 q88 0 142.5 15t85.5 35v247l-208 16v205h501v-559zM848 1600h-305v241h305v-241z" />
<glyph unicode="&#x121;" horiz-adv-x="1170" d="M81 0zM81 532q0 256 111.5 413t312.5 157q91 0 160 -40.5t118 -115.5l21 136h254v-1050q0 -214 -134.5 -341.5t-369.5 -127.5q-82 0 -174 22.5t-170 61.5l54 205q70 -30 140 -47.5t148 -17.5q107 0 160 65t53 181v71q-48 -61 -113 -93t-149 -32q-199 0 -310.5 146.5 t-111.5 385.5v21zM373 511q0 -142 48 -223.5t156 -81.5q67 0 113.5 24.5t74.5 71.5v470q-28 49 -74.5 76t-111.5 27q-107 0 -156.5 -95t-49.5 -248v-21zM703 1279h-305v241h305v-241z" />
<glyph unicode="&#x122;" horiz-adv-x="1353" d="M47 0zM1263 162q-71 -70 -207 -126.5t-344 -56.5q-295 0 -480 197.5t-185 513.5v50q0 327 182.5 532t476.5 205q171 0 312.5 -54.5t235.5 -147.5v-293h-216l-41 195q-40 34 -105.5 54.5t-150.5 20.5q-191 0 -297 -141t-106 -369v-52q0 -222 104 -354.5t300 -132.5 q88 0 142.5 15t85.5 35v247l-208 16v205h501v-559zM810 -218q0 -105 -42.5 -214.5t-107.5 -181.5l-144 78q40 71 60.5 141.5t20.5 163.5v133h213v-120z" />
<glyph unicode="&#x123;" horiz-adv-x="1170" d="M81 0zM81 532q0 256 111.5 413t312.5 157q91 0 160 -40.5t118 -115.5l21 136h254v-1050q0 -214 -134.5 -341.5t-369.5 -127.5q-82 0 -174 22.5t-170 61.5l54 205q70 -30 140 -47.5t148 -17.5q107 0 160 65t53 181v71q-48 -61 -113 -93t-149 -32q-199 0 -310.5 146.5 t-111.5 385.5v21zM373 511q0 -142 48 -223.5t156 -81.5q67 0 113.5 24.5t74.5 71.5v470q-28 49 -74.5 76t-111.5 27q-107 0 -156.5 -95t-49.5 -248v-21zM435 1427l114 260h160l-36 -270v-165h-238v175z" />
<glyph unicode="&#x124;" horiz-adv-x="1601" d="M56 0zM56 1280v176h603v-176l-156 -30v-420h594v420l-156 30v176h156h291h156v-176l-156 -30v-1045l156 -30v-175h-603v175l156 30v400h-594v-400l156 -30v-175h-603v175l155 30v1045zM1172 1603v-23h-217l-155 146l-154 -146h-212v26l282 240h169z" />
<glyph unicode="&#x125;" horiz-adv-x="1302" d="M32 0zM47 175l141 30v1149l-156 30v176h447v-616q51 75 125 116.5t164 41.5q170 0 266.5 -112.5t96.5 -347.5v-437l140 -30v-175h-558v175l126 30v439q0 126 -44.5 178.5t-132.5 52.5q-61 0 -106.5 -22t-76.5 -62v-586l126 -30v-175h-558v175zM962 1656v-23h-217 l-155 146l-154 -146h-212v26l282 240h169z" />
<glyph unicode="&#x126;" horiz-adv-x="1567" d="M1526 1456v-176l-156 -30v-140h123v-152h-123v-753l156 -30v-175h-603v175l156 30v400h-594v-400l156 -30v-175h-603v175l155 30v753h-122v152h122v140l-155 30v176h603v-176l-156 -30v-140h594v140l-156 30v176h156h291h156zM485 830h594v128h-594v-128z" />
<glyph unicode="&#x127;" horiz-adv-x="1332" d="M77 175l141 30v915h-209v155h209v79l-156 30v176h447v-285h201v-155h-201v-176q51 75 125 116.5t164 41.5q170 0 266.5 -112.5t96.5 -347.5v-437l140 -30v-175h-558v175l126 30v439q0 126 -44.5 178.5t-132.5 52.5q-61 0 -106.5 -22t-76.5 -62v-586l126 -30v-175h-558 v175z" />
<glyph unicode="&#x128;" horiz-adv-x="713" d="M0 0zM55 1280v176h603v-176l-156 -30v-1045l156 -30v-175h-603v175l156 30v1045zM705 1835q0 -96 -59.5 -163.5t-150.5 -67.5q-70 0 -158.5 43.5t-140.5 43.5q-36 0 -60.5 -32.5t-24.5 -77.5l-155 42q0 94 59.5 163.5t149.5 69.5q56 0 151.5 -43.5t147.5 -43.5 q35 0 60.5 32t25.5 79z" />
<glyph unicode="&#x129;" horiz-adv-x="686" d="M0 0zM70 906v176h448v-877l140 -30v-175h-573v175l141 30v671zM726 1514q0 -96 -59.5 -163.5t-150.5 -67.5q-70 0 -158.5 43.5t-140.5 43.5q-36 0 -60.5 -32.5t-24.5 -77.5l-155 42q0 94 59.5 163.5t149.5 69.5q56 0 151.5 -43.5t147.5 -43.5q35 0 60.5 32t25.5 79z" />
<glyph unicode="&#x12a;" horiz-adv-x="713" d="M0 0zM55 1280v176h603v-176l-156 -30v-1045l156 -30v-175h-603v175l156 30v1045zM694 1616h-731v165h731v-165z" />
<glyph unicode="&#x12b;" horiz-adv-x="686" d="M0 0zM70 906v176h448v-877l140 -30v-175h-573v175l141 30v671zM715 1295h-731v165h731v-165z" />
<glyph unicode="&#x12c;" horiz-adv-x="713" d="M0 0zM55 1280v176h603v-176l-156 -30v-1045l156 -30v-175h-603v175l156 30v1045zM672 1882l2 -6q5 -127 -88.5 -207.5t-251.5 -80.5q-159 0 -253 80.5t-88 207.5l2 6h198q0 -58 34 -96t107 -38q71 0 105 37.5t34 96.5h199z" />
<glyph unicode="&#x12d;" horiz-adv-x="686" d="M8 0zM70 906v176h448v-877l140 -30v-175h-573v175l141 30v671zM693 1561l2 -6q5 -127 -88.5 -207.5t-251.5 -80.5q-159 0 -253 80.5t-88 207.5l2 6h198q0 -58 34 -96t107 -38q71 0 105 37.5t34 96.5h199z" />
<glyph unicode="&#x12e;" horiz-adv-x="713" d="M55 0zM55 1280v176h603v-176l-156 -30v-1045l156 -30v-175h-603v175l156 30v1045zM658 0q-53 -53 -78 -90t-25 -86q0 -27 16.5 -48.5t68.5 -21.5q28 0 49.5 6t44.5 14l35 -154q-36 -19 -80 -31.5t-105 -12.5q-109 0 -178.5 56.5t-69.5 157.5q0 77 46 146.5t144 123.5z " />
<glyph unicode="&#x12f;" horiz-adv-x="660" d="M39 0zM54 175l141 30v671l-156 30v176h448v-877l140 -30v-175h-573v175zM487 1341h-292v219h292v-219zM627 0q-53 -53 -78 -90t-25 -86q0 -27 16.5 -48.5t68.5 -21.5q28 0 49.5 6t44.5 14l35 -154q-36 -19 -80 -31.5t-105 -12.5q-109 0 -178.5 56.5t-69.5 157.5 q0 77 46 146.5t144 123.5z" />
<glyph unicode="&#x130;" horiz-adv-x="713" d="M55 0zM55 1280v176h603v-176l-156 -30v-1045l156 -30v-175h-603v175l156 30v1045zM479 1600h-305v241h305v-241z" />
<glyph unicode="&#x131;" horiz-adv-x="686" d="M70 906v176h448v-877l140 -30v-175h-573v175l141 30v671z" />
<glyph unicode="&#x132;" horiz-adv-x="1905" d="M55 0zM55 1280v176h603v-176l-156 -30v-1045l156 -30v-175h-603v175l156 30v1045zM1878 1456v-176l-156 -30v-813q0 -211 -137.5 -334.5t-347.5 -123.5q-228 0 -361 111t-128 327l2 6h284q0 -115 55 -167.5t148 -52.5q81 0 137.5 62.5t56.5 171.5v813l-156 30v176h447 h156z" />
<glyph unicode="&#x133;" horiz-adv-x="1259" d="M39 0zM54 175l141 30v671l-156 30v176h448v-877l140 -30v-175h-573v175zM487 1341h-292v219h292v-219zM1152 -40q0 -190 -101 -293.5t-280 -103.5q-41 0 -74.5 4t-69.5 13l14 223q22 -6 45 -9t50 -3q59 0 91.5 41.5t32.5 127.5v916l-156 30v176h448v-1122zM1146 1343 h-292v217h292v-217z" />
<glyph unicode="&#x134;" horiz-adv-x="1192" d="M30 0zM1165 1456v-176l-156 -30v-813q0 -211 -137.5 -334.5t-347.5 -123.5q-228 0 -361 111t-128 327l2 6h284q0 -115 55 -167.5t148 -52.5q81 0 137.5 62.5t56.5 171.5v813l-156 30v176h447h156zM1239 1600v-23h-217l-155 146l-154 -146h-212v26l282 240h169z" />
<glyph unicode="&#x135;" horiz-adv-x="621" d="M0 0zM506 -40q0 -191 -100.5 -294t-280.5 -103q-41 0 -74.5 4t-69.5 13l15 221q21 -6 46 -9.5t52 -3.5q57 0 89 45t32 127v916l-156 30v176h447v-1122zM662 1268v-23h-217l-155 146l-154 -146h-212v26l282 240h169z" />
<glyph unicode="&#x136;" horiz-adv-x="1464" d="M56 0zM56 175l155 30v1045l-155 30v176h595v-176l-148 -30v-389h127l280 407l-86 12v176h577v-176l-158 -27l-358 -478l402 -575l146 -25v-175h-577v175l90 12l-280 421h-163v-403l148 -30v-175h-595v175zM827 -206q0 -105 -42.5 -214.5t-107.5 -181.5l-144 78 q40 71 60.5 141.5t20.5 163.5v133h213v-120z" />
<glyph unicode="&#x137;" horiz-adv-x="1249" d="M32 0zM32 1384v176h447v-904h65l168 237l-95 13v176h532v-176l-128 -29l-195 -268l273 -411l111 -23v-175h-500v175l60 10l-166 268h-125v-248l126 -30v-175h-558v175l141 30v1149zM756 -214q0 -105 -42.5 -214.5t-107.5 -181.5l-144 78q40 71 60.5 141.5t20.5 163.5v133 h213v-120z" />
<glyph unicode="&#x138;" horiz-adv-x="1270" d="M47 175l141 30v671l-146 30v176h437v-420h95l162 231l-96 13v176h531v-176l-127 -29l-214 -274l269 -405l111 -23v-175h-324l-282 453h-125v-248l126 -30v-175h-558v175z" />
<glyph unicode="&#x139;" horiz-adv-x="1200" d="M56 0zM56 0v175l155 30v1045l-155 30v176h155h292h156v-176l-156 -30v-1026h411l14 183h223v-407h-1095zM355 1825h309l2 -6l-276 -260h-234z" />
<glyph unicode="&#x13a;" horiz-adv-x="653" d="M32 0zM32 1384v176h448v-1355l141 -30v-175h-574v175l141 30v1149zM354 1889h309l2 -6l-276 -260h-234z" />
<glyph unicode="&#x13b;" horiz-adv-x="1200" d="M56 0zM56 0v175l155 30v1045l-155 30v176h155h292h156v-176l-156 -30v-1026h411l14 183h223v-407h-1095zM753 -205q0 -105 -42.5 -214.5t-107.5 -181.5l-144 78q40 71 60.5 141.5t20.5 163.5v133h213v-120z" />
<glyph unicode="&#x13c;" horiz-adv-x="653" d="M32 0zM32 1384v176h448v-1355l141 -30v-175h-574v175l141 30v1149zM439 -209q0 -105 -42.5 -214.5t-107.5 -181.5l-144 78q40 71 60.5 141.5t20.5 163.5v133h213v-120z" />
<glyph unicode="&#x13d;" horiz-adv-x="1200" d="M56 0zM56 0v175l155 30v1045l-155 30v176h155h292h156v-176l-156 -30v-1026h411l14 183h223v-407h-1095zM963 1335q0 -105 -42.5 -214.5t-107.5 -181.5l-144 78q40 71 60.5 141.5t20.5 163.5v133h213v-120z" />
<glyph unicode="&#x13e;" horiz-adv-x="803" d="M32 0zM32 1384v176h448v-1355l141 -30v-175h-574v175l141 30v1149zM811 1439q0 -105 -42.5 -214.5t-107.5 -181.5l-144 78q40 71 60.5 141.5t20.5 163.5v133h213v-120z" />
<glyph unicode="&#x13f;" horiz-adv-x="1200" d="M56 0zM56 0v175l155 30v1045l-155 30v176h155h292h156v-176l-156 -30v-1026h411l14 183h223v-407h-1095zM932 691h-305v241h305v-241z" />
<glyph unicode="&#x140;" horiz-adv-x="873" d="M32 0zM32 1384v176h448v-1355l141 -30v-175h-574v175l141 30v1149zM861 652h-305v241h305v-241z" />
<glyph unicode="&#x141;" horiz-adv-x="1192" d="M659 1280l-156 -30v-360l220 64v-195l-220 -64v-471h411l14 183h223v-407h-1095v175l155 30v406l-138 -39v195l138 39v444l-155 30v176h603v-176z" />
<glyph unicode="&#x142;" horiz-adv-x="653" d="M473 905l146 49v-195l-146 -49v-505l141 -30v-175h-574v175l141 30v409l-127 -42v195l127 42v545l-156 30v176h448v-655z" />
<glyph unicode="&#x143;" horiz-adv-x="1582" d="M56 0zM1544 1456v-176l-156 -30v-1250h-291l-588 980l-6 -1v-774l156 -30v-175h-603v175l155 30v1045l-155 30v176h155h292l588 -980l6 1v773l-156 30v176h447h156zM809 1826h309l2 -6l-276 -260h-234z" />
<glyph unicode="&#x144;" horiz-adv-x="1300" d="M32 0zM47 175l140 30v671l-155 30v176h427l13 -155q54 83 133 129t177 46q164 0 256 -103t92 -323v-471l140 -30v-175h-558v175l125 30v470q0 109 -44 154.5t-133 45.5q-58 0 -104 -23.5t-77 -66.5v-580l118 -30v-175h-550v175zM644 1502h309l2 -6l-276 -260h-234z" />
<glyph unicode="&#x145;" horiz-adv-x="1582" d="M56 0zM1544 1456v-176l-156 -30v-1250h-291l-588 980l-6 -1v-774l156 -30v-175h-603v175l155 30v1045l-155 30v176h155h292l588 -980l6 1v773l-156 30v176h447h156zM891 -205q0 -105 -42.5 -214.5t-107.5 -181.5l-144 78q40 71 60.5 141.5t20.5 163.5v133h213v-120z" />
<glyph unicode="&#x146;" horiz-adv-x="1300" d="M32 0zM47 175l140 30v671l-155 30v176h427l13 -155q54 83 133 129t177 46q164 0 256 -103t92 -323v-471l140 -30v-175h-558v175l125 30v470q0 109 -44 154.5t-133 45.5q-58 0 -104 -23.5t-77 -66.5v-580l118 -30v-175h-550v175zM753 -207q0 -105 -42.5 -214.5 t-107.5 -181.5l-144 78q40 71 60.5 141.5t20.5 163.5v133h213v-120z" />
<glyph unicode="&#x147;" horiz-adv-x="1582" d="M56 0zM1544 1456v-176l-156 -30v-1250h-291l-588 980l-6 -1v-774l156 -30v-175h-603v175l155 30v1045l-155 30v176h155h292l588 -980l6 1v773l-156 30v176h447h156zM767 1727l132 140h248v-17l-280 -255h-200l-281 256v16h249z" />
<glyph unicode="&#x148;" horiz-adv-x="1300" d="M32 0zM47 175l140 30v671l-155 30v176h427l13 -155q54 83 133 129t177 46q164 0 256 -103t92 -323v-471l140 -30v-175h-558v175l125 30v470q0 109 -44 154.5t-133 45.5q-58 0 -104 -23.5t-77 -66.5v-580l118 -30v-175h-550v175zM602 1403l132 140h248v-17l-280 -255h-200 l-281 256v16h249z" />
<glyph unicode="&#x149;" horiz-adv-x="1300" d="M0 0zM47 175l140 30v671l-155 30v176h427l13 -155q54 83 133 129t177 46q164 0 256 -103t92 -323v-471l140 -30v-175h-558v175l125 30v470q0 109 -44 154.5t-133 45.5q-58 0 -104 -23.5t-77 -66.5v-580l118 -30v-175h-550v175zM212 1438q0 -105 -42.5 -214.5 t-107.5 -181.5l-144 78q40 71 60.5 141.5t20.5 163.5v133h213v-120z" />
<glyph unicode="&#x14a;" horiz-adv-x="1584" d="M68 1280v176h448l587 -981l6 1v774l-155 30v176h155h447v-176l-155 -30v-1290q0 -190 -101 -293.5t-281 -103.5q-41 0 -74 4t-70 13l14 221q23 -6 47.5 -9.5t51.5 -3.5q57 0 89 45t32 127v40l-587 982l-6 -1v-776l155 -30v-175h-603v175l156 30v1045z" />
<glyph unicode="&#x14b;" horiz-adv-x="1282" d="M93 175l140 30v671l-155 30v176h426l14 -152q53 81 132 126.5t176 45.5q163 0 255 -106t92 -333v-703q0 -190 -101 -293.5t-280 -103.5q-41 0 -75 4t-70 13l14 224q22 -5 47 -8.5t53 -3.5q58 0 89 43t31 125v702q0 116 -40.5 164.5t-121.5 48.5q-64 0 -113 -23.5 t-81 -65.5v-581l140 -30v-175h-572v175z" />
<glyph unicode="&#x14c;" horiz-adv-x="1448" d="M67 0zM1387 717q0 -320 -183 -529t-479 -209q-295 0 -476.5 209t-181.5 529v22q0 318 181 528t476 210q296 0 479.5 -210t183.5 -528v-22zM1096 741q0 226 -94 367t-278 141t-274.5 -140t-90.5 -368v-24q0 -230 91.5 -370.5t274.5 -140.5q185 0 278 140.5t93 370.5v24z M1080 1616h-731v165h731v-165z" />
<glyph unicode="&#x14d;" horiz-adv-x="1148" d="M63 0zM63 551q0 242 135.5 396.5t374.5 154.5q240 0 375.5 -154t135.5 -397v-21q0 -244 -135.5 -397.5t-373.5 -153.5q-241 0 -376.5 153.5t-135.5 397.5v21zM355 530q0 -148 52 -237.5t168 -89.5q113 0 165.5 90t52.5 237v21q0 144 -53 235t-167 91t-166 -91t-52 -235 v-21zM927 1295h-731v165h731v-165z" />
<glyph unicode="&#x14e;" horiz-adv-x="1448" d="M67 0zM1387 717q0 -320 -183 -529t-479 -209q-295 0 -476.5 209t-181.5 529v22q0 318 181 528t476 210q296 0 479.5 -210t183.5 -528v-22zM1096 741q0 226 -94 367t-278 141t-274.5 -140t-90.5 -368v-24q0 -230 91.5 -370.5t274.5 -140.5q185 0 278 140.5t93 370.5v24z M1058 1882l2 -6q5 -127 -88.5 -207.5t-251.5 -80.5q-159 0 -253 80.5t-88 207.5l2 6h198q0 -58 34 -96t107 -38q71 0 105 37.5t34 96.5h199z" />
<glyph unicode="&#x14f;" horiz-adv-x="1148" d="M63 0zM63 551q0 242 135.5 396.5t374.5 154.5q240 0 375.5 -154t135.5 -397v-21q0 -244 -135.5 -397.5t-373.5 -153.5q-241 0 -376.5 153.5t-135.5 397.5v21zM355 530q0 -148 52 -237.5t168 -89.5q113 0 165.5 90t52.5 237v21q0 144 -53 235t-167 91t-166 -91t-52 -235 v-21zM905 1561l2 -6q5 -127 -88.5 -207.5t-251.5 -80.5q-159 0 -253 80.5t-88 207.5l2 6h198q0 -58 34 -96t107 -38q71 0 105 37.5t34 96.5h199z" />
<glyph unicode="&#x150;" horiz-adv-x="1448" d="M67 0zM1387 717q0 -320 -183 -529t-479 -209q-295 0 -476.5 209t-181.5 529v22q0 318 181 528t476 210q296 0 479.5 -210t183.5 -528v-22zM1096 741q0 226 -94 367t-278 141t-274.5 -140t-90.5 -368v-24q0 -230 91.5 -370.5t274.5 -140.5q185 0 278 140.5t93 370.5v24z M952 1866h263l2 -6l-285 -260h-218l-2 5zM564 1866h260l2 -5l-240 -261h-221z" />
<glyph unicode="&#x151;" horiz-adv-x="1148" d="M63 0zM63 551q0 242 135.5 396.5t374.5 154.5q240 0 375.5 -154t135.5 -397v-21q0 -244 -135.5 -397.5t-373.5 -153.5q-241 0 -376.5 153.5t-135.5 397.5v21zM355 530q0 -148 52 -237.5t168 -89.5q113 0 165.5 90t52.5 237v21q0 144 -53 235t-167 91t-166 -91t-52 -235 v-21zM799 1545h263l2 -6l-285 -260h-218l-2 5zM411 1545h260l2 -5l-240 -261h-221z" />
<glyph unicode="&#x152;" horiz-adv-x="1996" d="M1724 640h-493v-416h470l13 174h222v-398h-938q-92 -10 -156.5 -15.5t-131.5 -5.5q-270 0 -438.5 166t-168.5 431v304q0 265 167.5 431t437.5 166q69 0 140 -6t150 -15h936v-399h-224l-13 174h-466v-366h493v-225zM710 204q58 0 115.5 4.5t113.5 13.5v1011 q-59 8 -116.5 13.5t-114.5 5.5q-148 0 -231 -94.5t-83 -275.5v-306q0 -182 84 -277t232 -95z" />
<glyph unicode="&#x153;" horiz-adv-x="1875" d="M92 551q0 242 135.5 396.5t374.5 154.5q115 0 208.5 -38.5t160.5 -108.5q64 71 152.5 109t196.5 38q219 0 340 -132t121 -357v-159h-647l-2 -6q8 -107 71.5 -176t173.5 -69q97 0 161 19.5t139 61.5l80 -180q-66 -53 -173 -89t-238 -36q-117 0 -211.5 38t-161.5 110 q-66 -72 -159.5 -110t-209.5 -38q-241 0 -376.5 153.5t-135.5 397.5v21zM384 530q0 -148 52 -237.5t168 -89.5q113 0 165.5 90t52.5 237v21q0 144 -53 235t-167 91t-166 -91t-52 -235v-21zM1320 877q-81 0 -128 -62t-58 -163l2 -5h359v26q0 93 -43.5 148.5t-131.5 55.5z" />
<glyph unicode="&#x154;" horiz-adv-x="1408" d="M56 0zM710 1456q248 0 389 -113.5t141 -313.5q0 -110 -59 -191t-173 -131q129 -38 185.5 -126.5t56.5 -219.5v-74q0 -48 19 -74.5t63 -31.5l36 -5v-176h-151q-143 0 -201 77t-58 199v83q0 106 -56.5 166.5t-159.5 63.5h-239v-384l156 -30v-175h-603v175l155 30v1045 l-155 30v176h155h499zM503 814h202q122 0 183 52t61 150t-60.5 156.5t-178.5 58.5h-207v-417zM692 1826h309l2 -6l-276 -260h-234z" />
<glyph unicode="&#x155;" horiz-adv-x="862" d="M70 0zM85 175l140 30v671l-155 30v176h427l13 -158q38 84 98 131t139 47q23 0 48.5 -3.5t42.5 -8.5l-31 -266l-120 3q-64 0 -106 -25t-64 -71v-526l140 -30v-175h-572v175zM495 1504h309l2 -6l-276 -260h-234z" />
<glyph unicode="&#x156;" horiz-adv-x="1408" d="M56 0zM710 1456q248 0 389 -113.5t141 -313.5q0 -110 -59 -191t-173 -131q129 -38 185.5 -126.5t56.5 -219.5v-74q0 -48 19 -74.5t63 -31.5l36 -5v-176h-151q-143 0 -201 77t-58 199v83q0 106 -56.5 166.5t-159.5 63.5h-239v-384l156 -30v-175h-603v175l155 30v1045 l-155 30v176h155h499zM503 814h202q122 0 183 52t61 150t-60.5 156.5t-178.5 58.5h-207v-417zM864 -211q0 -105 -42.5 -214.5t-107.5 -181.5l-144 78q40 71 60.5 141.5t20.5 163.5v133h213v-120z" />
<glyph unicode="&#x157;" horiz-adv-x="862" d="M70 0zM85 175l140 30v671l-155 30v176h427l13 -158q38 84 98 131t139 47q23 0 48.5 -3.5t42.5 -8.5l-31 -266l-120 3q-64 0 -106 -25t-64 -71v-526l140 -30v-175h-572v175zM438 -205q0 -105 -42.5 -214.5t-107.5 -181.5l-144 78q40 71 60.5 141.5t20.5 163.5v133h213 v-120z" />
<glyph unicode="&#x158;" horiz-adv-x="1408" d="M56 0zM710 1456q248 0 389 -113.5t141 -313.5q0 -110 -59 -191t-173 -131q129 -38 185.5 -126.5t56.5 -219.5v-74q0 -48 19 -74.5t63 -31.5l36 -5v-176h-151q-143 0 -201 77t-58 199v83q0 106 -56.5 166.5t-159.5 63.5h-239v-384l156 -30v-175h-603v175l155 30v1045 l-155 30v176h155h499zM503 814h202q122 0 183 52t61 150t-60.5 156.5t-178.5 58.5h-207v-417zM650 1727l132 140h248v-17l-280 -255h-200l-281 256v16h249z" />
<glyph unicode="&#x159;" horiz-adv-x="862" d="M70 0zM85 175l140 30v671l-155 30v176h427l13 -158q38 84 98 131t139 47q23 0 48.5 -3.5t42.5 -8.5l-31 -266l-120 3q-64 0 -106 -25t-64 -71v-526l140 -30v-175h-572v175zM453 1405l132 140h248v-17l-280 -255h-200l-281 256v16h249z" />
<glyph unicode="&#x15a;" horiz-adv-x="1242" d="M97 0zM1162 991h-219l-38 200q-38 24 -111 42t-155 18q-120 0 -185.5 -50.5t-65.5 -130.5q0 -74 68.5 -121.5t236.5 -100.5q241 -67 365.5 -177t124.5 -289q0 -187 -148 -295t-390 -108q-173 0 -312.5 55t-232.5 152v304h226l31 -207q44 -36 119.5 -59.5t168.5 -23.5 q120 0 182.5 49t62.5 131q0 84 -59.5 135t-208.5 96q-259 75 -392 178t-133 282q0 177 150 289.5t377 115.5q168 0 306 -51t232 -136v-298zM656 1825h309l2 -6l-276 -260h-234z" />
<glyph unicode="&#x15b;" horiz-adv-x="1054" d="M97 0zM946 710h-196l-31 135q-30 24 -75.5 40t-100.5 16q-77 0 -122 -34.5t-45 -86.5q0 -49 43 -81.5t172 -57.5q201 -40 298 -117.5t97 -213.5q0 -146 -125.5 -238.5t-330.5 -92.5q-125 0 -229.5 36.5t-185.5 104.5l-3 243h204l40 -141q26 -22 71 -32.5t94 -10.5 q89 0 135.5 32t46.5 87q0 48 -47 83t-173 62q-191 39 -288.5 115.5t-97.5 208.5q0 136 112 234.5t319 98.5q126 0 238.5 -34t176.5 -87zM557 1505h309l2 -6l-276 -260h-234z" />
<glyph unicode="&#x15c;" horiz-adv-x="1242" d="M97 0zM1162 991h-219l-38 200q-38 24 -111 42t-155 18q-120 0 -185.5 -50.5t-65.5 -130.5q0 -74 68.5 -121.5t236.5 -100.5q241 -67 365.5 -177t124.5 -289q0 -187 -148 -295t-390 -108q-173 0 -312.5 55t-232.5 152v304h226l31 -207q44 -36 119.5 -59.5t168.5 -23.5 q120 0 182.5 49t62.5 131q0 84 -59.5 135t-208.5 96q-259 75 -392 178t-133 282q0 177 150 289.5t377 115.5q168 0 306 -51t232 -136v-298zM1004 1603v-23h-217l-155 146l-154 -146h-212v26l282 240h169z" />
<glyph unicode="&#x15d;" horiz-adv-x="1054" d="M97 0zM946 710h-196l-31 135q-30 24 -75.5 40t-100.5 16q-77 0 -122 -34.5t-45 -86.5q0 -49 43 -81.5t172 -57.5q201 -40 298 -117.5t97 -213.5q0 -146 -125.5 -238.5t-330.5 -92.5q-125 0 -229.5 36.5t-185.5 104.5l-3 243h204l40 -141q26 -22 71 -32.5t94 -10.5 q89 0 135.5 32t46.5 87q0 48 -47 83t-173 62q-191 39 -288.5 115.5t-97.5 208.5q0 136 112 234.5t319 98.5q126 0 238.5 -34t176.5 -87zM905 1283v-23h-217l-155 146l-154 -146h-212v26l282 240h169z" />
<glyph unicode="&#x15e;" horiz-adv-x="1242" d="M97 0zM1162 991h-219l-38 200q-38 24 -111 42t-155 18q-120 0 -185.5 -50.5t-65.5 -130.5q0 -74 68.5 -121.5t236.5 -100.5q241 -67 365.5 -177t124.5 -289q0 -187 -148 -295t-390 -108q-173 0 -312.5 55t-232.5 152v304h226l31 -207q44 -36 119.5 -59.5t168.5 -23.5 q120 0 182.5 49t62.5 131q0 84 -59.5 135t-208.5 96q-259 75 -392 178t-133 282q0 177 150 289.5t377 115.5q168 0 306 -51t232 -136v-298zM742 4l-11 -57q64 -11 107 -52t43 -121q0 -107 -91.5 -171t-259.5 -64l-7 161q51 0 81 20.5t30 62.5q0 41 -32 57.5t-110 21.5 l31 142h219z" />
<glyph unicode="&#x15f;" horiz-adv-x="1054" d="M97 0zM946 710h-196l-31 135q-30 24 -75.5 40t-100.5 16q-77 0 -122 -34.5t-45 -86.5q0 -49 43 -81.5t172 -57.5q201 -40 298 -117.5t97 -213.5q0 -146 -125.5 -238.5t-330.5 -92.5q-125 0 -229.5 36.5t-185.5 104.5l-3 243h204l40 -141q26 -22 71 -32.5t94 -10.5 q89 0 135.5 32t46.5 87q0 48 -47 83t-173 62q-191 39 -288.5 115.5t-97.5 208.5q0 136 112 234.5t319 98.5q126 0 238.5 -34t176.5 -87zM625 4l-11 -57q64 -11 107 -52t43 -121q0 -107 -91.5 -171t-259.5 -64l-7 161q51 0 81 20.5t30 62.5q0 41 -32 57.5t-110 21.5l31 142 h219z" />
<glyph unicode="&#x160;" horiz-adv-x="1242" d="M97 0zM1162 991h-219l-38 200q-38 24 -111 42t-155 18q-120 0 -185.5 -50.5t-65.5 -130.5q0 -74 68.5 -121.5t236.5 -100.5q241 -67 365.5 -177t124.5 -289q0 -187 -148 -295t-390 -108q-173 0 -312.5 55t-232.5 152v304h226l31 -207q44 -36 119.5 -59.5t168.5 -23.5 q120 0 182.5 49t62.5 131q0 84 -59.5 135t-208.5 96q-259 75 -392 178t-133 282q0 177 150 289.5t377 115.5q168 0 306 -51t232 -136v-298zM614 1726l132 140h248v-17l-280 -255h-200l-281 256v16h249z" />
<glyph unicode="&#x161;" horiz-adv-x="1054" d="M97 0zM946 710h-196l-31 135q-30 24 -75.5 40t-100.5 16q-77 0 -122 -34.5t-45 -86.5q0 -49 43 -81.5t172 -57.5q201 -40 298 -117.5t97 -213.5q0 -146 -125.5 -238.5t-330.5 -92.5q-125 0 -229.5 36.5t-185.5 104.5l-3 243h204l40 -141q26 -22 71 -32.5t94 -10.5 q89 0 135.5 32t46.5 87q0 48 -47 83t-173 62q-191 39 -288.5 115.5t-97.5 208.5q0 136 112 234.5t319 98.5q126 0 238.5 -34t176.5 -87zM515 1406l132 140h248v-17l-280 -255h-200l-281 256v16h249z" />
<glyph unicode="&#x162;" horiz-adv-x="1377" d="M40 0zM1338 1456v-388h-224l-12 163h-268v-1026l156 -30v-175h-604v175l156 30v1026h-267l-12 -163h-223v388h1298zM788 12l-11 -57q64 -11 107 -52t43 -121q0 -107 -91.5 -171t-259.5 -64l-7 161q51 0 81 20.5t30 62.5q0 41 -32 57.5t-110 21.5l31 142h219z" />
<glyph unicode="&#x163;" horiz-adv-x="764" d="M44 0zM494 1347v-265h190v-205h-190v-551q0 -63 26 -90t70 -27q30 0 52.5 2.5t50.5 8.5l25 -211q-49 -15 -97 -22.5t-104 -7.5q-151 0 -232.5 83t-81.5 263v552h-159v205h159v265h291zM567 6l-11 -57q64 -11 107 -52t43 -121q0 -107 -91.5 -171t-259.5 -64l-7 161 q51 0 81 20.5t30 62.5q0 41 -32 57.5t-110 21.5l31 142h219z" />
<glyph unicode="&#x164;" horiz-adv-x="1377" d="M40 0zM1338 1456v-388h-224l-12 163h-268v-1026l156 -30v-175h-604v175l156 30v1026h-267l-12 -163h-223v388h1298zM672 1726l132 140h248v-17l-280 -255h-200l-281 256v16h249z" />
<glyph unicode="&#x165;" horiz-adv-x="804" d="M44 0zM494 1347v-265h190v-205h-190v-551q0 -63 26 -90t70 -27q30 0 52.5 2.5t50.5 8.5l25 -211q-49 -15 -97 -22.5t-104 -7.5q-151 0 -232.5 83t-81.5 263v552h-159v205h159v265h291zM901 1491q0 -105 -42.5 -214.5t-107.5 -181.5l-144 78q40 71 60.5 141.5t20.5 163.5 v133h213v-120z" />
<glyph unicode="&#x166;" horiz-adv-x="1377" d="M1338 1456v-388h-224l-12 163h-268v-373h207v-155h-207v-498l156 -30v-175h-604v175l156 30v498h-202v155h202v373h-267l-12 -163h-223v388h1298z" />
<glyph unicode="&#x167;" horiz-adv-x="764" d="M494 1347v-265h190v-205h-190v-153h209v-155h-209v-243q0 -63 26 -90t70 -27q30 0 52.5 2.5t50.5 8.5l25 -211q-49 -15 -97 -22.5t-104 -7.5q-151 0 -232.5 83t-81.5 263v244h-201v155h201v153h-159v205h159v265h291z" />
<glyph unicode="&#x168;" horiz-adv-x="1547" d="M39 0zM642 1456v-176l-156 -30v-760q0 -144 77.5 -215.5t212.5 -71.5q137 0 215 71t78 216v760l-155 30v176h603v-176l-156 -30v-760q0 -245 -161.5 -378t-423.5 -133q-261 0 -421.5 133t-160.5 378v760l-155 30v176h155h292h156zM1142 1836q0 -96 -59.5 -163.5 t-150.5 -67.5q-70 0 -158.5 43.5t-140.5 43.5q-36 0 -60.5 -32.5t-24.5 -77.5l-155 42q0 94 59.5 163.5t149.5 69.5q56 0 151.5 -43.5t147.5 -43.5q35 0 60.5 32t25.5 79z" />
<glyph unicode="&#x169;" horiz-adv-x="1278" d="M33 0zM820 137q-52 -76 -128.5 -117t-174.5 -41q-171 0 -268 109.5t-97 340.5v447l-119 30v176h119h292v-655q0 -118 39.5 -169.5t117.5 -51.5q69 0 119.5 22.5t82.5 64.5v583l-128 30v176h128h292v-877l131 -30v-175h-387zM971 1514q0 -96 -59.5 -163.5t-150.5 -67.5 q-70 0 -158.5 43.5t-140.5 43.5q-36 0 -60.5 -32.5t-24.5 -77.5l-155 42q0 94 59.5 163.5t149.5 69.5q56 0 151.5 -43.5t147.5 -43.5q35 0 60.5 32t25.5 79z" />
<glyph unicode="&#x16a;" horiz-adv-x="1547" d="M39 0zM642 1456v-176l-156 -30v-760q0 -144 77.5 -215.5t212.5 -71.5q137 0 215 71t78 216v760l-155 30v176h603v-176l-156 -30v-760q0 -245 -161.5 -378t-423.5 -133q-261 0 -421.5 133t-160.5 378v760l-155 30v176h155h292h156zM1131 1617h-731v165h731v-165z" />
<glyph unicode="&#x16b;" horiz-adv-x="1278" d="M33 0zM820 137q-52 -76 -128.5 -117t-174.5 -41q-171 0 -268 109.5t-97 340.5v447l-119 30v176h119h292v-655q0 -118 39.5 -169.5t117.5 -51.5q69 0 119.5 22.5t82.5 64.5v583l-128 30v176h128h292v-877l131 -30v-175h-387zM960 1295h-731v165h731v-165z" />
<glyph unicode="&#x16c;" horiz-adv-x="1547" d="M39 0zM642 1456v-176l-156 -30v-760q0 -144 77.5 -215.5t212.5 -71.5q137 0 215 71t78 216v760l-155 30v176h603v-176l-156 -30v-760q0 -245 -161.5 -378t-423.5 -133q-261 0 -421.5 133t-160.5 378v760l-155 30v176h155h292h156zM1109 1883l2 -6q5 -127 -88.5 -207.5 t-251.5 -80.5q-159 0 -253 80.5t-88 207.5l2 6h198q0 -58 34 -96t107 -38q71 0 105 37.5t34 96.5h199z" />
<glyph unicode="&#x16d;" horiz-adv-x="1278" d="M33 0zM820 137q-52 -76 -128.5 -117t-174.5 -41q-171 0 -268 109.5t-97 340.5v447l-119 30v176h119h292v-655q0 -118 39.5 -169.5t117.5 -51.5q69 0 119.5 22.5t82.5 64.5v583l-128 30v176h128h292v-877l131 -30v-175h-387zM938 1561l2 -6q5 -127 -88.5 -207.5 t-251.5 -80.5q-159 0 -253 80.5t-88 207.5l2 6h198q0 -58 34 -96t107 -38q71 0 105 37.5t34 96.5h199z" />
<glyph unicode="&#x16e;" horiz-adv-x="1547" d="M39 0zM642 1456v-176l-156 -30v-760q0 -144 77.5 -215.5t212.5 -71.5q137 0 215 71t78 216v760l-155 30v176h603v-176l-156 -30v-760q0 -245 -161.5 -378t-423.5 -133q-261 0 -421.5 133t-160.5 378v760l-155 30v176h155h292h156zM566 1745q0 83 61.5 139.5t151.5 56.5 q88 0 148.5 -56.5t60.5 -139.5q0 -84 -60.5 -138t-148.5 -54q-91 0 -152 54t-61 138zM681 1745q0 -43 28 -70.5t70 -27.5q41 0 67 27.5t26 70.5q0 44 -26 72t-67 28q-42 0 -70 -28.5t-28 -71.5z" />
<glyph unicode="&#x16f;" horiz-adv-x="1278" d="M33 0zM820 137q-52 -76 -128.5 -117t-174.5 -41q-171 0 -268 109.5t-97 340.5v447l-119 30v176h119h292v-655q0 -118 39.5 -169.5t117.5 -51.5q69 0 119.5 22.5t82.5 64.5v583l-128 30v176h128h292v-877l131 -30v-175h-387zM395 1423q0 83 61.5 139.5t151.5 56.5 q88 0 148.5 -56.5t60.5 -139.5q0 -84 -60.5 -138t-148.5 -54q-91 0 -152 54t-61 138zM510 1423q0 -43 28 -70.5t70 -27.5q41 0 67 27.5t26 70.5q0 44 -26 72t-67 28q-42 0 -70 -28.5t-28 -71.5z" />
<glyph unicode="&#x170;" horiz-adv-x="1547" d="M39 0zM642 1456v-176l-156 -30v-760q0 -144 77.5 -215.5t212.5 -71.5q137 0 215 71t78 216v760l-155 30v176h603v-176l-156 -30v-760q0 -245 -161.5 -378t-423.5 -133q-261 0 -421.5 133t-160.5 378v760l-155 30v176h155h292h156zM1003 1867h263l2 -6l-285 -260h-218 l-2 5zM615 1867h260l2 -5l-240 -261h-221z" />
<glyph unicode="&#x171;" horiz-adv-x="1278" d="M33 0zM820 137q-52 -76 -128.5 -117t-174.5 -41q-171 0 -268 109.5t-97 340.5v447l-119 30v176h119h292v-655q0 -118 39.5 -169.5t117.5 -51.5q69 0 119.5 22.5t82.5 64.5v583l-128 30v176h128h292v-877l131 -30v-175h-387zM832 1545h263l2 -6l-285 -260h-218l-2 5z M444 1545h260l2 -5l-240 -261h-221z" />
<glyph unicode="&#x172;" horiz-adv-x="1547" d="M39 0zM642 1456v-176l-156 -30v-760q0 -144 77.5 -215.5t212.5 -71.5q137 0 215 71t78 216v760l-155 30v176h603v-176l-156 -30v-760q0 -245 -161.5 -378t-423.5 -133q-261 0 -421.5 133t-160.5 378v760l-155 30v176h155h292h156zM874 -2q-53 -53 -78 -90t-25 -86 q0 -27 16.5 -48.5t68.5 -21.5q28 0 49.5 6t44.5 14l35 -154q-36 -19 -80 -31.5t-105 -12.5q-109 0 -178.5 56.5t-69.5 157.5q0 77 46 146.5t144 123.5z" />
<glyph unicode="&#x173;" horiz-adv-x="1278" d="M33 0zM820 137q-52 -76 -128.5 -117t-174.5 -41q-171 0 -268 109.5t-97 340.5v447l-119 30v176h119h292v-655q0 -118 39.5 -169.5t117.5 -51.5q69 0 119.5 22.5t82.5 64.5v583l-128 30v176h128h292v-877l131 -30v-175h-387zM1226 0q-53 -53 -78 -90t-25 -86 q0 -27 16.5 -48.5t68.5 -21.5q28 0 49.5 6t44.5 14l35 -154q-36 -19 -80 -31.5t-105 -12.5q-109 0 -178.5 56.5t-69.5 157.5q0 77 46 146.5t144 123.5z" />
<glyph unicode="&#x174;" horiz-adv-x="1972" d="M29 0zM1942 1280l-120 -15l-295 -1265h-271l-267 961h-6l-267 -961h-271l-297 1265l-119 15v176h536v-176l-133 -23l167 -798l6 -1l273 998h215l275 -998l6 1l166 798l-133 23v176h535v-176zM1334 1604v-23h-217l-155 146l-154 -146h-212v26l282 240h169z" />
<glyph unicode="&#x175;" horiz-adv-x="1642" d="M39 0zM1605 906l-109 -14l-226 -892h-244l-201 644h-6l-201 -644h-243l-227 892l-109 14v176h490v-176l-115 -22l102 -495h6l202 693h196l204 -695h6l101 496l-116 23v176h490v-176zM1187 1282v-23h-217l-155 146l-154 -146h-212v26l282 240h169z" />
<glyph unicode="&#x176;" horiz-adv-x="1398" d="M36 0zM587 1280l-119 -17l226 -478h6l226 478l-118 17v176h551v-176l-124 -20l-396 -748v-307l156 -30v-175h-603v175l156 30v322l-389 733l-123 20v176h551v-176zM1084 1604v-23h-217l-155 146l-154 -146h-212v26l282 240h169z" />
<glyph unicode="&#x177;" horiz-adv-x="1212" d="M26 0zM1183 906l-101 -15l-398 -1053q-47 -117 -125.5 -196t-236.5 -79q-37 0 -69.5 6t-76.5 17l34 213q14 -2 29 -4t26 -2q73 0 112 35.5t60 88.5l33 82l-343 891l-101 16v176h530v-176l-121 -20l148 -432l15 -78l6 -1l171 511l-122 20v176h530v-176zM961 1268v-23h-217 l-155 146l-154 -146h-212v26l282 240h169z" />
<glyph unicode="&#x178;" horiz-adv-x="1398" d="M36 0zM587 1280l-119 -17l226 -478h6l226 478l-118 17v176h551v-176l-124 -20l-396 -748v-307l156 -30v-175h-603v175l156 30v322l-389 733l-123 20v176h551v-176zM1083 1601h-267v204h267v-204zM583 1601h-267v204h267v-204z" />
<glyph unicode="&#x179;" horiz-adv-x="1226" d="M74 0zM1143 1456v-146l-713 -1086h507l24 176h222l-22 -400h-1087v152l710 1079h-463l-23 -176h-223l22 401h1046zM637 1827h309l2 -6l-276 -260h-234z" />
<glyph unicode="&#x17a;" horiz-adv-x="1070" d="M88 0zM450 224h302l12 144h223v-368h-899v172l515 684h-265l-11 -143h-224v369h866v-167zM565 1504h309l2 -6l-276 -260h-234z" />
<glyph unicode="&#x17b;" horiz-adv-x="1226" d="M74 0zM1143 1456v-146l-713 -1086h507l24 176h222l-22 -400h-1087v152l710 1079h-463l-23 -176h-223l22 401h1046zM753 1602h-305v241h305v-241z" />
<glyph unicode="&#x17c;" horiz-adv-x="1070" d="M88 0zM450 224h302l12 144h223v-368h-899v172l515 684h-265l-11 -143h-224v369h866v-167zM681 1279h-305v241h305v-241z" />
<glyph unicode="&#x17d;" horiz-adv-x="1226" d="M74 0zM1143 1456v-146l-713 -1086h507l24 176h222l-22 -400h-1087v152l710 1079h-463l-23 -176h-223l22 401h1046zM595 1728l132 140h248v-17l-280 -255h-200l-281 256v16h249z" />
<glyph unicode="&#x17e;" horiz-adv-x="1070" d="M88 0zM450 224h302l12 144h223v-368h-899v172l515 684h-265l-11 -143h-224v369h866v-167zM523 1405l132 140h248v-17l-280 -255h-200l-281 256v16h249z" />
<glyph unicode="&#x17f;" horiz-adv-x="753" d="M44 175l140 30v997q0 182 105 280.5t295 98.5q37 0 75.5 -5.5t84.5 -15.5l-24 -215q-28 5 -48.5 8t-48.5 3q-71 0 -109 -40.5t-38 -113.5v-997l155 -30v-175h-587v175z" />
<glyph unicode="&#x192;" horiz-adv-x="797" d="M714 877h-207l-1 -917q0 -190 -101 -293.5t-281 -103.5q-40 0 -73.5 4t-69.5 13l15 221q21 -6 46 -9.5t52 -3.5q57 0 88.5 45t31.5 127v917h-160v205h160v120q0 182 105 280.5t296 98.5q37 0 74.5 -5.5t85.5 -15.5l-25 -217q-23 4 -46.5 7t-52.5 3q-71 0 -107.5 -39 t-36.5 -112v-120h207v-205z" />
<glyph unicode="&#x1a0;" horiz-adv-x="1490" d="M1391 717q0 -320 -183 -529t-479 -209q-295 0 -476.5 209t-181.5 529v22q0 318 181 528t476 210q130 0 241.5 -44t197.5 -124q47 27 67 92t20 169h195q0 -147 -43 -246.5t-131 -147.5q56 -92 86 -203t30 -234v-22zM1100 741q0 226 -94 367t-278 141t-274.5 -140 t-90.5 -368v-24q0 -230 91.5 -370.5t274.5 -140.5q185 0 278 140.5t93 370.5v24z" />
<glyph unicode="&#x1a1;" horiz-adv-x="1270" d="M78 551q0 242 135.5 396.5t374.5 154.5q114 0 206.5 -38t159.5 -107q39 29 55 85t16 143h175q0 -128 -40.5 -214.5t-124.5 -128.5q31 -64 47.5 -137.5t16.5 -153.5v-21q0 -244 -135.5 -397.5t-373.5 -153.5q-241 0 -376.5 153.5t-135.5 397.5v21zM370 530 q0 -148 52 -237.5t168 -89.5q113 0 165.5 90t52.5 237v21q0 144 -53 235t-167 91t-166 -91t-52 -235v-21z" />
<glyph unicode="&#x1af;" horiz-adv-x="1774" d="M1357 1178l6 -1q128 2 167.5 76.5t39.5 238.5h189l2 -5q3 -229 -89 -348t-315 -127v-522q0 -245 -162 -378t-424 -133q-261 0 -421.5 133t-160.5 378v760l-155 30v176h155h293h155v-176l-155 -30v-760q0 -144 77 -215.5t212 -71.5q137 0 215 71t78 216v760l-155 30v176 h448v-278z" />
<glyph unicode="&#x1b0;" horiz-adv-x="1373" d="M1107 1082v-124l6 -1q65 11 86 62t21 157h171q0 -167 -65 -256.5t-219 -110.5v-604l131 -30v-175h-387l-19 137q-52 -76 -128.5 -117t-174.5 -41q-171 0 -268 109.5t-97 340.5v447l-119 30v176h119h292v-655q0 -118 39.5 -169.5t117.5 -51.5q69 0 119.5 22.5t82.5 64.5 v583l-128 30v176h128h292z" />
<glyph unicode="&#x1f0;" horiz-adv-x="621" d="M0 0zM506 -40q0 -191 -100.5 -294t-280.5 -103q-41 0 -74.5 4t-69.5 13l15 221q21 -6 46 -9.5t52 -3.5q57 0 89 45t32 127v916l-156 30v176h447v-1122zM272 1390l132 140h248v-17l-280 -255h-200l-281 256v16h249z" />
<glyph unicode="&#x1fa;" d="M41 0zM41 175l104 15l443 1266h299l440 -1266l104 -15v-175h-496v175l101 18l-64 200h-472l-64 -200l101 -18v-175h-496v175zM569 608h334l-164 513h-6zM850 2014h254l2 -6l-263 -199h-174l-2 5zM532 1584q0 78 58.5 131t144.5 53q84 0 141.5 -53t57.5 -131 q0 -80 -57.5 -131t-141.5 -51q-86 0 -144.5 51.5t-58.5 130.5zM645 1584q0 -39 25.5 -63.5t64.5 -24.5q37 0 61.5 24.5t24.5 63.5t-24.5 64.5t-61.5 25.5q-39 0 -64.5 -25.5t-25.5 -64.5z" />
<glyph unicode="&#x1fb;" horiz-adv-x="1125" d="M74 0zM752 0q-12 27 -21 55.5t-14 57.5q-52 -60 -126.5 -97t-170.5 -37q-159 0 -252.5 86.5t-93.5 235.5q0 152 122 235t358 83h149v106q0 78 -45 121t-133 43q-50 0 -89 -11.5t-63 -27.5l-19 -116h-220l1 240q80 54 183.5 91t225.5 37q201 0 326.5 -98.5t125.5 -280.5 v-447q0 -25 0.5 -47t3.5 -42l89 -12v-175h-337zM499 195q66 0 120 28.5t84 71.5v165h-149q-93 0 -141 -43.5t-48 -104.5q0 -55 35.5 -86t98.5 -31zM693 1691h254l2 -6l-263 -199h-174l-2 5zM375 1261q0 78 58.5 131t144.5 53q84 0 141.5 -53t57.5 -131q0 -80 -57.5 -131 t-141.5 -51q-86 0 -144.5 51.5t-58.5 130.5zM488 1261q0 -39 25.5 -63.5t64.5 -24.5q37 0 61.5 24.5t24.5 63.5t-24.5 64.5t-61.5 25.5q-39 0 -64.5 -25.5t-25.5 -64.5z" />
<glyph unicode="&#x1fc;" horiz-adv-x="2047" d="M66 0zM66 175l136 20l678 1261h1017v-369h-223l-11 141h-362l16 -366h499v-227h-490l17 -408h381l12 141h222v-368h-1052v175l146 28l-6 151h-430l-83 -165l84 -14v-175h-551v175zM730 582h306l-23 554l-5 1zM1125 1825h309l2 -6l-276 -260h-234z" />
<glyph unicode="&#x1fd;" horiz-adv-x="1784" d="M73 0zM1273 -21q-129 0 -229.5 40.5t-167.5 116.5q-60 -68 -161.5 -112.5t-240.5 -44.5q-192 0 -296.5 90.5t-104.5 247.5q0 159 127 245t370 86h181v59q0 79 -41 124.5t-115 45.5q-81 0 -127 -37.5t-46 -93.5l-283 18l-2 6q-6 144 121.5 238t339.5 94q102 0 186 -27.5 t143 -79.5q61 52 142.5 79.5t180.5 27.5q212 0 333 -132t121 -358v-158h-650l-2 -6q4 -112 66 -178.5t186 -66.5q92 0 154 20t140 61l77 -184q-62 -48 -169 -84.5t-233 -36.5zM530 185q58 0 121 30.5t100 72.5v176h-179q-98 0 -152.5 -44t-54.5 -107q0 -59 41.5 -93.5 t123.5 -34.5zM1250 877q-95 0 -142 -61.5t-54 -166.5l2 -5h362v28q0 94 -42.5 149.5t-125.5 55.5zM890 1503h309l2 -6l-276 -260h-234z" />
<glyph unicode="&#x1fe;" horiz-adv-x="1400" d="M72 0zM1392 717q0 -320 -183 -529t-479 -209q-94 0 -178 22.5t-155 66.5l-95 -163h-144l139 239q-108 100 -166.5 248t-58.5 325v22q0 318 181 528t476 210q83 0 159 -18.5t144 -53.5l66 113h144l-106 -181q122 -101 189 -256.5t67 -341.5v-22zM1101 741q0 112 -24 206 t-70 156l-6 1l-482 -827q41 -35 93.5 -53t117.5 -18q185 0 278 140.5t93 370.5v24zM364 717q0 -100 17 -184.5t52 -143.5l6 -1l473 812q-39 23 -85 36t-98 13q-184 0 -274.5 -140t-90.5 -368v-24zM736 1825h309l2 -6l-276 -260h-234z" />
<glyph unicode="&#x1ff;" horiz-adv-x="1178" d="M76 0zM76 551q0 242 135.5 396.5t374.5 154.5q45 0 87 -6.5t83 -17.5l67 137h162l-98 -201q101 -72 155.5 -192.5t54.5 -270.5v-21q0 -244 -135.5 -397.5t-373.5 -153.5q-53 0 -101 8t-91 23l-74 -151h-162l108 221q-94 72 -143 188.5t-49 261.5v21zM806 551 q0 62 -10 115.5t-29 89.5h-6l-262 -535q18 -9 40.5 -13.5t48.5 -4.5q113 0 165.5 90t52.5 237v21zM368 530q0 -55 6.5 -101t20.5 -77l5 -1l253 516q-16 4 -33 7t-34 3q-114 0 -166 -91t-52 -235v-21zM569 1499h309l2 -6l-276 -260h-234z" />
<glyph unicode="&#x218;" horiz-adv-x="1242" d="M97 0zM1162 991h-219l-38 200q-38 24 -111 42t-155 18q-120 0 -185.5 -50.5t-65.5 -130.5q0 -74 68.5 -121.5t236.5 -100.5q241 -67 365.5 -177t124.5 -289q0 -187 -148 -295t-390 -108q-173 0 -312.5 55t-232.5 152v304h226l31 -207q44 -36 119.5 -59.5t168.5 -23.5 q120 0 182.5 49t62.5 131q0 84 -59.5 135t-208.5 96q-259 75 -392 178t-133 282q0 177 150 289.5t377 115.5q168 0 306 -51t232 -136v-298zM752 -218q0 -105 -42.5 -214.5t-107.5 -181.5l-144 78q40 71 60.5 141.5t20.5 163.5v133h213v-120z" />
<glyph unicode="&#x219;" horiz-adv-x="1054" d="M97 0zM946 710h-196l-31 135q-30 24 -75.5 40t-100.5 16q-77 0 -122 -34.5t-45 -86.5q0 -49 43 -81.5t172 -57.5q201 -40 298 -117.5t97 -213.5q0 -146 -125.5 -238.5t-330.5 -92.5q-125 0 -229.5 36.5t-185.5 104.5l-3 243h204l40 -141q26 -22 71 -32.5t94 -10.5 q89 0 135.5 32t46.5 87q0 48 -47 83t-173 62q-191 39 -288.5 115.5t-97.5 208.5q0 136 112 234.5t319 98.5q126 0 238.5 -34t176.5 -87zM635 -218q0 -105 -42.5 -214.5t-107.5 -181.5l-144 78q40 71 60.5 141.5t20.5 163.5v133h213v-120z" />
<glyph unicode="&#x21a;" horiz-adv-x="1377" d="M40 0zM1338 1456v-388h-224l-12 163h-268v-1026l156 -30v-175h-604v175l156 30v1026h-267l-12 -163h-223v388h1298zM798 -209q0 -105 -42.5 -214.5t-107.5 -181.5l-144 78q40 71 60.5 141.5t20.5 163.5v133h213v-120z" />
<glyph unicode="&#x21b;" horiz-adv-x="764" d="M44 0zM494 1347v-265h190v-205h-190v-551q0 -63 26 -90t70 -27q30 0 52.5 2.5t50.5 8.5l25 -211q-49 -15 -97 -22.5t-104 -7.5q-151 0 -232.5 83t-81.5 263v552h-159v205h159v265h291zM577 -215q0 -105 -42.5 -214.5t-107.5 -181.5l-144 78q40 71 60.5 141.5t20.5 163.5 v133h213v-120z" />
<glyph unicode="&#x237;" horiz-adv-x="621" d="M506 -40q0 -191 -100.5 -294t-280.5 -103q-41 0 -74.5 4t-69.5 13l15 221q21 -6 46 -9.5t52 -3.5q57 0 89 45t32 127v916l-156 30v176h447v-1122z" />
<glyph unicode="&#x259;" horiz-adv-x="1119" d="M527 1104q234 0 374 -150.5t140 -381.5v-40q0 -243 -132.5 -397.5t-354.5 -153.5q-221 0 -341.5 131.5t-120.5 356.5v159h646l2 6q-8 106 -71.5 175.5t-172.5 69.5q-98 0 -162 -20t-138 -61l-80 180q66 53 173 89.5t238 36.5zM554 205q80 0 126.5 61.5t58.5 163.5l-3 5 h-357v-26q0 -94 43 -149t132 -55z" />
<glyph unicode="&#x2bc;" horiz-adv-x="471" d="M59 978zM385 1369q0 -100 -53 -210.5t-129 -180.5l-144 79q39 69 60 143.5t21 168.5v191h245v-191z" />
<glyph unicode="&#x2c6;" horiz-adv-x="890" d="M828 1275v-23h-217l-155 146l-154 -146h-212v26l282 240h169z" />
<glyph unicode="&#x2c7;" horiz-adv-x="874" d="M450 1384l132 140h248v-17l-280 -255h-200l-281 256v16h249z" />
<glyph unicode="&#x2d8;" horiz-adv-x="873" d="M785 1456l2 -6q5 -127 -88.5 -207.5t-251.5 -80.5q-159 0 -253 80.5t-88 207.5l2 6h198q0 -58 34 -96t107 -38q71 0 105 37.5t34 96.5h199z" />
<glyph unicode="&#x2d9;" horiz-adv-x="556" d="M442 1227h-305v241h305v-241z" />
<glyph unicode="&#x2da;" horiz-adv-x="654" d="M114 1298q0 83 61.5 139.5t151.5 56.5q88 0 148.5 -56.5t60.5 -139.5q0 -84 -60.5 -138t-148.5 -54q-91 0 -152 54t-61 138zM229 1298q0 -43 28 -70.5t70 -27.5q41 0 67 27.5t26 70.5q0 44 -26 72t-67 28q-42 0 -70 -28.5t-28 -71.5z" />
<glyph unicode="&#x2db;" horiz-adv-x="467" d="M362 0q-53 -53 -78 -90t-25 -86q0 -27 16.5 -48.5t68.5 -21.5q28 0 49.5 6t44.5 14l35 -154q-36 -19 -80 -31.5t-105 -12.5q-109 0 -178.5 56.5t-69.5 157.5q0 77 46 146.5t144 123.5z" />
<glyph unicode="&#x2dc;" horiz-adv-x="950" d="M857 1484q0 -96 -59.5 -163.5t-150.5 -67.5q-70 0 -158.5 43.5t-140.5 43.5q-36 0 -60.5 -32.5t-24.5 -77.5l-155 42q0 94 59.5 163.5t149.5 69.5q56 0 151.5 -43.5t147.5 -43.5q35 0 60.5 32t25.5 79z" />
<glyph unicode="&#x2dd;" horiz-adv-x="971" d="M677 1518h263l2 -6l-285 -260h-218l-2 5zM289 1518h260l2 -5l-240 -261h-221z" />
<glyph unicode="&#x2f3;" horiz-adv-x="447" d="M46 -254q0 71 53 118t131 47q76 0 128 -47t52 -118q0 -70 -52 -116t-128 -46q-78 0 -131 46.5t-53 115.5zM159 -254q0 -29 20 -48.5t51 -19.5q28 0 47 19.5t19 48.5q0 32 -19 51.5t-47 19.5q-31 0 -51 -19.5t-20 -51.5z" />
<glyph unicode="&#x300;" horiz-adv-x="528" d="M444 1197h-177l-189 313h231z" />
<glyph unicode="&#x301;" horiz-adv-x="521" d="M228 1516h230l-191 -314h-174z" />
<glyph unicode="&#x303;" horiz-adv-x="949" d="M-188 1230zM-188 1484q0 -96 -59.5 -163.5t-150.5 -67.5q-70 0 -158.5 43.5t-140.5 43.5q-36 0 -60.5 -32.5t-24.5 -77.5l-155 42q0 94 59.5 163.5t149.5 69.5q56 0 151.5 -43.5t147.5 -43.5q35 0 60.5 32t25.5 79z" />
<glyph unicode="&#x309;" horiz-adv-x="612" d="M147 1264l-15 137q73 3 105 18t32 48q0 37 -38 53t-104 16l7 133q185 0 283.5 -52t98.5 -143q0 -64 -43.5 -100t-106.5 -45l-1 -65h-218z" />
<glyph unicode="&#x30f;" horiz-adv-x="982" d="M588 1257l-2 -5h-234l-285 260l2 6h279zM934 1252h-235l-240 261l2 5h274z" />
<glyph unicode="&#x323;" horiz-adv-x="443" d="M385 -360h-297v240h297v-240z" />
<glyph unicode="&#x384;" horiz-adv-x="514" d="M205 1634h278l-210 -364h-144z" />
<glyph unicode="&#x385;" horiz-adv-x="1042" d="M933 1252h-238v204h238v-204zM370 1252h-238v204h238v-204zM488 1723h281l-176 -325h-147z" />
<glyph unicode="&#x386;" d="M41 0zM41 175l104 15l443 1266h299l440 -1266l104 -15v-175h-496v175l101 18l-64 200h-472l-64 -200l101 -18v-175h-496v175zM569 608h334l-164 513h-6zM224 1634h278l-210 -364h-144z" />
<glyph unicode="&#x387;" horiz-adv-x="553" d="M145 568zM437 568h-292v260h292v-260z" />
<glyph unicode="&#x388;" horiz-adv-x="1408" d="M0 0zM1096 640h-493v-416h470l13 174h222v-398h-1152v175l155 30v1045l-155 30v176h155h995v-399h-224l-13 174h-466v-366h493v-225zM-92 1636h278l-210 -364h-144z" />
<glyph unicode="&#x389;" horiz-adv-x="1701" d="M0 0zM156 1280v176h603v-176l-156 -30v-420h594v420l-156 30v176h156h291h156v-176l-156 -30v-1045l156 -30v-175h-603v175l156 30v400h-594v-400l156 -30v-175h-603v175l155 30v1045zM-87 1635h278l-210 -364h-144z" />
<glyph unicode="&#x38a;" horiz-adv-x="813" d="M0 0zM155 1280v176h603v-176l-156 -30v-1045l156 -30v-175h-603v175l156 30v1045zM-88 1636h278l-210 -364h-144z" />
<glyph unicode="&#x38c;" horiz-adv-x="1468" d="M0 0zM1407 717q0 -320 -183 -529t-479 -209q-295 0 -476.5 209t-181.5 529v22q0 318 181 528t476 210q296 0 479.5 -210t183.5 -528v-22zM1116 741q0 226 -94 367t-278 141t-274.5 -140t-90.5 -368v-24q0 -230 91.5 -370.5t274.5 -140.5q185 0 278 140.5t93 370.5v24z M52 1634h278l-210 -364h-144z" />
<glyph unicode="&#x38e;" horiz-adv-x="1498" d="M0 0zM687 1280l-119 -17l226 -478h6l226 478l-118 17v176h551v-176l-124 -20l-396 -748v-307l156 -30v-175h-603v175l156 30v322l-389 733l-123 20v176h551v-176zM-94 1631h278l-210 -364h-144z" />
<glyph unicode="&#x38f;" horiz-adv-x="1364" d="M0 0zM747 245q102 34 160 168.5t58 377.5v47q0 201 -72.5 306t-202.5 105q-128 0 -199.5 -105.5t-71.5 -305.5v-47q0 -245 58.5 -379t164.5 -167v-245h-504v227h256q-133 91 -215.5 242t-82.5 322v45q0 282 165 461.5t429 179.5t430.5 -179.5t166.5 -461.5v-45 q0 -172 -82.5 -322t-213.5 -242h261v-227h-505v245zM17 1634h278l-210 -364h-144z" />
<glyph unicode="&#x390;" horiz-adv-x="705" d="M0 0zM469 321q0 -65 22 -90t69 -25q29 0 46 3.5t51 14.5l30 -210q-47 -20 -89 -27.5t-97 -7.5q-157 0 -240.5 85.5t-83.5 260.5v551l-156 30v176h448v-761zM730 1214h-238v204h238v-204zM167 1214h-238v204h238v-204zM285 1685h281l-176 -325h-147z" />
<glyph unicode="&#x391;" d="M41 0zM41 175l104 15l443 1266h299l440 -1266l104 -15v-175h-496v175l101 18l-64 200h-472l-64 -200l101 -18v-175h-496v175zM569 608h334l-164 513h-6z" />
<glyph unicode="&#x392;" horiz-adv-x="1354" d="M56 0zM703 1456q257 0 401 -100t144 -299q0 -101 -53.5 -180.5t-155.5 -119.5q131 -28 196.5 -120t65.5 -213q0 -209 -138 -316.5t-391 -107.5h-716v175l155 30v1045l-155 30v176h155h492zM503 644v-420h269q116 0 177 50.5t61 149.5q0 107 -52 163.5t-164 56.5h-291z M503 846h210q117 0 180 48t63 140q0 101 -63.5 149t-189.5 48h-200v-385z" />
<glyph unicode="&#x393;" horiz-adv-x="1223" d="M65 175l155 30v1045l-155 30v176h1104v-369h-224l-12 144h-421v-1026l156 -30v-175h-603v175z" />
<glyph unicode="&#x394;" horiz-adv-x="1460" d="M595 1456h299l573 -1456h-1455zM402 224h676l-332 886h-6z" />
<glyph unicode="&#x395;" horiz-adv-x="1308" d="M56 0zM996 640h-493v-416h470l13 174h222v-398h-1152v175l155 30v1045l-155 30v176h155h995v-399h-224l-13 174h-466v-366h493v-225z" />
<glyph unicode="&#x396;" horiz-adv-x="1226" d="M74 0zM1143 1456v-146l-713 -1086h507l24 176h222l-22 -400h-1087v152l710 1079h-463l-23 -176h-223l22 401h1046z" />
<glyph unicode="&#x397;" horiz-adv-x="1601" d="M56 0zM56 1280v176h603v-176l-156 -30v-420h594v420l-156 30v176h156h291h156v-176l-156 -30v-1045l156 -30v-175h-603v175l156 30v400h-594v-400l156 -30v-175h-603v175l155 30v1045z" />
<glyph unicode="&#x398;" horiz-adv-x="1400" d="M893 613h-380v224h380v-224zM1384 717q0 -320 -183 -529t-479 -209q-295 0 -476.5 209t-181.5 529v22q0 318 181 528t476 210q296 0 479.5 -210t183.5 -528v-22zM1093 741q0 226 -94 367t-278 141t-274.5 -140t-90.5 -368v-24q0 -230 91.5 -370.5t274.5 -140.5 q185 0 278 140.5t93 370.5v24z" />
<glyph unicode="&#x399;" horiz-adv-x="713" d="M55 0zM55 1280v176h603v-176l-156 -30v-1045l156 -30v-175h-603v175l156 30v1045z" />
<glyph unicode="&#x39a;" horiz-adv-x="1464" d="M56 0zM56 175l155 30v1045l-155 30v176h595v-176l-148 -30v-389h127l280 407l-86 12v176h577v-176l-158 -27l-358 -478l402 -575l146 -25v-175h-577v175l90 12l-280 421h-163v-403l148 -30v-175h-595v175z" />
<glyph unicode="&#x39b;" horiz-adv-x="1467" d="M37 175l125 16l429 1265h299l429 -1265l125 -16v-175h-521v175l98 19l-277 942h-6l-279 -942l99 -19v-175h-521v175z" />
<glyph unicode="&#x39c;" horiz-adv-x="1929" d="M56 0zM1461 1077l-6 1l-390 -1078h-196l-388 1074l-6 -1l28 -639v-229l156 -30v-175h-603v175l155 30v1045l-155 30v176h155h381l371 -1073h6l374 1073h538v-176l-156 -30v-1045l156 -30v-175h-603v175l155 30v229z" />
<glyph unicode="&#x39d;" horiz-adv-x="1582" d="M56 0zM1544 1456v-176l-156 -30v-1250h-291l-588 980l-6 -1v-774l156 -30v-175h-603v175l155 30v1045l-155 30v176h155h292l588 -980l6 1v773l-156 30v176h447h156z" />
<glyph unicode="&#x39e;" horiz-adv-x="1245" d="M63 368h223l11 -144h662l12 144h223v-368h-1131v368zM1154 1456v-369h-224l-12 144h-598l-11 -144h-224v369h1069zM313 849h630v-217h-630v217z" />
<glyph unicode="&#x39f;" horiz-adv-x="1448" d="M67 0zM1387 717q0 -320 -183 -529t-479 -209q-295 0 -476.5 209t-181.5 529v22q0 318 181 528t476 210q296 0 479.5 -210t183.5 -528v-22zM1096 741q0 226 -94 367t-278 141t-274.5 -140t-90.5 -368v-24q0 -230 91.5 -370.5t274.5 -140.5q185 0 278 140.5t93 370.5v24z " />
<glyph unicode="&#x3a0;" horiz-adv-x="1602" d="M65 175l155 30v1045l-155 30v176h1488v-176l-155 -30v-1045l155 -30v-175h-602v175l155 30v1026h-594v-1026l156 -30v-175h-603v175z" />
<glyph unicode="&#x3a1;" horiz-adv-x="1325" d="M56 0zM749 1456q250 0 394.5 -128.5t144.5 -336.5q0 -209 -144.5 -336t-394.5 -127h-246v-323l156 -30v-175h-603v175l155 30v1045l-155 30v176h155h538zM503 753h246q122 0 184.5 66.5t62.5 169.5q0 105 -62.5 173.5t-184.5 68.5h-246v-478z" />
<glyph unicode="&#x3a3;" horiz-adv-x="1178" d="M70 0v152l442 581l-442 572v151h1043v-369h-223l-12 144h-418l361 -490v-17l-363 -499h447l12 143h223v-368h-1070z" />
<glyph unicode="&#x3a4;" horiz-adv-x="1377" d="M40 0zM1338 1456v-388h-224l-12 163h-268v-1026l156 -30v-175h-604v175l156 30v1026h-267l-12 -163h-223v388h1298z" />
<glyph unicode="&#x3a5;" horiz-adv-x="1398" d="M36 0zM587 1280l-119 -17l226 -478h6l226 478l-118 17v176h551v-176l-124 -20l-396 -748v-307l156 -30v-175h-603v175l156 30v322l-389 733l-123 20v176h551v-176z" />
<glyph unicode="&#x3a6;" horiz-adv-x="1507" d="M610 259q-248 6 -401.5 131t-153.5 328q0 208 154 337.5t401 135.5v66l-155 30v169h447h155v-169l-155 -30v-66q245 -7 398.5 -135.5t153.5 -335.5q0 -203 -153.5 -329t-398.5 -132v-61l155 -30v-168h-602v168l155 30v61zM341 718q0 -106 71.5 -166.5t192.5 -61.5l5 2 v466l-5 2q-121 -2 -192.5 -66t-71.5 -176zM1168 720q0 111 -70.5 174.5t-190.5 65.5l-5 -2v-466l5 -2q119 1 190 62t71 168z" />
<glyph unicode="&#x3a7;" horiz-adv-x="1438" d="M33 0zM33 175l123 24l385 535l-375 521l-122 25v176h559v-176l-119 -13l225 -357l226 357l-117 13v176h561v-176l-122 -25l-375 -521l393 -534l129 -25v-175h-573v175l116 12l-234 368l-235 -368l117 -12v-175h-562v175z" />
<glyph unicode="&#x3a8;" horiz-adv-x="1733" d="M1168 1280l-140 -30v-629l6 -1q115 15 175 106t60 253v477h292h141v-176l-141 -30v-271q0 -260 -143.5 -415t-389.5 -181v-178l155 -30v-175h-602v175l155 30v177q-250 22 -395.5 177.5t-145.5 419.5v271l-140 30v176h140h291v-477q0 -158 64 -249.5t180 -109.5l6 2v628 l-140 30v176h140h432v-176z" />
<glyph unicode="&#x3a9;" horiz-adv-x="1344" d="M727 245q102 34 160 168.5t58 377.5v47q0 201 -72.5 306t-202.5 105q-128 0 -199.5 -105.5t-71.5 -305.5v-47q0 -245 58.5 -379t164.5 -167v-245h-504v227h256q-133 91 -215.5 242t-82.5 322v45q0 282 165 461.5t429 179.5t430.5 -179.5t166.5 -461.5v-45 q0 -172 -82.5 -322t-213.5 -242h261v-227h-505v245z" />
<glyph unicode="&#x3aa;" horiz-adv-x="713" d="M0 0zM55 1280v176h603v-176l-156 -30v-1045l156 -30v-175h-603v175l156 30v1045zM711 1600h-267v204h267v-204zM211 1600h-267v204h267v-204z" />
<glyph unicode="&#x3ab;" horiz-adv-x="1398" d="M36 0zM587 1280l-119 -17l226 -478h6l226 478l-118 17v176h551v-176l-124 -20l-396 -748v-307l156 -30v-175h-603v175l156 30v322l-389 733l-123 20v176h551v-176zM1083 1601h-267v204h267v-204zM583 1601h-267v204h267v-204z" />
<glyph unicode="&#x3ac;" horiz-adv-x="1215" d="M98 0zM1057 1081v-736q0 -75 17.5 -105t53.5 -30q6 0 11.5 1t9.5 3l25 -209q-31 -15 -59.5 -20.5t-66.5 -5.5q-91 0 -155 40.5t-96 123.5q-48 -80 -116.5 -122t-160.5 -42q-200 0 -311 146t-111 386v21q0 256 111 413t313 157q84 0 148.5 -38.5t111.5 -109.5l22 127h253z M391 511q0 -143 47.5 -225.5t154.5 -82.5q60 0 102.5 26t70.5 75q-1 8 -1 17.5v23.5v424q-28 52 -70 80t-100 28q-106 0 -155 -95.5t-49 -249.5v-21zM610 1619h278l-210 -364h-144z" />
<glyph unicode="&#x3ad;" horiz-adv-x="1107" d="M87 0zM577 458q-96 0 -147.5 -32t-51.5 -101q0 -55 52 -94.5t145 -39.5q94 0 146.5 37t52.5 92h282l2 -6q5 -162 -135 -248t-332 -86q-221 0 -362.5 87.5t-141.5 238.5q0 90 52.5 154t152.5 97q-88 36 -137 96.5t-49 132.5q0 150 132.5 232.5t352.5 82.5 q193 0 323.5 -89.5t125.5 -234.5l-2 -6h-281q0 54 -51 86t-130 32q-89 0 -133.5 -37t-44.5 -87q0 -55 46 -86.5t133 -31.5h187v-189h-187zM583 1620h278l-210 -364h-144z" />
<glyph unicode="&#x3ae;" horiz-adv-x="1246" d="M0 0zM166 0v779q0 45 -17.5 63t-52.5 18q-19 0 -31 -2.5t-37 -8.5l-30 198q38 20 99 34t122 14q96 0 155.5 -40.5t76.5 -123.5q54 81 133 126t176 45q164 0 255.5 -104t91.5 -335v-1078h-292v1077q0 116 -41 165.5t-121 49.5q-65 0 -114 -23.5t-81 -66.5v-787h-292z M627 1619h278l-210 -364h-144z" />
<glyph unicode="&#x3af;" horiz-adv-x="705" d="M21 0zM469 321q0 -65 22 -90t69 -25q29 0 46 3.5t51 14.5l30 -210q-47 -20 -89 -27.5t-97 -7.5q-157 0 -240.5 85.5t-83.5 260.5v551l-156 30v176h448v-761zM331 1621h278l-210 -364h-144z" />
<glyph unicode="&#x3b0;" horiz-adv-x="1206" d="M18 0zM478 417q0 -113 34 -163.5t91 -50.5q100 0 160.5 110t60.5 253q-3 127 -29.5 256t-72.5 260h278q51 -104 83 -233.5t32 -282.5q0 -261 -125.5 -424t-376.5 -163q-201 0 -313.5 109t-112.5 331v366q0 45 -17.5 63t-53.5 18q-19 0 -31.5 -2.5t-36.5 -8.5l-30 198 q38 20 99.5 34t122.5 14q114 0 176.5 -58t62.5 -176zM980 1214h-238v204h238v-204zM417 1214h-238v204h238v-204zM535 1685h281l-176 -325h-147z" />
<glyph unicode="&#x3b1;" horiz-adv-x="1215" d="M1057 1081v-736q0 -75 17.5 -105t53.5 -30q6 0 11.5 1t9.5 3l25 -209q-31 -15 -59.5 -20.5t-66.5 -5.5q-91 0 -155 40.5t-96 123.5q-48 -80 -116.5 -122t-160.5 -42q-200 0 -311 146t-111 386v21q0 256 111 413t313 157q84 0 148.5 -38.5t111.5 -109.5l22 127h253z M391 511q0 -143 47.5 -225.5t154.5 -82.5q60 0 102.5 26t70.5 75q-1 8 -1 17.5v23.5v424q-28 52 -70 80t-100 28q-106 0 -155 -95.5t-49 -249.5v-21z" />
<glyph unicode="&#x3b2;" horiz-adv-x="1199" d="M597 1477q210 0 339.5 -107.5t129.5 -287.5q0 -97 -48 -177.5t-133 -129.5q124 -43 191.5 -136t67.5 -224q0 -207 -119.5 -321.5t-326.5 -114.5q-73 0 -146 18.5t-134 56.5v-457h-292v1440q0 193 136.5 316.5t334.5 123.5zM593 859q94 0 138 52.5t44 151.5 q0 79 -46.5 134t-131.5 55q-79 0 -129 -59.5t-50 -155.5v-773q39 -30 93 -45.5t121 -15.5q101 0 161 60.5t60 154.5q0 108 -56 171.5t-158 63.5h-96v206h50z" />
<glyph unicode="&#x3b3;" horiz-adv-x="1113" d="M1096 906l-91 -14l-297 -878v-431h-292v473l-234 730q-12 40 -33.5 55t-61.5 15q-9 0 -22 -1.5t-16 -2.5l-23 221q25 8 70.5 14t81.5 6q105 0 147 -32t73 -128l161 -530l10 -61h6l13 61l126 482l-109 21v176h491v-176z" />
<glyph unicode="&#x3b4;" horiz-adv-x="1156" d="M192 1251q0 150 113 235t313 85q74 0 149 -21.5t156 -61.5l-44 -185q-54 21 -119 37.5t-131 16.5q-75 0 -117.5 -27t-42.5 -72q0 -37 32.5 -73t123.5 -69q235 -82 353.5 -224t118.5 -350v-20q0 -238 -138 -390t-375 -152q-240 0 -378 148.5t-138 381.5v20q0 164 88 286 t219 156l4 11q-89 44 -138 111.5t-49 156.5zM359 534q0 -144 56.5 -237.5t168.5 -93.5q109 0 165.5 93.5t56.5 237.5v20q0 110 -62 206t-160 117q-110 0 -167.5 -92.5t-57.5 -230.5v-20z" />
<glyph unicode="&#x3b5;" horiz-adv-x="1107" d="M577 458q-96 0 -147.5 -32t-51.5 -101q0 -55 52 -94.5t145 -39.5q94 0 146.5 37t52.5 92h282l2 -6q5 -162 -135 -248t-332 -86q-221 0 -362.5 87.5t-141.5 238.5q0 90 52.5 154t152.5 97q-88 36 -137 96.5t-49 132.5q0 150 132.5 232.5t352.5 82.5q193 0 323.5 -89.5 t125.5 -234.5l-2 -6h-281q0 54 -51 86t-130 32q-89 0 -133.5 -37t-44.5 -87q0 -55 46 -86.5t133 -31.5h187v-189h-187z" />
<glyph unicode="&#x3b6;" horiz-adv-x="1025" d="M968 1456v-161l-360 -427q-109 -129 -155 -224.5t-46 -221.5q0 -89 38 -131.5t123 -64.5l78 -24q156 -46 224 -95t67 -161q0 -80 -72.5 -177.5t-160.5 -156.5l-148 109q46 49 69 93t23 76q1 35 -24.5 59t-87.5 40l-74 19q-181 47 -263 135.5t-82 238.5q0 153 66 293 t205 310l205 242l-2 5h-516v224h893z" />
<glyph unicode="&#x3b7;" horiz-adv-x="1246" d="M166 0v779q0 45 -17.5 63t-52.5 18q-19 0 -31 -2.5t-37 -8.5l-30 198q38 20 99 34t122 14q96 0 155.5 -40.5t76.5 -123.5q54 81 133 126t176 45q164 0 255.5 -104t91.5 -335v-1078h-292v1077q0 116 -41 165.5t-121 49.5q-65 0 -114 -23.5t-81 -66.5v-787h-292z" />
<glyph unicode="&#x3b8;" horiz-adv-x="1184" d="M1099 567q0 -289 -132.5 -438.5t-358.5 -149.5q-228 0 -361 149.5t-133 438.5v321q0 288 132.5 438.5t359.5 150.5q226 0 359.5 -150.5t133.5 -438.5v-321zM808 623h-403v-84q0 -176 51.5 -256t151.5 -80q98 0 149 80t51 256v84zM405 840h403v78q0 173 -52 253.5 t-150 80.5q-99 0 -150 -80t-51 -254v-78z" />
<glyph unicode="&#x3b9;" horiz-adv-x="705" d="M469 321q0 -65 22 -90t69 -25q29 0 46 3.5t51 14.5l30 -210q-47 -20 -89 -27.5t-97 -7.5q-157 0 -240.5 85.5t-83.5 260.5v551l-156 30v176h448v-761z" />
<glyph unicode="&#x3ba;" horiz-adv-x="1270" d="M42 0zM47 175l141 30v671l-146 30v176h437v-420h95l162 231l-96 13v176h531v-176l-127 -29l-214 -274l269 -405l111 -23v-175h-324l-282 453h-125v-248l126 -30v-175h-558v175z" />
<glyph unicode="&#x3bb;" horiz-adv-x="1123" d="M321 0h-314l382 1056l-71 158q-20 45 -52.5 68t-76.5 23q-18 0 -31 -0.5t-28 -2.5l-6 208q30 9 78.5 14.5t89.5 5.5q104 0 167 -42.5t97 -125.5l419 -1048q21 -51 44.5 -78t60.5 -27h18.5t15.5 1l2 -221q-22 -3 -49 -5t-61 -2q-122 0 -192 52.5t-109 167.5l-173 481h-6 l-12 -60z" />
<glyph unicode="&#x3bc;" horiz-adv-x="1347" d="M55 0zM899 68q-44 -44 -100.5 -66.5t-124.5 -22.5q-51 0 -94 10.5t-78 32.5v-438h-291v1292l-156 30v176h156h291v-620q0 -149 44.5 -202.5t134.5 -53.5q76 0 126 27.5t78 80.5v562l-156 30v176h447v-877l141 -30v-175h-412z" />
<glyph unicode="&#x3bd;" horiz-adv-x="1167" d="M31 0zM522 906l-102 -19l143 -484l19 -102h6l21 102l141 483l-104 20v176h491v-176l-94 -15l-319 -891h-279l-320 891l-94 15v176h491v-176z" />
<glyph unicode="&#x3be;" horiz-adv-x="1088" d="M923 1210q-86 21 -129 29t-96 8q-109 0 -163.5 -40t-54.5 -106q0 -72 55 -114t171 -42h151v-232h-143q-157 0 -238.5 -65t-81.5 -192q0 -100 65.5 -156.5t176.5 -81.5l97 -22q149 -35 220.5 -88t71.5 -167q-1 -81 -73 -178t-160 -157l-149 110q48 50 70.5 92.5t21.5 78.5 q2 38 -23.5 60.5t-87.5 36.5l-36 10q-247 49 -366 146.5t-119 307.5q0 140 78 236.5t225 143.5q-105 38 -161.5 106t-56.5 162q0 176 129.5 278.5t348.5 102.5q94 0 161.5 -12t141.5 -37z" />
<glyph unicode="&#x3bf;" horiz-adv-x="1148" d="M63 0zM63 551q0 242 135.5 396.5t374.5 154.5q240 0 375.5 -154t135.5 -397v-21q0 -244 -135.5 -397.5t-373.5 -153.5q-241 0 -376.5 153.5t-135.5 397.5v21zM355 530q0 -148 52 -237.5t168 -89.5q113 0 165.5 90t52.5 237v21q0 144 -53 235t-167 91t-166 -91t-52 -235 v-21z" />
<glyph unicode="&#x3c0;" horiz-adv-x="1305" d="M1066 1082h137v-214h-137v-546q0 -65 22 -90t69 -25q29 0 46 3.5t51 14.5l30 -210q-47 -20 -89 -27.5t-97 -7.5q-157 0 -240.5 85.5t-83.5 260.5v542h-273v-868h-292v868h-151v214h560v1h448v-1z" />
<glyph unicode="&#x3c1;" horiz-adv-x="1176" d="M1092 511q0 -240 -110 -386t-309 -146q-85 0 -150.5 30.5t-113.5 88.5v-514h-292v993q0 235 133.5 380t361.5 145q229 0 354.5 -156.5t125.5 -413.5v-21zM800 532q0 154 -49 249.5t-154 95.5q-95 0 -141.5 -92t-46.5 -231l-1 -1h1v-256q27 -46 73 -70t114 -24 q107 0 155.5 83t48.5 225v21z" />
<glyph unicode="&#x3c2;" horiz-adv-x="1071" d="M580 1102q200 0 321 -111.5t117 -302.5l-2 -6h-265q0 85 -44 140t-127 55q-111 0 -159.5 -91t-48.5 -231v-30q0 -130 59.5 -198t192.5 -107q168 -47 234 -94.5t71 -163.5q0 -81 -70.5 -178.5t-158.5 -157.5l-152 111q47 51 69.5 92.5t22.5 77.5q0 39 -26 61.5t-78 35.5 q-233 59 -344 182.5t-111 338.5v30q0 238 131 392.5t368 154.5z" />
<glyph unicode="&#x3c3;" horiz-adv-x="1241" d="M1162 856h-258q80 -66 130 -156.5t50 -189.5v-21q0 -221 -132 -365.5t-362 -144.5q-241 0 -376.5 153.5t-135.5 397.5v21q0 234 135.5 382.5t374.5 148.5h574v-226zM370 530q0 -148 52 -237.5t168 -89.5q105 0 154 90t49 237v21q0 135 -49.5 220t-155.5 85 q-113 0 -165.5 -85.5t-52.5 -219.5v-21z" />
<glyph unicode="&#x3c4;" horiz-adv-x="987" d="M934 1082v-223h-309v-538q0 -65 22 -90t69 -25q29 0 46 3.5t51 14.5l30 -210q-47 -20 -89 -27.5t-97 -7.5q-157 0 -240.5 85.5t-83.5 260.5v534h-296l1 223h896z" />
<glyph unicode="&#x3c5;" horiz-adv-x="1206" d="M478 417q0 -113 34 -163.5t91 -50.5q100 0 160.5 110t60.5 253q-3 127 -29.5 256t-72.5 260h278q51 -104 83 -233.5t32 -282.5q0 -261 -125.5 -424t-376.5 -163q-201 0 -313.5 109t-112.5 331v366q0 45 -17.5 63t-53.5 18q-19 0 -31.5 -2.5t-36.5 -8.5l-30 198 q38 20 99.5 34t122.5 14q114 0 176.5 -58t62.5 -176z" />
<glyph unicode="&#x3c6;" horiz-adv-x="1550" d="M646 -12q-291 35 -424 200.5t-133 403.5q0 155 61.5 288t163.5 214l200 -152q-64 -69 -97.5 -162.5t-35.5 -187.5q0 -145 60.5 -241.5t198.5 -123.5l6 2v569q0 124 91 210.5t221 86.5q259 0 400 -160.5t141 -377.5q0 -223 -134.5 -381t-426.5 -190v-464h-292v466z M938 225l6 -2q138 24 200.5 114t62.5 220q-2 138 -58.5 225.5t-155.5 87.5q-34 0 -44.5 -17.5t-10.5 -46.5v-581z" />
<glyph unicode="&#x3c7;" horiz-adv-x="1191" d="M32 175l101 16l292 352l-282 346l-101 17v176l290 -1l272 -380l151 200l-101 12v169h489v-176l-98 -17l-278 -341l293 -357l102 -16v-175h-285l-292 391l-158 -212l87 -11v-168h-482v175z" />
<glyph unicode="&#x3c8;" horiz-adv-x="1661" d="M490 587q0 -157 61.5 -244.5t169.5 -111.5l6 2v849h292v-856l6 -2q142 25 207.5 123t65.5 245q-2 117 -30.5 238t-77.5 252h271q57 -99 93 -222t36 -268q0 -243 -136.5 -409.5t-434.5 -196.5v-464h-292v468q-253 34 -391 182t-138 418v196q0 44 -17.5 62.5t-53.5 18.5 q-18 0 -26 -2t-42 -10l-30 199q38 20 99.5 34t122.5 14q114 0 176.5 -58t62.5 -176v-281z" />
<glyph unicode="&#x3c9;" horiz-adv-x="1694" d="M529 1082q-62 -130 -97.5 -259t-38.5 -257q0 -158 36.5 -260.5t119.5 -102.5q71 0 115 68.5t44 218.5v346h307v-346q0 -150 43.5 -218.5t115.5 -68.5q82 0 119 102.5t37 260.5q-4 128 -39.5 257.5t-97.5 258.5h278q67 -104 108.5 -233.5t41.5 -282.5q0 -269 -102.5 -428 t-334.5 -159q-110 0 -193 53.5t-130 156.5q-49 -103 -131.5 -156.5t-190.5 -53.5q-233 0 -335.5 159.5t-102.5 427.5q0 153 41 282.5t109 233.5h278z" />
<glyph unicode="&#x3ca;" horiz-adv-x="705" d="M0 0zM469 321q0 -65 22 -90t69 -25q29 0 46 3.5t51 14.5l30 -210q-47 -20 -89 -27.5t-97 -7.5q-157 0 -240.5 85.5t-83.5 260.5v551l-156 30v176h448v-761zM706 1279h-267v204h267v-204zM206 1279h-267v204h267v-204z" />
<glyph unicode="&#x3cb;" horiz-adv-x="1206" d="M18 0zM478 417q0 -113 34 -163.5t91 -50.5q100 0 160.5 110t60.5 253q-3 127 -29.5 256t-72.5 260h278q51 -104 83 -233.5t32 -282.5q0 -261 -125.5 -424t-376.5 -163q-201 0 -313.5 109t-112.5 331v366q0 45 -17.5 63t-53.5 18q-19 0 -31.5 -2.5t-36.5 -8.5l-30 198 q38 20 99.5 34t122.5 14q114 0 176.5 -58t62.5 -176zM956 1279h-267v204h267v-204zM456 1279h-267v204h267v-204z" />
<glyph unicode="&#x3cc;" horiz-adv-x="1148" d="M63 0zM63 551q0 242 135.5 396.5t374.5 154.5q240 0 375.5 -154t135.5 -397v-21q0 -244 -135.5 -397.5t-373.5 -153.5q-241 0 -376.5 153.5t-135.5 397.5v21zM355 530q0 -148 52 -237.5t168 -89.5q113 0 165.5 90t52.5 237v21q0 144 -53 235t-167 91t-166 -91t-52 -235 v-21zM570 1621h278l-210 -364h-144z" />
<glyph unicode="&#x3cd;" horiz-adv-x="1206" d="M18 0zM478 417q0 -113 34 -163.5t91 -50.5q100 0 160.5 110t60.5 253q-3 127 -29.5 256t-72.5 260h278q51 -104 83 -233.5t32 -282.5q0 -261 -125.5 -424t-376.5 -163q-201 0 -313.5 109t-112.5 331v366q0 45 -17.5 63t-53.5 18q-19 0 -31.5 -2.5t-36.5 -8.5l-30 198 q38 20 99.5 34t122.5 14q114 0 176.5 -58t62.5 -176zM582 1621h278l-210 -364h-144z" />
<glyph unicode="&#x3ce;" horiz-adv-x="1694" d="M101 0zM529 1082q-62 -130 -97.5 -259t-38.5 -257q0 -158 36.5 -260.5t119.5 -102.5q71 0 115 68.5t44 218.5v346h307v-346q0 -150 43.5 -218.5t115.5 -68.5q82 0 119 102.5t37 260.5q-4 128 -39.5 257.5t-97.5 258.5h278q67 -104 108.5 -233.5t41.5 -282.5 q0 -269 -102.5 -428t-334.5 -159q-110 0 -193 53.5t-130 156.5q-49 -103 -131.5 -156.5t-190.5 -53.5q-233 0 -335.5 159.5t-102.5 427.5q0 153 41 282.5t109 233.5h278zM860 1621h278l-210 -364h-144z" />
<glyph unicode="&#x3d1;" horiz-adv-x="1382" d="M706 213q127 0 200.5 88t77.5 244q-194 14 -322.5 132t-128.5 291v103q0 185 107.5 295.5t279.5 110.5q171 0 271 -108.5t100 -297.5v-515q0 -261 -161 -419t-424 -158q-266 0 -431.5 164t-165.5 413v696l308 2v-698q0 -152 77.5 -247.5t211.5 -95.5zM810 966 q0 -83 45 -140t123 -65l6 2v335q0 65 -20.5 98t-59.5 33q-43 0 -68.5 -33.5t-25.5 -97.5v-132z" />
<glyph unicode="&#x3d2;" horiz-adv-x="1278" d="M821 1203q61 153 136.5 215t205.5 62q32 0 57 -4t46 -15l-25 -222q-3 1 -20.5 3t-29.5 2q-37 0 -65 -26t-46 -69l-286 -672v-477h-292v492l-280 657q-19 43 -47 69t-64 26q-12 0 -30 -2t-21 -3l-23 222q20 11 45 15t58 4q131 0 206 -59t135 -211l149 -385l18 -90h6l19 90 z" />
<glyph unicode="&#x3d6;" horiz-adv-x="1783" d="M1757 881h-128q24 -73 38 -151.5t14 -163.5q0 -269 -99.5 -428t-325.5 -159q-116 0 -202.5 55t-135.5 161q-51 -106 -137.5 -161t-200.5 -55q-227 0 -326.5 159.5t-99.5 427.5q0 86 13.5 164.5t38.5 150.5h-119v201h1670v-201zM1391 566q-3 77 -17.5 156t-39.5 159h-833 q-26 -79 -40 -158t-16 -157q0 -159 33.5 -261t111.5 -102t126.5 68.5t48.5 218.5v205h306v-205q0 -150 47.5 -218.5t126.5 -68.5q77 0 111.5 102t34.5 261z" />
<glyph unicode="&#x400;" horiz-adv-x="1308" d="M56 0zM996 640h-493v-416h470l13 174h222v-398h-1152v175l155 30v1045l-155 30v176h155h995v-399h-224l-13 174h-466v-366h493v-225zM795 1568h-236l-272 260l2 6h310z" />
<glyph unicode="&#x401;" horiz-adv-x="1308" d="M56 0zM996 640h-493v-416h470l13 174h222v-398h-1152v175l155 30v1045l-155 30v176h155h995v-399h-224l-13 174h-466v-366h493v-225zM1012 1601h-267v204h267v-204zM512 1601h-267v204h267v-204z" />
<glyph unicode="&#x402;" horiz-adv-x="1602" d="M1290 1087h-224l-12 144h-285v-371q69 16 129.5 25t116.5 9q248 0 393 -116.5t145 -336.5q0 -199 -128 -327.5t-402 -125.5l-5 2l-1 205q144 0 194.5 65t50.5 168q-1 112 -65 175t-182 63q-67 0 -126.5 -6t-119.5 -17v-438l128 -30v-175h-576v175l155 30v1026h-195 l-11 -144h-223v369h1243v-369z" />
<glyph unicode="&#x403;" horiz-adv-x="1223" d="M65 0zM65 175l155 30v1045l-155 30v176h1104v-369h-224l-12 144h-421v-1026l156 -30v-175h-603v175zM636 1826h309l2 -6l-276 -260h-234z" />
<glyph unicode="&#x404;" horiz-adv-x="1300" d="M1214 966h-217l-30 194q-43 43 -108.5 68t-154.5 25q-169 0 -269.5 -111t-116.5 -292l3 -6h529v-226h-529l-3 -6q15 -184 114.5 -296t266.5 -112q86 0 157.5 25t110.5 68l30 194h217v-288q-88 -102 -224.5 -162.5t-305.5 -60.5q-293 0 -480 203t-187 521v49 q0 317 186 521t481 204q169 0 305 -61.5t225 -162.5v-288z" />
<glyph unicode="&#x405;" horiz-adv-x="1242" d="M1162 991h-219l-38 200q-38 24 -111 42t-155 18q-120 0 -185.5 -50.5t-65.5 -130.5q0 -74 68.5 -121.5t236.5 -100.5q241 -67 365.5 -177t124.5 -289q0 -187 -148 -295t-390 -108q-173 0 -312.5 55t-232.5 152v304h226l31 -207q44 -36 119.5 -59.5t168.5 -23.5 q120 0 182.5 49t62.5 131q0 84 -59.5 135t-208.5 96q-259 75 -392 178t-133 282q0 177 150 289.5t377 115.5q168 0 306 -51t232 -136v-298z" />
<glyph unicode="&#x406;" horiz-adv-x="713" d="M55 0zM55 1280v176h603v-176l-156 -30v-1045l156 -30v-175h-603v175l156 30v1045z" />
<glyph unicode="&#x407;" horiz-adv-x="713" d="M0 0zM55 1280v176h603v-176l-156 -30v-1045l156 -30v-175h-603v175l156 30v1045zM711 1600h-267v204h267v-204zM211 1600h-267v204h267v-204z" />
<glyph unicode="&#x408;" horiz-adv-x="1192" d="M30 0zM1165 1456v-176l-156 -30v-813q0 -211 -137.5 -334.5t-347.5 -123.5q-228 0 -361 111t-128 327l2 6h284q0 -115 55 -167.5t148 -52.5q81 0 137.5 62.5t56.5 171.5v813l-156 30v176h447h156z" />
<glyph unicode="&#x409;" horiz-adv-x="2171" d="M1470 1456v-176l-155 -30v-303h250q250 0 398 -132.5t148 -340.5q0 -210 -148 -342t-398 -132h-542v1231h-386v-438q0 -421 -135.5 -607t-412.5 -186h-43v224h40q150 0 204.5 123.5t54.5 445.5v457l-156 30v176h1126h155zM1315 722v-498h250q122 0 188.5 73t66.5 179 q0 102 -66.5 174t-188.5 72h-250z" />
<glyph unicode="&#x40a;" horiz-adv-x="2246" d="M65 175l155 30v1045l-155 30v176h603v-176l-156 -30v-409h593v409l-155 30v176h155h292h155v-176l-155 -30v-321h250q251 0 399 -129t148 -334q0 -206 -148.5 -336t-398.5 -130h-697v175l155 30v411h-593v-411l156 -30v-175h-603v175zM1397 704v-476h250q123 0 189 69 t66 171q0 99 -66 167.5t-189 68.5h-250z" />
<glyph unicode="&#x40b;" horiz-adv-x="1742" d="M1265 1087h-223l-12 144h-266v-323q59 9 119 14.5t108 5.5q267 0 414 -117t147 -359v-246l155 -30v-176h-602v176l155 30v246q0 141 -64 196t-205 55q-48 0 -109.5 -5.5t-117.5 -14.5v-478l155 -30v-175h-603v175l156 30v1026h-186l-11 -144h-223v369h1213v-369z" />
<glyph unicode="&#x40c;" horiz-adv-x="1464" d="M56 0zM56 175l155 30v1045l-155 30v176h595v-176l-148 -30v-389h127l280 407l-86 12v176h577v-176l-158 -27l-358 -478l402 -575l146 -25v-175h-577v175l90 12l-280 421h-163v-403l148 -30v-175h-595v175zM763 1768h309l2 -6l-276 -260h-234z" />
<glyph unicode="&#x40d;" horiz-adv-x="1605" d="M69 0zM672 1456v-176l-156 -30v-674l6 -2l587 595v81l-155 30v176h155h293h155v-176l-155 -30v-1045l155 -30v-175h-603v175l155 30v658l-6 2l-587 -596v-64l156 -30v-175h-603v175l156 30v1045l-156 30v176h156h291h156zM969 1568h-236l-272 260l2 6h310z" />
<glyph unicode="&#x40e;" horiz-adv-x="1407" d="M40 0zM1386 1280l-142 -19l-415 -985q-64 -143 -150 -220t-246 -77q-25 0 -56.5 1.5t-47.5 3.5l-2 223q11 -2 38 -3t41 -1q79 0 118.5 35t66.5 106l22 55l-418 860l-155 21v176h535v-176l-73 -14l211 -457l23 -77h6l201 531l-87 17v176h530v-176zM1067 1883l2 -6 q5 -127 -88.5 -207.5t-251.5 -80.5q-159 0 -253 80.5t-88 207.5l2 6h198q0 -58 34 -96t107 -38q71 0 105 37.5t34 96.5h199z" />
<glyph unicode="&#x40f;" horiz-adv-x="1602" d="M1553 1280l-155 -30v-1045l155 -30v-175h-585v-360h-293v360h-610v175l155 30v1045l-155 30v176h447h155v-176l-155 -30v-1026h593v1026l-155 30v176h603v-176z" />
<glyph unicode="&#x410;" d="M41 0zM41 175l104 15l443 1266h299l440 -1266l104 -15v-175h-496v175l101 18l-64 200h-472l-64 -200l101 -18v-175h-496v175zM569 608h334l-164 513h-6z" />
<glyph unicode="&#x411;" horiz-adv-x="1368" d="M64 175l155 30v1045l-155 30v176h1104v-369h-224l-12 144h-417v-314h250q253 0 400 -123.5t147 -329.5q0 -209 -148 -336.5t-399 -127.5h-701v175zM515 692v-468h250q123 0 189.5 68.5t66.5 173.5q0 100 -66 163t-190 63h-250z" />
<glyph unicode="&#x412;" horiz-adv-x="1354" d="M56 0zM703 1456q257 0 401 -100t144 -299q0 -101 -53.5 -180.5t-155.5 -119.5q131 -28 196.5 -120t65.5 -213q0 -209 -138 -316.5t-391 -107.5h-716v175l155 30v1045l-155 30v176h155h492zM503 644v-420h269q116 0 177 50.5t61 149.5q0 107 -52 163.5t-164 56.5h-291z M503 846h210q117 0 180 48t63 140q0 101 -63.5 149t-189.5 48h-200v-385z" />
<glyph unicode="&#x413;" horiz-adv-x="1223" d="M65 0zM65 175l155 30v1045l-155 30v176h1104v-369h-224l-12 144h-421v-1026l156 -30v-175h-603v175z" />
<glyph unicode="&#x414;" horiz-adv-x="1575" d="M1491 -358h-265v358h-893v-358h-269l-22 582h112q78 67 136 211.5t68 424.5l27 392l-142 28v176h1258v-176l-155 -30v-1026h172zM651 860q-9 -221 -52.5 -375.5t-113.5 -260.5h569v1007h-379z" />
<glyph unicode="&#x415;" horiz-adv-x="1308" d="M56 0zM996 640h-493v-416h470l13 174h222v-398h-1152v175l155 30v1045l-155 30v176h155h995v-399h-224l-13 174h-466v-366h493v-225z" />
<glyph unicode="&#x416;" horiz-adv-x="2150" d="M753 596l-220 -410l56 -11v-175h-550v175l145 21l346 595l-185 298q-49 71 -84 97t-77 26q-22 0 -38.5 -3.5t-36.5 -8.5l-43 219q35 23 80.5 37t98.5 14q108 0 174 -47.5t138 -168.5l226 -393h151v389l-156 30v176h447h156v-176l-156 -30v-389h151l222 393 q69 121 135 168.5t175 47.5q52 0 97 -14t83 -37l-41 -219q-21 5 -38 8.5t-37 3.5q-43 0 -78 -26t-82 -97l-186 -302l338 -591l151 -21v-175h-557v175l58 11l-216 410h-175v-391l156 -30v-175h-603v175l156 30v391h-181z" />
<glyph unicode="&#x417;" horiz-adv-x="1221" d="M608 852q117 0 173 54t56 151q0 85 -66 140t-199 55q-86 0 -151.5 -25.5t-104.5 -67.5l-30 -181h-217v275q85 100 221 162t302 62q248 0 392 -108t144 -308q0 -100 -60 -183t-165 -130q120 -43 184 -129.5t64 -210.5q0 -201 -155 -315t-404 -114q-219 0 -379 107 t-155 312l2 6h284q0 -85 69.5 -143t178.5 -58q123 0 195 58.5t72 149.5q0 115 -63 168.5t-188 53.5h-177v219h177z" />
<glyph unicode="&#x418;" horiz-adv-x="1605" d="M672 1456v-176l-156 -30v-674l6 -2l587 595v81l-155 30v176h155h293h155v-176l-155 -30v-1045l155 -30v-175h-603v175l155 30v658l-6 2l-587 -596v-64l156 -30v-175h-603v175l156 30v1045l-156 30v176h156h291h156z" />
<glyph unicode="&#x419;" horiz-adv-x="1605" d="M69 0zM672 1456v-176l-156 -30v-674l6 -2l587 595v81l-155 30v176h155h293h155v-176l-155 -30v-1045l155 -30v-175h-603v175l155 30v658l-6 2l-587 -596v-64l156 -30v-175h-603v175l156 30v1045l-156 30v176h156h291h156zM1147 1883l2 -6q5 -127 -88.5 -207.5 t-251.5 -80.5q-159 0 -253 80.5t-88 207.5l2 6h198q0 -58 34 -96t107 -38q71 0 105 37.5t34 96.5h199z" />
<glyph unicode="&#x41a;" horiz-adv-x="1464" d="M56 175l155 30v1045l-155 30v176h595v-176l-148 -30v-389h131l273 393q87 122 154 169t178 47q51 0 95 -14t81 -37l-49 -219q-32 7 -43.5 9.5t-31.5 2.5q-46 0 -85 -26t-94 -97l-228 -312l403 -577l153 -25v-175h-577v175l83 12l-272 409h-171v-391l148 -30v-175h-595 v175z" />
<glyph unicode="&#x41b;" horiz-adv-x="1526" d="M615 1231l-4 -438q-5 -424 -123.5 -608.5t-367.5 -184.5h-72v224h39q136 11 182 128.5t50 440.5l5 457l-153 30v176h1145h156v-176l-156 -30v-1045l156 -30v-175h-603v175l156 30v1026h-410z" />
<glyph unicode="&#x41c;" horiz-adv-x="1929" d="M56 0zM1461 1077l-6 1l-390 -1078h-196l-388 1074l-6 -1l28 -639v-229l156 -30v-175h-603v175l155 30v1045l-155 30v176h155h381l371 -1073h6l374 1073h538v-176l-156 -30v-1045l156 -30v-175h-603v175l155 30v229z" />
<glyph unicode="&#x41d;" horiz-adv-x="1601" d="M56 0zM56 1280v176h603v-176l-156 -30v-420h594v420l-156 30v176h156h291h156v-176l-156 -30v-1045l156 -30v-175h-603v175l156 30v400h-594v-400l156 -30v-175h-603v175l155 30v1045z" />
<glyph unicode="&#x41e;" horiz-adv-x="1448" d="M67 0zM1387 717q0 -320 -183 -529t-479 -209q-295 0 -476.5 209t-181.5 529v22q0 318 181 528t476 210q296 0 479.5 -210t183.5 -528v-22zM1096 741q0 226 -94 367t-278 141t-274.5 -140t-90.5 -368v-24q0 -230 91.5 -370.5t274.5 -140.5q185 0 278 140.5t93 370.5v24z " />
<glyph unicode="&#x41f;" horiz-adv-x="1602" d="M65 0zM65 175l155 30v1045l-155 30v176h1488v-176l-155 -30v-1045l155 -30v-175h-602v175l155 30v1026h-594v-1026l156 -30v-175h-603v175z" />
<glyph unicode="&#x420;" horiz-adv-x="1325" d="M56 0zM749 1456q250 0 394.5 -128.5t144.5 -336.5q0 -209 -144.5 -336t-394.5 -127h-246v-323l156 -30v-175h-603v175l155 30v1045l-155 30v176h155h538zM503 753h246q122 0 184.5 66.5t62.5 169.5q0 105 -62.5 173.5t-184.5 68.5h-246v-478z" />
<glyph unicode="&#x421;" horiz-adv-x="1327" d="M52 0zM1249 965h-217l-30 194q-43 43 -108.5 68t-154.5 25q-190 0 -292.5 -138t-102.5 -360v-51q0 -222 102 -361t288 -139q86 0 157.5 25t110.5 68l30 194h217v-288q-88 -102 -224.5 -162.5t-305.5 -60.5q-293 0 -480 203t-187 521v49q0 317 186 521t481 204 q169 0 305 -61.5t225 -162.5v-288z" />
<glyph unicode="&#x422;" horiz-adv-x="1377" d="M40 0zM1338 1456v-388h-224l-12 163h-268v-1026l156 -30v-175h-604v175l156 30v1026h-267l-12 -163h-223v388h1298z" />
<glyph unicode="&#x423;" horiz-adv-x="1407" d="M1386 1280l-142 -19l-415 -985q-64 -143 -150 -220t-246 -77q-25 0 -56.5 1.5t-47.5 3.5l-2 223q11 -2 38 -3t41 -1q79 0 118.5 35t66.5 106l22 55l-418 860l-155 21v176h535v-176l-73 -14l211 -457l23 -77h6l201 531l-87 17v176h530v-176z" />
<glyph unicode="&#x424;" horiz-adv-x="1633" d="M529 76l156 30v74h-7q-274 0 -445 147.5t-171 391.5q0 248 171.5 400.5t444.5 152.5h7v78l-156 30v162h156h291h156v-162l-156 -30v-78h3q273 0 445 -151.5t172 -399.5q0 -244 -172.5 -392.5t-444.5 -148.5h-3v-74l156 -30v-162h-603v162zM678 1071q-154 0 -242 -91.5 t-88 -260.5q0 -164 88 -251t242 -87h7v690h-7zM976 1071v-690h5q153 0 241 88.5t88 251.5q0 169 -88 259.5t-241 90.5h-5z" />
<glyph unicode="&#x425;" horiz-adv-x="1438" d="M33 0zM33 175l123 24l385 535l-375 521l-122 25v176h559v-176l-119 -13l225 -357l226 357l-117 13v176h561v-176l-122 -25l-375 -521l393 -534l129 -25v-175h-573v175l116 12l-234 368l-235 -368l117 -12v-175h-562v175z" />
<glyph unicode="&#x426;" horiz-adv-x="1634" d="M1553 1280l-155 -30v-1027h204l-15 -574h-276v351h-1246v175l155 30v1045l-155 30v176h155h292h155v-176l-155 -30v-1026h593v1026l-155 30v176h603v-176z" />
<glyph unicode="&#x427;" horiz-adv-x="1553" d="M901 175l155 30v356q-67 -16 -149 -24.5t-146 -8.5q-268 0 -414.5 116t-146.5 359v247l-156 30v176h447h156v-176l-156 -30v-247q0 -142 64 -196t206 -54q62 0 145.5 8.5t149.5 24.5v464l-155 30v176h155h292h156v-176l-156 -30v-1045l156 -30v-175h-603v175z" />
<glyph unicode="&#x428;" horiz-adv-x="2114" d="M69 175l156 30v1045l-156 30v176h448h155v-176l-155 -30v-1026h412v1026l-156 30v176h602v-176l-155 -30v-1026h408v1026l-156 30v176h156h291h156v-176l-156 -30v-1045l156 -30v-175h-2006v175z" />
<glyph unicode="&#x429;" horiz-adv-x="2131" d="M2075 1456v-176l-156 -30v-1026h187l-20 -574h-271v350h-1746v175l156 30v1045l-156 30v176h156h292h155v-176l-155 -30v-1026h412v1026l-156 30v176h156h446v-176l-155 -30v-1026h408v1026l-156 30v176h156h291h156z" />
<glyph unicode="&#x42a;" horiz-adv-x="1737" d="M963 1456h156v-176l-156 -30v-333h250q253 0 400 -123.5t147 -329.5q0 -209 -148 -336.5t-399 -127.5h-698v175l156 30v1026h-383l-11 -143h-223v368h909zM963 692v-468h250q123 0 189.5 68.5t66.5 173.5q0 100 -66 163t-190 63h-250z" />
<glyph unicode="&#x42b;" horiz-adv-x="1940" d="M496 1456v-539h250q253 0 400 -123.5t147 -329.5q0 -209 -148 -336.5t-399 -127.5h-698v175l156 30v1045l-156 30v176h156h292zM1292 175l156 30v1045l-156 30v176h603v-176l-156 -30v-1045l156 -30v-175h-603v175zM496 692v-468h250q123 0 189.5 68.5t66.5 173.5 q0 100 -66 163t-190 63h-250zM652 1456v-176l-156 -30v206h156z" />
<glyph unicode="&#x42c;" horiz-adv-x="1360" d="M515 1456v-539h250q253 0 400 -123.5t147 -329.5q0 -209 -148 -336.5t-399 -127.5h-698v175l156 30v1045l-156 30v176h156h292zM515 692v-468h250q123 0 189.5 68.5t66.5 173.5q0 100 -66 163t-190 63h-250zM671 1456v-176l-156 -30v206h156z" />
<glyph unicode="&#x42d;" horiz-adv-x="1268" d="M47 1254q89 101 225 162t306 61q292 0 472.5 -202.5t180.5 -522.5v-49q0 -319 -181.5 -521t-471.5 -202q-170 0 -306 60t-225 162v288h217l30 -193q38 -43 109.5 -68t159.5 -25q163 0 258 110.5t110 294.5l-2 5h-509v226h509l2 5q-15 185 -110 296t-263 111 q-91 0 -156.5 -25t-107.5 -68l-30 -193h-217v288z" />
<glyph unicode="&#x42e;" horiz-adv-x="1979" d="M19 1280v176h603v-176l-156 -30v-440h139q21 292 199 479t455 187q296 0 479.5 -210t183.5 -528v-22q0 -320 -183 -529t-479 -209q-263 0 -438 168.5t-211 438.5h-145v-380l156 -30v-175h-603v175l156 30v1045zM1631 740q0 226 -94 367t-278 141t-274.5 -140t-90.5 -368 v-24q0 -230 91.5 -370.5t274.5 -140.5q185 0 278 140.5t93 370.5v24z" />
<glyph unicode="&#x42f;" horiz-adv-x="1377" d="M1334 1456v-176l-155 -30v-1045l155 -30v-175h-447v547h-192l-136 -316q-54 -115 -133.5 -177.5t-186.5 -62.5q-51 0 -94.5 13t-78.5 36l38 220q20 -7 34.5 -9.5t34.5 -2.5q43 0 78.5 24.5t74.5 91.5l114 241q-151 57 -226 155t-75 249q0 215 142 331t393 116h505h155z M430 997q0 -112 62 -174.5t182 -62.5h213v471h-213q-121 0 -182.5 -60.5t-61.5 -173.5zM731 0v175l156 30v-205h-156z" />
<glyph unicode="&#x430;" horiz-adv-x="1125" d="M74 0zM752 0q-12 27 -21 55.5t-14 57.5q-52 -60 -126.5 -97t-170.5 -37q-159 0 -252.5 86.5t-93.5 235.5q0 152 122 235t358 83h149v106q0 78 -45 121t-133 43q-50 0 -89 -11.5t-63 -27.5l-19 -116h-220l1 240q80 54 183.5 91t225.5 37q201 0 326.5 -98.5t125.5 -280.5 v-447q0 -25 0.5 -47t3.5 -42l89 -12v-175h-337zM499 195q66 0 120 28.5t84 71.5v165h-149q-93 0 -141 -43.5t-48 -104.5q0 -55 35.5 -86t98.5 -31z" />
<glyph unicode="&#x431;" horiz-adv-x="1172" d="M624 1022q228 0 357 -140.5t129 -363.5v-21q0 -230 -135.5 -374t-374.5 -144q-240 0 -375.5 147t-135.5 377v139q1 356 139 549t361 237q97 16 143.5 42.5t46.5 86.5h226l3 -6q4 -194 -89 -257t-317 -98q-112 -19 -178.5 -88t-85.5 -192l4 -5q55 49 128.5 80t153.5 31z M598 797q-113 0 -165 -78t-52 -201v-15q0 -134 52 -217t167 -83q113 0 165.5 80.5t52.5 213.5v21q0 123 -53 201t-167 78z" />
<glyph unicode="&#x432;" horiz-adv-x="1281" d="M699 1082q216 0 336.5 -76t120.5 -226q0 -76 -50.5 -135t-143.5 -90q123 -24 186.5 -90.5t63.5 -155.5q0 -153 -114.5 -231t-328.5 -78h-678v175l156 30v671l-156 30v176h156h452zM538 451v-229h231q77 0 114 28.5t37 84.5t-35.5 86t-115.5 30h-231zM538 641h177 q77 1 113 27t36 77q0 59 -41 86.5t-124 27.5h-161v-218z" />
<glyph unicode="&#x433;" horiz-adv-x="1088" d="M215 876l-155 30v176h948v-381h-183l-12 155h-306v-651l155 -30v-175h-602v175l155 30v671z" />
<glyph unicode="&#x434;" horiz-adv-x="1348" d="M143 226q100 104 135 204.5t39 286.5l2 159l-153 30v176h954h156v-176l-156 -30v-652h157l-20 -548h-272v324h-638v-324h-273l-25 550h94zM609 717q-8 -161 -42 -282.5t-90 -209.5h353v624h-220z" />
<glyph unicode="&#x435;" horiz-adv-x="1091" d="M67 0zM581 -21q-234 0 -374 150t-140 381v40q0 241 132.5 397t355.5 155q219 0 340 -132t121 -357v-159h-646l-2 -6q8 -107 71.5 -176t172.5 -69q97 0 161 19.5t140 61.5l79 -180q-67 -53 -173.5 -89t-237.5 -36zM555 877q-81 0 -128 -62t-58 -163l3 -5h358v26 q0 93 -43.5 148.5t-131.5 55.5z" />
<glyph unicode="&#x436;" horiz-adv-x="1850" d="M654 175l125 30v200h-127l-208 -405h-404v175l148 22l229 383l-126 196q-24 37 -57 59t-63 22q-21 0 -30 -2.5t-36 -9.5l-49 202q39 24 79 38t91 14q100 0 168 -47.5t127 -141.5l144 -240h114v206l-125 30v176h542v-176l-126 -30v-206h117l144 240q58 94 126 141.5 t169 47.5q50 0 90 -14t80 -38l-49 -202q-28 7 -37 9.5t-29 2.5q-31 0 -64 -22t-56 -59l-126 -196l227 -383l149 -22v-175h-404l-207 405h-130v-200l126 -30v-175h-542v175z" />
<glyph unicode="&#x437;" horiz-adv-x="1062" d="M530 646q74 0 109 31t35 88q0 52 -33.5 88t-109.5 36q-71 0 -114.5 -32t-43.5 -86h-283l-2 6q-6 145 118 234.5t310 89.5q208 0 328.5 -82t120.5 -233q0 -73 -44 -133.5t-122 -95.5q90 -32 137.5 -95.5t47.5 -155.5q0 -152 -129.5 -239t-338.5 -87q-185 0 -317.5 86 t-126.5 248l1 6h283q0 -56 46 -93t130 -37q81 0 121 39t40 96q0 70 -40 102.5t-123 32.5h-156v186h156z" />
<glyph unicode="&#x438;" horiz-adv-x="1417" d="M673 1082v-176l-140 -30v-451l6 -1l352 658h292h155v-176l-155 -30v-671l155 -30v-175h-587v175l140 30v453l-6 1l-352 -659h-448v175l156 30v671l-156 30v176h448h140z" />
<glyph unicode="&#x439;" horiz-adv-x="1417" d="M85 0zM673 1082v-176l-140 -30v-451l6 -1l352 658h292h155v-176l-155 -30v-671l155 -30v-175h-587v175l140 30v453l-6 1l-352 -659h-448v175l156 30v671l-156 30v176h448h140zM1052 1561l2 -6q5 -127 -88.5 -207.5t-251.5 -80.5q-159 0 -253 80.5t-88 207.5l2 6h198 q0 -58 34 -96t107 -38q71 0 105 37.5t34 96.5h199z" />
<glyph unicode="&#x43a;" horiz-adv-x="1330" d="M91 906v176h580v-176l-133 -30v-206h100l162 240q61 94 128 141.5t167 47.5q50 0 90 -14t79 -38l-49 -202l-37.5 10t-27.5 2q-30 0 -63.5 -23t-57.5 -58l-140 -204l251 -373l147 -24v-175h-401l-236 405h-112v-200l133 -30v-175h-580v175l156 30v671z" />
<glyph unicode="&#x43b;" horiz-adv-x="1334" d="M661 175l156 30v651h-260v-235q0 -320 -98.5 -470.5t-335.5 -150.5h-46l-4 230l32 1q100 0 130 82t30 308v255l-156 30v176h999h156v-176l-156 -30v-671l156 -30v-175h-603v175z" />
<glyph unicode="&#x43c;" horiz-adv-x="1764" d="M884 340h6l278 742h366h155v-176l-155 -30v-671l155 -30v-175h-557v175l110 30v439l-6 1l-251 -645h-196l-245 633l-6 -1v-427l111 -30v-175h-558v175l156 30v671l-156 30v176h156h361z" />
<glyph unicode="&#x43d;" horiz-adv-x="1415" d="M85 906v176h573v-176l-126 -30v-232h356v232l-125 30v176h125h292h156v-176l-156 -30v-671l156 -30v-175h-573v175l125 30v215h-356v-215l126 -30v-175h-573v175l156 30v671z" />
<glyph unicode="&#x43e;" horiz-adv-x="1148" d="M63 0zM63 551q0 242 135.5 396.5t374.5 154.5q240 0 375.5 -154t135.5 -397v-21q0 -244 -135.5 -397.5t-373.5 -153.5q-241 0 -376.5 153.5t-135.5 397.5v21zM355 530q0 -148 52 -237.5t168 -89.5q113 0 165.5 90t52.5 237v21q0 144 -53 235t-167 91t-166 -91t-52 -235 v-21z" />
<glyph unicode="&#x43f;" horiz-adv-x="1417" d="M85 175l156 30v671l-156 30v176h1253v-176l-155 -30v-671l155 -30v-175h-573v175l126 30v651h-359v-651l126 -30v-175h-573v175z" />
<glyph unicode="&#x440;" horiz-adv-x="1240" d="M41 0zM41 906v176h424l14 -126q48 70 115 108t156 38q201 0 312 -157t111 -413v-21q0 -240 -111 -386t-310 -146q-85 0 -151 31.5t-113 92.5v-313l141 -30v-176h-573v176l141 30v1086zM881 532q0 153 -51 248t-156 95q-66 0 -112.5 -27t-73.5 -77v-474q27 -46 73.5 -70 t114.5 -24q106 0 155.5 83t49.5 225v21z" />
<glyph unicode="&#x441;" horiz-adv-x="1079" d="M571 203q78 0 125 45.5t47 121.5h264l3 -6q4 -164 -123 -274.5t-316 -110.5q-242 0 -373 153t-131 393v30q0 239 134.5 393t383.5 154q131 0 235 -39t173 -110l4 -289h-237l-48 169q-22 19 -54 31.5t-73 12.5q-124 0 -175 -90t-51 -232v-30q0 -145 47 -233.5t165 -88.5z " />
<glyph unicode="&#x442;" horiz-adv-x="1243" d="M1185 1082v-369h-224l-12 146h-185v-654l155 -30v-175h-603v175l155 30v654h-181l-11 -146h-224v369h1130z" />
<glyph unicode="&#x443;" horiz-adv-x="1212" d="M26 0zM1183 906l-101 -15l-398 -1053q-47 -117 -125.5 -196t-236.5 -79q-37 0 -69.5 6t-76.5 17l34 213q14 -2 29 -4t26 -2q73 0 112 35.5t60 88.5l33 82l-343 891l-101 16v176h530v-176l-121 -20l148 -432l15 -78l6 -1l171 511l-122 20v176h530v-176z" />
<glyph unicode="&#x444;" horiz-adv-x="1492" d="M898 1560v-486q29 13 63.5 20.5t73.5 7.5q190 0 295 -157t105 -413v-21q0 -240 -104.5 -386t-293.5 -146q-39 0 -73.5 7t-65.5 19v-215l155 -30v-176h-602v176l155 30v214q-30 -12 -64 -18.5t-70 -6.5q-190 0 -294 146t-104 386v21q0 256 104.5 413t295.5 157 q37 0 69.5 -7t62.5 -19v278l-155 30v176h155h292zM1143 532q0 153 -45 249t-139 96q-18 0 -33 -2t-28 -5v-661q14 -3 29.5 -4.5t33.5 -1.5q95 0 138.5 83t43.5 225v21zM366 511q0 -143 41.5 -225.5t138.5 -82.5q15 0 30 1t30 4v663q-14 3 -28.5 4.5t-29.5 1.5 q-96 0 -139 -95t-43 -250v-21z" />
<glyph unicode="&#x445;" horiz-adv-x="1191" d="M32 0zM32 175l101 16l294 356l-284 342l-101 17v176h487v-169l-99 -12l164 -208l161 208l-101 12v169h489v-176l-98 -17l-278 -342l293 -356l102 -16v-175h-495v168l99 12l-168 218l-171 -219l87 -11v-168h-482v175z" />
<glyph unicode="&#x446;" horiz-adv-x="1387" d="M1148 1082v-859h163l-20 -544h-271v321h-970v175l156 30v671l-156 30v176h156h291h133v-176l-133 -30v-652h358v652l-133 30v176h133h293zM1303 1082v-176l-155 -30v206h155z" />
<glyph unicode="&#x447;" horiz-adv-x="1375" d="M621 1082v-175l-125 -30v-135q0 -107 47 -148t159 -41q37 0 73.5 4t74.5 12v307l-126 30v176h574v-176l-156 -30v-671l156 -30v-175h-604v175l156 30v138q-37 -8 -75.5 -11.5t-72.5 -3.5q-239 0 -368.5 102t-129.5 312v135l-155 30v175h447h125z" />
<glyph unicode="&#x448;" horiz-adv-x="1927" d="M85 906v176h447h156v-176l-156 -30v-652h295v858h292v-858h295v652l-156 30v176h447h156v-176l-156 -30v-671l156 -30v-175h-1776v175l156 30v671z" />
<glyph unicode="&#x449;" horiz-adv-x="1942" d="M1858 906l-156 -30v-652h170l-20 -545h-271v321h-1499v175l156 30v671l-156 30v176h156h291h156v-176l-156 -30v-652h295v858h292v-858h295v652l-156 30v176h603v-176z" />
<glyph unicode="&#x44a;" horiz-adv-x="1429" d="M274 856l-11 -142h-224v368h879v-176l-156 -30v-143h203q220 0 344.5 -98.5t124.5 -262.5q0 -168 -125 -270t-344 -102h-651v175l156 30v651h-196zM762 522v-299h203q90 0 134 40.5t44 106.5q0 68 -43.5 110t-134.5 42h-203z" />
<glyph unicode="&#x44b;" horiz-adv-x="1825" d="M539 1082v-349h203q220 0 344.5 -98.5t124.5 -262.5q0 -168 -125 -270t-344 -102h-651v175l156 30v671l-156 30v176h156h292zM1214 906v176h448v-877l140 -30v-175h-573v175l141 30v671zM539 522v-299h203q90 0 134 40.5t44 106.5q0 68 -43.5 110t-134.5 42h-203z M695 1082v-176l-156 -30v206h156z" />
<glyph unicode="&#x44c;" horiz-adv-x="1254" d="M539 1082v-349h203q220 0 344.5 -98.5t124.5 -262.5q0 -168 -125 -270t-344 -102h-651v175l156 30v671l-156 30v176h156h292zM539 522v-299h203q90 0 134 40.5t44 106.5q0 68 -43.5 110t-134.5 42h-203zM695 1082v-176l-156 -30v206h156z" />
<glyph unicode="&#x44d;" horiz-adv-x="1078" d="M510 203q102 0 151 68.5t55 181.5l-3 5h-275v175h274l2 5q-9 106 -60.5 172.5t-156.5 66.5q-44 0 -83.5 -13t-59.5 -31l-33 -150h-236l3 270q63 67 172.5 108t236.5 41q247 0 382 -154t135 -393v-30q0 -240 -131 -393t-373 -153q-189 0 -316.5 110.5t-122.5 274.5l3 6 h265q0 -76 46 -121.5t125 -45.5z" />
<glyph unicode="&#x44e;" horiz-adv-x="1751" d="M86 175l141 30v671l-156 30v176h448v-419h149q30 198 161 318.5t341 120.5q240 0 375.5 -154t135.5 -397v-21q0 -244 -135.5 -397.5t-373.5 -153.5q-217 0 -349.5 125.5t-157.5 333.5h-146v-233l140 -30v-175h-573v175zM952 530q0 -148 52 -237.5t168 -89.5 q113 0 165.5 90t52.5 237v21q0 144 -53 235t-167 91t-166 -91t-52 -235v-21z" />
<glyph unicode="&#x44f;" horiz-adv-x="1313" d="M657 175l141 30v174h-176l-211 -379h-319v175l132 20l130 232q-99 44 -152 121t-53 175q0 158 125.5 258.5t337.5 100.5h477h155v-176l-155 -30v-671l155 -30v-175h-587v175zM440 715q0 -56 43.5 -97.5t123.5 -41.5h191v283h-186q-82 0 -127 -44t-45 -100z" />
<glyph unicode="&#x450;" horiz-adv-x="1091" d="M67 0zM581 -21q-234 0 -374 150t-140 381v40q0 241 132.5 397t355.5 155q219 0 340 -132t121 -357v-159h-646l-2 -6q8 -107 71.5 -176t172.5 -69q97 0 161 19.5t140 61.5l79 -180q-67 -53 -173.5 -89t-237.5 -36zM555 877q-81 0 -128 -62t-58 -163l3 -5h358v26 q0 93 -43.5 148.5t-131.5 55.5zM693 1245h-236l-272 260l2 6h310z" />
<glyph unicode="&#x451;" horiz-adv-x="1091" d="M67 0zM581 -21q-234 0 -374 150t-140 381v40q0 241 132.5 397t355.5 155q219 0 340 -132t121 -357v-159h-646l-2 -6q8 -107 71.5 -176t172.5 -69q97 0 161 19.5t140 61.5l79 -180q-67 -53 -173.5 -89t-237.5 -36zM555 877q-81 0 -128 -62t-58 -163l3 -5h358v26 q0 93 -43.5 148.5t-131.5 55.5zM911 1278h-267v204h267v-204zM411 1278h-267v204h267v-204z" />
<glyph unicode="&#x452;" horiz-adv-x="1303" d="M677 1166h-195v-221q51 74 125 115.5t164 41.5q169 0 265.5 -112.5t96.5 -347.5v-682q0 -190 -101 -293.5t-280 -103.5q-41 0 -75 4t-70 13l14 221q23 -6 48 -9.5t52 -3.5q57 0 88.5 44.5t31.5 127.5v684q0 126 -44.5 178.5t-132.5 52.5q-60 0 -106 -21.5t-76 -60.5v-588 l125 -30v-175h-557v175l140 30v961h-205v139h205v69l-155 30v156h447v-255h195v-139z" />
<glyph unicode="&#x453;" horiz-adv-x="1088" d="M60 0zM215 876l-155 30v176h948v-381h-183l-12 155h-306v-651l155 -30v-175h-602v175l155 30v671zM598 1511h309l2 -6l-276 -260h-234z" />
<glyph unicode="&#x454;" horiz-adv-x="1107" d="M586 203q78 0 125 45.5t47 121.5h264l3 -6q4 -164 -123 -274.5t-316 -110.5q-242 0 -373 153t-131 393v30q0 239 134.5 393t383.5 154q131 0 235 -39t173 -110l4 -289h-237l-48 169q-22 19 -54 31.5t-73 12.5q-110 0 -162 -71t-57 -184l2 -5h291v-175h-289l-2 -5 q7 -107 55 -170.5t148 -63.5z" />
<glyph unicode="&#x455;" horiz-adv-x="1054" d="M97 0zM946 710h-196l-31 135q-30 24 -75.5 40t-100.5 16q-77 0 -122 -34.5t-45 -86.5q0 -49 43 -81.5t172 -57.5q201 -40 298 -117.5t97 -213.5q0 -146 -125.5 -238.5t-330.5 -92.5q-125 0 -229.5 36.5t-185.5 104.5l-3 243h204l40 -141q26 -22 71 -32.5t94 -10.5 q89 0 135.5 32t46.5 87q0 48 -47 83t-173 62q-191 39 -288.5 115.5t-97.5 208.5q0 136 112 234.5t319 98.5q126 0 238.5 -34t176.5 -87z" />
<glyph unicode="&#x456;" horiz-adv-x="660" d="M39 0zM54 175l141 30v671l-156 30v176h448v-877l140 -30v-175h-573v175zM487 1341h-292v219h292v-219z" />
<glyph unicode="&#x457;" horiz-adv-x="686" d="M0 0zM70 906v176h448v-877l140 -30v-175h-573v175l141 30v671zM732 1279h-267v204h267v-204zM232 1279h-267v204h267v-204z" />
<glyph unicode="&#x458;" horiz-adv-x="599" d="M0 0zM492 -40q0 -190 -101 -293.5t-280 -103.5q-41 0 -74.5 4t-69.5 13l14 223q22 -6 45 -9t50 -3q59 0 91.5 41.5t32.5 127.5v916l-156 30v176h448v-1122zM486 1343h-292v217h292v-217z" />
<glyph unicode="&#x459;" horiz-adv-x="1802" d="M562 856v-235q0 -316 -106 -468.5t-345 -152.5h-46l-4 227h31q90 0 134 96t44 298v255l-155 30v176h972h155v-176l-155 -30v-156h203q218 0 343 -98.5t125 -260.5q0 -164 -125 -262.5t-343 -98.5h-651v175l155 30v651h-232zM1087 495v-273h203q90 0 133.5 39t43.5 102 q0 60 -43.5 96t-133.5 36h-203z" />
<glyph unicode="&#x45a;" horiz-adv-x="1899" d="M85 175l156 30v671l-156 30v176h573v-176l-126 -30v-211h356v211l-125 30v176h125h292h156v-176l-156 -30v-157h204q219 0 343.5 -98t124.5 -260q0 -164 -125 -262.5t-343 -98.5h-621v175l125 30v236h-356v-236l126 -30v-175h-573v175zM1180 495v-273h204q90 0 133.5 39 t43.5 102q0 60 -43.5 96t-133.5 36h-204z" />
<glyph unicode="&#x45b;" horiz-adv-x="1302" d="M47 175l141 30v927h-189v155h189v67l-156 30v176h447v-273h221v-155h-221v-188q51 75 125 116.5t164 41.5q170 0 266.5 -112.5t96.5 -347.5v-437l140 -30v-175h-558v175l126 30v439q0 126 -44.5 178.5t-132.5 52.5q-61 0 -106.5 -22t-76.5 -62v-586l126 -30v-175h-558 v175z" />
<glyph unicode="&#x45c;" horiz-adv-x="1330" d="M91 0zM91 906v176h580v-176l-133 -30v-206h100l162 240q61 94 128 141.5t167 47.5q50 0 90 -14t79 -38l-49 -202l-37.5 10t-27.5 2q-30 0 -63.5 -23t-57.5 -58l-140 -204l251 -373l147 -24v-175h-401l-236 405h-112v-200l133 -30v-175h-580v175l156 30v671zM725 1504h309 l2 -6l-276 -260h-234z" />
<glyph unicode="&#x45d;" horiz-adv-x="1417" d="M85 0zM673 1082v-176l-140 -30v-451l6 -1l352 658h292h155v-176l-155 -30v-671l155 -30v-175h-587v175l140 30v453l-6 1l-352 -659h-448v175l156 30v671l-156 30v176h448h140zM874 1246h-236l-272 260l2 6h310z" />
<glyph unicode="&#x45e;" horiz-adv-x="1212" d="M26 0zM1183 906l-101 -15l-398 -1053q-47 -117 -125.5 -196t-236.5 -79q-37 0 -69.5 6t-76.5 17l34 213q14 -2 29 -4t26 -2q73 0 112 35.5t60 88.5l33 82l-343 891l-101 16v176h530v-176l-121 -20l148 -432l15 -78l6 -1l171 511l-122 20v176h530v-176zM921 1546l2 -6 q5 -127 -88.5 -207.5t-251.5 -80.5q-159 0 -253 80.5t-88 207.5l2 6h198q0 -58 34 -96t107 -38q71 0 105 37.5t34 96.5h199z" />
<glyph unicode="&#x45f;" horiz-adv-x="1417" d="M858 -358h-291v358h-481v175l155 30v671l-155 30v176h447h125v-176l-125 -30v-652h358v652l-126 30v176h126h292h156v-176l-156 -30v-671l156 -30v-175h-481v-358z" />
<glyph unicode="&#x460;" horiz-adv-x="1884" d="M1800 1456v-1007q0 -226 -135.5 -348t-354.5 -122q-111 0 -200.5 40t-146.5 118q-59 -78 -149.5 -118t-200.5 -40q-218 0 -352.5 122.5t-134.5 347.5v1007h293v-1007q0 -124 51.5 -185t142.5 -61q96 0 149.5 60.5t53.5 185.5v1007h294v-1007q0 -124 53.5 -185t146.5 -61 q94 0 146 60.5t52 185.5v1007h292z" />
<glyph unicode="&#x461;" horiz-adv-x="1710" d="M1632 1082v-647q0 -220 -121.5 -338t-321.5 -118q-99 0 -177.5 35t-130.5 105q-54 -70 -134.5 -105t-179.5 -35q-199 0 -319.5 118t-120.5 338v647h292v-647q0 -118 38 -175t110 -57q82 0 126 57t44 175v647h293v-647q0 -119 39.5 -175.5t119.5 -56.5q74 0 112.5 57 t38.5 175v647h292z" />
<glyph unicode="&#x462;" horiz-adv-x="1360" d="M515 1166h229v-155h-229v-94h250q253 0 400 -123.5t147 -329.5q0 -209 -148 -336.5t-399 -127.5h-698v175l156 30v806h-180v155h180v84l-156 30v176h448v-290zM515 692v-468h250q123 0 189.5 68.5t66.5 173.5q0 100 -66 163t-190 63h-250zM671 1456v-176l-156 -30v206 h156z" />
<glyph unicode="&#x463;" horiz-adv-x="1243" d="M537 1261h255v-180h-255v-295h203q218 0 343 -108t125 -283q0 -177 -125.5 -286t-342.5 -109h-651v175l155 30v876h-156v180h156v94l-155 30v176h448v-300zM537 562v-339h203q89 0 133 47.5t44 122.5q0 72 -44 120.5t-133 48.5h-203z" />
<glyph unicode="&#x464;" horiz-adv-x="1912" d="M1841 966h-217l-30 194q-43 43 -108.5 68t-154.5 25q-171 0 -271.5 -112.5t-114.5 -296.5l3 -6h490v-187h-493l-2 -5q8 -198 108.5 -320t274.5 -122q86 0 157.5 25t110.5 68l30 194h217v-288q-88 -102 -224.5 -162.5t-305.5 -60.5q-280 0 -465 187t-201 484h-142v-446 l156 -30v-175h-603v175l156 30v1045l-156 30v176h156h291h156v-176l-156 -30v-412h145q25 285 207 462.5t456 177.5q169 0 305 -61.5t225 -162.5v-288z" />
<glyph unicode="&#x465;" horiz-adv-x="1644" d="M514 632h144q21 209 153.5 339.5t360.5 130.5q131 0 235 -39t173 -110l4 -289h-237l-48 169q-22 19 -54 31.5t-73 12.5q-106 0 -158 -67t-59 -173l2 -5h247v-180h-248l-2 -5q5 -110 53.5 -177t150.5 -67q78 0 125 45.5t47 121.5h264l3 -6q4 -164 -123 -274.5t-316 -110.5 q-223 0 -352 130.5t-149 342.5h-143v-247l140 -30v-175h-573v175l141 30v671l-156 30v176h156h292v-450z" />
<glyph unicode="&#x466;" horiz-adv-x="1493" d="M52 175l112 15l447 1266h300l444 -1266l112 -15v-175h-506v175l91 17l-86 263h-90v-455h-245v455h-79l-86 -263l92 -17v-175h-506v175zM619 656h280l-137 415h-6z" />
<glyph unicode="&#x467;" horiz-adv-x="1250" d="M778 318h-62v-318h-190v318h-54l-107 -318h-311v175l84 14l338 893h300l337 -893l84 -14v-175h-310zM530 490h189l-64 187l-27 114h-6l-28 -114z" />
<glyph unicode="&#x468;" horiz-adv-x="2076" d="M620 1456v-176l-156 -30v-593h479l282 799h300l444 -1266l112 -15v-175h-506v175l91 17l-86 263h-90v-455h-245v455h-79l-86 -263l92 -17v-175h-506v175l112 15l93 264h-407v-249l156 -30v-175h-603v175l156 30v1045l-156 30v176h156h291h156zM1233 656h280l-137 415h-6z " />
<glyph unicode="&#x469;" horiz-adv-x="1880" d="M479 490h385l224 592h300l337 -893l84 -14v-175h-310l-109 318h-62v-318h-190v318h-54l-107 -318h-311v175l84 14l49 130h-320v-114l140 -30v-175h-573v175l141 30v671l-156 30v176h156h292v-592zM1142 490h189l-64 187l-27 114h-6l-28 -114z" />
<glyph unicode="&#x46a;" horiz-adv-x="1931" d="M719 175l126 30v372h-111q-129 0 -186.5 -51t-57.5 -182v-139l126 -30v-175h-558v175l141 30v139q0 242 134 350.5t395 110.5l-261 452l-174 23v176h1403v-176l-175 -23l-260 -453q243 -8 369 -117t126 -343v-139l141 -30v-175h-558v175l126 30v139q0 131 -58 182 t-186 51h-85v-372l126 -30v-175h-543v175zM994 840l202 388h-403z" />
<glyph unicode="&#x46b;" horiz-adv-x="1661" d="M673 398q-100 0 -144 -48t-44 -171v-179h-414v175l123 30v-18l6 -2q-5 202 94 304t291 120l-159 274l-177 23v176h1186v-176l-176 -23l-160 -275q183 -21 279 -123.5t92 -299.5l6 3v17l123 -30v-175h-415v179q0 123 -44.5 171t-142.5 48h-12v-193l126 -30v-175h-543v175 l126 30v193h-21zM839 634h6l124 260h-253z" />
<glyph unicode="&#x46c;" horiz-adv-x="2550" d="M40 175l156 30v1045l-156 30v176h603v-176l-156 -30v-444h863l-260 451l-174 23v176h1403v-176l-175 -23l-260 -453q243 -8 369 -117t126 -343v-139l141 -30v-175h-558v175l126 30v139q0 131 -58 182t-186 51h-85v-372l126 -30v-175h-543v175l126 30v372h-111 q-129 0 -186.5 -51t-57.5 -182v-139l126 -30v-175h-558v175l141 30v139q0 70 11 128t34 106h-380v-373l156 -30v-175h-603v175zM1617 840l202 388h-403z" />
<glyph unicode="&#x46d;" horiz-adv-x="2271" d="M38 175l141 30v671l-156 30v176h448v-470h714l-158 271l-177 23v176h1186v-176l-176 -23l-160 -275q183 -21 279 -123.5t92 -299.5l6 3v17l123 -30v-175h-415v179q0 123 -44.5 171t-142.5 48h-12v-193l126 -30v-175h-543v175l126 30v193h-21q-100 0 -144 -48t-44 -171 v-179h-414v175l123 30v7l6 -1q-5 43 4.5 95t31.5 98h-366v-199l140 -30v-175h-573v175zM1440 634h6l124 260h-253z" />
<glyph unicode="&#x46e;" horiz-adv-x="1130" d="M503 859q113 0 167 52t54 140q0 82 -52.5 133.5t-160.5 56.5q-72 0 -130.5 -15.5t-90.5 -40.5l-24 -161h-214v262q76 86 194.5 133t264.5 47q233 0 369.5 -100.5t136.5 -290.5q0 -118 -60 -201.5t-170 -128.5q133 -42 204 -127.5t71 -209.5q0 -202 -138 -315.5 t-368 -113.5h-57q-59 0 -86 -25.5t-27 -70.5q0 -60 42 -97t102 -63l-82 -171q-159 36 -243 131.5t-85 236.5q0 144 94 217.5t263 73.5h63q106 0 168 53.5t62 139.5q0 110 -70 166t-205 56h-135v233h143zM564 1775l132 140h248v-17l-280 -255h-200l-281 256v16h249z" />
<glyph unicode="&#x46f;" horiz-adv-x="1000" d="M441 621q92 0 136.5 38t44.5 101q0 54 -45.5 87t-139.5 34q-48 0 -93.5 -13.5t-70.5 -30.5l-25 -147h-206v248q66 71 167.5 109.5t226.5 38.5q222 0 349.5 -77t127.5 -226q0 -84 -47 -146.5t-133 -99.5q109 -33 167.5 -93t58.5 -144q0 -152 -126.5 -236.5t-338.5 -84.5 h-49q-67 0 -97.5 -25.5t-30.5 -70.5q0 -60 37.5 -97t90.5 -63l-82 -157q-131 42 -214 135.5t-84 218.5q0 131 86.5 197.5t240.5 66.5h56q102 0 160.5 34t58.5 91q0 67 -59.5 101t-173.5 34h-106v177h113zM483 1393l132 140h248v-17l-280 -255h-200l-281 256v16h249z" />
<glyph unicode="&#x470;" horiz-adv-x="1733" d="M55 0zM1168 1280l-140 -30v-629l6 -1q115 15 175 106t60 253v477h292h141v-176l-141 -30v-271q0 -260 -143.5 -415t-389.5 -181v-178l155 -30v-175h-602v175l155 30v177q-250 22 -395.5 177.5t-145.5 419.5v271l-140 30v176h140h291v-477q0 -158 64 -249.5t180 -109.5 l6 2v628l-140 30v176h140h432v-176z" />
<glyph unicode="&#x471;" horiz-adv-x="1661" d="M29 0zM490 587q0 -157 61.5 -244.5t169.5 -111.5l6 2v849h292v-856l6 -2q142 25 207.5 123t65.5 245q-2 117 -30.5 238t-77.5 252h271q57 -99 93 -222t36 -268q0 -243 -136.5 -409.5t-434.5 -196.5v-464h-292v468q-253 34 -391 182t-138 418v196q0 44 -17.5 62.5 t-53.5 18.5q-18 0 -26 -2t-42 -10l-30 199q38 20 99.5 34t122.5 14q114 0 176.5 -58t62.5 -176v-281z" />
<glyph unicode="&#x472;" horiz-adv-x="1400" d="M1392 717q0 -320 -183 -529t-479 -209q-295 0 -476.5 209t-181.5 529v22q0 318 181 528t476 210q296 0 479.5 -210t183.5 -528v-22zM730 206q168 0 259.5 117.5t103.5 311.5l-2 5h-717l-2 -5q10 -194 100.5 -311.5t257.5 -117.5zM729 1249q-167 0 -256.5 -116.5 t-100.5 -307.5l2 -5h717l2 5q-12 190 -105 307t-259 117z" />
<glyph unicode="&#x473;" horiz-adv-x="1191" d="M78 551q0 242 135.5 396.5t374.5 154.5q240 0 375.5 -154t135.5 -397v-21q0 -244 -135.5 -397.5t-373.5 -153.5q-241 0 -376.5 153.5t-135.5 397.5v21zM588 877q-98 0 -149.5 -67.5t-59.5 -175.5l2 -5h416l2 5q-9 108 -61.5 175.5t-149.5 67.5zM590 203q96 0 147.5 65.5 t60.5 175.5l-2 5h-415l-2 -5q8 -110 60 -175.5t151 -65.5z" />
<glyph unicode="&#x474;" horiz-adv-x="1410" d="M564 1280l-100 -19l252 -866l18 -81h6l17 78l211 743q53 172 138 256t226 84l40 -1l-2 -236h-28q-43 0 -73.5 -32t-45.5 -88l-336 -1118h-299l-424 1263l-125 17v176h525v-176z" />
<glyph unicode="&#x475;" horiz-adv-x="1188" d="M569 906l-110 -21l115 -482l17 -88h6l16 88l92 374q48 162 132 243.5t213 81.5q32 0 57 -4t46 -15l-24 -221q-4 1 -21 2.5t-30 1.5q-38 0 -68.5 -29.5t-42.5 -72.5l-232 -764h-279l-287 890l-122 16v176h522v-176z" />
<glyph unicode="&#x476;" horiz-adv-x="1410" d="M39 0zM564 1280l-100 -19l252 -866l18 -81h6l17 78l211 743q53 172 138 256t226 84l40 -1l-2 -236h-28q-43 0 -73.5 -32t-45.5 -88l-336 -1118h-299l-424 1263l-125 17v176h525v-176zM639 1531l-2 -5h-234l-285 260l2 6h279zM985 1526h-235l-240 261l2 5h274z" />
<glyph unicode="&#x477;" horiz-adv-x="1188" d="M20 0zM569 906l-110 -21l115 -482l17 -88h6l16 88l92 374q48 162 132 243.5t213 81.5q32 0 57 -4t46 -15l-24 -221q-4 1 -21 2.5t-30 1.5q-38 0 -68.5 -29.5t-42.5 -72.5l-232 -764h-279l-287 890l-122 16v176h522v-176zM541 1289l-2 -5h-234l-285 260l2 6h279zM887 1284 h-235l-240 261l2 5h274z" />
<glyph unicode="&#x478;" horiz-adv-x="2660" d="M67 0zM1387 717q0 -320 -183 -529t-479 -209q-295 0 -476.5 209t-181.5 529v22q0 318 181 528t476 210q296 0 479.5 -210t183.5 -528v-22zM1096 741q0 226 -94 367t-278 141t-274.5 -140t-90.5 -368v-24q0 -230 91.5 -370.5t274.5 -140.5q185 0 278 140.5t93 370.5v24z M2631 906l-101 -15l-398 -1053q-47 -117 -125.5 -196t-236.5 -79q-37 0 -69.5 6t-76.5 17l34 213q14 -2 29 -4t26 -2q73 0 112 35.5t60 88.5l33 82l-343 891l-101 16v176h530v-176l-121 -20l148 -432l15 -78l6 -1l171 511l-122 20v176h530v-176z" />
<glyph unicode="&#x479;" horiz-adv-x="2360" d="M63 0zM63 551q0 242 135.5 396.5t374.5 154.5q240 0 375.5 -154t135.5 -397v-21q0 -244 -135.5 -397.5t-373.5 -153.5q-241 0 -376.5 153.5t-135.5 397.5v21zM355 530q0 -148 52 -237.5t168 -89.5q113 0 165.5 90t52.5 237v21q0 144 -53 235t-167 91t-166 -91t-52 -235 v-21zM2331 906l-101 -15l-398 -1053q-47 -117 -125.5 -196t-236.5 -79q-37 0 -69.5 6t-76.5 17l34 213q14 -2 29 -4t26 -2q73 0 112 35.5t60 88.5l33 82l-343 891l-101 16v176h530v-176l-121 -20l148 -432l15 -78l6 -1l171 511l-122 20v176h530v-176z" />
<glyph unicode="&#x47a;" horiz-adv-x="1449" d="M825 1123h-196v454h196v-454zM827 -136h-195v464h195v-464zM1387 717q0 -320 -183 -529t-479 -209q-295 0 -476.5 209t-181.5 529v22q0 318 181 528t476 210q296 0 479.5 -210t183.5 -528v-22zM1096 741q0 226 -94 367t-278 141t-274.5 -140t-90.5 -368v-24 q0 -230 91.5 -370.5t274.5 -140.5q185 0 278 140.5t93 370.5v24z" />
<glyph unicode="&#x47b;" horiz-adv-x="1153" d="M655 763h-151v441h151v-441zM649 -123h-150v454h150v-454zM67 551q0 242 135.5 396.5t374.5 154.5q240 0 375.5 -154t135.5 -397v-21q0 -244 -135.5 -397.5t-373.5 -153.5q-241 0 -376.5 153.5t-135.5 397.5v21zM359 530q0 -148 52 -237.5t168 -89.5q113 0 165.5 90 t52.5 237v21q0 144 -53 235t-167 91t-166 -91t-52 -235v-21z" />
<glyph unicode="&#x47c;" horiz-adv-x="1838" d="M1284 1448l6 2q212 4 346.5 -122t134.5 -357v-508q0 -232 -135 -358t-352 -126q-108 0 -196.5 37.5t-146.5 111.5q-59 -74 -147 -111.5t-194 -37.5q-218 0 -352.5 126t-134.5 358v508q0 231 134 357t347 122l6 -2v-217q-91 0 -143 -65t-52 -195v-508q0 -131 52 -195.5 t143 -64.5q96 0 149.5 60.5t53.5 185.5v367h278v-367q0 -125 53 -185.5t150 -60.5q90 0 142 64.5t52 195.5v508q0 130 -52 195t-142 65v217zM1394 1721v-134h-23q-129 0 -286.5 60t-198.5 60q-49 0 -76 -25.5t-27 -76.5v-18h-133v37q0 109 60.5 163t172.5 54q70 0 224 -60 t265 -60h22zM895 1292l-81 55l58 108l-1 147h182v-129z" />
<glyph unicode="&#x47d;" horiz-adv-x="1576" d="M1060 1090l6 3q201 3 328.5 -115.5t127.5 -336.5v-205q0 -219 -119.5 -338t-312.5 -119q-91 0 -164.5 36t-122.5 107q-50 -71 -123 -107t-163 -36q-194 0 -313 119t-119 338v205q0 218 127 336.5t329 115.5l6 -3v-217q-80 0 -125 -58t-45 -174v-205q0 -117 37 -175 t103 -58q69 0 108.5 57.5t39.5 174.5v169h277v-169q0 -117 39 -174.5t109 -57.5q65 0 102.5 58t37.5 175v205q0 116 -45.5 174t-124.5 58v217zM1265 1374v-134h-23q-128 0 -286 60t-199 60q-48 0 -75.5 -25.5t-27.5 -76.5v-18h-133v37q0 109 60.5 163t172.5 54 q70 0 224.5 -60t265.5 -60h21zM925 1140l-158 -182l-82 55l59 109l-1 133h182v-115z" />
<glyph unicode="&#x47e;" horiz-adv-x="1884" d="M518 1687v112h886l1 -112h-362v-127h-181v127h-344zM1508 1456v-1007q0 -125 -52 -185.5t-146 -60.5q-93 0 -146.5 61t-53.5 185v1007h-294v-1007q0 -125 -53.5 -185.5t-149.5 -60.5q-91 0 -142.5 61t-51.5 185v1007h-293v-1007q0 -225 134.5 -347.5t352.5 -122.5 q110 0 200.5 40t149.5 118q57 -78 146.5 -118t200.5 -40q219 0 354.5 122t135.5 348v1007h-292z" />
<glyph unicode="&#x47f;" horiz-adv-x="1700" d="M487 1345v112h824l6 -112h-337v-127h-180v127h-313zM1340 1082v-647q0 -118 -38.5 -175t-112.5 -57q-80 0 -119.5 56.5t-39.5 175.5v647h-293v-647q0 -118 -44 -175t-126 -57q-72 0 -110 57t-38 175v647h-292v-647q0 -220 120.5 -338t319.5 -118q99 0 179.5 35t134.5 105 q52 -70 130.5 -105t177.5 -35q200 0 321.5 118t121.5 338v647h-292z" />
<glyph unicode="&#x480;" horiz-adv-x="1247" d="M852 -366h-291v354q-211 33 -335 195t-124 400v289q0 267 154 436t408 169q258 0 400 -129.5t138 -366.5l-2 -6h-284q0 141 -60.5 209t-191.5 68q-130 0 -200 -105t-70 -273v-291q0 -169 70 -274.5t200 -105.5h188v-569z" />
<glyph unicode="&#x481;" horiz-adv-x="1065" d="M777 -367h-291v355q-192 32 -295.5 179t-103.5 358v30q0 237 131.5 392t368.5 155q198 0 319.5 -114t117.5 -300l-2 -6h-266q0 83 -45 139t-124 56q-112 0 -160 -91t-48 -231v-30q0 -143 48 -232.5t161 -89.5h189v-570z" />
<glyph unicode="&#x482;" horiz-adv-x="1100" d="M512 449l289 -172l-72 -128l-291 170l-181 -319h-175l225 398l-289 171l71 128l293 -171l202 360l-290 171l73 130l291 -171l185 326h172l-228 -405l293 -171l-76 -127l-288 170z" />
<glyph unicode="&#x483;" horiz-adv-x="980" d="M315 1312v-126l-177 1l1 238h546l-1 108l177 -1v-220h-546z" />
<glyph unicode="&#x484;" horiz-adv-x="1034" d="M152 1437q113 0 271 60t231 60q113 0 175.5 -54t62.5 -163v-37h-136v18q0 51 -29 76.5t-77 25.5q-43 0 -204.5 -60t-291.5 -60h-24v134h22z" />
<glyph unicode="&#x485;" horiz-adv-x="465" d="M103 1500v141h190l-1 -159l58 -109l-81 -68z" />
<glyph unicode="&#x486;" horiz-adv-x="464" d="M191 1305l-82 68l59 109l-1 159h189v-141z" />
<glyph unicode="&#x488;" horiz-adv-x="1986" d="M784 1267l-2 6q-5 79 51 130.5t153 51.5q96 0 152.5 -51.5t52.5 -130.5l-2 -6h-104q0 43 -24.5 72t-74.5 29t-73.5 -29t-23.5 -72h-105zM1375 990l-2 6q-5 78 51.5 130t152.5 52t153 -51.5t53 -130.5l-2 -6h-105q0 44 -24 72.5t-75 28.5q-50 0 -73 -29t-23 -72h-106z M1562 487l-2 6q-5 78 51.5 130t152.5 52t152.5 -51.5t52.5 -130.5l-2 -6h-104q0 44 -24 72.5t-75 28.5q-50 0 -73.5 -29t-23.5 -72h-105zM1365 -32l-2 6q-5 78 51.5 130t152.5 52t152.5 -51.5t52.5 -130.5l-2 -6h-104q0 44 -24 72.5t-75 28.5q-50 0 -73.5 -29t-23.5 -72 h-105zM789 -316l-2 6q-5 80 51 131t153 51q96 0 152.5 -51t52.5 -131l-2 -6h-104q0 44 -24.5 72.5t-74.5 28.5t-73.5 -28.5t-23.5 -72.5h-105zM211 990l-2 6q-5 79 51.5 130.5t153.5 51.5q96 0 152.5 -51.5t52.5 -130.5l-2 -6h-104q0 43 -24.5 72t-74.5 29t-73.5 -29 t-23.5 -72h-106zM35 487l-2 6q-5 78 51.5 130t152.5 52t152.5 -51.5t52.5 -130.5l-2 -6h-104q0 44 -24 72.5t-75 28.5q-50 0 -73.5 -29t-23.5 -72h-105zM201 -32l-2 6q-5 78 51.5 130t152.5 52t153 -51.5t53 -130.5l-2 -6h-105q0 44 -24 72.5t-75 28.5q-50 0 -73 -29 t-23 -72h-106z" />
<glyph unicode="&#x489;" horiz-adv-x="1915" d="M1055 -60l11 -14l-122 -339h-96l70 353h137zM860 1126l-12 14l122 338h96l-70 -352h-136zM1538 631l13 12l333 -124v-98l-346 71v139zM374 433l-13 -12l-333 124v98l346 -71v-139zM1298 1002l2 16l321 153l68 -68q-37 -23 -294 -200zM614 21l-2 -17l-320 -153l-69 69 l294 200zM474 860l-17 2l-148 326l65 69l198 -299zM1436 161l17 -2l149 -325l-66 -71l-197 299z" />
<glyph unicode="&#x48a;" horiz-adv-x="1605" d="M69 0zM672 1456v-176l-156 -30v-674l6 -2l587 595v81l-155 30v176h155h293h155v-176l-155 -30v-1045l155 -30v-175h-603v175l155 30v658l-6 2l-587 -596v-64l156 -30v-175h-603v175l156 30v1045l-156 30v176h156h291h156zM1147 1883l2 -6q5 -127 -88.5 -207.5 t-251.5 -80.5q-159 0 -253 80.5t-88 207.5l2 6h198q0 -58 34 -96t107 -38q71 0 105 37.5t34 96.5h199zM1834 -11q0 -102 -57.5 -216t-140.5 -187l-144 78q39 70 60 144.5t21 166.5v218h262z" />
<glyph unicode="&#x48b;" horiz-adv-x="1417" d="M85 0zM673 1082v-176l-140 -30v-451l6 -1l352 658h292h155v-176l-155 -30v-671l155 -30v-175h-587v175l140 30v453l-6 1l-352 -659h-448v175l156 30v671l-156 30v176h448h140zM1052 1561l2 -6q5 -127 -88.5 -207.5t-251.5 -80.5q-159 0 -253 80.5t-88 207.5l2 6h198 q0 -58 34 -96t107 -38q71 0 105 37.5t34 96.5h199zM1615 -11q0 -102 -57.5 -216t-140.5 -187l-144 78q39 70 60 144.5t21 166.5v218h262z" />
<glyph unicode="&#x48c;" horiz-adv-x="1360" d="M515 1166h229v-155h-229v-94h250q253 0 400 -123.5t147 -329.5q0 -209 -148 -336.5t-399 -127.5h-698v175l156 30v806h-180v155h180v84l-156 30v176h448v-290zM515 692v-468h250q123 0 189.5 68.5t66.5 173.5q0 100 -66 163t-190 63h-250zM671 1456v-176l-156 -30v206 h156z" />
<glyph unicode="&#x48d;" horiz-adv-x="1233" d="M522 1348h225v-181h-225v-381h204q218 0 343 -108t125 -283q0 -177 -125.5 -286t-342.5 -109h-651v175l155 30v962h-186v181h186v66l-155 30v175h447v-271zM522 562v-339h204q89 0 133 47.5t44 122.5q0 72 -44 120.5t-133 48.5h-204z" />
<glyph unicode="&#x48e;" horiz-adv-x="1358" d="M1238 528l-101 -92l-438 480l101 93zM711 1456q250 0 394.5 -128.5t144.5 -336.5q0 -209 -144.5 -336t-394.5 -127h-246v-323l156 -30v-175h-603v175l155 30v1045l-155 30v176h155h538zM465 753h246q122 0 184.5 66.5t62.5 169.5q0 105 -62.5 173.5t-184.5 68.5h-246 v-478z" />
<glyph unicode="&#x48f;" horiz-adv-x="1273" d="M1090 28l-105 -92l-384 453l103 91zM-12 906v176h424l14 -126q48 70 115 108t156 38q201 0 312 -157t111 -413v-21q0 -240 -111 -386t-310 -146q-85 0 -151 31.5t-113 92.5v-313l141 -30v-176h-573v176l141 30v1086zM828 532q0 153 -51 248t-156 95q-66 0 -112.5 -27 t-73.5 -77v-474q27 -46 73.5 -70t114.5 -24q106 0 155.5 83t49.5 225v21z" />
<glyph unicode="&#x490;" horiz-adv-x="1220" d="M943 1824h222v-593h-657v-1026l156 -30v-175h-604v175l156 30v1045l-156 30v176h839z" />
<glyph unicode="&#x491;" horiz-adv-x="1087" d="M766 1082l27 221h207v-447h-496v-651l156 -30v-175h-603v175l156 30v671l-156 30v176h156h553z" />
<glyph unicode="&#x492;" horiz-adv-x="1223" d="M65 175l155 30v469h-187v155h187v421l-155 30v176h1104v-369h-224l-12 144h-421v-402h222v-155h-222v-469l156 -30v-175h-603v175z" />
<glyph unicode="&#x493;" horiz-adv-x="1088" d="M662 0h-447v455h-152v154h152v267l-155 30v176h948v-381h-183l-12 155h-306v-247h212v-154h-212v-250l155 -30v-175zM215 0h-155v175l155 30v-205z" />
<glyph unicode="&#x494;" horiz-adv-x="1323" d="M65 175l155 30v1045l-155 30v176h1104v-369h-224l-12 144h-421v-395h163q278 0 440.5 -150.5t162.5 -435.5q0 -250 -131 -416.5t-408 -162.5l-6 2v206q150 0 201.5 103t52.5 255q0 184 -80 277t-232 93h-163v-402l156 -30v-175h-603v175z" />
<glyph unicode="&#x495;" horiz-adv-x="1179" d="M1005 701h-182l-12 155h-307v-215h68q256 0 411 -125.5t155 -360.5q2 -133 -94 -268t-278 -195l-122 189q100 46 151 111.5t51 162.5q0 126 -72.5 192t-201.5 66h-68v-208l156 -30v-175h-603v175l156 30v671l-156 30v176h156h792v-381z" />
<glyph unicode="&#x496;" horiz-adv-x="2150" d="M39 0zM753 596l-220 -410l56 -11v-175h-550v175l145 21l346 595l-185 298q-49 71 -84 97t-77 26q-22 0 -38.5 -3.5t-36.5 -8.5l-43 219q35 23 80.5 37t98.5 14q108 0 174 -47.5t138 -168.5l226 -393h151v389l-156 30v176h447h156v-176l-156 -30v-389h151l222 393 q69 121 135 168.5t175 47.5q52 0 97 -14t83 -37l-41 -219q-21 5 -38 8.5t-37 3.5q-43 0 -78 -26t-82 -97l-186 -302l338 -591l151 -21v-175h-557v175l58 11l-216 410h-175v-391l156 -30v-175h-603v175l156 30v391h-181zM2114 -361h-292v523h292v-523z" />
<glyph unicode="&#x497;" horiz-adv-x="1850" d="M40 0zM654 175l125 30v200h-127l-208 -405h-404v175l148 22l229 383l-126 196q-24 37 -57 59t-63 22q-21 0 -30 -2.5t-36 -9.5l-49 202q39 24 79 38t91 14q100 0 168 -47.5t127 -141.5l144 -240h114v206l-125 30v176h542v-176l-126 -30v-206h117l144 240q58 94 126 141.5 t169 47.5q50 0 90 -14t80 -38l-49 -202q-28 7 -37 9.5t-29 2.5q-31 0 -64 -22t-56 -59l-126 -196l227 -383l149 -22v-175h-404l-207 405h-130v-200l126 -30v-175h-542v175zM1810 -361h-292v523h292v-523z" />
<glyph unicode="&#x498;" horiz-adv-x="1221" d="M53 0zM608 852q117 0 173 54t56 151q0 85 -66 140t-199 55q-86 0 -151.5 -25.5t-104.5 -67.5l-30 -181h-217v275q85 100 221 162t302 62q248 0 392 -108t144 -308q0 -100 -60 -183t-165 -130q120 -43 184 -129.5t64 -210.5q0 -201 -155 -315t-404 -114q-219 0 -379 107 t-155 312l2 6h284q0 -85 69.5 -143t178.5 -58q123 0 195 58.5t72 149.5q0 115 -63 168.5t-188 53.5h-177v219h177zM749 -363h-292v523h292v-523z" />
<glyph unicode="&#x499;" horiz-adv-x="1062" d="M66 0zM530 646q74 0 109 31t35 88q0 52 -33.5 88t-109.5 36q-71 0 -114.5 -32t-43.5 -86h-283l-2 6q-6 145 118 234.5t310 89.5q208 0 328.5 -82t120.5 -233q0 -73 -44 -133.5t-122 -95.5q90 -32 137.5 -95.5t47.5 -155.5q0 -152 -129.5 -239t-338.5 -87 q-185 0 -317.5 86t-126.5 248l1 6h283q0 -56 46 -93t130 -37q81 0 121 39t40 96q0 70 -40 102.5t-123 32.5h-156v186h156zM684 -369h-292v523h292v-523z" />
<glyph unicode="&#x49a;" horiz-adv-x="1464" d="M56 0zM56 175l155 30v1045l-155 30v176h595v-176l-148 -30v-389h127l280 407l-86 12v176h577v-176l-158 -27l-358 -478l402 -575l146 -25v-175h-577v175l90 12l-280 421h-163v-403l148 -30v-175h-595v175zM1432 -361h-292v523h292v-523z" />
<glyph unicode="&#x49b;" horiz-adv-x="1330" d="M91 0zM91 906v176h580v-176l-133 -30v-206h100l162 240q61 94 128 141.5t167 47.5q50 0 90 -14t79 -38l-49 -202l-37.5 10t-27.5 2q-30 0 -63.5 -23t-57.5 -58l-140 -204l251 -373l147 -24v-175h-401l-236 405h-112v-200l133 -30v-175h-580v175l156 30v671zM1286 -361 h-292v523h292v-523z" />
<glyph unicode="&#x49c;" horiz-adv-x="1543" d="M67 175l156 30v1045l-156 30v176h448h141v-176l-141 -30v-389h83v252h167v-252h33l205 393q69 121 137 168.5t178 47.5q52 0 97 -14t81 -37l-49 -219q-21 5 -37.5 8.5t-36.5 3.5q-44 0 -78.5 -25.5t-83.5 -97.5l-170 -290l321 -605l126 -19v-175h-395l-271 596h-57v-221 h-167v221h-83v-391l141 -30v-175h-589v175z" />
<glyph unicode="&#x49d;" horiz-adv-x="1445" d="M84 175l155 30v671l-155 30v176h447h118v-156l-118 -30v-226h108v172h122v-172h34l125 240q52 93 121 141t171 48q51 0 91.5 -13.5t77.5 -37.5l-49 -203l-37.5 10t-27.5 2q-32 0 -62.5 -20t-55.5 -61l-116 -198l207 -383l128 -20v-175h-396l-165 405h-46v-152h-122v152 h-108v-220l118 -30v-155h-565v175z" />
<glyph unicode="&#x49e;" horiz-adv-x="1484" d="M76 175l155 30v800h-224v155h224v90l-155 30v176h595v-176l-148 -30v-90h185v-155h-185v-144h127l280 407l-86 12v176h577v-176l-158 -27l-358 -478l402 -575l146 -25v-175h-577v175l90 12l-280 421h-163v-403l148 -30v-175h-595v175z" />
<glyph unicode="&#x49f;" horiz-adv-x="1269" d="M-8 1128v155h216v71l-156 30v176h447v-277h194v-155h-194v-472h65l168 237l-95 13v176h532v-176l-128 -29l-195 -268l273 -411l111 -23v-175h-500v175l60 10l-166 268h-125v-248l126 -30v-175h-558v175l141 30v923h-216z" />
<glyph unicode="&#x4a0;" horiz-adv-x="1914" d="M269 1230l-11 -142h-223v368h846h148v-176l-148 -30v-389h131l273 393q87 122 154 169t178 47q51 0 95 -14t81 -37l-49 -219q-32 7 -43.5 9.5t-31.5 2.5q-46 0 -85 -26t-94 -97l-228 -312l403 -577l153 -25v-175h-577v175l83 12l-272 409h-171v-391l148 -30v-175h-595 v175l155 30v1025h-320z" />
<glyph unicode="&#x4a1;" horiz-adv-x="1677" d="M305 856l-11 -142h-223v368h790h133v-176l-133 -30v-206h100l162 240q61 94 128 141.5t167 47.5q50 0 90 -14t79 -38l-49 -202l-37.5 10t-27.5 2q-30 0 -63.5 -23t-57.5 -58l-140 -204l251 -373l147 -24v-175h-401l-236 405h-112v-200l133 -30v-175h-580v175l156 30v651 h-265z" />
<glyph unicode="&#x4a2;" horiz-adv-x="1601" d="M56 0zM56 1280v176h603v-176l-156 -30v-420h594v420l-156 30v176h156h291h156v-176l-156 -30v-1045l156 -30v-175h-603v175l156 30v400h-594v-400l156 -30v-175h-603v175l155 30v1045zM1542 -361h-292v523h292v-523z" />
<glyph unicode="&#x4a3;" horiz-adv-x="1415" d="M85 0zM85 906v176h573v-176l-126 -30v-232h356v232l-125 30v176h125h292h156v-176l-156 -30v-671l156 -30v-175h-573v175l125 30v215h-356v-215l126 -30v-175h-573v175l156 30v671zM1335 -361h-292v523h292v-523z" />
<glyph unicode="&#x4a4;" horiz-adv-x="2060" d="M648 1456v-176l-156 -30v-420h594v420l-156 30v176h1046v-368h-224l-12 143h-363v-1026l156 -30v-175h-603v175l156 30v400h-594v-400l156 -30v-175h-603v175l155 30v1045l-155 30v176h155h292h156z" />
<glyph unicode="&#x4a5;" horiz-adv-x="1593" d="M618 1082v-176l-126 -30v-232h356v232l-125 30v176h817v-368h-223l-12 143h-165v-652l156 -30v-175h-573v175l125 30v215h-356v-215l126 -30v-175h-573v175l156 30v671l-156 30v176h156h291h126z" />
<glyph unicode="&#x4a6;" horiz-adv-x="2168" d="M65 1280v176h1488v-176l-155 -30v-416h100q278 0 440.5 -150.5t162.5 -435.5q0 -249 -131 -416t-408 -163l-6 2v206q150 0 201.5 103t52.5 255q0 184 -80 277t-232 93h-100v-400l155 -30v-175h-602v175l155 30v1026h-594v-1026l156 -30v-175h-603v175l155 30v1045z" />
<glyph unicode="&#x4a7;" horiz-adv-x="1893" d="M1335 1082v-176l-155 -30v-206h42q266 0 426 -125t160 -361q2 -134 -94 -269t-277 -195l-123 189q99 45 150.5 111.5t52.5 163.5q0 126 -78 192t-217 66h-42v-237l155 -30v-175h-573v175l126 30v651h-359v-651l126 -30v-175h-573v175l156 30v671l-156 30v176h156h942h155 z" />
<glyph unicode="&#x4a8;" horiz-adv-x="1605" d="M1533 -18q-113 0 -216 17.5t-193 52.5q-76 -36 -162.5 -54.5t-180.5 -18.5q-307 0 -499.5 195.5t-192.5 489.5v200q0 263 142.5 437t367.5 169l6 -2v-226q-97 0 -153 -105.5t-56 -270.5v-202q0 -200 103.5 -325.5t281.5 -125.5q20 0 37.5 1t34.5 4q-104 97 -159.5 226.5 t-55.5 281.5v201q0 235 118.5 392t308.5 157q204 0 330.5 -164.5t126.5 -424.5v-183q0 -141 -45.5 -265t-129.5 -220q42 -9 88.5 -13.5t97.5 -4.5v-219zM914 724q0 -120 44.5 -219.5t129.5 -163.5h6q64 61 100 155.5t36 207.5v212q0 171 -42 248.5t-123 77.5 q-73 0 -112 -78.5t-39 -234.5v-205z" />
<glyph unicode="&#x4a9;" horiz-adv-x="1347" d="M1278 -24q-100 0 -186.5 13t-159.5 39q-60 -24 -128 -36.5t-140 -12.5q-253 0 -411.5 157.5t-158.5 397.5v93q0 205 118.5 339t305.5 130l6 -2v-225q-57 -7 -89.5 -72t-32.5 -168v-95q0 -141 69 -229t181 -79l5 3q-49 54 -74 134t-25 173v149q0 180 94.5 298.5 t248.5 118.5q159 0 258 -131t99 -329v-143q0 -100 -35 -188t-100 -156q35 -7 74 -10.5t81 -3.5v-165zM967 513v145q0 90 -26.5 149.5t-67.5 55.5h-6q-42 4 -68 -50t-26 -137v-153q0 -71 23.5 -131t68.5 -103h6q45 35 70.5 94t25.5 130v0z" />
<glyph unicode="&#x4aa;" horiz-adv-x="1327" d="M52 0zM1249 965h-217l-30 194q-43 43 -108.5 68t-154.5 25q-190 0 -292.5 -138t-102.5 -360v-51q0 -222 102 -361t288 -139q86 0 157.5 25t110.5 68l30 194h217v-288q-88 -102 -224.5 -162.5t-305.5 -60.5q-293 0 -480 203t-187 521v49q0 317 186 521t481 204 q169 0 305 -61.5t225 -162.5v-288zM861 -363h-292v523h292v-523z" />
<glyph unicode="&#x4ab;" horiz-adv-x="1079" d="M67 0zM571 203q78 0 125 45.5t47 121.5h264l3 -6q4 -164 -123 -274.5t-316 -110.5q-242 0 -373 153t-131 393v30q0 239 134.5 393t383.5 154q131 0 235 -39t173 -110l4 -289h-237l-48 169q-22 19 -54 31.5t-73 12.5q-124 0 -175 -90t-51 -232v-30q0 -145 47 -233.5 t165 -88.5zM708 -363h-292v523h292v-523z" />
<glyph unicode="&#x4ac;" horiz-adv-x="1377" d="M40 0zM1338 1456v-388h-224l-12 163h-268v-1026l156 -30v-175h-604v175l156 30v1026h-267l-12 -163h-223v388h1298zM989 -361h-292v523h292v-523z" />
<glyph unicode="&#x4ad;" horiz-adv-x="1243" d="M55 0zM1185 1082v-369h-224l-12 146h-185v-654l155 -30v-175h-603v175l155 30v654h-181l-11 -146h-224v369h1130zM918 -361h-292v523h292v-523z" />
<glyph unicode="&#x4ae;" horiz-adv-x="1398" d="M36 0zM587 1280l-119 -17l226 -478h6l226 478l-118 17v176h551v-176l-124 -20l-396 -748v-307l156 -30v-175h-603v175l156 30v322l-389 733l-123 20v176h551v-176z" />
<glyph unicode="&#x4af;" horiz-adv-x="1113" d="M26 0zM1096 906l-91 -14l-297 -878v-431h-292v473l-234 730q-12 40 -33.5 55t-61.5 15q-9 0 -22 -1.5t-16 -2.5l-23 221q25 8 70.5 14t81.5 6q105 0 147 -32t73 -128l161 -530l10 -61h6l13 61l126 482l-109 21v176h491v-176z" />
<glyph unicode="&#x4b0;" horiz-adv-x="1398" d="M587 1280l-119 -17l226 -478h6l226 478l-118 17v176h551v-176l-124 -20l-327 -617h141v-155h-210v-283l156 -30v-175h-603v175l156 30v283h-200v155h139l-328 617l-123 20v176h551v-176z" />
<glyph unicode="&#x4b1;" horiz-adv-x="1113" d="M909 21h-199l-2 -6v-432h-292v438h-208v155h170l-196 610q-12 40 -33.5 55t-61.5 15q-9 0 -22 -1.5t-16 -2.5l-23 221q25 8 70.5 14t81.5 6q105 0 147 -32t73 -128l161 -530l10 -61h6l13 61l126 482l-109 21v176h491v-176l-91 -14l-243 -716h147v-155z" />
<glyph unicode="&#x4b2;" horiz-adv-x="1438" d="M33 0zM33 175l123 24l385 535l-375 521l-122 25v176h559v-176l-119 -13l225 -357l226 357l-117 13v176h561v-176l-122 -25l-375 -521l393 -534l129 -25v-175h-573v175l116 12l-234 368l-235 -368l117 -12v-175h-562v175zM1403 -361h-292v523h292v-523z" />
<glyph unicode="&#x4b3;" horiz-adv-x="1191" d="M32 0zM32 175l101 16l294 356l-284 342l-101 17v176h487v-169l-99 -12l164 -208l161 208l-101 12v169h489v-176l-98 -17l-278 -342l293 -356l102 -16v-175h-495v168l99 12l-168 218l-171 -219l87 -11v-168h-482v175zM1161 -361h-292v523h292v-523z" />
<glyph unicode="&#x4b4;" horiz-adv-x="1825" d="M1117 1456v-368h-224l-11 142h-120v-1006h593v1026l-155 30v176h448h155v-176l-155 -30v-1027h204l-15 -574h-276v351h-1246v175l155 30v1025h-208l-11 -142h-223v368h1089z" />
<glyph unicode="&#x4b5;" horiz-adv-x="1711" d="M1017 1082v-369h-193l-11 143h-131v-632h455v858h448v-176l-155 -30v-653h163l-20 -544h-271v321h-1067v175l155 30v651h-132l-11 -143h-223v369h993z" />
<glyph unicode="&#x4b6;" horiz-adv-x="1553" d="M44 0zM901 175l155 30v356q-67 -16 -149 -24.5t-146 -8.5q-268 0 -414.5 116t-146.5 359v247l-156 30v176h447h156v-176l-156 -30v-247q0 -142 64 -196t206 -54q62 0 145.5 8.5t149.5 24.5v464l-155 30v176h155h292h156v-176l-156 -30v-1045l156 -30v-175h-603v175z M1503 -361h-292v523h292v-523z" />
<glyph unicode="&#x4b7;" horiz-adv-x="1375" d="M49 0zM621 1082v-175l-125 -30v-135q0 -107 47 -148t159 -41q37 0 73.5 4t74.5 12v307l-126 30v176h574v-176l-156 -30v-671l156 -30v-175h-604v175l156 30v138q-37 -8 -75.5 -11.5t-72.5 -3.5q-239 0 -368.5 102t-129.5 312v135l-155 30v175h447h125zM1297 -361h-292 v523h292v-523z" />
<glyph unicode="&#x4b8;" horiz-adv-x="1554" d="M813 291h-167v756h167v-756zM901 175l155 30v356q-67 -16 -149 -24.5t-146 -8.5q-268 0 -414.5 116t-146.5 359v247l-156 30v176h447h156v-176l-156 -30v-247q0 -142 64 -196t206 -54q62 0 145.5 8.5t149.5 24.5v464l-155 30v176h155h292h156v-176l-156 -30v-1045 l156 -30v-175h-603v175z" />
<glyph unicode="&#x4b9;" horiz-adv-x="1375" d="M764 239h-167v519h167v-519zM637 1082v-175l-125 -30v-135q0 -107 47 -148t159 -41q37 0 73.5 4t74.5 12v307l-126 30v176h574v-176l-156 -30v-671l156 -30v-175h-604v175l156 30v138q-37 -8 -75.5 -11.5t-72.5 -3.5q-239 0 -368.5 102t-129.5 312v135l-155 30v175h447 h125z" />
<glyph unicode="&#x4ba;" horiz-adv-x="1570" d="M656 1456v-175l-155 -30v-356q66 14 148.5 23.5t146.5 9.5q267 0 414 -116.5t147 -358.5v-247l156 -30v-176h-603v176l156 30v247q0 141 -64.5 195.5t-205.5 54.5q-62 0 -145.5 -9.5t-149.5 -23.5v-464l155 -30v-176h-603v176l156 30v1045l-156 30v175h448h155z" />
<glyph unicode="&#x4bb;" horiz-adv-x="1302" d="M32 0zM47 175l141 30v1149l-156 30v176h447v-616q51 75 125 116.5t164 41.5q170 0 266.5 -112.5t96.5 -347.5v-437l140 -30v-175h-558v175l126 30v439q0 126 -44.5 178.5t-132.5 52.5q-61 0 -106.5 -22t-76.5 -62v-586l126 -30v-175h-558v175z" />
<glyph unicode="&#x4bc;" horiz-adv-x="1573" d="M1028 -23q-320 0 -491.5 172.5t-171.5 457.5v57q-155 24 -238.5 134t-83.5 284h198q0 -83 31 -138.5t93 -77.5q1 266 170.5 438t421.5 171q273 0 419 -182.5t146 -499.5v-150h-865v-36q0 -176 88 -282.5t283 -106.5q112 0 201 19t162 47l49 -225q-51 -28 -158.5 -55 t-253.5 -27zM957 1233q-144 0 -222 -104t-74 -261l3 -5h566v31q0 153 -65.5 246t-207.5 93z" />
<glyph unicode="&#x4bd;" horiz-adv-x="1346" d="M741 -21q-228 0 -367.5 143t-146.5 366q-117 38 -178.5 135.5t-61.5 241.5h183q0 -59 17.5 -103t52.5 -72q36 187 161.5 299.5t313.5 112.5q219 0 340 -132t121 -357v-159h-646l-2 -6q8 -107 71.5 -176t172.5 -69q97 0 161 19.5t140 61.5l79 -180q-67 -53 -173.5 -89 t-237.5 -36zM715 877q-81 0 -128 -62t-58 -163l3 -5h358v26q0 93 -43.5 148.5t-131.5 55.5z" />
<glyph unicode="&#x4be;" horiz-adv-x="1573" d="M43 0zM1028 -23q-320 0 -491.5 172.5t-171.5 457.5v57q-155 24 -238.5 134t-83.5 284h198q0 -83 31 -138.5t93 -77.5q1 266 170.5 438t421.5 171q273 0 419 -182.5t146 -499.5v-150h-865v-36q0 -176 88 -282.5t283 -106.5q112 0 201 19t162 47l49 -225 q-51 -28 -158.5 -55t-253.5 -27zM957 1233q-144 0 -222 -104t-74 -261l3 -5h566v31q0 153 -65.5 246t-207.5 93zM1093 -361h-292v523h292v-523z" />
<glyph unicode="&#x4bf;" horiz-adv-x="1346" d="M0 0zM741 -21q-228 0 -367.5 143t-146.5 366q-117 38 -178.5 135.5t-61.5 241.5h183q0 -59 17.5 -103t52.5 -72q36 187 161.5 299.5t313.5 112.5q219 0 340 -132t121 -357v-159h-646l-2 -6q8 -107 71.5 -176t172.5 -69q97 0 161 19.5t140 61.5l79 -180 q-67 -53 -173.5 -89t-237.5 -36zM715 877q-81 0 -128 -62t-58 -163l3 -5h358v26q0 93 -43.5 148.5t-131.5 55.5zM869 -354h-292v523h292v-523z" />
<glyph unicode="&#x4c0;" horiz-adv-x="713" d="M55 0zM55 1280v176h603v-176l-156 -30v-1045l156 -30v-175h-603v175l156 30v1045z" />
<glyph unicode="&#x4c1;" horiz-adv-x="2150" d="M39 0zM753 596l-220 -410l56 -11v-175h-550v175l145 21l346 595l-185 298q-49 71 -84 97t-77 26q-22 0 -38.5 -3.5t-36.5 -8.5l-43 219q35 23 80.5 37t98.5 14q108 0 174 -47.5t138 -168.5l226 -393h151v389l-156 30v176h447h156v-176l-156 -30v-389h151l222 393 q69 121 135 168.5t175 47.5q52 0 97 -14t83 -37l-41 -219q-21 5 -38 8.5t-37 3.5q-43 0 -78 -26t-82 -97l-186 -302l338 -591l151 -21v-175h-557v175l58 11l-216 410h-175v-391l156 -30v-175h-603v175l156 30v391h-181zM1409 1882l2 -6q5 -127 -88.5 -207.5t-251.5 -80.5 q-159 0 -253 80.5t-88 207.5l2 6h198q0 -58 34 -96t107 -38q71 0 105 37.5t34 96.5h199z" />
<glyph unicode="&#x4c2;" horiz-adv-x="1850" d="M40 0zM654 175l125 30v200h-127l-208 -405h-404v175l148 22l229 383l-126 196q-24 37 -57 59t-63 22q-21 0 -30 -2.5t-36 -9.5l-49 202q39 24 79 38t91 14q100 0 168 -47.5t127 -141.5l144 -240h114v206l-125 30v176h542v-176l-126 -30v-206h117l144 240q58 94 126 141.5 t169 47.5q50 0 90 -14t80 -38l-49 -202q-28 7 -37 9.5t-29 2.5q-31 0 -64 -22t-56 -59l-126 -196l227 -383l149 -22v-175h-404l-207 405h-130v-200l126 -30v-175h-542v175zM1251 1561l2 -6q5 -127 -88.5 -207.5t-251.5 -80.5q-159 0 -253 80.5t-88 207.5l2 6h198 q0 -58 34 -96t107 -38q71 0 105 37.5t34 96.5h199z" />
<glyph unicode="&#x4c3;" horiz-adv-x="1460" d="M68 1280v176h603v-176l-155 -30v-387h102l371 593h384v-176l-167 -26l-304 -429q223 -32 350.5 -179.5t127.5 -398.5q0 -248 -131 -415t-408 -163l-6 2l-1 205q150 0 202 103t52 255q0 184 -80 277.5t-231 93.5h-261v-400l155 -30v-175h-603v175l156 30v1045z" />
<glyph unicode="&#x4c4;" horiz-adv-x="1229" d="M39 175l156 30v671l-156 30v176h595v-176l-148 -30v-206h88l238 412h354v-176l-147 -24l-182 -279q162 -46 253 -158t91 -287q2 -132 -93.5 -264t-277.5 -191l-122 189q99 44 150 108t52 158q0 125 -77 186t-217 61h-110v-200l156 -30v-175h-603v175z" />
<glyph unicode="&#x4c5;" horiz-adv-x="1526" d="M48 0zM615 1231l-4 -438q-5 -424 -123.5 -608.5t-367.5 -184.5h-72v224h39q136 11 182 128.5t50 440.5l5 457l-153 30v176h1145h156v-176l-156 -30v-1045l156 -30v-175h-603v175l156 30v1026h-410zM1749 -11q0 -102 -57.5 -216t-140.5 -187l-144 78q39 70 60 144.5 t21 166.5v218h262z" />
<glyph unicode="&#x4c6;" horiz-adv-x="1334" d="M73 0zM661 175l156 30v651h-260v-235q0 -320 -98.5 -470.5t-335.5 -150.5h-46l-4 230l32 1q100 0 130 82t30 308v255l-156 30v176h999h156v-176l-156 -30v-671l156 -30v-175h-603v175zM1541 -11q0 -102 -57.5 -216t-140.5 -187l-144 78q39 70 60 144.5t21 166.5v218h262z " />
<glyph unicode="&#x4c7;" horiz-adv-x="1583" d="M65 175l155 30v1045l-155 30v176h447h156v-176l-156 -30v-420h594v420l-156 30v176h156h447v-176l-156 -30v-1290q0 -190 -101 -293.5t-281 -103.5q-40 0 -74 4t-70 13l14 221q23 -6 48 -9.5t52 -3.5q57 0 89 45t32 127v645h-594v-400l156 -30v-175h-603v175z" />
<glyph unicode="&#x4c8;" horiz-adv-x="1381" d="M84 175l155 30v671l-155 30v176h447h140v-176l-140 -30v-232h355v232l-140 30v176h433h155v-176l-155 -30v-916q0 -190 -101 -293.5t-281 -103.5q-40 0 -74 4t-70 13l14 221q23 -6 47.5 -9.5t51.5 -3.5q57 0 88.5 44.5t31.5 127.5v460h-355v-215l155 -30v-175h-602v175z " />
<glyph unicode="&#x4c9;" horiz-adv-x="1601" d="M56 0zM56 1280v176h603v-176l-156 -30v-420h594v420l-156 30v176h156h291h156v-176l-156 -30v-1045l156 -30v-175h-603v175l156 30v400h-594v-400l156 -30v-175h-603v175l155 30v1045zM1820 -11q0 -102 -57.5 -216t-140.5 -187l-144 78q39 70 60 144.5t21 166.5v218h262z " />
<glyph unicode="&#x4ca;" horiz-adv-x="1415" d="M85 0zM85 906v176h573v-176l-126 -30v-232h356v232l-125 30v176h125h292h156v-176l-156 -30v-671l156 -30v-175h-573v175l125 30v215h-356v-215l126 -30v-175h-573v175l156 30v671zM1613 -11q0 -102 -57.5 -216t-140.5 -187l-144 78q39 70 60 144.5t21 166.5v218h262z " />
<glyph unicode="&#x4cb;" horiz-adv-x="1553" d="M44 0zM901 175l155 30v356q-67 -16 -149 -24.5t-146 -8.5q-268 0 -414.5 116t-146.5 359v247l-156 30v176h447h156v-176l-156 -30v-247q0 -142 64 -196t206 -54q62 0 145.5 8.5t149.5 24.5v464l-155 30v176h155h292h156v-176l-156 -30v-1045l156 -30v-175h-603v175z M1193 -361h-292v523h292v-523z" />
<glyph unicode="&#x4cc;" horiz-adv-x="1375" d="M49 0zM621 1082v-175l-125 -30v-135q0 -107 47 -148t159 -41q37 0 73.5 4t74.5 12v307l-126 30v176h574v-176l-156 -30v-671l156 -30v-175h-604v175l156 30v138q-37 -8 -75.5 -11.5t-72.5 -3.5q-239 0 -368.5 102t-129.5 312v135l-155 30v175h447h125zM995 -361h-292v523 h292v-523z" />
<glyph unicode="&#x4cd;" horiz-adv-x="1929" d="M56 0zM1461 1077l-6 1l-390 -1078h-196l-388 1074l-6 -1l28 -639v-229l156 -30v-175h-603v175l155 30v1045l-155 30v176h155h381l371 -1073h6l374 1073h538v-176l-156 -30v-1045l156 -30v-175h-603v175l155 30v229zM2158 -11q0 -102 -57.5 -216t-140.5 -187l-144 78 q39 70 60 144.5t21 166.5v218h262z" />
<glyph unicode="&#x4ce;" horiz-adv-x="1764" d="M91 0zM884 340h6l278 742h366h155v-176l-155 -30v-671l155 -30v-175h-557v175l110 30v439l-6 1l-251 -645h-196l-245 633l-6 -1v-427l111 -30v-175h-558v175l156 30v671l-156 30v176h156h361zM1966 -11q0 -102 -57.5 -216t-140.5 -187l-144 78q39 70 60 144.5t21 166.5 v218h262z" />
<glyph unicode="&#x4cf;" horiz-adv-x="713" d="M55 0zM55 1280v176h603v-176l-156 -30v-1045l156 -30v-175h-603v175l156 30v1045z" />
<glyph unicode="&#x4d0;" d="M41 0zM41 175l104 15l443 1266h299l440 -1266l104 -15v-175h-496v175l101 18l-64 200h-472l-64 -200l101 -18v-175h-496v175zM569 608h334l-164 513h-6zM1062 1883l2 -6q5 -127 -88.5 -207.5t-251.5 -80.5q-159 0 -253 80.5t-88 207.5l2 6h198q0 -58 34 -96t107 -38 q71 0 105 37.5t34 96.5h199z" />
<glyph unicode="&#x4d1;" horiz-adv-x="1125" d="M74 0zM752 0q-12 27 -21 55.5t-14 57.5q-52 -60 -126.5 -97t-170.5 -37q-159 0 -252.5 86.5t-93.5 235.5q0 152 122 235t358 83h149v106q0 78 -45 121t-133 43q-50 0 -89 -11.5t-63 -27.5l-19 -116h-220l1 240q80 54 183.5 91t225.5 37q201 0 326.5 -98.5t125.5 -280.5 v-447q0 -25 0.5 -47t3.5 -42l89 -12v-175h-337zM499 195q66 0 120 28.5t84 71.5v165h-149q-93 0 -141 -43.5t-48 -104.5q0 -55 35.5 -86t98.5 -31zM905 1559l2 -6q5 -127 -88.5 -207.5t-251.5 -80.5q-159 0 -253 80.5t-88 207.5l2 6h198q0 -58 34 -96t107 -38q71 0 105 37.5 t34 96.5h199z" />
<glyph unicode="&#x4d2;" d="M41 0zM41 175l104 15l443 1266h299l440 -1266l104 -15v-175h-496v175l101 18l-64 200h-472l-64 -200l101 -18v-175h-496v175zM569 608h334l-164 513h-6zM1101 1601h-267v204h267v-204zM601 1601h-267v204h267v-204z" />
<glyph unicode="&#x4d3;" horiz-adv-x="1125" d="M74 0zM752 0q-12 27 -21 55.5t-14 57.5q-52 -60 -126.5 -97t-170.5 -37q-159 0 -252.5 86.5t-93.5 235.5q0 152 122 235t358 83h149v106q0 78 -45 121t-133 43q-50 0 -89 -11.5t-63 -27.5l-19 -116h-220l1 240q80 54 183.5 91t225.5 37q201 0 326.5 -98.5t125.5 -280.5 v-447q0 -25 0.5 -47t3.5 -42l89 -12v-175h-337zM499 195q66 0 120 28.5t84 71.5v165h-149q-93 0 -141 -43.5t-48 -104.5q0 -55 35.5 -86t98.5 -31zM944 1277h-267v204h267v-204zM444 1277h-267v204h267v-204z" />
<glyph unicode="&#x4d4;" horiz-adv-x="2047" d="M66 0zM66 175l136 20l678 1261h1017v-369h-223l-11 141h-362l16 -366h499v-227h-490l17 -408h381l12 141h222v-368h-1052v175l146 28l-6 151h-430l-83 -165l84 -14v-175h-551v175zM730 582h306l-23 554l-5 1z" />
<glyph unicode="&#x4d5;" horiz-adv-x="1784" d="M73 0zM1273 -21q-129 0 -229.5 40.5t-167.5 116.5q-60 -68 -161.5 -112.5t-240.5 -44.5q-192 0 -296.5 90.5t-104.5 247.5q0 159 127 245t370 86h181v59q0 79 -41 124.5t-115 45.5q-81 0 -127 -37.5t-46 -93.5l-283 18l-2 6q-6 144 121.5 238t339.5 94q102 0 186 -27.5 t143 -79.5q61 52 142.5 79.5t180.5 27.5q212 0 333 -132t121 -358v-158h-650l-2 -6q4 -112 66 -178.5t186 -66.5q92 0 154 20t140 61l77 -184q-62 -48 -169 -84.5t-233 -36.5zM530 185q58 0 121 30.5t100 72.5v176h-179q-98 0 -152.5 -44t-54.5 -107q0 -59 41.5 -93.5 t123.5 -34.5zM1250 877q-95 0 -142 -61.5t-54 -166.5l2 -5h362v28q0 94 -42.5 149.5t-125.5 55.5z" />
<glyph unicode="&#x4d6;" horiz-adv-x="1308" d="M56 0zM996 640h-493v-416h470l13 174h222v-398h-1152v175l155 30v1045l-155 30v176h155h995v-399h-224l-13 174h-466v-366h493v-225zM973 1883l2 -6q5 -127 -88.5 -207.5t-251.5 -80.5q-159 0 -253 80.5t-88 207.5l2 6h198q0 -58 34 -96t107 -38q71 0 105 37.5t34 96.5 h199z" />
<glyph unicode="&#x4d7;" horiz-adv-x="1091" d="M67 0zM581 -21q-234 0 -374 150t-140 381v40q0 241 132.5 397t355.5 155q219 0 340 -132t121 -357v-159h-646l-2 -6q8 -107 71.5 -176t172.5 -69q97 0 161 19.5t140 61.5l79 -180q-67 -53 -173.5 -89t-237.5 -36zM555 877q-81 0 -128 -62t-58 -163l3 -5h358v26 q0 93 -43.5 148.5t-131.5 55.5zM871 1560l2 -6q5 -127 -88.5 -207.5t-251.5 -80.5q-159 0 -253 80.5t-88 207.5l2 6h198q0 -58 34 -96t107 -38q71 0 105 37.5t34 96.5h199z" />
<glyph unicode="&#x4d8;" horiz-adv-x="1400" d="M614 1477q338 0 520 -183.5t182 -486.5v-162q0 -292 -177.5 -479.5t-439.5 -186.5q-305 0 -467.5 181.5t-162.5 499.5v150h948l3 6q3 186 -95 302.5t-311 116.5q-119 0 -213 -19.5t-171 -46.5l-49 225q55 28 166.5 55.5t266.5 27.5zM699 220q143 0 226 102t92 263l-2 5 h-654v-31q0 -154 80.5 -246.5t257.5 -92.5z" />
<glyph unicode="&#x4d9;" horiz-adv-x="1119" d="M92 0zM527 1104q234 0 374 -150.5t140 -381.5v-40q0 -243 -132.5 -397.5t-354.5 -153.5q-221 0 -341.5 131.5t-120.5 356.5v159h646l2 6q-8 106 -71.5 175.5t-172.5 69.5q-98 0 -162 -20t-138 -61l-80 180q66 53 173 89.5t238 36.5zM554 205q80 0 126.5 61.5t58.5 163.5 l-3 5h-357v-26q0 -94 43 -149t132 -55z" />
<glyph unicode="&#x4da;" horiz-adv-x="1400" d="M69 0zM614 1477q338 0 520 -183.5t182 -486.5v-162q0 -292 -177.5 -479.5t-439.5 -186.5q-305 0 -467.5 181.5t-162.5 499.5v150h948l3 6q3 186 -95 302.5t-311 116.5q-119 0 -213 -19.5t-171 -46.5l-49 225q55 28 166.5 55.5t266.5 27.5zM699 220q143 0 226 102t92 263 l-2 5h-654v-31q0 -154 80.5 -246.5t257.5 -92.5zM1040 1561h-267v204h267v-204zM540 1561h-267v204h267v-204z" />
<glyph unicode="&#x4db;" horiz-adv-x="1119" d="M92 0zM527 1104q234 0 374 -150.5t140 -381.5v-40q0 -243 -132.5 -397.5t-354.5 -153.5q-221 0 -341.5 131.5t-120.5 356.5v159h646l2 6q-8 106 -71.5 175.5t-172.5 69.5q-98 0 -162 -20t-138 -61l-80 180q66 53 173 89.5t238 36.5zM554 205q80 0 126.5 61.5t58.5 163.5 l-3 5h-357v-26q0 -94 43 -149t132 -55zM918 1280h-267v204h267v-204zM418 1280h-267v204h267v-204z" />
<glyph unicode="&#x4dc;" horiz-adv-x="2150" d="M39 0zM753 596l-220 -410l56 -11v-175h-550v175l145 21l346 595l-185 298q-49 71 -84 97t-77 26q-22 0 -38.5 -3.5t-36.5 -8.5l-43 219q35 23 80.5 37t98.5 14q108 0 174 -47.5t138 -168.5l226 -393h151v389l-156 30v176h447h156v-176l-156 -30v-389h151l222 393 q69 121 135 168.5t175 47.5q52 0 97 -14t83 -37l-41 -219q-21 5 -38 8.5t-37 3.5q-43 0 -78 -26t-82 -97l-186 -302l338 -591l151 -21v-175h-557v175l58 11l-216 410h-175v-391l156 -30v-175h-603v175l156 30v391h-181zM1448 1600h-267v204h267v-204zM948 1600h-267v204h267 v-204z" />
<glyph unicode="&#x4dd;" horiz-adv-x="1850" d="M40 0zM654 175l125 30v200h-127l-208 -405h-404v175l148 22l229 383l-126 196q-24 37 -57 59t-63 22q-21 0 -30 -2.5t-36 -9.5l-49 202q39 24 79 38t91 14q100 0 168 -47.5t127 -141.5l144 -240h114v206l-125 30v176h542v-176l-126 -30v-206h117l144 240q58 94 126 141.5 t169 47.5q50 0 90 -14t80 -38l-49 -202q-28 7 -37 9.5t-29 2.5q-31 0 -64 -22t-56 -59l-126 -196l227 -383l149 -22v-175h-404l-207 405h-130v-200l126 -30v-175h-542v175zM1290 1279h-267v204h267v-204zM790 1279h-267v204h267v-204z" />
<glyph unicode="&#x4de;" horiz-adv-x="1221" d="M53 0zM608 852q117 0 173 54t56 151q0 85 -66 140t-199 55q-86 0 -151.5 -25.5t-104.5 -67.5l-30 -181h-217v275q85 100 221 162t302 62q248 0 392 -108t144 -308q0 -100 -60 -183t-165 -130q120 -43 184 -129.5t64 -210.5q0 -201 -155 -315t-404 -114q-219 0 -379 107 t-155 312l2 6h284q0 -85 69.5 -143t178.5 -58q123 0 195 58.5t72 149.5q0 115 -63 168.5t-188 53.5h-177v219h177zM983 1600h-267v204h267v-204zM483 1600h-267v204h267v-204z" />
<glyph unicode="&#x4df;" horiz-adv-x="1062" d="M66 0zM530 646q74 0 109 31t35 88q0 52 -33.5 88t-109.5 36q-71 0 -114.5 -32t-43.5 -86h-283l-2 6q-6 145 118 234.5t310 89.5q208 0 328.5 -82t120.5 -233q0 -73 -44 -133.5t-122 -95.5q90 -32 137.5 -95.5t47.5 -155.5q0 -152 -129.5 -239t-338.5 -87 q-185 0 -317.5 86t-126.5 248l1 6h283q0 -56 46 -93t130 -37q81 0 121 39t40 96q0 70 -40 102.5t-123 32.5h-156v186h156zM906 1278h-267v204h267v-204zM406 1278h-267v204h267v-204z" />
<glyph unicode="&#x4e0;" horiz-adv-x="1157" d="M1067 1456l1 -183l-364 -409q189 -31 291.5 -148t102.5 -308q0 -201 -147.5 -315t-384.5 -114q-207 0 -356 107t-144 312l2 6h284q0 -86 58.5 -143.5t155.5 -57.5q111 0 176 58.5t65 149.5q0 143 -70 208t-210 65h-135v182l336 359l-3 6h-369l-11 -144h-223v369h945z" />
<glyph unicode="&#x4e1;" horiz-adv-x="1161" d="M721 851l-2 5h-372l-11 -143h-224v369h953l1 -184l-360 -408q187 -32 288.5 -149.5t101.5 -307.5q0 -199 -147.5 -313.5t-384.5 -114.5q-207 0 -356 107.5t-144 310.5l2 6h284q0 -84 59 -141.5t155 -57.5q111 0 176 58.5t65 147.5q0 143 -70 208.5t-210 65.5h-136v181z " />
<glyph unicode="&#x4e2;" horiz-adv-x="1605" d="M69 0zM672 1456v-176l-156 -30v-674l6 -2l587 595v81l-155 30v176h155h293h155v-176l-155 -30v-1045l155 -30v-175h-603v175l155 30v658l-6 2l-587 -596v-64l156 -30v-175h-603v175l156 30v1045l-156 30v176h156h291h156zM1169 1617h-731v165h731v-165z" />
<glyph unicode="&#x4e3;" horiz-adv-x="1417" d="M85 0zM673 1082v-176l-140 -30v-451l6 -1l352 658h292h155v-176l-155 -30v-671l155 -30v-175h-587v175l140 30v453l-6 1l-352 -659h-448v175l156 30v671l-156 30v176h448h140zM1074 1295h-731v165h731v-165z" />
<glyph unicode="&#x4e4;" horiz-adv-x="1605" d="M69 0zM672 1456v-176l-156 -30v-674l6 -2l587 595v81l-155 30v176h155h293h155v-176l-155 -30v-1045l155 -30v-175h-603v175l155 30v658l-6 2l-587 -596v-64l156 -30v-175h-603v175l156 30v1045l-156 30v176h156h291h156zM1186 1601h-267v204h267v-204zM686 1601h-267 v204h267v-204z" />
<glyph unicode="&#x4e5;" horiz-adv-x="1417" d="M85 0zM673 1082v-176l-140 -30v-451l6 -1l352 658h292h155v-176l-155 -30v-671l155 -30v-175h-587v175l140 30v453l-6 1l-352 -659h-448v175l156 30v671l-156 30v176h448h140zM1091 1279h-267v204h267v-204zM591 1279h-267v204h267v-204z" />
<glyph unicode="&#x4e6;" horiz-adv-x="1448" d="M67 0zM1387 717q0 -320 -183 -529t-479 -209q-295 0 -476.5 209t-181.5 529v22q0 318 181 528t476 210q296 0 479.5 -210t183.5 -528v-22zM1096 741q0 226 -94 367t-278 141t-274.5 -140t-90.5 -368v-24q0 -230 91.5 -370.5t274.5 -140.5q185 0 278 140.5t93 370.5v24z M1097 1600h-267v204h267v-204zM597 1600h-267v204h267v-204z" />
<glyph unicode="&#x4e7;" horiz-adv-x="1148" d="M63 0zM63 551q0 242 135.5 396.5t374.5 154.5q240 0 375.5 -154t135.5 -397v-21q0 -244 -135.5 -397.5t-373.5 -153.5q-241 0 -376.5 153.5t-135.5 397.5v21zM355 530q0 -148 52 -237.5t168 -89.5q113 0 165.5 90t52.5 237v21q0 144 -53 235t-167 91t-166 -91t-52 -235 v-21zM944 1279h-267v204h267v-204zM444 1279h-267v204h267v-204z" />
</font>
</defs>
</svg>
